  0
SECTION
  2
HEADER
  9
$ACADVER
  1
AC1015
  9
$ACADMAINTVER
 70
    11
  9
$DWGCODEPAGE
  3
ANSI_932
  9
$INSBASE
 10
0.0
 20
0.0
 30
0.0
  9
$EXTMIN
 10
95.59107582438899
 20
-9.797401370520169
 30
0.0
  9
$EXTMAX
 10
818.4282412169839
 20
776.9637603738269
 30
0.0
  9
$LIMMIN
 10
0.0
 20
0.0
  9
$LIMMAX
 10
420.0
 20
297.0
  9
$ORTHOMODE
 70
     0
  9
$REGENMODE
 70
     1
  9
$FILLMODE
 70
     1
  9
$QTEXTMODE
 70
     0
  9
$MIRRTEXT
 70
     1
  9
$LTSCALE
 40
1.0
  9
$ATTMODE
 70
     1
  9
$TEXTSIZE
 40
10.0
  9
$TRACEWID
 40
1.0
  9
$TEXTSTYLE
  7
書体１
  9
$CLAYER
  8
0
  9
$CELTYPE
  6
BYLAYER
  9
$CECOLOR
 62
   256
  9
$CELTSCALE
 40
1.0
  9
$DISPSILH
 70
     0
  9
$DIMSCALE
 40
0.0
  9
$DIMASZ
 40
8.0
  9
$DIMEXO
 40
1.5
  9
$DIMDLI
 40
5.0
  9
$DIMRND
 40
0.0
  9
$DIMDLE
 40
0.0
  9
$DIMEXE
 40
1.25
  9
$DIMTP
 40
0.0
  9
$DIMTM
 40
0.0
  9
$DIMTXT
 40
10.0
  9
$DIMCEN
 40
-5.0
  9
$DIMTSZ
 40
0.0
  9
$DIMTOL
 70
     0
  9
$DIMLIM
 70
     0
  9
$DIMTIH
 70
     0
  9
$DIMTOH
 70
     0
  9
$DIMSE1
 70
     0
  9
$DIMSE2
 70
     0
  9
$DIMTAD
 70
     1
  9
$DIMZIN
 70
     8
  9
$DIMBLK
  1

  9
$DIMASO
 70
     1
  9
$DIMSHO
 70
     1
  9
$DIMPOST
  1

  9
$DIMAPOST
  1

  9
$DIMALT
 70
     0
  9
$DIMALTD
 70
     4
  9
$DIMALTF
 40
0.0394
  9
$DIMLFAC
 40
1.0
  9
$DIMTOFL
 70
     1
  9
$DIMTVP
 40
0.0
  9
$DIMTIX
 70
     0
  9
$DIMSOXD
 70
     0
  9
$DIMSAH
 70
     0
  9
$DIMBLK1
  1

  9
$DIMBLK2
  1

  9
$DIMSTYLE
  2
STANDARD
  9
$DIMCLRD
 70
     0
  9
$DIMCLRE
 70
     0
  9
$DIMCLRT
 70
     0
  9
$DIMTFAC
 40
1.0
  9
$DIMGAP
 40
0.5
  9
$DIMJUST
 70
     0
  9
$DIMSD1
 70
     0
  9
$DIMSD2
 70
     0
  9
$DIMTOLJ
 70
     1
  9
$DIMTZIN
 70
     0
  9
$DIMALTZ
 70
     0
  9
$DIMALTTZ
 70
     0
  9
$DIMUPT
 70
     0
  9
$DIMDEC
 70
     3
  9
$DIMTDEC
 70
     3
  9
$DIMALTU
 70
     8
  9
$DIMALTTD
 70
     4
  9
$DIMTXSTY
  7
ＭＳ明朝
  9
$DIMAUNIT
 70
     0
  9
$DIMADEC
 70
     0
  9
$DIMALTRND
 40
0.0
  9
$DIMAZIN
 70
     0
  9
$DIMDSEP
 70
    46
  9
$DIMATFIT
 70
     3
  9
$DIMFRAC
 70
     0
  9
$DIMLDRBLK
  1

  9
$DIMLUNIT
 70
     6
  9
$DIMLWD
 70
    -2
  9
$DIMLWE
 70
    -2
  9
$DIMTMOVE
 70
     0
  9
$LUNITS
 70
     2
  9
$LUPREC
 70
     2
  9
$SKETCHINC
 40
1.0
  9
$FILLETRAD
 40
2.0
  9
$AUNITS
 70
     0
  9
$AUPREC
 70
     0
  9
$MENU
  1
acad
  9
$ELEVATION
 40
0.0
  9
$PELEVATION
 40
0.0
  9
$THICKNESS
 40
0.0
  9
$LIMCHECK
 70
     0
  9
$CHAMFERA
 40
10.0
  9
$CHAMFERB
 40
10.0
  9
$CHAMFERC
 40
20.0
  9
$CHAMFERD
 40
0.0
  9
$SKPOLY
 70
     0
  9
$TDCREATE
 40
2455957.594655949
  9
$TDUCREATE
 40
2455957.219655949
  9
$TDUPDATE
 40
2456029.634062800
  9
$TDUUPDATE
 40
2456029.259062801
  9
$TDINDWG
 40
0.0781762731
  9
$TDUSRTIMER
 40
0.0781762731
  9
$USRTIMER
 70
     1
  9
$ANGBASE
 50
0.0
  9
$ANGDIR
 70
     0
  9
$PDMODE
 70
     0
  9
$PDSIZE
 40
0.0
  9
$PLINEWID
 40
0.0
  9
$SPLFRAME
 70
     0
  9
$SPLINETYPE
 70
     6
  9
$SPLINESEGS
 70
     8
  9
$HANDSEED
  5
15FB
  9
$SURFTAB1
 70
     6
  9
$SURFTAB2
 70
     6
  9
$SURFTYPE
 70
     6
  9
$SURFU
 70
     6
  9
$SURFV
 70
     6
  9
$UCSBASE
  2

  9
$UCSNAME
  2

  9
$UCSORG
 10
0.0
 20
0.0
 30
0.0
  9
$UCSXDIR
 10
1.0
 20
0.0
 30
0.0
  9
$UCSYDIR
 10
0.0
 20
1.0
 30
0.0
  9
$UCSORTHOREF
  2

  9
$UCSORTHOVIEW
 70
     0
  9
$UCSORGTOP
 10
0.0
 20
0.0
 30
0.0
  9
$UCSORGBOTTOM
 10
0.0
 20
0.0
 30
0.0
  9
$UCSORGLEFT
 10
0.0
 20
0.0
 30
0.0
  9
$UCSORGRIGHT
 10
0.0
 20
0.0
 30
0.0
  9
$UCSORGFRONT
 10
0.0
 20
0.0
 30
0.0
  9
$UCSORGBACK
 10
0.0
 20
0.0
 30
0.0
  9
$PUCSBASE
  2

  9
$PUCSNAME
  2

  9
$PUCSORG
 10
0.0
 20
0.0
 30
0.0
  9
$PUCSXDIR
 10
1.0
 20
0.0
 30
0.0
  9
$PUCSYDIR
 10
0.0
 20
1.0
 30
0.0
  9
$PUCSORTHOREF
  2

  9
$PUCSORTHOVIEW
 70
     0
  9
$PUCSORGTOP
 10
0.0
 20
0.0
 30
0.0
  9
$PUCSORGBOTTOM
 10
0.0
 20
0.0
 30
0.0
  9
$PUCSORGLEFT
 10
0.0
 20
0.0
 30
0.0
  9
$PUCSORGRIGHT
 10
0.0
 20
0.0
 30
0.0
  9
$PUCSORGFRONT
 10
0.0
 20
0.0
 30
0.0
  9
$PUCSORGBACK
 10
0.0
 20
0.0
 30
0.0
  9
$USERI1
 70
     0
  9
$USERI2
 70
     0
  9
$USERI3
 70
     0
  9
$USERI4
 70
     0
  9
$USERI5
 70
     0
  9
$USERR1
 40
0.0
  9
$USERR2
 40
0.0
  9
$USERR3
 40
0.0
  9
$USERR4
 40
0.0
  9
$USERR5
 40
0.0
  9
$WORLDVIEW
 70
     1
  9
$SHADEDGE
 70
     3
  9
$SHADEDIF
 70
    70
  9
$TILEMODE
 70
     0
  9
$MAXACTVP
 70
    48
  9
$PINSBASE
 10
0.0
 20
0.0
 30
0.0
  9
$PLIMCHECK
 70
     0
  9
$PEXTMIN
 10
0.0
 20
0.0
 30
0.0
  9
$PEXTMAX
 10
285.0
 20
198.0
 30
0.0
  9
$PLIMMIN
 10
-5.873748779296875
 20
-5.873749732971191
  9
$PLIMMAX
 10
291.05224609375
 20
204.0995779037475
  9
$UNITMODE
 70
     0
  9
$VISRETAIN
 70
     1
  9
$PLINEGEN
 70
     0
  9
$PSLTSCALE
 70
     1
  9
$TREEDEPTH
 70
  3020
  9
$CMLSTYLE
  2
STANDARD
  9
$CMLJUST
 70
     0
  9
$CMLSCALE
 40
20.0
  9
$PROXYGRAPHICS
 70
     1
  9
$MEASUREMENT
 70
     1
  9
$CELWEIGHT
370
    -1
  9
$ENDCAPS
280
     0
  9
$JOINSTYLE
280
     0
  9
$LWDISPLAY
290
     0
  9
$INSUNITS
 70
     0
  9
$HYPERLINKBASE
  1

  9
$STYLESHEET
  1

  9
$XEDIT
290
     1
  9
$CEPSNTYPE
380
     0
  9
$PSTYLEMODE
290
     1
  9
$FINGERPRINTGUID
  2
{778B7AA4-961B-11D4-A809-0000F45A11F6}
  9
$VERSIONGUID
  2
{7E1991F6-3844-4934-BD67-5E326F9C6CB6}
  9
$EXTNAMES
290
     1
  9
$PSVPSCALE
 40
0.0
  9
$OLESTARTUP
290
     0
  0
ENDSEC
  0
SECTION
  2
CLASSES
  0
CLASS
  1
LWPOLYLINE
  2
AcDbPolyline
  3
AutoCAD 2000
 90
    32768
280
     0
281
     1
  0
CLASS
  1
ACDBDICTIONARYWDFLT
  2
AcDbDictionaryWithDefault
  3
AutoCAD 2000
 90
        0
280
     0
281
     0
  0
CLASS
  1
ACDBPLACEHOLDER
  2
AcDbPlaceHolder
  3
AutoCAD 2000
 90
        0
280
     0
281
     0
  0
CLASS
  1
LAYOUT
  2
AcDbLayout
  3
AutoCAD 2000
 90
        0
280
     0
281
     0
  0
ENDSEC
  0
SECTION
  2
TABLES
  0
TABLE
  2
VPORT
  5
8
330
0
100
AcDbSymbolTable
 70
     1
  0
VPORT
  5
15F2
330
8
100
AcDbSymbolTableRecord
100
AcDbViewportTableRecord
  2
*Active
 70
     0
 10
0.0
 20
0.0
 11
1.0
 21
1.0
 12
483.771848268072
 22
484.2348215571727
 13
0.0
 23
0.0
 14
1.0
 24
1.0
 15
10.0
 25
10.0
 16
0.0
 26
0.0
 36
1.0
 17
0.0
 27
0.0
 37
0.0
 40
683.8570211573244
 41
1.561497326203208
 42
50.0
 43
0.0
 44
0.0
 50
0.0
 51
0.0
 71
     0
 72
   100
 73
     1
 74
     1
 75
     0
 76
     0
 77
     0
 78
     0
281
     0
 65
     1
110
0.0
120
0.0
130
0.0
111
1.0
121
0.0
131
0.0
112
0.0
122
1.0
132
0.0
 79
     0
146
0.0
  0
ENDTAB
  0
TABLE
  2
LTYPE
  5
5
330
0
100
AcDbSymbolTable
 70
     4
  0
LTYPE
  5
12
330
5
100
AcDbSymbolTableRecord
100
AcDbLinetypeTableRecord
  2
BYBLOCK
 70
     0
  3

 72
    65
 73
     0
 40
0.0
  0
LTYPE
  5
13
330
5
100
AcDbSymbolTableRecord
100
AcDbLinetypeTableRecord
  2
BYLAYER
 70
     0
  3

 72
    65
 73
     0
 40
0.0
  0
LTYPE
  5
14
330
5
100
AcDbSymbolTableRecord
100
AcDbLinetypeTableRecord
  2
CONTINUOUS
 70
     0
  3
Solid line
 72
    65
 73
     0
 40
0.0
  0
LTYPE
  5
CE2
330
5
100
AcDbSymbolTableRecord
100
AcDbLinetypeTableRecord
  2
CENTER
 70
     0
  3
Center ____ _ ____ _ ____ _ ____ _ ____ _ ____
 72
    65
 73
     4
 40
4.625
 49
3.125
 74
     0
 49
-0.5
 74
     0
 49
0.5
 74
     0
 49
-0.5
 74
     0
  0
LTYPE
  5
CE3
330
5
100
AcDbSymbolTableRecord
100
AcDbLinetypeTableRecord
  2
HIDDEN
 70
     0
  3
Hidden __ __ __ __ __ __ __ __ __ __ __ __ __ _
 72
    65
 73
     2
 40
3.75
 49
2.5
 74
     0
 49
-1.25
 74
     0
  0
LTYPE
  5
CE4
330
5
100
AcDbSymbolTableRecord
100
AcDbLinetypeTableRecord
  2
CENTER2
 70
     0
  3
Center (.5x) ___ _ ___ _ ___ _ ___ _ ___ _ ___
 72
    65
 73
     4
 40
28.57499999999999
 49
19.05
 74
     0
 49
-3.174999999999998
 74
     0
 49
3.174999999999998
 74
     0
 49
-3.174999999999998
 74
     0
  0
ENDTAB
  0
TABLE
  2
LAYER
  5
2
330
0
100
AcDbSymbolTable
 70
     5
  0
LAYER
  5
E
330
2
100
AcDbSymbolTableRecord
100
AcDbLayerTableRecord
  2
0
 70
     0
 62
     4
  6
CONTINUOUS
370
    -3
390
5E0
  0
LAYER
  5
21F
330
2
100
AcDbSymbolTableRecord
100
AcDbLayerTableRecord
  2
DEFPOINTS
 70
     0
 62
     9
  6
CONTINUOUS
290
     0
370
    -3
390
5E0
  0
LAYER
  5
508
330
2
100
AcDbSymbolTableRecord
100
AcDbLayerTableRecord
  2
X ﾋﾞｭｰ
 70
     0
 62
     2
  6
CONTINUOUS
290
     0
370
    35
390
5E0
  0
LAYER
  5
CE5
330
2
100
AcDbSymbolTableRecord
100
AcDbLayerTableRecord
  2
1
 70
     0
 62
     5
  6
CONTINUOUS
370
    30
390
5E0
  0
LAYER
  5
CE6
330
2
100
AcDbSymbolTableRecord
100
AcDbLayerTableRecord
  2
2
 70
     0
 62
     6
  6
CONTINUOUS
370
     9
390
5E0
  0
ENDTAB
  0
TABLE
  2
STYLE
  5
3
330
0
100
AcDbSymbolTable
 70
     6
  0
STYLE
  5
F
330
3
100
AcDbSymbolTableRecord
100
AcDbTextStyleTableRecord
  2
STANDARD
 70
     0
 40
0.0
 41
1.0
 50
0.0
 71
     0
 42
2.5
  3
txt.shx
  4
bigfont.shx
  0
STYLE
  5
4B4
330
3
100
AcDbSymbolTableRecord
100
AcDbTextStyleTableRecord
  2
ＭＳ明朝
 70
     0
 40
0.0
 41
1.0
 50
0.0
 71
     0
 42
2.5
  3
MS Mincho.ttf
  4

1001
ACAD
1000
MS Mincho
1071
    32785
  0
STYLE
  5
66E
330
3
100
AcDbSymbolTableRecord
100
AcDbTextStyleTableRecord
  2
MSｺﾞｼｯｸ
 70
     0
 40
0.0
 41
1.0
 50
0.0
 71
     0
 42
2.5
  3
MS Gothic.ttf
  4

1001
ACAD
1000
MS Gothic
1071
    32817
  0
STYLE
  5
CE7
330
3
100
AcDbSymbolTableRecord
100
AcDbTextStyleTableRecord
  2
ROMANS
 70
     0
 40
0.0
 41
1.0
 50
0.0
 71
     0
 42
4.0
  3
MS PMincho.ttf
  4

1001
ACAD
1000
MS PMincho
1071
    32786
  0
STYLE
  5
CE8
330
3
100
AcDbSymbolTableRecord
100
AcDbTextStyleTableRecord
  2
書体１
 70
     0
 40
0.0
 41
1.0
 50
0.0
 71
     0
 42
10.0
  3
MS PGothic.ttf
  4

1001
ACAD
1000
MS PGothic
1071
    32818
  0
STYLE
  5
CE9
330
3
100
AcDbSymbolTableRecord
100
AcDbTextStyleTableRecord
  2
ＭＳゴシック
 70
     0
 40
0.0
 41
1.0
 50
0.0
 71
     0
 42
2.5
  3
MS Gothic.ttf
  4

1001
ACAD
1000
MS Gothic
1071
    32817
  0
ENDTAB
  0
TABLE
  2
VIEW
  5
6
330
0
100
AcDbSymbolTable
 70
     0
  0
ENDTAB
  0
TABLE
  2
UCS
  5
7
330
0
100
AcDbSymbolTable
 70
     0
  0
ENDTAB
  0
TABLE
  2
APPID
  5
9
330
0
100
AcDbSymbolTable
 70
     5
  0
APPID
  5
10
330
9
100
AcDbSymbolTableRecord
100
AcDbRegAppTableRecord
  2
ACAD
 70
     0
  0
APPID
  5
21
330
9
100
AcDbSymbolTableRecord
100
AcDbRegAppTableRecord
  2
CONTENTTABDATA
 70
     0
  0
APPID
  5
22
330
9
100
AcDbSymbolTableRecord
100
AcDbRegAppTableRecord
  2
CONTENTCURRENTTAB
 70
     0
  0
APPID
  5
137
330
9
100
AcDbSymbolTableRecord
100
AcDbRegAppTableRecord
  2
CONTENTBLOCKDESCRIPTION
 70
     0
  0
APPID
  5
186
330
9
100
AcDbSymbolTableRecord
100
AcDbRegAppTableRecord
  2
CONTENTBLOCKICON
 70
     0
  0
ENDTAB
  0
TABLE
  2
DIMSTYLE
  5
A
330
0
100
AcDbSymbolTable
 70
     1
100
AcDbDimStyleTable
 71
     1
340
1D
  0
DIMSTYLE
105
1D
102
{ACAD_REACTORS
330
109E
330
109F
330
10A0
330
10A9
330
10AB
330
139A
330
139D
330
13A0
330
13AF
330
139F
330
13A2
330
13A4
330
13A5
102
}
330
A
100
AcDbSymbolTableRecord
100
AcDbDimStyleTableRecord
  2
STANDARD
 70
     0
 40
0.0
 41
8.0
 42
1.5
 43
5.0
 44
1.25
 73
     0
 74
     0
 77
     1
 78
     8
140
10.0
141
-5.0
143
0.0394
147
0.5
171
     4
172
     1
271
     3
272
     3
273
     8
274
     4
277
     6
340
4B4
  0
ENDTAB
  0
TABLE
  2
BLOCK_RECORD
  5
1
330
0
100
AcDbSymbolTable
 70
     9
  0
BLOCK_RECORD
  5
18
330
1
100
AcDbSymbolTableRecord
100
AcDbBlockTableRecord
  2
*MODEL_SPACE
340
5E3
  0
BLOCK_RECORD
  5
692
330
1
100
AcDbSymbolTableRecord
100
AcDbBlockTableRecord
  2
*Paper_Space
340
693
  0
BLOCK_RECORD
  5
1444
330
1
100
AcDbSymbolTableRecord
100
AcDbBlockTableRecord
  2
*D0
340
0
  0
BLOCK_RECORD
  5
1450
330
1
100
AcDbSymbolTableRecord
100
AcDbBlockTableRecord
  2
*D1
340
0
  0
BLOCK_RECORD
  5
145C
330
1
100
AcDbSymbolTableRecord
100
AcDbBlockTableRecord
  2
*D2
340
0
  0
BLOCK_RECORD
  5
1468
330
1
100
AcDbSymbolTableRecord
100
AcDbBlockTableRecord
  2
*D3
340
0
  0
BLOCK_RECORD
  5
1474
330
1
100
AcDbSymbolTableRecord
100
AcDbBlockTableRecord
  2
*D4
340
0
  0
BLOCK_RECORD
  5
1480
330
1
100
AcDbSymbolTableRecord
100
AcDbBlockTableRecord
  2
*D5
340
0
  0
BLOCK_RECORD
  5
148C
330
1
100
AcDbSymbolTableRecord
100
AcDbBlockTableRecord
  2
*D6
340
0
  0
BLOCK_RECORD
  5
1498
330
1
100
AcDbSymbolTableRecord
100
AcDbBlockTableRecord
  2
*D7
340
0
  0
BLOCK_RECORD
  5
14A4
330
1
100
AcDbSymbolTableRecord
100
AcDbBlockTableRecord
  2
*D8
340
0
  0
ENDTAB
  0
ENDSEC
  0
SECTION
  2
BLOCKS
  0
BLOCK
  5
19
330
18
100
AcDbEntity
  8
0
100
AcDbBlockBegin
  2
*MODEL_SPACE
 70
     0
 10
0.0
 20
0.0
 30
0.0
  3
*MODEL_SPACE
  1

  0
ENDBLK
  5
1A
330
18
100
AcDbEntity
  8
0
100
AcDbBlockEnd
  0
BLOCK
  5
694
330
692
100
AcDbEntity
 67
     1
  8
0
100
AcDbBlockBegin
  2
*Paper_Space
 70
     0
 10
0.0
 20
0.0
 30
0.0
  3
*Paper_Space
  1

  0
ENDBLK
  5
695
330
692
100
AcDbEntity
 67
     1
  8
0
100
AcDbBlockEnd
  0
BLOCK
  5
144E
330
1444
100
AcDbEntity
  8
0
100
AcDbBlockBegin
  2
*D0
 70
     1
 10
0.0
 20
0.0
 30
0.0
  3
*D0
  1

  0
LINE
  5
1503
330
1444
100
AcDbEntity
  8
2
 62
     0
370
    -2
100
AcDbLine
 10
124.6625043958176
 20
452.0376240101906
 30
0.0
 11
124.6625043958176
 21
397.2876240101906
 31
0.0
  0
LINE
  5
1504
330
1444
100
AcDbEntity
  8
2
 62
     0
370
    -2
100
AcDbLine
 10
386.6625043958176
 20
452.0376240101906
 30
0.0
 11
386.6625043958176
 21
397.2876240101906
 31
0.0
  0
LINE
  5
1505
330
1444
100
AcDbEntity
  8
2
 62
     0
370
    -2
100
AcDbLine
 10
132.6625043958176
 20
398.5376240101905
 30
0.0
 11
378.6625043958177
 21
398.5376240101905
 31
0.0
  0
SOLID
  5
1506
330
1444
100
AcDbEntity
  8
2
 62
     0
100
AcDbTrace
 10
132.6625043958176
 20
399.8709573435239
 30
0.0
 11
132.6625043958176
 21
397.2042906768572
 31
0.0
 12
124.6625043958176
 22
398.5376240101905
 32
0.0
 13
124.6625043958176
 23
398.5376240101905
 33
0.0
  0
SOLID
  5
1507
330
1444
100
AcDbEntity
  8
2
 62
     0
100
AcDbTrace
 10
378.6625043958177
 20
399.8709573435239
 30
0.0
 11
378.6625043958177
 21
397.2042906768572
 31
0.0
 12
386.6625043958176
 22
398.5376240101905
 32
0.0
 13
386.6625043958176
 23
398.5376240101905
 33
0.0
  0
MTEXT
  5
1508
330
1444
100
AcDbEntity
  8
2
 62
     0
100
AcDbMText
 10
255.6625043958177
 20
404.0376240101905
 30
0.0
 40
10.0
 41
0.0
 71
     5
 72
     1
  1
\A1;262
  7
ＭＳ明朝
 73
     1
 44
1.0
  0
POINT
  5
1509
330
1444
100
AcDbEntity
  8
DEFPOINTS
 62
     0
100
AcDbPoint
 10
124.6625043958176
 20
453.5376240101905
 30
0.0
  0
POINT
  5
150A
330
1444
100
AcDbEntity
  8
DEFPOINTS
 62
     0
100
AcDbPoint
 10
386.6625043958176
 20
453.5376240101905
 30
0.0
  0
POINT
  5
150B
330
1444
100
AcDbEntity
  8
DEFPOINTS
 62
     0
100
AcDbPoint
 10
386.6625043958176
 20
398.5376240101905
 30
0.0
  0
ENDBLK
  5
144F
330
1444
100
AcDbEntity
  8
0
100
AcDbBlockEnd
  0
BLOCK
  5
145A
330
1450
100
AcDbEntity
  8
0
100
AcDbBlockBegin
  2
*D1
 70
     1
 10
0.0
 20
0.0
 30
0.0
  3
*D1
  1

  0
LINE
  5
150C
330
1450
100
AcDbEntity
  8
2
 62
     0
370
    -2
100
AcDbLine
 10
244.1625043958176
 20
429.5376240101906
 30
0.0
 11
107.4125043958176
 21
429.5376240101906
 31
0.0
  0
LINE
  5
150D
330
1450
100
AcDbEntity
  8
2
 62
     0
370
    -2
100
AcDbLine
 10
175.1625043958176
 20
653.5376240101905
 30
0.0
 11
107.4125043958176
 21
653.5376240101905
 31
0.0
  0
LINE
  5
150E
330
1450
100
AcDbEntity
  8
2
 62
     0
370
    -2
100
AcDbLine
 10
108.6625043958176
 20
437.5376240101906
 30
0.0
 11
108.6625043958176
 21
645.5376240101905
 31
0.0
  0
SOLID
  5
150F
330
1450
100
AcDbEntity
  8
2
 62
     0
100
AcDbTrace
 10
107.3291710624843
 20
437.5376240101906
 30
0.0
 11
109.9958377291509
 21
437.5376240101906
 31
0.0
 12
108.6625043958176
 22
429.5376240101906
 32
0.0
 13
108.6625043958176
 23
429.5376240101906
 33
0.0
  0
SOLID
  5
1510
330
1450
100
AcDbEntity
  8
2
 62
     0
100
AcDbTrace
 10
107.3291710624843
 20
645.5376240101905
 30
0.0
 11
109.995837729151
 21
645.5376240101905
 31
0.0
 12
108.6625043958176
 22
653.5376240101905
 32
0.0
 13
108.6625043958176
 23
653.5376240101905
 33
0.0
  0
MTEXT
  5
1511
330
1450
100
AcDbEntity
  8
2
 62
     0
100
AcDbMText
 10
103.1625043958175
 20
541.5376240101905
 30
0.0
 40
10.0
 41
0.0
 71
     5
 72
     1
  1
\A1;224
  7
ＭＳ明朝
 11
0.0000000000000001
 21
1.0
 31
0.0
 73
     1
 44
1.0
  0
POINT
  5
1512
330
1450
100
AcDbEntity
  8
DEFPOINTS
 62
     0
100
AcDbPoint
 10
245.6625043958176
 20
429.5376240101906
 30
0.0
  0
POINT
  5
1513
330
1450
100
AcDbEntity
  8
DEFPOINTS
 62
     0
100
AcDbPoint
 10
176.6625043958176
 20
653.5376240101905
 30
0.0
  0
POINT
  5
1514
330
1450
100
AcDbEntity
  8
DEFPOINTS
 62
     0
100
AcDbPoint
 10
108.6625043958176
 20
653.5376240101905
 30
0.0
  0
ENDBLK
  5
145B
330
1450
100
AcDbEntity
  8
0
100
AcDbBlockEnd
  0
BLOCK
  5
1466
330
145C
100
AcDbEntity
  8
0
100
AcDbBlockBegin
  2
*D2
 70
     1
 10
0.0
 20
0.0
 30
0.0
  3
*D2
  1

  0
LINE
  5
1515
330
145C
100
AcDbEntity
  8
2
 62
     0
370
    -2
100
AcDbLine
 10
388.1625043958176
 20
637.5376240101906
 30
0.0
 11
409.9125043958177
 21
637.5376240101906
 31
0.0
  0
LINE
  5
1516
330
145C
100
AcDbEntity
  8
2
 62
     0
370
    -2
100
AcDbLine
 10
388.1625043958176
 20
453.5376240101905
 30
0.0
 11
409.9125043958177
 21
453.5376240101905
 31
0.0
  0
LINE
  5
1517
330
145C
100
AcDbEntity
  8
2
 62
     0
370
    -2
100
AcDbLine
 10
408.6625043958177
 20
629.5376240101906
 30
0.0
 11
408.6625043958177
 21
461.5376240101905
 31
0.0
  0
SOLID
  5
1518
330
145C
100
AcDbEntity
  8
2
 62
     0
100
AcDbTrace
 10
407.3291710624844
 20
629.5376240101906
 30
0.0
 11
409.995837729151
 21
629.5376240101906
 31
0.0
 12
408.6625043958177
 22
637.5376240101906
 32
0.0
 13
408.6625043958177
 23
637.5376240101906
 33
0.0
  0
SOLID
  5
1519
330
145C
100
AcDbEntity
  8
2
 62
     0
100
AcDbTrace
 10
407.3291710624844
 20
461.5376240101905
 30
0.0
 11
409.995837729151
 21
461.5376240101905
 31
0.0
 12
408.6625043958177
 22
453.5376240101905
 32
0.0
 13
408.6625043958177
 23
453.5376240101905
 33
0.0
  0
MTEXT
  5
151A
330
145C
100
AcDbEntity
  8
2
 62
     0
100
AcDbMText
 10
403.1625043958176
 20
554.5376240101906
 30
0.0
 40
10.0
 41
0.0
 71
     5
 72
     1
  1
\A1;184
  7
ＭＳ明朝
 11
0.0000000000000001
 21
1.0
 31
0.0
 73
     1
 44
1.0
  0
POINT
  5
151B
330
145C
100
AcDbEntity
  8
DEFPOINTS
 62
     0
100
AcDbPoint
 10
386.6625043958176
 20
637.5376240101906
 30
0.0
  0
POINT
  5
151C
330
145C
100
AcDbEntity
  8
DEFPOINTS
 62
     0
100
AcDbPoint
 10
386.6625043958176
 20
453.5376240101905
 30
0.0
  0
POINT
  5
151D
330
145C
100
AcDbEntity
  8
DEFPOINTS
 62
     0
100
AcDbPoint
 10
408.6625043958177
 20
453.5376240101905
 30
0.0
  0
ENDBLK
  5
1467
330
145C
100
AcDbEntity
  8
0
100
AcDbBlockEnd
  0
BLOCK
  5
1472
330
1468
100
AcDbEntity
  8
0
100
AcDbBlockBegin
  2
*D3
 70
     1
 10
0.0
 20
0.0
 30
0.0
  3
*D3
  1

  0
LINE
  5
151E
330
1468
100
AcDbEntity
  8
2
 62
     0
370
    -2
100
AcDbLine
 10
344.1625043958174
 20
662.5376240101906
 30
0.0
 11
425.9125043958177
 21
662.5376240101906
 31
0.0
  0
LINE
  5
151F
330
1468
100
AcDbEntity
  8
2
 62
     0
370
    -2
100
AcDbLine
 10
344.4682502190516
 20
439.5376240101906
 30
0.0
 11
425.9125043958177
 21
439.5376240101906
 31
0.0
  0
LINE
  5
1520
330
1468
100
AcDbEntity
  8
2
 62
     0
370
    -2
100
AcDbLine
 10
424.6625043958178
 20
654.5376240101906
 30
0.0
 11
424.6625043958177
 21
447.5376240101907
 31
0.0
  0
SOLID
  5
1521
330
1468
100
AcDbEntity
  8
2
 62
     0
100
AcDbTrace
 10
423.3291710624844
 20
654.5376240101906
 30
0.0
 11
425.9958377291511
 21
654.5376240101906
 31
0.0
 12
424.6625043958178
 22
662.5376240101906
 32
0.0
 13
424.6625043958178
 23
662.5376240101906
 33
0.0
  0
SOLID
  5
1522
330
1468
100
AcDbEntity
  8
2
 62
     0
100
AcDbTrace
 10
423.3291710624844
 20
447.5376240101907
 30
0.0
 11
425.995837729151
 21
447.5376240101907
 31
0.0
 12
424.6625043958177
 22
439.5376240101906
 32
0.0
 13
424.6625043958177
 23
439.5376240101906
 33
0.0
  0
MTEXT
  5
1523
330
1468
100
AcDbEntity
  8
2
 62
     0
100
AcDbMText
 10
419.1625043958176
 20
551.5372543571266
 30
0.0
 40
10.0
 41
0.0
 71
     5
 72
     1
  1
\A1;223
  7
ＭＳ明朝
 11
0.0000000000000001
 21
1.0
 31
0.0
 73
     1
 44
1.0
  0
POINT
  5
1524
330
1468
100
AcDbEntity
  8
DEFPOINTS
 62
     0
100
AcDbPoint
 10
342.6625043958174
 20
662.5376240101906
 30
0.0
  0
POINT
  5
1525
330
1468
100
AcDbEntity
  8
DEFPOINTS
 62
     0
100
AcDbPoint
 10
342.9682502190516
 20
439.5376240101906
 30
0.0
  0
POINT
  5
1526
330
1468
100
AcDbEntity
  8
DEFPOINTS
 62
     0
100
AcDbPoint
 10
424.6625043958177
 20
439.5376240101906
 30
0.0
  0
ENDBLK
  5
1473
330
1468
100
AcDbEntity
  8
0
100
AcDbBlockEnd
  0
BLOCK
  5
147E
330
1474
100
AcDbEntity
  8
0
100
AcDbBlockBegin
  2
*D4
 70
     1
 10
0.0
 20
0.0
 30
0.0
  3
*D4
  1

  0
LINE
  5
1527
330
1474
100
AcDbEntity
  8
2
 62
     0
370
    -2
100
AcDbLine
 10
645.6625043958176
 20
452.0376240101906
 30
0.0
 11
645.6625043958176
 21
397.2876240101906
 31
0.0
  0
LINE
  5
1528
330
1474
100
AcDbEntity
  8
2
 62
     0
370
    -2
100
AcDbLine
 10
505.1625043958177
 20
452.0376240101906
 30
0.0
 11
505.1625043958177
 21
397.2876240101906
 31
0.0
  0
LINE
  5
1529
330
1474
100
AcDbEntity
  8
2
 62
     0
370
    -2
100
AcDbLine
 10
637.6625043958177
 20
398.5376240101905
 30
0.0
 11
513.1625043958177
 21
398.5376240101905
 31
0.0
  0
SOLID
  5
152A
330
1474
100
AcDbEntity
  8
2
 62
     0
100
AcDbTrace
 10
637.6625043958177
 20
399.8709573435239
 30
0.0
 11
637.6625043958177
 21
397.2042906768572
 31
0.0
 12
645.6625043958176
 22
398.5376240101905
 32
0.0
 13
645.6625043958176
 23
398.5376240101905
 33
0.0
  0
SOLID
  5
152B
330
1474
100
AcDbEntity
  8
2
 62
     0
100
AcDbTrace
 10
513.1625043958177
 20
399.8709573435239
 30
0.0
 11
513.1625043958177
 21
397.2042906768572
 31
0.0
 12
505.1625043958177
 22
398.5376240101905
 32
0.0
 13
505.1625043958177
 23
398.5376240101905
 33
0.0
  0
MTEXT
  5
152C
330
1474
100
AcDbEntity
  8
2
 62
     0
100
AcDbMText
 10
575.4125043958176
 20
404.0376240101905
 30
0.0
 40
10.0
 41
0.0
 71
     5
 72
     1
  1
\A1;140.5
  7
ＭＳ明朝
 73
     1
 44
1.0
  0
POINT
  5
152D
330
1474
100
AcDbEntity
  8
DEFPOINTS
 62
     0
100
AcDbPoint
 10
645.6625043958176
 20
453.5376240101905
 30
0.0
  0
POINT
  5
152E
330
1474
100
AcDbEntity
  8
DEFPOINTS
 62
     0
100
AcDbPoint
 10
505.1625043958177
 20
453.5376240101905
 30
0.0
  0
POINT
  5
152F
330
1474
100
AcDbEntity
  8
DEFPOINTS
 62
     0
100
AcDbPoint
 10
505.1625043958177
 20
398.5376240101905
 30
0.0
  0
ENDBLK
  5
147F
330
1474
100
AcDbEntity
  8
0
100
AcDbBlockEnd
  0
BLOCK
  5
148A
330
1480
100
AcDbEntity
  8
0
100
AcDbBlockBegin
  2
*D5
 70
     1
 10
0.0
 20
0.0
 30
0.0
  3
*D5
  1

  0
LINE
  5
1530
330
1480
100
AcDbEntity
  8
2
  6
ByBlock
 62
     0
370
    -2
100
AcDbLine
 10
648.7625043958167
 20
662.5376240101906
 30
0.0
 11
677.9125043958178
 21
662.5376240101906
 31
0.0
  0
LINE
  5
1531
330
1480
100
AcDbEntity
  8
2
  6
ByBlock
 62
     0
370
    -2
100
AcDbLine
 10
648.7625043958167
 20
420.5376240101905
 30
0.0
 11
677.9125043958178
 21
420.5376240101905
 31
0.0
  0
LINE
  5
1532
330
1480
100
AcDbEntity
  8
2
  6
ByBlock
 62
     0
370
    -2
100
AcDbLine
 10
676.6625043958177
 20
654.5376240101906
 30
0.0
 11
676.6625043958177
 21
428.5376240101905
 31
0.0
  0
SOLID
  5
1533
330
1480
100
AcDbEntity
  8
2
  6
ByBlock
 62
     0
100
AcDbTrace
 10
675.3291710624844
 20
654.5376240101906
 30
0.0
 11
677.9958377291511
 21
654.5376240101906
 31
0.0
 12
676.6625043958177
 22
662.5376240101906
 32
0.0
 13
676.6625043958177
 23
662.5376240101906
 33
0.0
  0
SOLID
  5
1534
330
1480
100
AcDbEntity
  8
2
  6
ByBlock
 62
     0
100
AcDbTrace
 10
675.3291710624844
 20
428.5376240101905
 30
0.0
 11
677.9958377291511
 21
428.5376240101905
 31
0.0
 12
676.6625043958177
 22
420.5376240101905
 32
0.0
 13
676.6625043958177
 23
420.5376240101905
 33
0.0
  0
MTEXT
  5
1535
330
1480
100
AcDbEntity
  8
2
  6
ByBlock
 62
     0
100
AcDbMText
 10
671.1625043958177
 20
541.5376240101909
 30
0.0
 40
10.0
 41
0.0
 71
     5
 72
     1
  1
\A1;242
  7
ＭＳ明朝
 11
0.0000000000000001
 21
1.0
 31
0.0
 73
     1
 44
1.0
  0
POINT
  5
1536
330
1480
100
AcDbEntity
  8
DEFPOINTS
  6
ByBlock
 62
     0
100
AcDbPoint
 10
647.2625043958166
 20
662.5376240101906
 30
0.0
  0
POINT
  5
1537
330
1480
100
AcDbEntity
  8
DEFPOINTS
  6
ByBlock
 62
     0
100
AcDbPoint
 10
647.2625043958166
 20
420.5376240101905
 30
0.0
  0
POINT
  5
1538
330
1480
100
AcDbEntity
  8
DEFPOINTS
  6
ByBlock
 62
     0
100
AcDbPoint
 10
676.6625043958177
 20
420.5376240101905
 30
0.0
  0
ENDBLK
  5
148B
330
1480
100
AcDbEntity
  8
0
100
AcDbBlockEnd
  0
BLOCK
  5
1496
330
148C
100
AcDbEntity
  8
0
100
AcDbBlockBegin
  2
*D6
 70
     1
 10
0.0
 20
0.0
 30
0.0
  3
*D6
  1

  0
LINE
  5
15C2
330
148C
100
AcDbEntity
  8
2
  6
ByBlock
 62
     0
370
    -2
100
AcDbLine
 10
175.6625043958176
 20
664.0376240101906
 30
0.0
 11
175.6625043958176
 21
671.8225008443588
 31
0.0
  0
LINE
  5
15C3
330
148C
100
AcDbEntity
  8
2
  6
ByBlock
 62
     0
370
    -2
100
AcDbLine
 10
335.6625043958176
 20
664.0376240101905
 30
0.0
 11
335.6625043958176
 21
671.8225008443588
 31
0.0
  0
LINE
  5
15C4
330
148C
100
AcDbEntity
  8
2
  6
ByBlock
 62
     0
370
    -2
100
AcDbLine
 10
183.6625043958176
 20
670.5725008443588
 30
0.0
 11
327.6625043958176
 21
670.5725008443588
 31
0.0
  0
SOLID
  5
15C5
330
148C
100
AcDbEntity
  8
2
  6
ByBlock
 62
     0
100
AcDbTrace
 10
183.6625043958176
 20
671.9058341776921
 30
0.0
 11
183.6625043958176
 21
669.2391675110254
 31
0.0
 12
175.6625043958176
 22
670.5725008443588
 32
0.0
 13
175.6625043958176
 23
670.5725008443588
 33
0.0
  0
SOLID
  5
15C6
330
148C
100
AcDbEntity
  8
2
  6
ByBlock
 62
     0
100
AcDbTrace
 10
327.6625043958176
 20
671.9058341776921
 30
0.0
 11
327.6625043958176
 21
669.2391675110254
 31
0.0
 12
335.6625043958176
 22
670.5725008443588
 32
0.0
 13
335.6625043958176
 23
670.5725008443588
 33
0.0
  0
MTEXT
  5
15C7
330
148C
100
AcDbEntity
  8
2
  6
ByBlock
 62
     0
100
AcDbMText
 10
255.6625043958177
 20
676.0725008443588
 30
0.0
 40
10.0
 41
0.0
 71
     5
 72
     1
  1
\A1;160
  7
ＭＳ明朝
 73
     1
 44
1.0
  0
POINT
  5
15C8
330
148C
100
AcDbEntity
  8
DEFPOINTS
  6
ByBlock
 62
     0
100
AcDbPoint
 10
175.6625043958176
 20
662.5376240101906
 30
0.0
  0
POINT
  5
15C9
330
148C
100
AcDbEntity
  8
DEFPOINTS
  6
ByBlock
 62
     0
100
AcDbPoint
 10
335.6625043958176
 20
662.5376240101904
 30
0.0
  0
POINT
  5
15CA
330
148C
100
AcDbEntity
  8
DEFPOINTS
  6
ByBlock
 62
     0
100
AcDbPoint
 10
335.6625043958176
 20
670.5725008443588
 30
0.0
  0
ENDBLK
  5
1497
330
148C
100
AcDbEntity
  8
0
100
AcDbBlockEnd
  0
BLOCK
  5
14A2
330
1498
100
AcDbEntity
  8
0
100
AcDbBlockBegin
  2
*D7
 70
     1
 10
0.0
 20
0.0
 30
0.0
  3
*D7
  1

  0
LINE
  5
1542
330
1498
100
AcDbEntity
  8
2
  6
ByBlock
 62
     0
370
    -2
100
AcDbLine
 10
388.1625043958176
 20
637.5376240101906
 30
0.0
 11
409.9433206896703
 21
637.5376240101906
 31
0.0
  0
LINE
  5
1543
330
1498
100
AcDbEntity
  8
2
  6
ByBlock
 62
     0
370
    -2
100
AcDbLine
 10
346.1625043958174
 20
662.5376240101906
 30
0.0
 11
409.9433206896703
 21
662.5376240101906
 31
0.0
  0
LINE
  5
1544
330
1498
100
AcDbEntity
  8
2
  6
ByBlock
 62
     0
370
    -2
100
AcDbLine
 10
408.6933206896703
 20
645.5376240101905
 30
0.0
 11
408.6933206896703
 21
654.5376240101906
 31
0.0
  0
SOLID
  5
1545
330
1498
100
AcDbEntity
  8
2
  6
ByBlock
 62
     0
100
AcDbTrace
 10
407.359987356337
 20
645.5376240101905
 30
0.0
 11
410.0266540230037
 21
645.5376240101905
 31
0.0
 12
408.6933206896703
 22
637.5376240101906
 32
0.0
 13
408.6933206896703
 23
637.5376240101906
 33
0.0
  0
SOLID
  5
1546
330
1498
100
AcDbEntity
  8
2
  6
ByBlock
 62
     0
100
AcDbTrace
 10
407.359987356337
 20
654.5376240101906
 30
0.0
 11
410.0266540230037
 21
654.5376240101906
 31
0.0
 12
408.6933206896703
 22
662.5376240101906
 32
0.0
 13
408.6933206896703
 23
662.5376240101906
 33
0.0
  0
MTEXT
  5
1547
330
1498
100
AcDbEntity
  8
2
  6
ByBlock
 62
     0
100
AcDbMText
 10
403.1933206896702
 20
650.0376240101907
 30
0.0
 40
10.0
 41
0.0
 71
     5
 72
     1
  1
\A1;25
  7
ＭＳ明朝
 11
0.0000000000000001
 21
1.0
 31
0.0
 73
     1
 44
1.0
  0
POINT
  5
1548
330
1498
100
AcDbEntity
  8
DEFPOINTS
  6
ByBlock
 62
     0
100
AcDbPoint
 10
386.6625043958176
 20
637.5376240101906
 30
0.0
  0
POINT
  5
1549
330
1498
100
AcDbEntity
  8
DEFPOINTS
  6
ByBlock
 62
     0
100
AcDbPoint
 10
344.6625043958174
 20
662.5376240101906
 30
0.0
  0
POINT
  5
154A
330
1498
100
AcDbEntity
  8
DEFPOINTS
  6
ByBlock
 62
     0
100
AcDbPoint
 10
408.6933206896703
 20
662.5376240101906
 30
0.0
  0
ENDBLK
  5
14A3
330
1498
100
AcDbEntity
  8
0
100
AcDbBlockEnd
  0
BLOCK
  5
14AF
330
14A4
100
AcDbEntity
  8
0
100
AcDbBlockBegin
  2
*D8
 70
     1
 10
0.0
 20
0.0
 30
0.0
  3
*D8
  1

  0
LINE
  5
154B
330
14A4
100
AcDbEntity
  8
2
  6
ByBlock
 62
     0
370
    -2
100
AcDbLine
 10
491.1625043958176
 20
478.5376240101905
 30
0.0
 11
491.1625043958176
 21
397.2876240101906
 31
0.0
  0
LINE
  5
154C
330
14A4
100
AcDbEntity
  8
2
  6
ByBlock
 62
     0
370
    -2
100
AcDbLine
 10
505.1625043958177
 20
452.0376240101906
 30
0.0
 11
505.1625043958177
 21
397.2876240101906
 31
0.0
  0
LINE
  5
154D
330
14A4
100
AcDbEntity
  8
2
  6
ByBlock
 62
     0
370
    -2
100
AcDbLine
 10
513.1625043958177
 20
398.5376240101905
 30
0.0
 11
521.1625043958177
 21
398.5376240101905
 31
0.0
  0
LINE
  5
154E
330
14A4
100
AcDbEntity
  8
2
  6
ByBlock
 62
     0
370
    -2
100
AcDbLine
 10
483.1625043958176
 20
398.5376240101905
 30
0.0
 11
458.5069666751111
 21
398.5376240101905
 31
0.0
  0
LINE
  5
154F
330
14A4
100
AcDbEntity
  8
2
  6
ByBlock
 62
     0
370
    -2
100
AcDbLine
 10
505.1625043958177
 20
398.5376240101905
 30
0.0
 11
491.1625043958176
 21
398.5376240101905
 31
0.0
  0
SOLID
  5
1550
330
14A4
100
AcDbEntity
  8
2
  6
ByBlock
 62
     0
100
AcDbTrace
 10
513.1625043958177
 20
399.8709573435239
 30
0.0
 11
513.1625043958177
 21
397.2042906768572
 31
0.0
 12
505.1625043958177
 22
398.5376240101905
 32
0.0
 13
505.1625043958177
 23
398.5376240101905
 33
0.0
  0
SOLID
  5
1551
330
14A4
100
AcDbEntity
  8
2
  6
ByBlock
 62
     0
100
AcDbTrace
 10
483.1625043958176
 20
399.8709573435239
 30
0.0
 11
483.1625043958176
 21
397.2042906768572
 31
0.0
 12
491.1625043958176
 22
398.5376240101905
 32
0.0
 13
491.1625043958176
 23
398.5376240101905
 33
0.0
  0
MTEXT
  5
1552
330
14A4
100
AcDbEntity
  8
2
  6
ByBlock
 62
     0
100
AcDbMText
 10
465.2355381036825
 20
404.0376240101905
 30
0.0
 40
10.0
 41
0.0
 71
     5
 72
     1
  1
\A1;14
  7
ＭＳ明朝
 73
     1
 44
1.0
  0
POINT
  5
1553
330
14A4
100
AcDbEntity
  8
DEFPOINTS
  6
ByBlock
 62
     0
100
AcDbPoint
 10
491.1625043958176
 20
480.0376240101906
 30
0.0
  0
POINT
  5
1554
330
14A4
100
AcDbEntity
  8
DEFPOINTS
  6
ByBlock
 62
     0
100
AcDbPoint
 10
505.1625043958177
 20
453.5376240101905
 30
0.0
  0
POINT
  5
1555
330
14A4
100
AcDbEntity
  8
DEFPOINTS
  6
ByBlock
 62
     0
100
AcDbPoint
 10
505.1625043958177
 20
398.5376240101905
 30
0.0
  0
ENDBLK
  5
14B0
330
14A4
100
AcDbEntity
  8
0
100
AcDbBlockEnd
  0
ENDSEC
  0
SECTION
  2
ENTITIES
  0
LWPOLYLINE
  5
109B
330
18
100
AcDbEntity
  8
1
100
AcDbPolyline
 90
        4
 70
     1
 43
0.0
 10
505.1625043958177
 20
637.5376240101906
 10
645.6625043958176
 20
637.5376240101906
 10
645.6625043958176
 20
453.5376240101905
 10
505.1625043958177
 20
453.5376240101905
  0
LWPOLYLINE
  5
109C
330
18
100
AcDbEntity
  8
1
100
AcDbPolyline
 90
        4
 70
     1
 43
0.0
 10
645.6625043958176
 20
617.5376240101906
 10
647.2625043958166
 20
617.5376240101906
 10
647.2625043958166
 20
662.5376240101906
 10
645.6625043958176
 20
662.5376240101906
  0
LWPOLYLINE
  5
109D
330
18
100
AcDbEntity
  8
1
100
AcDbPolyline
 90
        4
 70
     1
 43
0.0
 10
645.6625043958176
 20
420.5376240101905
 10
647.2625043958166
 20
420.5376240101905
 10
647.2625043958166
 20
465.5376240101905
 10
645.6625043958176
 20
465.5376240101905
  0
DIMENSION
  5
109E
330
18
100
AcDbEntity
  8
2
100
AcDbDimension
  2
*D0
 10
386.6625043958176
 20
398.5376240101905
 30
0.0
 11
255.6625043958177
 21
398.5376240101905
 31
0.0
 70
   160
 71
     5
 42
262.0
  3
STANDARD
100
AcDbAlignedDimension
 13
124.6625043958176
 23
453.5376240101905
 33
0.0
 14
386.6625043958176
 24
453.5376240101905
 34
0.0
100
AcDbRotatedDimension
1001
ACAD
1000
DSTYLE
1002
{
1070
    40
1040
1.0
1002
}
  0
DIMENSION
  5
109F
330
18
100
AcDbEntity
  8
2
100
AcDbDimension
  2
*D1
 10
108.6625043958176
 20
653.5376240101905
 30
0.0
 11
103.1625043958175
 21
541.5376240101905
 31
0.0
 70
    32
 71
     5
 42
223.9999999999999
  3
STANDARD
100
AcDbAlignedDimension
 13
245.6625043958176
 23
429.5376240101906
 33
0.0
 14
176.6625043958176
 24
653.5376240101905
 34
0.0
 50
90.0
100
AcDbRotatedDimension
1001
ACAD
1000
DSTYLE
1002
{
1070
    40
1040
1.0
1002
}
  0
DIMENSION
  5
10A0
330
18
100
AcDbEntity
  8
2
100
AcDbDimension
  2
*D2
 10
408.6625043958177
 20
453.5376240101905
 30
0.0
 11
408.6625043958177
 21
554.5376240101906
 31
0.0
 70
   160
 71
     5
 42
184.0
  3
STANDARD
100
AcDbAlignedDimension
 13
386.6625043958176
 23
637.5376240101906
 33
0.0
 14
386.6625043958176
 24
453.5376240101905
 34
0.0
 50
90.0
100
AcDbRotatedDimension
1001
ACAD
1000
DSTYLE
1002
{
1070
    40
1040
1.0
1002
}
  0
ARC
  5
10A1
330
18
100
AcDbEntity
  8
1
100
AcDbCircle
 10
335.6625043958176
 20
653.5376240101905
 30
0.0
 40
2.0
100
AcDbArc
 50
0.0
 51
180.0
  0
ARC
  5
10A2
330
18
100
AcDbEntity
  8
1
100
AcDbCircle
 10
335.6625043958176
 20
647.5376240101906
 30
0.0
 40
4.0
100
AcDbArc
 50
119.9999999999999
 51
60.00000000000007
  0
LINE
  5
10A3
330
18
100
AcDbEntity
  8
1
100
AcDbLine
 10
333.6625043958176
 20
653.5376240101905
 30
0.0
 11
333.6625043958176
 21
651.0017256253283
 31
0.0
  0
LINE
  5
10A4
330
18
100
AcDbEntity
  8
1
100
AcDbLine
 10
337.6625043958176
 20
653.5376240101905
 30
0.0
 11
337.6625043958176
 21
651.0017256253283
 31
0.0
  0
LINE
  5
10A5
330
18
100
AcDbEntity
  8
2
  6
CENTER
100
AcDbLine
 10
335.6625043958176
 20
631.5376240101906
 30
0.0
 11
335.6625043958176
 21
667.5376240101906
 31
0.0
  0
LINE
  5
10A6
330
18
100
AcDbEntity
  8
2
  6
CENTER
100
AcDbLine
 10
341.6625043958176
 20
647.5376240101906
 30
0.0
 11
329.6625043958176
 21
647.5376240101906
 31
0.0
  0
LINE
  5
10A7
330
18
100
AcDbEntity
  8
2
  6
CENTER
100
AcDbLine
 10
341.6625043958176
 20
653.5376240101905
 30
0.0
 11
329.6625043958176
 21
653.5376240101905
 31
0.0
  0
LINE
  5
10A8
330
18
100
AcDbEntity
  8
2
  6
CENTER
100
AcDbLine
 10
175.6625043958176
 20
631.5376240101906
 30
0.0
 11
175.6625043958176
 21
667.5376240101906
 31
0.0
  0
DIMENSION
  5
10A9
330
18
100
AcDbEntity
  8
2
100
AcDbDimension
  2
*D3
 10
424.6625043958177
 20
439.5376240101906
 30
0.0
 11
424.6625043958176
 21
551.5372543571266
 31
0.0
 70
   160
 71
     5
 42
222.9999999999999
  3
STANDARD
100
AcDbAlignedDimension
 13
342.6625043958174
 23
662.5376240101906
 33
0.0
 14
342.9682502190516
 24
439.5376240101906
 34
0.0
 50
90.0
100
AcDbRotatedDimension
1001
ACAD
1000
DSTYLE
1002
{
1070
    40
1040
1.0
1002
}
  0
ARC
  5
10AA
330
18
100
AcDbEntity
  8
1
100
AcDbCircle
 10
124.6154486156306
 20
541.5376240101904
 30
0.0
 40
3.000369018379302
100
AcDbArc
 50
89.10137448852344
 51
270.8986255114765
  0
DIMENSION
  5
10AB
330
18
100
AcDbEntity
  8
2
100
AcDbDimension
  2
*D4
 10
505.1625043958177
 20
398.5376240101905
 30
0.0
 11
575.4125043958176
 21
404.0376240101905
 31
0.0
 70
    32
 71
     5
 42
140.5
  3
STANDARD
100
AcDbAlignedDimension
 13
645.6625043958176
 23
453.5376240101905
 33
0.0
 14
505.1625043958177
 24
453.5376240101905
 34
0.0
100
AcDbRotatedDimension
1001
ACAD
1000
DSTYLE
1002
{
1070
    40
1040
1.0
1002
}
  0
MTEXT
  5
10AC
330
18
100
AcDbEntity
  8
2
100
AcDbMText
 10
406.1625043958176
 20
759.4211467374633
 30
0.0
 40
25.0
 41
483.0
 71
     5
 72
     5
  1
{\fＭＳ Ｐゴシック|b0|i0|c128|p50;キングエース５５寸法図}
  7
書体１
 73
     1
 44
1.0
  0
CIRCLE
  5
10AD
330
18
100
AcDbEntity
  8
1
100
AcDbCircle
 10
339.6625043958176
 20
234.5376240101905
 30
0.0
 40
9.0
  0
MTEXT
  5
10AE
330
18
100
AcDbEntity
  8
2
100
AcDbMText
 10
334.6625043958177
 20
257.5376240101906
 30
0.0
 40
10.0
 41
18.0
 71
     1
 72
     5
  1
0V
  7
MSｺﾞｼｯｸ
 73
     1
 44
1.0
  0
CIRCLE
  5
10AF
330
18
100
AcDbEntity
  8
1
100
AcDbCircle
 10
384.6625043958177
 20
234.5376240101905
 30
0.0
 40
9.0
  0
MTEXT
  5
10B0
330
18
100
AcDbEntity
  8
2
100
AcDbMText
 10
372.6625043958176
 20
257.5376240101906
 30
0.0
 40
10.0
 41
30.0
 71
     1
 72
     5
  1
100V
  7
MSｺﾞｼｯｸ
 73
     1
 44
1.0
  0
MTEXT
  5
10B1
330
18
100
AcDbEntity
  8
2
100
AcDbMText
 10
467.6625043958177
 20
257.5376240101906
 30
0.0
 40
10.0
 41
19.0
 71
     1
 72
     5
  1
黒
  7
MSｺﾞｼｯｸ
 73
     1
 44
1.0
  0
CIRCLE
  5
10B2
330
18
100
AcDbEntity
  8
1
100
AcDbCircle
 10
474.6625043958176
 20
234.5376240101905
 30
0.0
 40
9.0
  0
MTEXT
  5
10B3
330
18
100
AcDbEntity
  8
2
100
AcDbMText
 10
416.6625043958176
 20
257.5376240101906
 30
0.0
 40
10.0
 41
31.0
 71
     1
 72
     5
  1
200V
  7
MSｺﾞｼｯｸ
 73
     1
 44
1.0
  0
CIRCLE
  5
10B4
330
18
100
AcDbEntity
  8
1
100
AcDbCircle
 10
429.6625043958177
 20
234.5376240101905
 30
0.0
 40
9.0
  0
CIRCLE
  5
10B5
330
18
100
AcDbEntity
  8
1
100
AcDbCircle
 10
519.6625043958176
 20
234.5376240101905
 30
0.0
 40
9.0
  0
MTEXT
  5
10B6
330
18
100
AcDbEntity
  8
2
100
AcDbMText
 10
512.6625043958177
 20
257.5376240101906
 30
0.0
 40
10.0
 41
19.0
 71
     1
 72
     5
  1
白
  7
MSｺﾞｼｯｸ
 73
     1
 44
1.0
  0
CIRCLE
  5
10B7
330
18
100
AcDbEntity
  8
1
100
AcDbCircle
 10
564.6625043958176
 20
234.5376240101905
 30
0.0
 40
9.0
  0
MTEXT
  5
10B8
330
18
100
AcDbEntity
  8
2
100
AcDbMText
 10
557.6625043958176
 20
257.5376240101906
 30
0.0
 40
10.0
 41
17.0
 71
     1
 72
     5
  1
赤
  7
MSｺﾞｼｯｸ
 73
     1
 44
1.0
  0
MTEXT
  5
10B9
330
18
100
AcDbEntity
  8
2
100
AcDbMText
 10
602.6625043958176
 20
257.5376240101906
 30
0.0
 40
10.0
 41
17.0
 71
     1
 72
     5
  1
緑
  7
MSｺﾞｼｯｸ
 73
     1
 44
1.0
  0
CIRCLE
  5
10BA
330
18
100
AcDbEntity
  8
1
100
AcDbCircle
 10
609.6625043958177
 20
234.5376240101905
 30
0.0
 40
9.0
  0
LINE
  5
10BB
330
18
100
AcDbEntity
  8
1
100
AcDbLine
 10
339.6625043958176
 20
225.5376240101905
 30
0.0
 11
339.6625043958176
 21
215.5376240101905
 31
0.0
  0
LINE
  5
10BC
330
18
100
AcDbEntity
  8
1
100
AcDbLine
 10
339.6625043958176
 20
215.5376240101905
 30
0.0
 11
302.6625043958176
 21
215.5376240101905
 31
0.0
  0
LINE
  5
10BD
330
18
100
AcDbEntity
  8
1
100
AcDbLine
 10
384.6625043958177
 20
180.5376240101906
 30
0.0
 11
384.6625043958177
 21
225.5376240101905
 31
0.0
  0
LINE
  5
10BE
330
18
100
AcDbEntity
  8
1
100
AcDbLine
 10
429.6625043958177
 20
180.5376240101906
 30
0.0
 11
429.6625043958177
 21
225.5376240101905
 31
0.0
  0
LINE
  5
10BF
330
18
100
AcDbEntity
  8
1
100
AcDbLine
 10
474.6625043958176
 20
200.5376240101905
 30
0.0
 11
609.6625043958177
 21
200.5376240101905
 31
0.0
  0
LINE
  5
10C0
330
18
100
AcDbEntity
  8
1
100
AcDbLine
 10
519.6625043958176
 20
200.5376240101905
 30
0.0
 11
519.6625043958176
 21
225.5376240101905
 31
0.0
  0
LINE
  5
10C1
330
18
100
AcDbEntity
  8
1
100
AcDbLine
 10
474.6625043958176
 20
225.5376240101905
 30
0.0
 11
474.6625043958176
 21
200.5376240101905
 31
0.0
  0
LINE
  5
10C2
330
18
100
AcDbEntity
  8
1
100
AcDbLine
 10
564.6625043958176
 20
225.5376240101905
 30
0.0
 11
564.6625043958176
 21
200.5376240101905
 31
0.0
  0
LINE
  5
10C3
330
18
100
AcDbEntity
  8
1
100
AcDbLine
 10
609.6625043958177
 20
200.5376240101905
 30
0.0
 11
609.6625043958177
 21
225.5376240101905
 31
0.0
  0
LINE
  5
10C4
330
18
100
AcDbEntity
  8
1
  6
ByBlock
100
AcDbLine
 10
542.6625043958177
 20
200.5376240101905
 30
0.0
 11
542.6625043958177
 21
189.5376240101906
 31
0.0
  0
CIRCLE
  5
10C5
330
18
100
AcDbEntity
  8
1
100
AcDbCircle
 10
609.6625043958177
 20
46.5376240101906
 30
0.0
 40
9.0
  0
MTEXT
  5
10C6
330
18
100
AcDbEntity
  8
2
100
AcDbMText
 10
602.6625043958176
 20
35.5376240101906
 30
0.0
 40
10.0
 41
17.0
 71
     1
 72
     5
  1
L{\H0.6875x;2}
  7
MSｺﾞｼｯｸ
 73
     1
 44
1.0
  0
MTEXT
  5
10C7
330
18
100
AcDbEntity
  8
2
100
AcDbMText
 10
557.6625043958176
 20
35.5376240101906
 30
0.0
 40
10.0
 41
17.0
 71
     1
 72
     5
  1
C{\H0.6875x;2}
  7
MSｺﾞｼｯｸ
 73
     1
 44
1.0
  0
CIRCLE
  5
10C8
330
18
100
AcDbEntity
  8
1
100
AcDbCircle
 10
564.6625043958176
 20
46.5376240101906
 30
0.0
 40
9.0
  0
CIRCLE
  5
10C9
330
18
100
AcDbEntity
  8
1
100
AcDbCircle
 10
519.6625043958176
 20
46.5376240101906
 30
0.0
 40
9.0
  0
CIRCLE
  5
10CA
330
18
100
AcDbEntity
  8
1
100
AcDbCircle
 10
429.6625043958177
 20
46.5376240101906
 30
0.0
 40
9.0
  0
MTEXT
  5
10CB
330
18
100
AcDbEntity
  8
2
100
AcDbMText
 10
424.6625043958176
 20
35.5376240101906
 30
0.0
 40
10.0
 41
14.0
 71
     1
 72
     5
  1
H{\H0.6875x;1}
  7
MSｺﾞｼｯｸ
 73
     1
 44
1.0
  0
CIRCLE
  5
10CC
330
18
100
AcDbEntity
  8
1
100
AcDbCircle
 10
474.6625043958176
 20
46.5376240101906
 30
0.0
 40
9.0
  0
MTEXT
  5
10CD
330
18
100
AcDbEntity
  8
2
100
AcDbMText
 10
482.6625043958176
 20
35.5376240101906
 30
0.0
 40
10.0
 41
29.0
 71
     1
 72
     5
  1
警報
  7
MSｺﾞｼｯｸ
 73
     1
 44
1.0
  0
MTEXT
  5
10CE
330
18
100
AcDbEntity
  8
2
100
AcDbMText
 10
379.6625043958176
 20
35.5376240101906
 30
0.0
 40
10.0
 41
14.0
 71
     1
 72
     5
  1
L{\H0.6875x;1}
  7
MSｺﾞｼｯｸ
 73
     1
 44
1.0
  0
CIRCLE
  5
10CF
330
18
100
AcDbEntity
  8
1
100
AcDbCircle
 10
384.6625043958177
 20
46.5376240101906
 30
0.0
 40
9.0
  0
MTEXT
  5
10D0
330
18
100
AcDbEntity
  8
2
100
AcDbMText
 10
334.6625043958177
 20
35.5376240101906
 30
0.0
 40
10.0
 41
18.0
 71
     1
 72
     5
  1
C{\H0.7x;1}
  7
MSｺﾞｼｯｸ
 73
     1
 44
1.0
  0
CIRCLE
  5
10D1
330
18
100
AcDbEntity
  8
1
100
AcDbCircle
 10
339.6625043958176
 20
46.5376240101906
 30
0.0
 40
9.0
  0
MTEXT
  5
10D2
330
18
100
AcDbEntity
  8
2
100
AcDbMText
 10
244.6625043958176
 20
340.5376240101905
 30
0.0
 40
25.0
 41
401.0
 71
     1
 72
     5
  1
{\fＭＳ Ｐゴシック|b0|i0|c128|p50;キングエース５５接続図}
  7
MSｺﾞｼｯｸ
 73
     1
 44
1.0
  0
LWPOLYLINE
  5
10D3
330
18
100
AcDbEntity
  8
1
  6
ByBlock
100
AcDbPolyline
 90
        4
 70
     1
 43
0.0
 10
314.6625043958176
 20
574.5376240101905
 10
369.6625043958176
 20
574.5376240101905
 10
369.6625043958176
 20
524.5376240101905
 10
314.6625043958176
 20
524.5376240101905
  0
LWPOLYLINE
  5
10D4
330
18
100
AcDbEntity
  8
1
  6
ByBlock
100
AcDbPolyline
 90
        8
 70
     1
 43
0.0
 10
314.6625043958176
 20
509.5376240101906
 10
368.6625043958176
 20
509.5376240101906
 42
-0.4142135623730951
 10
371.6625043958176
 20
506.5376240101906
 10
371.6625043958176
 20
484.5376240101906
 42
-0.4142135623730951
 10
368.6625043958176
 20
481.5376240101906
 10
314.6625043958176
 20
481.5376240101906
 42
-0.4142135623730951
 10
311.6625043958176
 20
484.5376240101906
 10
311.6625043958176
 20
506.5376240101906
 42
-0.4142135623730951
  0
LINE
  5
10D5
330
18
100
AcDbEntity
  8
1
  6
ByBlock
100
AcDbLine
 10
314.6625043958176
 20
544.5376240101905
 30
0.0
 11
369.6625043958176
 21
544.5376240101905
 31
0.0
  0
ARC
  5
10D6
330
18
100
AcDbEntity
  8
1
370
     0
100
AcDbCircle
 10
183.9961542577718
 20
626.6425824550179
 30
0.0
 40
17.0894832736882
100
AcDbArc
 50
220.9798641157503
 51
247.0201358842476
  0
LINE
  5
10D7
330
18
100
AcDbEntity
  8
1
  6
ByBlock
100
AcDbLine
 10
157.7910288568364
 20
599.3142733391098
 30
0.0
 11
153.4609018379142
 21
596.8142733391098
 31
0.0
  0
LINE
  5
10D8
330
18
100
AcDbEntity
  8
1
  6
ByBlock
100
AcDbLine
 10
157.1944954285183
 20
600.485036112412
 30
0.0
 11
154.9593225311787
 21
599.489873021892
 31
0.0
  0
LINE
  5
10D9
330
18
100
AcDbEntity
  8
1
  6
ByBlock
100
AcDbLine
 10
156.7236079062811
 20
601.7117400472927
 30
0.0
 11
154.3966566513902
 21
600.955667752405
 31
0.0
  0
LINE
  5
10DA
330
18
100
AcDbEntity
  8
1
  6
ByBlock
100
AcDbLine
 10
156.383525432358
 20
602.9809451187375
 30
0.0
 11
153.9902903848105
 21
602.4722473057626
 31
0.0
  0
LINE
  5
10DB
330
18
100
AcDbEntity
  8
1
  6
ByBlock
100
AcDbLine
 10
156.1779740215001
 20
604.2787456503853
 30
0.0
 11
153.7446759652934
 21
604.0229957190144
 31
0.0
  0
LINE
  5
10DC
330
18
100
AcDbEntity
  8
1
  6
ByBlock
100
AcDbLine
 10
156.1092057379792
 20
605.5909226680292
 30
0.0
 11
151.1092057379792
 21
605.5909226680292
 31
0.0
  0
LINE
  5
10DD
330
18
100
AcDbEntity
  8
1
  6
ByBlock
100
AcDbLine
 10
156.1779740215001
 20
606.9030996856729
 30
0.0
 11
153.7446759652934
 21
607.158849617044
 31
0.0
  0
LINE
  5
10DE
330
18
100
AcDbEntity
  8
1
  6
ByBlock
100
AcDbLine
 10
156.3835254323578
 20
608.2009002173206
 30
0.0
 11
153.9902903848105
 21
608.7095980302954
 31
0.0
  0
LINE
  5
10DF
330
18
100
AcDbEntity
  8
1
  6
ByBlock
100
AcDbLine
 10
156.7236079062815
 20
609.4701052887653
 30
0.0
 11
154.3966566513904
 21
610.2261775836533
 31
0.0
  0
LINE
  5
10E0
330
18
100
AcDbEntity
  8
1
  6
ByBlock
100
AcDbLine
 10
157.1944954285186
 20
610.6968092236463
 30
0.0
 11
154.9593225311787
 21
611.6919723141664
 31
0.0
  0
LINE
  5
10E1
330
18
100
AcDbEntity
  8
1
  6
ByBlock
100
AcDbLine
 10
157.7910288568366
 20
611.8675719969482
 30
0.0
 11
153.4609018379144
 21
614.3675719969483
 31
0.0
  0
LINE
  5
10E2
330
18
100
AcDbEntity
  8
1
  6
ByBlock
100
AcDbLine
 10
158.5066724461621
 20
612.9695664867295
 30
0.0
 11
156.5272494801934
 21
614.4077014524163
 31
0.0
  0
LINE
  5
10E3
330
18
100
AcDbEntity
  8
1
  6
ByBlock
100
AcDbLine
 10
159.333585455573
 20
613.9907190107525
 30
0.0
 11
157.5153320136569
 21
615.6278817634123
 31
0.0
  0
LINE
  5
10E4
330
18
100
AcDbEntity
  8
1
  6
ByBlock
100
AcDbLine
 10
160.2627080530944
 20
614.9198416082741
 30
0.0
 11
158.6255453004348
 21
616.7380950501901
 31
0.0
  0
LINE
  5
10E5
330
18
100
AcDbEntity
  8
1
  6
ByBlock
100
AcDbLine
 10
161.2838605771171
 20
615.7467546176847
 30
0.0
 11
159.8457256114304
 21
617.7261775836532
 31
0.0
  0
LINE
  5
10E6
330
18
100
AcDbEntity
  8
1
  6
ByBlock
100
AcDbLine
 10
162.3858550668985
 20
616.4623982070103
 30
0.0
 11
159.8858550668985
 21
620.7925252259325
 31
0.0
  0
LINE
  5
10E7
330
18
100
AcDbEntity
  8
1
  6
ByBlock
100
AcDbLine
 10
163.5566178402007
 20
617.0589316353284
 30
0.0
 11
162.5614547496807
 21
619.2941045326683
 31
0.0
  0
LINE
  5
10E8
330
18
100
AcDbEntity
  8
1
  6
ByBlock
100
AcDbLine
 10
164.7833217750812
 20
617.5298191575656
 30
0.0
 11
164.0272494801934
 21
619.8567704124565
 31
0.0
  0
LINE
  5
10E9
330
18
100
AcDbEntity
  8
1
  6
ByBlock
100
AcDbLine
 10
166.052526846526
 20
617.8699016314888
 30
0.0
 11
165.5438290335512
 21
620.2631366790361
 31
0.0
  0
LINE
  5
10EA
330
18
100
AcDbEntity
  8
1
  6
ByBlock
100
AcDbLine
 10
167.3503273781739
 20
618.0754530423467
 30
0.0
 11
167.0945774468029
 21
620.5087510985532
 31
0.0
  0
LINE
  5
10EB
330
18
100
AcDbEntity
  8
1
  6
ByBlock
100
AcDbLine
 10
168.6625043958174
 20
618.1442213258675
 30
0.0
 11
168.6625043958174
 21
623.1442213258675
 31
0.0
  0
LINE
  5
10EC
330
18
100
AcDbEntity
  8
1
  6
ByBlock
100
AcDbLine
 10
169.9746814134614
 20
618.0754530423468
 30
0.0
 11
170.2304313448325
 21
620.5087510985532
 31
0.0
  0
LINE
  5
10ED
330
18
100
AcDbEntity
  8
1
  6
ByBlock
100
AcDbLine
 10
171.2724819451091
 20
617.8699016314887
 30
0.0
 11
171.7811797580839
 21
620.2631366790362
 31
0.0
  0
LINE
  5
10EE
330
18
100
AcDbEntity
  8
1
  6
ByBlock
100
AcDbLine
 10
172.541687016554
 20
617.5298191575656
 30
0.0
 11
173.2977593114419
 21
619.8567704124565
 31
0.0
  0
LINE
  5
10EF
330
18
100
AcDbEntity
  8
1
  6
ByBlock
100
AcDbLine
 10
173.7683909514348
 20
617.0589316353284
 30
0.0
 11
174.7635540419548
 21
619.2941045326681
 31
0.0
  0
LINE
  5
10F0
330
18
100
AcDbEntity
  8
1
  6
ByBlock
100
AcDbLine
 10
174.939153724737
 20
616.4623982070104
 30
0.0
 11
177.439153724737
 21
620.7925252259326
 31
0.0
  0
LINE
  5
10F1
330
18
100
AcDbEntity
  8
1
  6
ByBlock
100
AcDbLine
 10
176.0411482145177
 20
615.7467546176847
 30
0.0
 11
177.4792831802044
 21
617.7261775836536
 31
0.0
  0
LINE
  5
10F2
330
18
100
AcDbEntity
  8
1
  6
ByBlock
100
AcDbLine
 10
177.0623007385413
 20
614.9198416082742
 30
0.0
 11
178.6994634912007
 21
616.7380950501899
 31
0.0
  0
LINE
  5
10F3
330
18
100
AcDbEntity
  8
1
  6
ByBlock
100
AcDbLine
 10
177.9914233360625
 20
613.9907190107524
 30
0.0
 11
179.8096767779786
 21
615.6278817634121
 31
0.0
  0
LINE
  5
10F4
330
18
100
AcDbEntity
  8
1
  6
ByBlock
100
AcDbLine
 10
178.8183363454734
 20
612.9695664867295
 30
0.0
 11
180.7977593114419
 21
614.4077014524161
 31
0.0
  0
LINE
  5
10F5
330
18
100
AcDbEntity
  8
1
  6
ByBlock
100
AcDbLine
 10
179.5339799347989
 20
611.8675719969485
 30
0.0
 11
183.8641069537211
 21
614.3675719969485
 31
0.0
  0
LINE
  5
10F6
330
18
100
AcDbEntity
  8
1
  6
ByBlock
100
AcDbLine
 10
180.1305133631169
 20
610.6968092236463
 30
0.0
 11
182.3656862604566
 21
611.6919723141661
 31
0.0
  0
LINE
  5
10F7
330
18
100
AcDbEntity
  8
1
  6
ByBlock
100
AcDbLine
 10
180.6014008853542
 20
609.4701052887655
 30
0.0
 11
182.9283521402448
 21
610.2261775836535
 31
0.0
  0
LINE
  5
10F8
330
18
100
AcDbEntity
  8
1
  6
ByBlock
100
AcDbLine
 10
180.9414833592773
 20
608.2009002173206
 30
0.0
 11
183.3347184068247
 21
608.7095980302954
 31
0.0
  0
LINE
  5
10F9
330
18
100
AcDbEntity
  8
1
  6
ByBlock
100
AcDbLine
 10
181.1470347701351
 20
606.9030996856729
 30
0.0
 11
183.5803328263418
 21
607.158849617044
 31
0.0
  0
LINE
  5
10FA
330
18
100
AcDbEntity
  8
1
  6
ByBlock
100
AcDbLine
 10
181.2158030536563
 20
605.5909226680292
 30
0.0
 11
186.2158030536563
 21
605.5909226680292
 31
0.0
  0
LINE
  5
10FB
330
18
100
AcDbEntity
  8
1
  6
ByBlock
100
AcDbLine
 10
181.1470347701351
 20
604.2787456503853
 30
0.0
 11
183.5803328263418
 21
604.0229957190144
 31
0.0
  0
LINE
  5
10FC
330
18
100
AcDbEntity
  8
1
  6
ByBlock
100
AcDbLine
 10
180.9414833592773
 20
602.9809451187377
 30
0.0
 11
183.3347184068247
 21
602.4722473057628
 31
0.0
  0
LINE
  5
10FD
330
18
100
AcDbEntity
  8
1
  6
ByBlock
100
AcDbLine
 10
180.6014008853539
 20
601.7117400472927
 30
0.0
 11
182.9283521402448
 21
600.9556677524048
 31
0.0
  0
LINE
  5
10FE
330
18
100
AcDbEntity
  8
1
  6
ByBlock
100
AcDbLine
 10
180.1305133631169
 20
600.485036112412
 30
0.0
 11
182.3656862604566
 21
599.489873021892
 31
0.0
  0
LINE
  5
10FF
330
18
100
AcDbEntity
  8
1
  6
ByBlock
100
AcDbLine
 10
179.5339799347989
 20
599.31427333911
 30
0.0
 11
183.8641069537211
 21
596.8142733391101
 31
0.0
  0
ARC
  5
1105
330
18
100
AcDbEntity
  8
1
370
     0
100
AcDbCircle
 10
170.339677994265
 20
614.7796122884316
 30
0.0
 40
1.0
100
AcDbArc
 50
40.97986411575033
 51
118.4487073128221
  0
ARC
  5
1106
330
18
100
AcDbEntity
  8
1
370
     0
100
AcDbCircle
 10
162.4825276338667
 20
612.6111765714019
 30
0.0
 40
1.0
100
AcDbArc
 50
92.40843554431618
 51
169.8772787413923
  0
ARC
  5
1107
330
18
100
AcDbEntity
  8
1
370
     0
100
AcDbCircle
 10
159.27902582377
 20
605.1162115016035
 30
0.0
 40
1.0
100
AcDbArc
 50
143.8370069728881
 51
221.3058501699594
  0
ARC
  5
1108
330
18
100
AcDbEntity
  8
1
370
     0
100
AcDbCircle
 10
163.1414747665053
 20
597.9385786460197
 30
0.0
 40
1.0
100
AcDbArc
 50
195.2655784014606
 51
272.7344215985282
  0
ARC
  5
1109
330
18
100
AcDbEntity
  8
1
370
     0
100
AcDbCircle
 10
171.161371628593
 20
596.4831819419327
 30
0.0
 40
1.0
100
AcDbArc
 50
246.694149830036
 51
324.1629930271186
  0
ARC
  5
110A
330
18
100
AcDbEntity
  8
1
370
     0
100
AcDbCircle
 10
177.2995704967995
 20
601.8459647922029
 30
0.0
 40
1.0
100
AcDbArc
 50
298.1227212585987
 51
15.59156445567352
  0
ARC
  5
110B
330
18
100
AcDbEntity
  8
1
370
     0
100
AcDbCircle
 10
176.9338824269261
 20
609.9886423297416
 30
0.0
 40
1.0
100
AcDbArc
 50
349.5512926871804
 51
67.02013588424759
  0
ARC
  5
110C
330
18
100
AcDbEntity
  8
1
370
     0
100
AcDbCircle
 10
144.674633234277
 20
615.7905321919803
 30
0.0
 40
17.0894832736882
100
AcDbArc
 50
323.8370069728881
 51
349.8772787413922
  0
ARC
  5
110D
330
18
100
AcDbEntity
  8
1
370
     0
100
AcDbCircle
 10
161.7223577616732
 20
630.6846805724099
 30
0.0
 40
17.0894832736882
100
AcDbArc
 50
272.4084355443161
 51
298.4487073128221
  0
ARC
  5
110E
330
18
100
AcDbEntity
  8
1
370
     0
100
AcDbCircle
 10
194.7233996583647
 20
606.7080201659758
 30
0.0
 40
17.0894832736882
100
AcDbArc
 50
169.5512926871803
 51
195.5915644556734
  0
ARC
  5
110F
330
18
100
AcDbEntity
  8
1
370
     0
100
AcDbCircle
 10
185.8262593808767
 20
585.8921256998967
 30
0.0
 40
17.0894832736882
100
AcDbArc
 50
118.1227212585987
 51
144.1629930270991
  0
ARC
  5
1110
330
18
100
AcDbEntity
  8
1
370
     0
100
AcDbCircle
 10
164.0044615228432
 20
579.8696921566028
 30
0.0
 40
17.0894832736882
100
AcDbArc
 50
66.69414983003605
 51
92.73442159852832
  0
ARC
  5
1111
330
18
100
AcDbEntity
  8
1
370
     0
100
AcDbCircle
 10
145.6902649549188
 20
593.1757348294508
 30
0.0
 40
17.0894832736882
100
AcDbArc
 50
15.26557840146063
 51
41.3058501699582
  0
CIRCLE
  5
1112
330
18
100
AcDbEntity
  8
1
370
     0
100
AcDbCircle
 10
168.6625043958176
 20
605.5376240101907
 30
0.0
 40
12.5
  0
ARC
  5
1114
330
18
100
AcDbEntity
  8
1
370
     0
100
AcDbCircle
 10
180.1627417922834
 20
521.3663428438109
 30
0.0
 40
12.81711245526615
100
AcDbArc
 50
220.9798641157503
 51
247.0201358842476
  0
LINE
  5
1115
330
18
100
AcDbEntity
  8
1
  6
ByBlock
100
AcDbLine
 10
160.5088977415816
 20
500.8701110068799
 30
0.0
 11
157.26130247739
 21
498.9951110068799
 31
0.0
  0
LINE
  5
1116
330
18
100
AcDbEntity
  8
1
  6
ByBlock
100
AcDbLine
 10
160.0614976703432
 20
501.7481830868566
 30
0.0
 11
158.3851179973385
 21
501.0018107689667
 31
0.0
  0
LINE
  5
1117
330
18
100
AcDbEntity
  8
1
  6
ByBlock
100
AcDbLine
 10
159.7083320286653
 20
502.6682110380171
 30
0.0
 11
157.963118587497
 21
502.1011568168513
 31
0.0
  0
LINE
  5
1118
330
18
100
AcDbEntity
  8
1
  6
ByBlock
100
AcDbLine
 10
159.453270173223
 20
503.6201148416006
 30
0.0
 11
157.6583438875623
 21
503.2385914818696
 31
0.0
  0
LINE
  5
1119
330
18
100
AcDbEntity
  8
1
  6
ByBlock
100
AcDbLine
 10
159.2991066150796
 20
504.5934652403366
 30
0.0
 11
157.4741330729245
 21
504.4016527918085
 31
0.0
  0
LINE
  5
111A
330
18
100
AcDbEntity
  8
1
  6
ByBlock
100
AcDbLine
 10
159.2475304024387
 20
505.5775980035694
 30
0.0
 11
155.4975304024387
 21
505.5775980035694
 31
0.0
  0
LINE
  5
111B
330
18
100
AcDbEntity
  8
1
  6
ByBlock
100
AcDbLine
 10
159.2991066150796
 20
506.5617307668023
 30
0.0
 11
157.4741330729245
 21
506.7535432153306
 31
0.0
  0
LINE
  5
111C
330
18
100
AcDbEntity
  8
1
  6
ByBlock
100
AcDbLine
 10
159.4532701732227
 20
507.535081165538
 30
0.0
 11
157.6583438875623
 21
507.9166045252691
 31
0.0
  0
LINE
  5
111D
330
18
100
AcDbEntity
  8
1
  6
ByBlock
100
AcDbLine
 10
159.7083320286656
 20
508.4869849691216
 30
0.0
 11
157.9631185874973
 21
509.0540391902875
 31
0.0
  0
LINE
  5
111E
330
18
100
AcDbEntity
  8
1
  6
ByBlock
100
AcDbLine
 10
160.0614976703434
 20
509.4070129202823
 30
0.0
 11
158.3851179973385
 21
510.1533852381723
 31
0.0
  0
LINE
  5
111F
330
18
100
AcDbEntity
  8
1
  6
ByBlock
100
AcDbLine
 10
160.5088977415818
 20
510.2850850002588
 30
0.0
 11
157.2613024773902
 21
512.1600850002588
 31
0.0
  0
LINE
  5
1120
330
18
100
AcDbEntity
  8
1
  6
ByBlock
100
AcDbLine
 10
161.0456304335759
 20
511.1115808675946
 30
0.0
 11
159.5610632090995
 21
512.1901820918597
 31
0.0
  0
LINE
  5
1121
330
18
100
AcDbEntity
  8
1
  6
ByBlock
100
AcDbLine
 10
161.6658151906342
 20
511.8774452606118
 30
0.0
 11
160.302125109197
 21
513.1053173251067
 31
0.0
  0
LINE
  5
1122
330
18
100
AcDbEntity
  8
1
  6
ByBlock
100
AcDbLine
 10
162.3626571387751
 20
512.5742872087531
 30
0.0
 11
161.1347850742806
 21
513.9379772901901
 31
0.0
  0
LINE
  5
1123
330
18
100
AcDbEntity
  8
1
  6
ByBlock
100
AcDbLine
 10
163.1285215317923
 20
513.194471965811
 30
0.0
 11
162.0499203075271
 21
514.6790391902874
 31
0.0
  0
LINE
  5
1124
330
18
100
AcDbEntity
  8
1
  6
ByBlock
100
AcDbLine
 10
163.9550173991283
 20
513.7312046578053
 30
0.0
 11
162.0800173991283
 21
516.978799921997
 31
0.0
  0
LINE
  5
1125
330
18
100
AcDbEntity
  8
1
  6
ByBlock
100
AcDbLine
 10
164.8330894791049
 20
514.1786047290439
 30
0.0
 11
164.0867171612149
 21
515.8549844020487
 31
0.0
  0
LINE
  5
1126
330
18
100
AcDbEntity
  8
1
  6
ByBlock
100
AcDbLine
 10
165.7531174302653
 20
514.5317703707218
 30
0.0
 11
165.1860632090995
 21
516.2769838118898
 31
0.0
  0
LINE
  5
1127
330
18
100
AcDbEntity
  8
1
  6
ByBlock
100
AcDbLine
 10
166.7050212338488
 20
514.7868322261642
 30
0.0
 11
166.3234978741177
 21
516.5817585118247
 31
0.0
  0
LINE
  5
1128
330
18
100
AcDbEntity
  8
1
  6
ByBlock
100
AcDbLine
 10
167.6783716325849
 20
514.9409957843075
 30
0.0
 11
167.4865591840566
 21
516.7659693264624
 31
0.0
  0
LINE
  5
1129
330
18
100
AcDbEntity
  8
1
  6
ByBlock
100
AcDbLine
 10
168.6625043958174
 20
514.9925719969482
 30
0.0
 11
168.6625043958174
 21
518.7425719969483
 31
0.0
  0
LINE
  5
112A
330
18
100
AcDbEntity
  8
1
  6
ByBlock
100
AcDbLine
 10
169.6466371590504
 20
514.9409957843077
 30
0.0
 11
169.8384496075789
 21
516.7659693264624
 31
0.0
  0
LINE
  5
112B
330
18
100
AcDbEntity
  8
1
  6
ByBlock
100
AcDbLine
 10
170.6199875577863
 20
514.786832226164
 30
0.0
 11
171.0015109175174
 21
516.5817585118247
 31
0.0
  0
LINE
  5
112C
330
18
100
AcDbEntity
  8
1
  6
ByBlock
100
AcDbLine
 10
171.57189136137
 20
514.5317703707218
 30
0.0
 11
172.1389455825358
 21
516.2769838118899
 31
0.0
  0
LINE
  5
112D
330
18
100
AcDbEntity
  8
1
  6
ByBlock
100
AcDbLine
 10
172.4919193125306
 20
514.1786047290439
 30
0.0
 11
173.2382916304207
 21
515.8549844020487
 31
0.0
  0
LINE
  5
112E
330
18
100
AcDbEntity
  8
1
  6
ByBlock
100
AcDbLine
 10
173.3699913925072
 20
513.7312046578053
 30
0.0
 11
175.2449913925072
 21
516.978799921997
 31
0.0
  0
LINE
  5
112F
330
18
100
AcDbEntity
  8
1
  6
ByBlock
100
AcDbLine
 10
174.1964872598428
 20
513.194471965811
 30
0.0
 11
175.2750884841077
 21
514.6790391902877
 31
0.0
  0
LINE
  5
1130
330
18
100
AcDbEntity
  8
1
  6
ByBlock
100
AcDbLine
 10
174.9623516528604
 20
512.5742872087532
 30
0.0
 11
176.1902237173549
 21
513.93797729019
 31
0.0
  0
LINE
  5
1131
330
18
100
AcDbEntity
  8
1
  6
ByBlock
100
AcDbLine
 10
175.6591936010013
 20
511.8774452606118
 30
0.0
 11
177.0228836824383
 21
513.1053173251065
 31
0.0
  0
LINE
  5
1132
330
18
100
AcDbEntity
  8
1
  6
ByBlock
100
AcDbLine
 10
176.2793783580593
 20
511.1115808675946
 30
0.0
 11
177.7639455825358
 21
512.1901820918597
 31
0.0
  0
LINE
  5
1133
330
18
100
AcDbEntity
  8
1
  6
ByBlock
100
AcDbLine
 10
176.8161110500536
 20
510.2850850002589
 30
0.0
 11
180.0637063142453
 21
512.160085000259
 31
0.0
  0
LINE
  5
1134
330
18
100
AcDbEntity
  8
1
  6
ByBlock
100
AcDbLine
 10
177.2635111212921
 20
509.4070129202823
 30
0.0
 11
178.9398907942968
 21
510.1533852381721
 31
0.0
  0
LINE
  5
1135
330
18
100
AcDbEntity
  8
1
  6
ByBlock
100
AcDbLine
 10
177.6166767629699
 20
508.4869849691217
 30
0.0
 11
179.361890204138
 21
509.0540391902878
 31
0.0
  0
LINE
  5
1136
330
18
100
AcDbEntity
  8
1
  6
ByBlock
100
AcDbLine
 10
177.8717386184123
 20
507.535081165538
 30
0.0
 11
179.666664904073
 21
507.9166045252692
 31
0.0
  0
LINE
  5
1137
330
18
100
AcDbEntity
  8
1
  6
ByBlock
100
AcDbLine
 10
178.0259021765557
 20
506.5617307668023
 30
0.0
 11
179.8508757187107
 21
506.7535432153305
 31
0.0
  0
LINE
  5
1138
330
18
100
AcDbEntity
  8
1
  6
ByBlock
100
AcDbLine
 10
178.0774783891968
 20
505.5775980035694
 30
0.0
 11
181.8274783891968
 21
505.5775980035694
 31
0.0
  0
LINE
  5
1139
330
18
100
AcDbEntity
  8
1
  6
ByBlock
100
AcDbLine
 10
178.0259021765557
 20
504.5934652403366
 30
0.0
 11
179.8508757187107
 21
504.4016527918082
 31
0.0
  0
LINE
  5
113A
330
18
100
AcDbEntity
  8
1
  6
ByBlock
100
AcDbLine
 10
177.8717386184123
 20
503.6201148416008
 30
0.0
 11
179.666664904073
 21
503.2385914818696
 31
0.0
  0
LINE
  5
113B
330
18
100
AcDbEntity
  8
1
  6
ByBlock
100
AcDbLine
 10
177.6166767629699
 20
502.6682110380171
 30
0.0
 11
179.361890204138
 21
502.1011568168511
 31
0.0
  0
LINE
  5
113C
330
18
100
AcDbEntity
  8
1
  6
ByBlock
100
AcDbLine
 10
177.2635111212921
 20
501.7481830868566
 30
0.0
 11
178.9398907942968
 21
501.0018107689667
 31
0.0
  0
LINE
  5
113D
330
18
100
AcDbEntity
  8
1
  6
ByBlock
100
AcDbLine
 10
176.8161110500536
 20
500.8701110068801
 30
0.0
 11
180.0637063142453
 21
498.9951110068801
 31
0.0
  0
ARC
  5
1143
330
18
100
AcDbEntity
  8
1
370
     0
100
AcDbCircle
 10
169.9203845946531
 20
512.4691152188712
 30
0.0
 40
0.75
100
AcDbArc
 50
40.97986411575033
 51
118.4487073128221
  0
ARC
  5
1144
330
18
100
AcDbEntity
  8
1
370
     0
100
AcDbCircle
 10
164.0275218243543
 20
510.8427884310989
 30
0.0
 40
0.75
100
AcDbArc
 50
92.40843554431618
 51
169.8772787413923
  0
ARC
  5
1145
330
18
100
AcDbEntity
  8
1
370
     0
100
AcDbCircle
 10
161.6248954667819
 20
505.2215646287502
 30
0.0
 40
0.75
100
AcDbArc
 50
143.8370069728881
 51
221.3058501699594
  0
ARC
  5
1146
330
18
100
AcDbEntity
  8
1
370
     0
100
AcDbCircle
 10
164.5217321738334
 20
499.8383399870623
 30
0.0
 40
0.75
100
AcDbArc
 50
195.2655784014606
 51
272.7344215985282
  0
ARC
  5
1147
330
18
100
AcDbEntity
  8
1
370
     0
100
AcDbCircle
 10
170.5366548203992
 20
498.7467924589971
 30
0.0
 40
0.75
100
AcDbArc
 50
246.694149830036
 51
324.1629930271186
  0
ARC
  5
1148
330
18
100
AcDbEntity
  8
1
370
     0
100
AcDbCircle
 10
175.1403039715539
 20
502.7688795966997
 30
0.0
 40
0.75
100
AcDbArc
 50
298.1227212585987
 51
15.59156445567352
  0
ARC
  5
1149
330
18
100
AcDbEntity
  8
1
370
     0
100
AcDbCircle
 10
174.8660379191489
 20
508.8758877498539
 30
0.0
 40
0.75
100
AcDbArc
 50
349.5512926871804
 51
67.02013588424759
  0
ARC
  5
114A
330
18
100
AcDbEntity
  8
1
370
     0
100
AcDbCircle
 10
150.6716010246621
 20
513.2273051465327
 30
0.0
 40
12.81711245526615
100
AcDbArc
 50
323.8370069728881
 51
349.8772787413922
  0
ARC
  5
114B
330
18
100
AcDbEntity
  8
1
370
     0
100
AcDbCircle
 10
163.4573944202093
 20
524.3979164318549
 30
0.0
 40
12.81711245526615
100
AcDbArc
 50
272.4084355443161
 51
298.4487073128221
  0
ARC
  5
114C
330
18
100
AcDbEntity
  8
1
370
     0
100
AcDbCircle
 10
188.2081758427279
 20
506.4154211270294
 30
0.0
 40
12.81711245526615
100
AcDbArc
 50
169.5512926871803
 51
195.5915644556734
  0
ARC
  5
114D
330
18
100
AcDbEntity
  8
1
370
     0
100
AcDbCircle
 10
181.5353206346119
 20
490.8035002774701
 30
0.0
 40
12.81711245526615
100
AcDbArc
 50
118.1227212585987
 51
144.1629930270991
  0
ARC
  5
114E
330
18
100
AcDbEntity
  8
1
370
     0
100
AcDbCircle
 10
165.1689722410867
 20
486.2866751199996
 30
0.0
 40
12.81711245526615
100
AcDbArc
 50
66.69414983003605
 51
92.73442159852832
  0
ARC
  5
114F
330
18
100
AcDbEntity
  8
1
370
     0
100
AcDbCircle
 10
151.4333248151435
 20
496.2662071246357
 30
0.0
 40
12.81711245526615
100
AcDbArc
 50
15.26557840146063
 51
41.3058501699582
  0
CIRCLE
  5
1150
330
18
100
AcDbEntity
  8
1
370
     0
100
AcDbCircle
 10
168.6625043958176
 20
505.5376240101906
 30
0.0
 40
9.375
  0
LINE
  5
1152
330
18
100
AcDbEntity
  8
1
  6
ByBlock
100
AcDbLine
 10
129.5867841862984
 20
632.5376240101905
 30
0.0
 11
124.6625043958176
 21
637.5376240101906
 31
0.0
  0
LINE
  5
1153
330
18
100
AcDbEntity
  8
1
  6
ByBlock
100
AcDbLine
 10
129.5867841862984
 20
632.5376240101905
 30
0.0
 11
129.5867841862984
 21
453.5376240101905
 31
0.0
  0
LINE
  5
1154
330
18
100
AcDbEntity
  8
1
  6
ByBlock
100
AcDbLine
 10
129.5867841862984
 20
632.5376240101905
 30
0.0
 11
381.6625043958176
 21
632.5376240101905
 31
0.0
  0
LINE
  5
1155
330
18
100
AcDbEntity
  8
1
  6
ByBlock
100
AcDbLine
 10
381.6625043958176
 20
632.5376240101905
 30
0.0
 11
381.6625043958176
 21
453.5376240101905
 31
0.0
  0
LINE
  5
1156
330
18
100
AcDbEntity
  8
1
100
AcDbLine
 10
129.6625043958176
 20
454.5376240101906
 30
0.0
 11
381.6625043958176
 21
454.5376240101906
 31
0.0
  0
LINE
  5
1157
330
18
100
AcDbEntity
  8
1
100
AcDbLine
 10
386.6625043958176
 20
453.5376240101905
 30
0.0
 11
386.6625043958176
 21
637.5376240101906
 31
0.0
  0
LINE
  5
1158
330
18
100
AcDbEntity
  8
1
100
AcDbLine
 10
386.6625043958176
 20
637.5376240101906
 30
0.0
 11
124.6625043958176
 21
637.5376240101906
 31
0.0
  0
LINE
  5
1159
330
18
100
AcDbEntity
  8
1
100
AcDbLine
 10
124.6625043958176
 20
637.5376240101906
 30
0.0
 11
124.6625043958176
 21
453.5376240101905
 31
0.0
  0
LINE
  5
115A
330
18
100
AcDbEntity
  8
1
  6
ByBlock
100
AcDbLine
 10
381.6625043958176
 20
453.5376240101905
 30
0.0
 11
386.6625043958176
 21
453.5376240101905
 31
0.0
  0
LINE
  5
115B
330
18
100
AcDbEntity
  8
1
  6
ByBlock
100
AcDbLine
 10
124.6625043958176
 20
453.5376240101905
 30
0.0
 11
129.5867841862984
 21
453.5376240101905
 31
0.0
  0
LINE
  5
115C
330
18
100
AcDbEntity
  8
1
  6
ByBlock
100
AcDbLine
 10
189.1625043958176
 20
454.5376240101906
 30
0.0
 11
186.9410380667159
 21
441.20882603558
 31
0.0
  0
ARC
  5
115D
330
18
100
AcDbEntity
  8
1
  6
ByBlock
100
AcDbCircle
 10
176.6625043958176
 20
457.5376240101904
 30
0.0
 40
5.0
100
AcDbArc
 50
233.1301023541624
 51
306.8698976458374
  0
LINE
  5
115E
330
18
100
AcDbEntity
  8
1
  6
ByBlock
100
AcDbLine
 10
173.6625043958176
 20
454.5376240101906
 30
0.0
 11
173.6625043958176
 21
453.5376240101905
 31
0.0
  0
LINE
  5
115F
330
18
100
AcDbEntity
  8
1
  6
ByBlock
100
AcDbLine
 10
179.6625043958176
 20
454.5376240101906
 30
0.0
 11
179.6625043958176
 21
453.5376240101905
 31
0.0
  0
LINE
  5
1160
330
18
100
AcDbEntity
  8
1
  6
ByBlock
100
AcDbLine
 10
164.1625043958176
 20
454.5376240101906
 30
0.0
 11
166.3839707249194
 21
441.20882603558
 31
0.0
  0
LINE
  5
1161
330
18
100
AcDbEntity
  8
1
  6
ByBlock
100
AcDbLine
 10
168.3567585725836
 20
439.5376240101906
 30
0.0
 11
184.9682502190517
 21
439.5376240101906
 31
0.0
  0
LINE
  5
1162
330
18
100
AcDbEntity
  8
1
  6
ByBlock
100
AcDbLine
 10
189.1625043958176
 20
454.5376240101906
 30
0.0
 11
164.1625043958176
 21
454.5376240101906
 31
0.0
  0
ARC
  5
1163
330
18
100
AcDbEntity
  8
1
  6
ByBlock
100
AcDbCircle
 10
184.9682502190517
 20
441.5376240101907
 30
0.0
 40
2.0
100
AcDbArc
 50
270.0
 51
350.5376777919738
  0
ARC
  5
1164
330
18
100
AcDbEntity
  8
1
  6
ByBlock
100
AcDbCircle
 10
168.3567585725836
 20
441.5376240101907
 30
0.0
 40
2.0
100
AcDbArc
 50
189.4623222080261
 51
270.0
  0
ARC
  5
1165
330
18
100
AcDbEntity
  8
1
  6
ByBlock
100
AcDbCircle
 10
342.9682502190516
 20
441.5376240101907
 30
0.0
 40
2.0
100
AcDbArc
 50
270.0
 51
350.5376777919738
  0
ARC
  5
1166
330
18
100
AcDbEntity
  8
1
  6
ByBlock
100
AcDbCircle
 10
326.3567585725836
 20
441.5376240101907
 30
0.0
 40
2.0
100
AcDbArc
 50
189.4623222080261
 51
270.0
  0
LINE
  5
1167
330
18
100
AcDbEntity
  8
1
  6
ByBlock
100
AcDbLine
 10
322.1625043958177
 20
454.5376240101906
 30
0.0
 11
347.1625043958177
 21
454.5376240101906
 31
0.0
  0
LINE
  5
1168
330
18
100
AcDbEntity
  8
1
  6
ByBlock
100
AcDbLine
 10
342.9682502190516
 20
439.5376240101906
 30
0.0
 11
326.3567585725836
 21
439.5376240101906
 31
0.0
  0
LINE
  5
1169
330
18
100
AcDbEntity
  8
1
  6
ByBlock
100
AcDbLine
 10
347.1625043958177
 20
454.5376240101906
 30
0.0
 11
344.9410380667159
 21
441.20882603558
 31
0.0
  0
LINE
  5
116A
330
18
100
AcDbEntity
  8
1
  6
ByBlock
100
AcDbLine
 10
331.6625043958176
 20
454.5376240101906
 30
0.0
 11
331.6625043958176
 21
453.5376240101905
 31
0.0
  0
LINE
  5
116B
330
18
100
AcDbEntity
  8
1
  6
ByBlock
100
AcDbLine
 10
337.6625043958176
 20
454.5376240101906
 30
0.0
 11
337.6625043958176
 21
453.5376240101905
 31
0.0
  0
ARC
  5
116C
330
18
100
AcDbEntity
  8
1
  6
ByBlock
100
AcDbCircle
 10
334.6625043958177
 20
457.5376240101904
 30
0.0
 40
5.0
100
AcDbArc
 50
233.1301023541624
 51
306.8698976458374
  0
LINE
  5
116D
330
18
100
AcDbEntity
  8
1
  6
ByBlock
100
AcDbLine
 10
322.1625043958177
 20
454.5376240101906
 30
0.0
 11
324.3839707249194
 21
441.20882603558
 31
0.0
  0
LWPOLYLINE
  5
116E
330
18
100
AcDbEntity
  8
1
  6
ByBlock
100
AcDbPolyline
 90
       10
 70
     0
 43
0.0
 10
162.6625043958176
 20
582.5376240101907
 10
142.6625043958176
 20
582.5376240101907
 42
-0.4142135623730701
 10
140.6625043958176
 20
584.5376240101908
 10
140.6625043958176
 20
626.5376240101906
 42
-0.4142135623730535
 10
142.6625043958176
 20
628.5376240101908
 10
194.6625043958176
 20
628.5376240101905
 42
-0.4142135623730701
 10
196.6625043958176
 20
626.5376240101906
 10
196.6625043958176
 20
584.5376240101908
 42
-0.4142135623730535
 10
194.6625043958176
 20
582.5376240101905
 10
174.6625043958176
 20
582.5376240101905
  0
LWPOLYLINE
  5
116F
330
18
100
AcDbEntity
  8
1
  6
ByBlock
100
AcDbPolyline
 90
        4
 70
     0
 43
0.0
 10
197.6625043958167
 20
629.1833753212541
 42
-0.2152504370216078
 10
200.6625043958176
 20
630.5376240101907
 10
252.6625043958176
 20
630.5376240101906
 42
-0.215250437021867
 10
255.662504395821
 20
629.1833753212511
 42
-0.215250437021867
  0
LWPOLYLINE
  5
1170
330
18
100
AcDbEntity
  8
1
  6
ByBlock
100
AcDbPolyline
 90
       10
 70
     0
 43
0.0
 10
220.6625043958176
 20
582.5376240101905
 10
200.6625043958176
 20
582.5376240101905
 42
-0.4142135623730701
 10
198.6625043958176
 20
584.5376240101907
 10
198.6625043958176
 20
626.5376240101906
 42
-0.4142135623730535
 10
200.6625043958176
 20
628.5376240101907
 10
252.6625043958176
 20
628.5376240101905
 42
-0.4142135623730701
 10
254.6625043958176
 20
626.5376240101906
 10
254.6625043958176
 20
584.5376240101908
 42
-0.4142135623730535
 10
252.6625043958176
 20
582.5376240101905
 10
232.6625043958177
 20
582.5376240101905
  0
LWPOLYLINE
  5
1171
330
18
100
AcDbEntity
  8
1
  6
ByBlock
100
AcDbPolyline
 90
        3
 70
     0
 43
0.0
 10
197.6625043958174
 20
581.8918726991261
 42
-0.2152504370215058
 10
194.6625043958176
 20
580.5376240101906
 10
174.6625043958176
 20
580.5376240101906
  0
CIRCLE
  5
1172
330
18
100
AcDbEntity
  8
1
370
     0
100
AcDbCircle
 10
226.6625043958176
 20
605.5376240101906
 30
0.0
 40
12.5
  0
ARC
  5
1173
330
18
100
AcDbEntity
  8
1
370
     0
100
AcDbCircle
 10
252.7233996583647
 20
606.7080201659758
 30
0.0
 40
17.0894832736882
100
AcDbArc
 50
169.5512926871803
 51
195.5915644556734
  0
ARC
  5
1174
330
18
100
AcDbEntity
  8
1
370
     0
100
AcDbCircle
 10
235.2995704967995
 20
601.8459647922028
 30
0.0
 40
1.0
100
AcDbArc
 50
298.1227212585987
 51
15.59156445567352
  0
LINE
  5
1175
330
18
100
AcDbEntity
  8
1
  6
ByBlock
100
AcDbLine
 10
238.1305133631169
 20
600.4850361124119
 30
0.0
 11
240.3656862604566
 21
599.489873021892
 31
0.0
  0
LINE
  5
1176
330
18
100
AcDbEntity
  8
1
  6
ByBlock
100
AcDbLine
 10
238.6014008853539
 20
601.7117400472926
 30
0.0
 11
240.9283521402449
 21
600.9556677524046
 31
0.0
  0
LINE
  5
1177
330
18
100
AcDbEntity
  8
1
  6
ByBlock
100
AcDbLine
 10
238.9414833592772
 20
602.9809451187376
 30
0.0
 11
241.3347184068247
 21
602.4722473057628
 31
0.0
  0
LINE
  5
1178
330
18
100
AcDbEntity
  8
1
  6
ByBlock
100
AcDbLine
 10
215.7910288568364
 20
599.3142733391096
 30
0.0
 11
211.4609018379141
 21
596.8142733391097
 31
0.0
  0
LINE
  5
1179
330
18
100
AcDbEntity
  8
1
  6
ByBlock
100
AcDbLine
 10
215.1944954285184
 20
600.4850361124119
 30
0.0
 11
212.9593225311787
 21
599.489873021892
 31
0.0
  0
LINE
  5
117A
330
18
100
AcDbEntity
  8
1
  6
ByBlock
100
AcDbLine
 10
214.7236079062811
 20
601.7117400472926
 30
0.0
 11
212.3966566513902
 21
600.955667752405
 31
0.0
  0
LINE
  5
117B
330
18
100
AcDbEntity
  8
1
  6
ByBlock
100
AcDbLine
 10
214.383525432358
 20
602.9809451187373
 30
0.0
 11
211.9902903848105
 21
602.4722473057626
 31
0.0
  0
LINE
  5
117C
330
18
100
AcDbEntity
  8
1
  6
ByBlock
100
AcDbLine
 10
214.1779740215001
 20
604.2787456503853
 30
0.0
 11
211.7446759652934
 21
604.0229957190144
 31
0.0
  0
LINE
  5
117D
330
18
100
AcDbEntity
  8
1
  6
ByBlock
100
AcDbLine
 10
214.1092057379792
 20
605.5909226680291
 30
0.0
 11
209.1092057379792
 21
605.5909226680291
 31
0.0
  0
LINE
  5
117E
330
18
100
AcDbEntity
  8
1
  6
ByBlock
100
AcDbLine
 10
214.1779740215001
 20
606.9030996856728
 30
0.0
 11
211.7446759652934
 21
607.158849617044
 31
0.0
  0
LINE
  5
117F
330
18
100
AcDbEntity
  8
1
  6
ByBlock
100
AcDbLine
 10
214.3835254323578
 20
608.2009002173204
 30
0.0
 11
211.9902903848105
 21
608.7095980302954
 31
0.0
  0
LINE
  5
1180
330
18
100
AcDbEntity
  8
1
  6
ByBlock
100
AcDbLine
 10
214.7236079062815
 20
609.4701052887652
 30
0.0
 11
212.3966566513904
 21
610.2261775836533
 31
0.0
  0
LINE
  5
1181
330
18
100
AcDbEntity
  8
1
  6
ByBlock
100
AcDbLine
 10
215.1944954285186
 20
610.6968092236463
 30
0.0
 11
212.9593225311787
 21
611.6919723141663
 31
0.0
  0
LINE
  5
1182
330
18
100
AcDbEntity
  8
1
  6
ByBlock
100
AcDbLine
 10
215.7910288568366
 20
611.8675719969481
 30
0.0
 11
211.4609018379144
 21
614.3675719969482
 31
0.0
  0
LINE
  5
1183
330
18
100
AcDbEntity
  8
1
  6
ByBlock
100
AcDbLine
 10
216.5066724461621
 20
612.9695664867293
 30
0.0
 11
214.5272494801933
 21
614.4077014524161
 31
0.0
  0
LINE
  5
1184
330
18
100
AcDbEntity
  8
1
  6
ByBlock
100
AcDbLine
 10
217.333585455573
 20
613.9907190107525
 30
0.0
 11
215.5153320136569
 21
615.6278817634122
 31
0.0
  0
LINE
  5
1185
330
18
100
AcDbEntity
  8
1
  6
ByBlock
100
AcDbLine
 10
218.2627080530944
 20
614.9198416082741
 30
0.0
 11
216.6255453004348
 21
616.73809505019
 31
0.0
  0
LINE
  5
1186
330
18
100
AcDbEntity
  8
1
  6
ByBlock
100
AcDbLine
 10
219.2838605771171
 20
615.7467546176846
 30
0.0
 11
217.8457256114304
 21
617.7261775836531
 31
0.0
  0
LINE
  5
1187
330
18
100
AcDbEntity
  8
1
  6
ByBlock
100
AcDbLine
 10
220.3858550668985
 20
616.4623982070103
 30
0.0
 11
217.8858550668985
 21
620.7925252259325
 31
0.0
  0
LINE
  5
1188
330
18
100
AcDbEntity
  8
1
  6
ByBlock
100
AcDbLine
 10
221.5566178402007
 20
617.0589316353283
 30
0.0
 11
220.5614547496807
 21
619.2941045326681
 31
0.0
  0
LINE
  5
1189
330
18
100
AcDbEntity
  8
1
  6
ByBlock
100
AcDbLine
 10
222.7833217750812
 20
617.5298191575656
 30
0.0
 11
222.0272494801934
 21
619.8567704124563
 31
0.0
  0
LINE
  5
118A
330
18
100
AcDbEntity
  8
1
  6
ByBlock
100
AcDbLine
 10
224.052526846526
 20
617.8699016314887
 30
0.0
 11
223.5438290335512
 21
620.2631366790361
 31
0.0
  0
LINE
  5
118B
330
18
100
AcDbEntity
  8
1
  6
ByBlock
100
AcDbLine
 10
225.3503273781739
 20
618.0754530423465
 30
0.0
 11
225.0945774468029
 21
620.5087510985532
 31
0.0
  0
LINE
  5
118C
330
18
100
AcDbEntity
  8
1
  6
ByBlock
100
AcDbLine
 10
226.6625043958174
 20
618.1442213258675
 30
0.0
 11
226.6625043958174
 21
623.1442213258675
 31
0.0
  0
LINE
  5
118D
330
18
100
AcDbEntity
  8
1
  6
ByBlock
100
AcDbLine
 10
227.9746814134614
 20
618.0754530423468
 30
0.0
 11
228.2304313448325
 21
620.5087510985532
 31
0.0
  0
LINE
  5
118E
330
18
100
AcDbEntity
  8
1
  6
ByBlock
100
AcDbLine
 10
229.2724819451091
 20
617.8699016314887
 30
0.0
 11
229.7811797580838
 21
620.2631366790361
 31
0.0
  0
LINE
  5
118F
330
18
100
AcDbEntity
  8
1
  6
ByBlock
100
AcDbLine
 10
230.541687016554
 20
617.5298191575656
 30
0.0
 11
231.2977593114419
 21
619.8567704124565
 31
0.0
  0
LINE
  5
1190
330
18
100
AcDbEntity
  8
1
  6
ByBlock
100
AcDbLine
 10
231.7683909514348
 20
617.0589316353283
 30
0.0
 11
232.7635540419549
 21
619.294104532668
 31
0.0
  0
LINE
  5
1191
330
18
100
AcDbEntity
  8
1
  6
ByBlock
100
AcDbLine
 10
232.939153724737
 20
616.4623982070103
 30
0.0
 11
235.439153724737
 21
620.7925252259325
 31
0.0
  0
LINE
  5
1192
330
18
100
AcDbEntity
  8
1
  6
ByBlock
100
AcDbLine
 10
234.0411482145177
 20
615.7467546176846
 30
0.0
 11
235.4792831802044
 21
617.7261775836536
 31
0.0
  0
LINE
  5
1193
330
18
100
AcDbEntity
  8
1
  6
ByBlock
100
AcDbLine
 10
235.0623007385413
 20
614.9198416082741
 30
0.0
 11
236.6994634912007
 21
616.7380950501898
 31
0.0
  0
LINE
  5
1194
330
18
100
AcDbEntity
  8
1
  6
ByBlock
100
AcDbLine
 10
235.9914233360625
 20
613.9907190107522
 30
0.0
 11
237.8096767779786
 21
615.6278817634119
 31
0.0
  0
LINE
  5
1195
330
18
100
AcDbEntity
  8
1
  6
ByBlock
100
AcDbLine
 10
236.8183363454734
 20
612.9695664867293
 30
0.0
 11
238.7977593114419
 21
614.407701452416
 31
0.0
  0
LINE
  5
1196
330
18
100
AcDbEntity
  8
1
  6
ByBlock
100
AcDbLine
 10
237.5339799347989
 20
611.8675719969484
 30
0.0
 11
241.8641069537211
 21
614.3675719969484
 31
0.0
  0
LINE
  5
1197
330
18
100
AcDbEntity
  8
1
  6
ByBlock
100
AcDbLine
 10
238.1305133631169
 20
610.6968092236463
 30
0.0
 11
240.3656862604566
 21
611.691972314166
 31
0.0
  0
LINE
  5
1198
330
18
100
AcDbEntity
  8
1
  6
ByBlock
100
AcDbLine
 10
238.6014008853542
 20
609.4701052887654
 30
0.0
 11
240.9283521402449
 21
610.2261775836535
 31
0.0
  0
LINE
  5
1199
330
18
100
AcDbEntity
  8
1
  6
ByBlock
100
AcDbLine
 10
238.9414833592772
 20
608.2009002173204
 30
0.0
 11
241.3347184068247
 21
608.7095980302954
 31
0.0
  0
LINE
  5
119A
330
18
100
AcDbEntity
  8
1
  6
ByBlock
100
AcDbLine
 10
239.1470347701351
 20
606.9030996856728
 30
0.0
 11
241.5803328263418
 21
607.1588496170439
 31
0.0
  0
LINE
  5
119B
330
18
100
AcDbEntity
  8
1
  6
ByBlock
100
AcDbLine
 10
239.2158030536563
 20
605.5909226680291
 30
0.0
 11
244.2158030536563
 21
605.5909226680291
 31
0.0
  0
LINE
  5
119C
330
18
100
AcDbEntity
  8
1
  6
ByBlock
100
AcDbLine
 10
239.1470347701351
 20
604.2787456503853
 30
0.0
 11
241.5803328263418
 21
604.0229957190142
 31
0.0
  0
LINE
  5
119D
330
18
100
AcDbEntity
  8
1
  6
ByBlock
100
AcDbLine
 10
237.5339799347989
 20
599.3142733391099
 30
0.0
 11
241.8641069537211
 21
596.8142733391099
 31
0.0
  0
ARC
  5
11A3
330
18
100
AcDbEntity
  8
1
370
     0
100
AcDbCircle
 10
228.339677994265
 20
614.7796122884316
 30
0.0
 40
1.0
100
AcDbArc
 50
40.97986411575033
 51
118.4487073128221
  0
ARC
  5
11A4
330
18
100
AcDbEntity
  8
1
370
     0
100
AcDbCircle
 10
220.4825276338667
 20
612.6111765714019
 30
0.0
 40
1.0
100
AcDbArc
 50
92.40843554431618
 51
169.8772787413923
  0
ARC
  5
11A5
330
18
100
AcDbEntity
  8
1
370
     0
100
AcDbCircle
 10
217.27902582377
 20
605.1162115016035
 30
0.0
 40
1.0
100
AcDbArc
 50
143.8370069728881
 51
221.3058501699594
  0
ARC
  5
11A6
330
18
100
AcDbEntity
  8
1
370
     0
100
AcDbCircle
 10
221.1414747665053
 20
597.9385786460197
 30
0.0
 40
1.0
100
AcDbArc
 50
195.2655784014606
 51
272.7344215985282
  0
ARC
  5
11A7
330
18
100
AcDbEntity
  8
1
370
     0
100
AcDbCircle
 10
229.161371628593
 20
596.4831819419327
 30
0.0
 40
1.0
100
AcDbArc
 50
246.694149830036
 51
324.1629930271186
  0
ARC
  5
11A8
330
18
100
AcDbEntity
  8
1
370
     0
100
AcDbCircle
 10
234.9338824269261
 20
609.9886423297415
 30
0.0
 40
1.0
100
AcDbArc
 50
349.5512926871804
 51
67.02013588424759
  0
ARC
  5
11A9
330
18
100
AcDbEntity
  8
1
370
     0
100
AcDbCircle
 10
202.674633234277
 20
615.7905321919803
 30
0.0
 40
17.0894832736882
100
AcDbArc
 50
323.8370069728881
 51
349.8772787413922
  0
ARC
  5
11AA
330
18
100
AcDbEntity
  8
1
370
     0
100
AcDbCircle
 10
219.7223577616732
 20
630.6846805724098
 30
0.0
 40
17.0894832736882
100
AcDbArc
 50
272.4084355443161
 51
298.4487073128221
  0
ARC
  5
11AB
330
18
100
AcDbEntity
  8
1
370
     0
100
AcDbCircle
 10
241.9961542577719
 20
626.6425824550177
 30
0.0
 40
17.0894832736882
100
AcDbArc
 50
220.9798641157503
 51
247.0201358842476
  0
ARC
  5
11AC
330
18
100
AcDbEntity
  8
1
370
     0
100
AcDbCircle
 10
243.8262593808767
 20
585.8921256998966
 30
0.0
 40
17.0894832736882
100
AcDbArc
 50
118.1227212585987
 51
144.1629930270991
  0
ARC
  5
11AD
330
18
100
AcDbEntity
  8
1
370
     0
100
AcDbCircle
 10
222.0044615228432
 20
579.8696921566028
 30
0.0
 40
17.0894832736882
100
AcDbArc
 50
66.69414983003605
 51
92.73442159852832
  0
ARC
  5
11AE
330
18
100
AcDbEntity
  8
1
370
     0
100
AcDbCircle
 10
203.6902649549188
 20
593.1757348294508
 30
0.0
 40
17.0894832736882
100
AcDbArc
 50
15.26557840146063
 51
41.3058501699582
  0
ARC
  5
11B1
330
18
100
AcDbEntity
  8
1
370
     0
100
AcDbCircle
 10
319.6902649549187
 20
593.1757348294508
 30
0.0
 40
17.0894832736882
100
AcDbArc
 50
15.26557840146063
 51
41.3058501699582
  0
ARC
  5
11B2
330
18
100
AcDbEntity
  8
1
370
     0
100
AcDbCircle
 10
338.0044615228432
 20
579.8696921566028
 30
0.0
 40
17.0894832736882
100
AcDbArc
 50
66.69414983003605
 51
92.73442159852832
  0
ARC
  5
11B3
330
18
100
AcDbEntity
  8
1
370
     0
100
AcDbCircle
 10
359.8262593808767
 20
585.8921256998966
 30
0.0
 40
17.0894832736882
100
AcDbArc
 50
118.1227212585987
 51
144.1629930270991
  0
ARC
  5
11B4
330
18
100
AcDbEntity
  8
1
370
     0
100
AcDbCircle
 10
357.9961542577718
 20
626.6425824550177
 30
0.0
 40
17.0894832736882
100
AcDbArc
 50
220.9798641157503
 51
247.0201358842476
  0
ARC
  5
11B5
330
18
100
AcDbEntity
  8
1
370
     0
100
AcDbCircle
 10
335.7223577616732
 20
630.6846805724098
 30
0.0
 40
17.0894832736882
100
AcDbArc
 50
272.4084355443161
 51
298.4487073128221
  0
ARC
  5
11B6
330
18
100
AcDbEntity
  8
1
370
     0
100
AcDbCircle
 10
318.674633234277
 20
615.7905321919803
 30
0.0
 40
17.0894832736882
100
AcDbArc
 50
323.8370069728881
 51
349.8772787413922
  0
ARC
  5
11B7
330
18
100
AcDbEntity
  8
1
370
     0
100
AcDbCircle
 10
350.9338824269261
 20
609.9886423297415
 30
0.0
 40
1.0
100
AcDbArc
 50
349.5512926871804
 51
67.02013588424759
  0
ARC
  5
11B8
330
18
100
AcDbEntity
  8
1
370
     0
100
AcDbCircle
 10
345.1613716285931
 20
596.4831819419327
 30
0.0
 40
1.0
100
AcDbArc
 50
246.694149830036
 51
324.1629930271186
  0
ARC
  5
11B9
330
18
100
AcDbEntity
  8
1
370
     0
100
AcDbCircle
 10
337.1414747665053
 20
597.9385786460197
 30
0.0
 40
1.0
100
AcDbArc
 50
195.2655784014606
 51
272.7344215985282
  0
ARC
  5
11BA
330
18
100
AcDbEntity
  8
1
370
     0
100
AcDbCircle
 10
333.2790258237701
 20
605.1162115016035
 30
0.0
 40
1.0
100
AcDbArc
 50
143.8370069728881
 51
221.3058501699594
  0
ARC
  5
11BB
330
18
100
AcDbEntity
  8
1
370
     0
100
AcDbCircle
 10
336.4825276338667
 20
612.6111765714019
 30
0.0
 40
1.0
100
AcDbArc
 50
92.40843554431618
 51
169.8772787413923
  0
ARC
  5
11BC
330
18
100
AcDbEntity
  8
1
370
     0
100
AcDbCircle
 10
344.3396779942649
 20
614.7796122884316
 30
0.0
 40
1.0
100
AcDbArc
 50
40.97986411575033
 51
118.4487073128221
  0
LINE
  5
11C2
330
18
100
AcDbEntity
  8
1
  6
ByBlock
100
AcDbLine
 10
353.5339799347989
 20
599.3142733391099
 30
0.0
 11
357.8641069537211
 21
596.8142733391099
 31
0.0
  0
LINE
  5
11C3
330
18
100
AcDbEntity
  8
1
  6
ByBlock
100
AcDbLine
 10
355.1470347701351
 20
604.2787456503853
 30
0.0
 11
357.5803328263418
 21
604.0229957190142
 31
0.0
  0
LINE
  5
11C4
330
18
100
AcDbEntity
  8
1
  6
ByBlock
100
AcDbLine
 10
355.2158030536563
 20
605.5909226680291
 30
0.0
 11
360.2158030536563
 21
605.5909226680291
 31
0.0
  0
LINE
  5
11C5
330
18
100
AcDbEntity
  8
1
  6
ByBlock
100
AcDbLine
 10
355.1470347701351
 20
606.9030996856728
 30
0.0
 11
357.5803328263418
 21
607.1588496170439
 31
0.0
  0
LINE
  5
11C6
330
18
100
AcDbEntity
  8
1
  6
ByBlock
100
AcDbLine
 10
354.9414833592773
 20
608.2009002173204
 30
0.0
 11
357.3347184068247
 21
608.7095980302954
 31
0.0
  0
LINE
  5
11C7
330
18
100
AcDbEntity
  8
1
  6
ByBlock
100
AcDbLine
 10
354.6014008853542
 20
609.4701052887654
 30
0.0
 11
356.9283521402449
 21
610.2261775836535
 31
0.0
  0
LINE
  5
11C8
330
18
100
AcDbEntity
  8
1
  6
ByBlock
100
AcDbLine
 10
354.1305133631169
 20
610.6968092236463
 30
0.0
 11
356.3656862604566
 21
611.691972314166
 31
0.0
  0
LINE
  5
11C9
330
18
100
AcDbEntity
  8
1
  6
ByBlock
100
AcDbLine
 10
353.5339799347989
 20
611.8675719969484
 30
0.0
 11
357.8641069537211
 21
614.3675719969484
 31
0.0
  0
LINE
  5
11CA
330
18
100
AcDbEntity
  8
1
  6
ByBlock
100
AcDbLine
 10
352.8183363454734
 20
612.9695664867293
 30
0.0
 11
354.7977593114419
 21
614.407701452416
 31
0.0
  0
LINE
  5
11CB
330
18
100
AcDbEntity
  8
1
  6
ByBlock
100
AcDbLine
 10
351.9914233360625
 20
613.9907190107522
 30
0.0
 11
353.8096767779786
 21
615.6278817634119
 31
0.0
  0
LINE
  5
11CC
330
18
100
AcDbEntity
  8
1
  6
ByBlock
100
AcDbLine
 10
351.0623007385413
 20
614.9198416082741
 30
0.0
 11
352.6994634912007
 21
616.7380950501898
 31
0.0
  0
LINE
  5
11CD
330
18
100
AcDbEntity
  8
1
  6
ByBlock
100
AcDbLine
 10
350.0411482145177
 20
615.7467546176846
 30
0.0
 11
351.4792831802044
 21
617.7261775836536
 31
0.0
  0
LINE
  5
11CE
330
18
100
AcDbEntity
  8
1
  6
ByBlock
100
AcDbLine
 10
348.939153724737
 20
616.4623982070103
 30
0.0
 11
351.439153724737
 21
620.7925252259325
 31
0.0
  0
LINE
  5
11CF
330
18
100
AcDbEntity
  8
1
  6
ByBlock
100
AcDbLine
 10
347.7683909514348
 20
617.0589316353283
 30
0.0
 11
348.7635540419548
 21
619.294104532668
 31
0.0
  0
LINE
  5
11D0
330
18
100
AcDbEntity
  8
1
  6
ByBlock
100
AcDbLine
 10
346.541687016554
 20
617.5298191575656
 30
0.0
 11
347.2977593114419
 21
619.8567704124565
 31
0.0
  0
LINE
  5
11D1
330
18
100
AcDbEntity
  8
1
  6
ByBlock
100
AcDbLine
 10
345.2724819451091
 20
617.8699016314887
 30
0.0
 11
345.7811797580839
 21
620.2631366790361
 31
0.0
  0
LINE
  5
11D2
330
18
100
AcDbEntity
  8
1
  6
ByBlock
100
AcDbLine
 10
343.9746814134614
 20
618.0754530423468
 30
0.0
 11
344.2304313448325
 21
620.5087510985532
 31
0.0
  0
LINE
  5
11D3
330
18
100
AcDbEntity
  8
1
  6
ByBlock
100
AcDbLine
 10
342.6625043958174
 20
618.1442213258675
 30
0.0
 11
342.6625043958174
 21
623.1442213258675
 31
0.0
  0
LINE
  5
11D4
330
18
100
AcDbEntity
  8
1
  6
ByBlock
100
AcDbLine
 10
341.3503273781739
 20
618.0754530423465
 30
0.0
 11
341.094577446803
 21
620.5087510985532
 31
0.0
  0
LINE
  5
11D5
330
18
100
AcDbEntity
  8
1
  6
ByBlock
100
AcDbLine
 10
340.052526846526
 20
617.8699016314887
 30
0.0
 11
339.5438290335512
 21
620.2631366790361
 31
0.0
  0
LINE
  5
11D6
330
18
100
AcDbEntity
  8
1
  6
ByBlock
100
AcDbLine
 10
338.7833217750813
 20
617.5298191575656
 30
0.0
 11
338.0272494801934
 21
619.8567704124563
 31
0.0
  0
LINE
  5
11D7
330
18
100
AcDbEntity
  8
1
  6
ByBlock
100
AcDbLine
 10
337.5566178402007
 20
617.0589316353283
 30
0.0
 11
336.5614547496807
 21
619.2941045326681
 31
0.0
  0
LINE
  5
11D8
330
18
100
AcDbEntity
  8
1
  6
ByBlock
100
AcDbLine
 10
336.3858550668985
 20
616.4623982070103
 30
0.0
 11
333.8858550668985
 21
620.7925252259325
 31
0.0
  0
LINE
  5
11D9
330
18
100
AcDbEntity
  8
1
  6
ByBlock
100
AcDbLine
 10
335.2838605771171
 20
615.7467546176846
 30
0.0
 11
333.8457256114304
 21
617.7261775836531
 31
0.0
  0
LINE
  5
11DA
330
18
100
AcDbEntity
  8
1
  6
ByBlock
100
AcDbLine
 10
334.2627080530944
 20
614.9198416082741
 30
0.0
 11
332.6255453004348
 21
616.73809505019
 31
0.0
  0
LINE
  5
11DB
330
18
100
AcDbEntity
  8
1
  6
ByBlock
100
AcDbLine
 10
333.333585455573
 20
613.9907190107525
 30
0.0
 11
331.5153320136569
 21
615.6278817634122
 31
0.0
  0
LINE
  5
11DC
330
18
100
AcDbEntity
  8
1
  6
ByBlock
100
AcDbLine
 10
332.5066724461621
 20
612.9695664867293
 30
0.0
 11
330.5272494801934
 21
614.4077014524161
 31
0.0
  0
LINE
  5
11DD
330
18
100
AcDbEntity
  8
1
  6
ByBlock
100
AcDbLine
 10
331.7910288568366
 20
611.8675719969481
 30
0.0
 11
327.4609018379144
 21
614.3675719969482
 31
0.0
  0
LINE
  5
11DE
330
18
100
AcDbEntity
  8
1
  6
ByBlock
100
AcDbLine
 10
331.1944954285186
 20
610.6968092236463
 30
0.0
 11
328.9593225311786
 21
611.6919723141663
 31
0.0
  0
LINE
  5
11DF
330
18
100
AcDbEntity
  8
1
  6
ByBlock
100
AcDbLine
 10
330.7236079062815
 20
609.4701052887652
 30
0.0
 11
328.3966566513904
 21
610.2261775836533
 31
0.0
  0
LINE
  5
11E0
330
18
100
AcDbEntity
  8
1
  6
ByBlock
100
AcDbLine
 10
330.3835254323578
 20
608.2009002173204
 30
0.0
 11
327.9902903848106
 21
608.7095980302954
 31
0.0
  0
LINE
  5
11E1
330
18
100
AcDbEntity
  8
1
  6
ByBlock
100
AcDbLine
 10
330.1779740215001
 20
606.9030996856728
 30
0.0
 11
327.7446759652935
 21
607.158849617044
 31
0.0
  0
LINE
  5
11E2
330
18
100
AcDbEntity
  8
1
  6
ByBlock
100
AcDbLine
 10
330.1092057379792
 20
605.5909226680291
 30
0.0
 11
325.1092057379792
 21
605.5909226680291
 31
0.0
  0
LINE
  5
11E3
330
18
100
AcDbEntity
  8
1
  6
ByBlock
100
AcDbLine
 10
330.1779740215001
 20
604.2787456503853
 30
0.0
 11
327.7446759652935
 21
604.0229957190144
 31
0.0
  0
LINE
  5
11E4
330
18
100
AcDbEntity
  8
1
  6
ByBlock
100
AcDbLine
 10
330.383525432358
 20
602.9809451187373
 30
0.0
 11
327.9902903848106
 21
602.4722473057626
 31
0.0
  0
LINE
  5
11E5
330
18
100
AcDbEntity
  8
1
  6
ByBlock
100
AcDbLine
 10
330.7236079062811
 20
601.7117400472926
 30
0.0
 11
328.3966566513902
 21
600.955667752405
 31
0.0
  0
LINE
  5
11E6
330
18
100
AcDbEntity
  8
1
  6
ByBlock
100
AcDbLine
 10
331.1944954285184
 20
600.4850361124119
 30
0.0
 11
328.9593225311786
 21
599.489873021892
 31
0.0
  0
LINE
  5
11E7
330
18
100
AcDbEntity
  8
1
  6
ByBlock
100
AcDbLine
 10
331.7910288568364
 20
599.3142733391096
 30
0.0
 11
327.4609018379142
 21
596.8142733391097
 31
0.0
  0
LINE
  5
11E8
330
18
100
AcDbEntity
  8
1
  6
ByBlock
100
AcDbLine
 10
354.9414833592773
 20
602.9809451187376
 30
0.0
 11
357.3347184068247
 21
602.4722473057628
 31
0.0
  0
LINE
  5
11E9
330
18
100
AcDbEntity
  8
1
  6
ByBlock
100
AcDbLine
 10
354.601400885354
 20
601.7117400472926
 30
0.0
 11
356.9283521402449
 21
600.9556677524046
 31
0.0
  0
LINE
  5
11EA
330
18
100
AcDbEntity
  8
1
  6
ByBlock
100
AcDbLine
 10
354.1305133631169
 20
600.4850361124119
 30
0.0
 11
356.3656862604566
 21
599.489873021892
 31
0.0
  0
ARC
  5
11EB
330
18
100
AcDbEntity
  8
1
370
     0
100
AcDbCircle
 10
351.2995704967995
 20
601.8459647922028
 30
0.0
 40
1.0
100
AcDbArc
 50
298.1227212585987
 51
15.59156445567352
  0
ARC
  5
11EC
330
18
100
AcDbEntity
  8
1
370
     0
100
AcDbCircle
 10
368.7233996583647
 20
606.7080201659758
 30
0.0
 40
17.0894832736882
100
AcDbArc
 50
169.5512926871803
 51
195.5915644556734
  0
CIRCLE
  5
11ED
330
18
100
AcDbEntity
  8
1
370
     0
100
AcDbCircle
 10
342.6625043958176
 20
605.5376240101906
 30
0.0
 40
12.5
  0
LWPOLYLINE
  5
11EE
330
18
100
AcDbEntity
  8
1
  6
ByBlock
100
AcDbPolyline
 90
        3
 70
     0
 43
0.0
 10
313.6625043958174
 20
581.8918726991261
 42
-0.2152504370215102
 10
310.6625043958176
 20
580.5376240101906
 10
290.6625043958176
 20
580.5376240101906
  0
LWPOLYLINE
  5
11EF
330
18
100
AcDbEntity
  8
1
  6
ByBlock
100
AcDbPolyline
 90
       10
 70
     0
 43
0.0
 10
336.6625043958176
 20
582.5376240101905
 10
316.6625043958176
 20
582.5376240101905
 42
-0.4142135623730701
 10
314.6625043958176
 20
584.5376240101907
 10
314.6625043958176
 20
626.5376240101906
 42
-0.4142135623730535
 10
316.6625043958176
 20
628.5376240101907
 10
368.6625043958176
 20
628.5376240101905
 42
-0.4142135623730701
 10
370.6625043958176
 20
626.5376240101906
 10
370.6625043958176
 20
584.5376240101908
 42
-0.4142135623730535
 10
368.6625043958176
 20
582.5376240101905
 10
348.6625043958176
 20
582.5376240101905
  0
LWPOLYLINE
  5
11F0
330
18
100
AcDbEntity
  8
1
  6
ByBlock
100
AcDbPolyline
 90
        7
 70
     0
 43
0.0
 10
313.6625043958167
 20
629.1833753212541
 42
-0.2152504370216078
 10
316.6625043958176
 20
630.5376240101907
 10
368.6625043958176
 20
630.5376240101906
 42
-0.4142135623730743
 10
372.6625043958176
 20
626.5376240101906
 10
372.6625043958176
 20
584.5376240101906
 42
-0.4142135623730659
 10
368.6625043958176
 20
580.5376240101906
 10
348.6625043958176
 20
580.5376240101906
  0
LWPOLYLINE
  5
11F1
330
18
100
AcDbEntity
  8
1
  6
ByBlock
100
AcDbPolyline
 90
       10
 70
     0
 43
0.0
 10
278.6625043958177
 20
582.5376240101907
 10
258.6625043958176
 20
582.5376240101907
 42
-0.4142135623730701
 10
256.6625043958176
 20
584.5376240101908
 10
256.6625043958176
 20
626.5376240101906
 42
-0.4142135623730535
 10
258.6625043958176
 20
628.5376240101908
 10
310.6625043958176
 20
628.5376240101905
 42
-0.4142135623730701
 10
312.6625043958176
 20
626.5376240101906
 10
312.6625043958176
 20
584.5376240101908
 42
-0.4142135623730535
 10
310.6625043958176
 20
582.5376240101905
 10
290.6625043958176
 20
582.5376240101905
  0
CIRCLE
  5
11F3
330
18
100
AcDbEntity
  8
1
370
     0
100
AcDbCircle
 10
284.6625043958176
 20
605.5376240101907
 30
0.0
 40
12.5
  0
ARC
  5
11F4
330
18
100
AcDbEntity
  8
1
370
     0
100
AcDbCircle
 10
261.6902649549188
 20
593.1757348294508
 30
0.0
 40
17.0894832736882
100
AcDbArc
 50
15.26557840146063
 51
41.3058501699582
  0
ARC
  5
11F5
330
18
100
AcDbEntity
  8
1
370
     0
100
AcDbCircle
 10
280.0044615228432
 20
579.8696921566028
 30
0.0
 40
17.0894832736882
100
AcDbArc
 50
66.69414983003605
 51
92.73442159852832
  0
ARC
  5
11F6
330
18
100
AcDbEntity
  8
1
370
     0
100
AcDbCircle
 10
301.8262593808767
 20
585.8921256998967
 30
0.0
 40
17.0894832736882
100
AcDbArc
 50
118.1227212585987
 51
144.1629930270991
  0
ARC
  5
11F7
330
18
100
AcDbEntity
  8
1
370
     0
100
AcDbCircle
 10
310.7233996583647
 20
606.7080201659758
 30
0.0
 40
17.0894832736882
100
AcDbArc
 50
169.5512926871803
 51
195.5915644556734
  0
ARC
  5
11F8
330
18
100
AcDbEntity
  8
1
370
     0
100
AcDbCircle
 10
277.7223577616732
 20
630.6846805724099
 30
0.0
 40
17.0894832736882
100
AcDbArc
 50
272.4084355443161
 51
298.4487073128221
  0
ARC
  5
11F9
330
18
100
AcDbEntity
  8
1
370
     0
100
AcDbCircle
 10
260.674633234277
 20
615.7905321919803
 30
0.0
 40
17.0894832736882
100
AcDbArc
 50
323.8370069728881
 51
349.8772787413922
  0
ARC
  5
11FA
330
18
100
AcDbEntity
  8
1
370
     0
100
AcDbCircle
 10
292.9338824269261
 20
609.9886423297416
 30
0.0
 40
1.0
100
AcDbArc
 50
349.5512926871804
 51
67.02013588424759
  0
ARC
  5
11FB
330
18
100
AcDbEntity
  8
1
370
     0
100
AcDbCircle
 10
293.2995704967995
 20
601.8459647922029
 30
0.0
 40
1.0
100
AcDbArc
 50
298.1227212585987
 51
15.59156445567352
  0
ARC
  5
11FC
330
18
100
AcDbEntity
  8
1
370
     0
100
AcDbCircle
 10
287.161371628593
 20
596.4831819419327
 30
0.0
 40
1.0
100
AcDbArc
 50
246.694149830036
 51
324.1629930271186
  0
ARC
  5
11FD
330
18
100
AcDbEntity
  8
1
370
     0
100
AcDbCircle
 10
279.1414747665053
 20
597.9385786460197
 30
0.0
 40
1.0
100
AcDbArc
 50
195.2655784014606
 51
272.7344215985282
  0
ARC
  5
11FE
330
18
100
AcDbEntity
  8
1
370
     0
100
AcDbCircle
 10
275.2790258237701
 20
605.1162115016035
 30
0.0
 40
1.0
100
AcDbArc
 50
143.8370069728881
 51
221.3058501699594
  0
ARC
  5
11FF
330
18
100
AcDbEntity
  8
1
370
     0
100
AcDbCircle
 10
278.4825276338667
 20
612.6111765714019
 30
0.0
 40
1.0
100
AcDbArc
 50
92.40843554431618
 51
169.8772787413923
  0
ARC
  5
1200
330
18
100
AcDbEntity
  8
1
370
     0
100
AcDbCircle
 10
286.339677994265
 20
614.7796122884316
 30
0.0
 40
1.0
100
AcDbArc
 50
40.97986411575033
 51
118.4487073128221
  0
LINE
  5
1206
330
18
100
AcDbEntity
  8
1
  6
ByBlock
100
AcDbLine
 10
295.5339799347989
 20
599.31427333911
 30
0.0
 11
299.8641069537211
 21
596.8142733391101
 31
0.0
  0
LINE
  5
1207
330
18
100
AcDbEntity
  8
1
  6
ByBlock
100
AcDbLine
 10
296.1305133631169
 20
600.485036112412
 30
0.0
 11
298.3656862604566
 21
599.489873021892
 31
0.0
  0
LINE
  5
1208
330
18
100
AcDbEntity
  8
1
  6
ByBlock
100
AcDbLine
 10
296.6014008853539
 20
601.7117400472927
 30
0.0
 11
298.9283521402449
 21
600.9556677524048
 31
0.0
  0
LINE
  5
1209
330
18
100
AcDbEntity
  8
1
  6
ByBlock
100
AcDbLine
 10
296.9414833592773
 20
602.9809451187377
 30
0.0
 11
299.3347184068247
 21
602.4722473057628
 31
0.0
  0
LINE
  5
120A
330
18
100
AcDbEntity
  8
1
  6
ByBlock
100
AcDbLine
 10
297.1470347701351
 20
604.2787456503853
 30
0.0
 11
299.5803328263418
 21
604.0229957190144
 31
0.0
  0
LINE
  5
120B
330
18
100
AcDbEntity
  8
1
  6
ByBlock
100
AcDbLine
 10
297.2158030536563
 20
605.5909226680292
 30
0.0
 11
302.2158030536563
 21
605.5909226680292
 31
0.0
  0
LINE
  5
120C
330
18
100
AcDbEntity
  8
1
  6
ByBlock
100
AcDbLine
 10
297.1470347701351
 20
606.9030996856729
 30
0.0
 11
299.5803328263418
 21
607.158849617044
 31
0.0
  0
LINE
  5
120D
330
18
100
AcDbEntity
  8
1
  6
ByBlock
100
AcDbLine
 10
296.9414833592773
 20
608.2009002173206
 30
0.0
 11
299.3347184068247
 21
608.7095980302954
 31
0.0
  0
LINE
  5
120E
330
18
100
AcDbEntity
  8
1
  6
ByBlock
100
AcDbLine
 10
296.6014008853542
 20
609.4701052887655
 30
0.0
 11
298.9283521402449
 21
610.2261775836535
 31
0.0
  0
LINE
  5
120F
330
18
100
AcDbEntity
  8
1
  6
ByBlock
100
AcDbLine
 10
296.1305133631169
 20
610.6968092236463
 30
0.0
 11
298.3656862604566
 21
611.6919723141661
 31
0.0
  0
LINE
  5
1210
330
18
100
AcDbEntity
  8
1
  6
ByBlock
100
AcDbLine
 10
295.5339799347989
 20
611.8675719969485
 30
0.0
 11
299.8641069537211
 21
614.3675719969485
 31
0.0
  0
LINE
  5
1211
330
18
100
AcDbEntity
  8
1
  6
ByBlock
100
AcDbLine
 10
294.8183363454734
 20
612.9695664867295
 30
0.0
 11
296.7977593114419
 21
614.4077014524161
 31
0.0
  0
LINE
  5
1212
330
18
100
AcDbEntity
  8
1
  6
ByBlock
100
AcDbLine
 10
293.9914233360625
 20
613.9907190107524
 30
0.0
 11
295.8096767779786
 21
615.6278817634121
 31
0.0
  0
LINE
  5
1213
330
18
100
AcDbEntity
  8
1
  6
ByBlock
100
AcDbLine
 10
293.0623007385413
 20
614.9198416082742
 30
0.0
 11
294.6994634912007
 21
616.7380950501899
 31
0.0
  0
LINE
  5
1214
330
18
100
AcDbEntity
  8
1
  6
ByBlock
100
AcDbLine
 10
292.0411482145177
 20
615.7467546176847
 30
0.0
 11
293.4792831802044
 21
617.7261775836536
 31
0.0
  0
LINE
  5
1215
330
18
100
AcDbEntity
  8
1
  6
ByBlock
100
AcDbLine
 10
290.939153724737
 20
616.4623982070104
 30
0.0
 11
293.439153724737
 21
620.7925252259326
 31
0.0
  0
LINE
  5
1216
330
18
100
AcDbEntity
  8
1
  6
ByBlock
100
AcDbLine
 10
289.7683909514348
 20
617.0589316353284
 30
0.0
 11
290.7635540419548
 21
619.2941045326681
 31
0.0
  0
LINE
  5
1217
330
18
100
AcDbEntity
  8
1
  6
ByBlock
100
AcDbLine
 10
288.541687016554
 20
617.5298191575656
 30
0.0
 11
289.2977593114419
 21
619.8567704124565
 31
0.0
  0
LINE
  5
1218
330
18
100
AcDbEntity
  8
1
  6
ByBlock
100
AcDbLine
 10
287.2724819451091
 20
617.8699016314887
 30
0.0
 11
287.7811797580839
 21
620.2631366790362
 31
0.0
  0
LINE
  5
1219
330
18
100
AcDbEntity
  8
1
  6
ByBlock
100
AcDbLine
 10
285.9746814134614
 20
618.0754530423468
 30
0.0
 11
286.2304313448325
 21
620.5087510985532
 31
0.0
  0
LINE
  5
121A
330
18
100
AcDbEntity
  8
1
  6
ByBlock
100
AcDbLine
 10
284.6625043958174
 20
618.1442213258675
 30
0.0
 11
284.6625043958174
 21
623.1442213258675
 31
0.0
  0
LINE
  5
121B
330
18
100
AcDbEntity
  8
1
  6
ByBlock
100
AcDbLine
 10
283.3503273781739
 20
618.0754530423467
 30
0.0
 11
283.0945774468029
 21
620.5087510985532
 31
0.0
  0
LINE
  5
121C
330
18
100
AcDbEntity
  8
1
  6
ByBlock
100
AcDbLine
 10
282.052526846526
 20
617.8699016314888
 30
0.0
 11
281.5438290335512
 21
620.2631366790361
 31
0.0
  0
LINE
  5
121D
330
18
100
AcDbEntity
  8
1
  6
ByBlock
100
AcDbLine
 10
280.7833217750813
 20
617.5298191575656
 30
0.0
 11
280.0272494801934
 21
619.8567704124565
 31
0.0
  0
LINE
  5
121E
330
18
100
AcDbEntity
  8
1
  6
ByBlock
100
AcDbLine
 10
279.5566178402007
 20
617.0589316353284
 30
0.0
 11
278.5614547496807
 21
619.2941045326683
 31
0.0
  0
LINE
  5
121F
330
18
100
AcDbEntity
  8
1
  6
ByBlock
100
AcDbLine
 10
278.3858550668985
 20
616.4623982070103
 30
0.0
 11
275.8858550668985
 21
620.7925252259325
 31
0.0
  0
LINE
  5
1220
330
18
100
AcDbEntity
  8
1
  6
ByBlock
100
AcDbLine
 10
277.2838605771171
 20
615.7467546176847
 30
0.0
 11
275.8457256114304
 21
617.7261775836532
 31
0.0
  0
LINE
  5
1221
330
18
100
AcDbEntity
  8
1
  6
ByBlock
100
AcDbLine
 10
276.2627080530944
 20
614.9198416082741
 30
0.0
 11
274.6255453004348
 21
616.7380950501901
 31
0.0
  0
LINE
  5
1222
330
18
100
AcDbEntity
  8
1
  6
ByBlock
100
AcDbLine
 10
275.333585455573
 20
613.9907190107525
 30
0.0
 11
273.5153320136569
 21
615.6278817634123
 31
0.0
  0
LINE
  5
1223
330
18
100
AcDbEntity
  8
1
  6
ByBlock
100
AcDbLine
 10
274.5066724461621
 20
612.9695664867295
 30
0.0
 11
272.5272494801934
 21
614.4077014524163
 31
0.0
  0
LINE
  5
1224
330
18
100
AcDbEntity
  8
1
  6
ByBlock
100
AcDbLine
 10
273.7910288568366
 20
611.8675719969482
 30
0.0
 11
269.4609018379144
 21
614.3675719969483
 31
0.0
  0
LINE
  5
1225
330
18
100
AcDbEntity
  8
1
  6
ByBlock
100
AcDbLine
 10
273.1944954285186
 20
610.6968092236463
 30
0.0
 11
270.9593225311787
 21
611.6919723141664
 31
0.0
  0
LINE
  5
1226
330
18
100
AcDbEntity
  8
1
  6
ByBlock
100
AcDbLine
 10
272.7236079062815
 20
609.4701052887653
 30
0.0
 11
270.3966566513904
 21
610.2261775836533
 31
0.0
  0
LINE
  5
1227
330
18
100
AcDbEntity
  8
1
  6
ByBlock
100
AcDbLine
 10
272.3835254323578
 20
608.2009002173206
 30
0.0
 11
269.9902903848105
 21
608.7095980302954
 31
0.0
  0
LINE
  5
1228
330
18
100
AcDbEntity
  8
1
  6
ByBlock
100
AcDbLine
 10
272.1779740215001
 20
606.9030996856729
 30
0.0
 11
269.7446759652935
 21
607.158849617044
 31
0.0
  0
LINE
  5
1229
330
18
100
AcDbEntity
  8
1
  6
ByBlock
100
AcDbLine
 10
272.1092057379792
 20
605.5909226680292
 30
0.0
 11
267.1092057379792
 21
605.5909226680292
 31
0.0
  0
LINE
  5
122A
330
18
100
AcDbEntity
  8
1
  6
ByBlock
100
AcDbLine
 10
272.1779740215001
 20
604.2787456503853
 30
0.0
 11
269.7446759652935
 21
604.0229957190144
 31
0.0
  0
LINE
  5
122B
330
18
100
AcDbEntity
  8
1
  6
ByBlock
100
AcDbLine
 10
272.383525432358
 20
602.9809451187375
 30
0.0
 11
269.9902903848105
 21
602.4722473057626
 31
0.0
  0
LINE
  5
122C
330
18
100
AcDbEntity
  8
1
  6
ByBlock
100
AcDbLine
 10
272.7236079062811
 20
601.7117400472927
 30
0.0
 11
270.3966566513902
 21
600.955667752405
 31
0.0
  0
LINE
  5
122D
330
18
100
AcDbEntity
  8
1
  6
ByBlock
100
AcDbLine
 10
273.1944954285184
 20
600.485036112412
 30
0.0
 11
270.9593225311787
 21
599.489873021892
 31
0.0
  0
LINE
  5
122E
330
18
100
AcDbEntity
  8
1
  6
ByBlock
100
AcDbLine
 10
273.7910288568364
 20
599.3142733391098
 30
0.0
 11
269.4609018379142
 21
596.8142733391098
 31
0.0
  0
ARC
  5
122F
330
18
100
AcDbEntity
  8
1
370
     0
100
AcDbCircle
 10
299.9961542577718
 20
626.6425824550179
 30
0.0
 40
17.0894832736882
100
AcDbArc
 50
220.9798641157503
 51
247.0201358842476
  0
LWPOLYLINE
  5
1230
330
18
100
AcDbEntity
  8
1
  6
ByBlock
100
AcDbPolyline
 90
        4
 70
     0
 43
0.0
 10
255.662504395821
 20
629.1833753212592
 42
-0.2152504370211827
 10
258.6625043958176
 20
630.5376240101908
 10
310.6625043958176
 20
630.5376240101906
 42
-0.2152504370214419
 10
313.6625043958167
 20
629.183375321256
  0
LWPOLYLINE
  5
1231
330
18
100
AcDbEntity
  8
1
  6
ByBlock
100
AcDbPolyline
 90
        3
 70
     0
 43
0.0
 10
255.6625043958217
 20
581.8918726991308
 42
-0.2152504370219283
 10
252.6625043958176
 20
580.5376240101906
 10
232.6625043958177
 20
580.5376240101906
  0
LINE
  5
1232
330
18
100
AcDbEntity
  8
1
  6
ByBlock
100
AcDbLine
 10
174.6625043958176
 20
582.5376240101905
 30
0.0
 11
174.6625043958176
 21
580.5376240101906
 31
0.0
  0
LINE
  5
1233
330
18
100
AcDbEntity
  8
1
  6
ByBlock
100
AcDbLine
 10
162.6625043958176
 20
582.5376240101907
 30
0.0
 11
162.6625043958176
 21
580.5376240101907
 31
0.0
  0
LWPOLYLINE
  5
1234
330
18
100
AcDbEntity
  8
1
  6
ByBlock
100
AcDbPolyline
 90
        7
 70
     0
 43
0.0
 10
162.6625043958176
 20
580.5376240101907
 10
142.6625043958176
 20
580.5376240101907
 42
-0.4142135623730743
 10
138.6625043958176
 20
584.5376240101906
 10
138.6625043958176
 20
626.5376240101907
 42
-0.4142135623730659
 10
142.6625043958176
 20
630.5376240101908
 10
194.6625043958176
 20
630.5376240101906
 42
-0.2152504370214419
 10
197.6625043958167
 20
629.183375321256
  0
LINE
  5
1235
330
18
100
AcDbEntity
  8
1
  6
ByBlock
100
AcDbLine
 10
220.6625043958176
 20
582.5376240101907
 30
0.0
 11
220.6625043958176
 21
580.5376240101907
 31
0.0
  0
LINE
  5
1236
330
18
100
AcDbEntity
  8
1
  6
ByBlock
100
AcDbLine
 10
232.6625043958177
 20
582.5376240101905
 30
0.0
 11
232.6625043958177
 21
580.5376240101906
 31
0.0
  0
LWPOLYLINE
  5
1237
330
18
100
AcDbEntity
  8
1
  6
ByBlock
100
AcDbPolyline
 90
        3
 70
     0
 43
0.0
 10
220.6625043958176
 20
580.5376240101906
 10
200.6625043958176
 20
580.5376240101906
 42
-0.2152504370215498
 10
197.6625043958174
 20
581.8918726991264
  0
LINE
  5
1238
330
18
100
AcDbEntity
  8
1
  6
ByBlock
100
AcDbLine
 10
278.6625043958177
 20
582.5376240101907
 30
0.0
 11
278.6625043958177
 21
580.5376240101907
 31
0.0
  0
LINE
  5
1239
330
18
100
AcDbEntity
  8
1
  6
ByBlock
100
AcDbLine
 10
290.6625043958176
 20
582.5376240101905
 30
0.0
 11
290.6625043958176
 21
580.5376240101906
 31
0.0
  0
LINE
  5
123A
330
18
100
AcDbEntity
  8
1
  6
ByBlock
100
AcDbLine
 10
348.6625043958176
 20
582.5376240101905
 30
0.0
 11
348.6625043958176
 21
580.5376240101906
 31
0.0
  0
LINE
  5
123B
330
18
100
AcDbEntity
  8
1
  6
ByBlock
100
AcDbLine
 10
336.6625043958176
 20
582.5376240101907
 30
0.0
 11
336.6625043958176
 21
580.5376240101907
 31
0.0
  0
LWPOLYLINE
  5
123C
330
18
100
AcDbEntity
  8
1
  6
ByBlock
100
AcDbPolyline
 90
        3
 70
     0
 43
0.0
 10
278.6625043958177
 20
580.5376240101907
 10
258.6625043958176
 20
580.5376240101907
 42
-0.215250437021123
 10
255.6625043958217
 20
581.8918726991215
  0
LWPOLYLINE
  5
123D
330
18
100
AcDbEntity
  8
1
  6
ByBlock
100
AcDbPolyline
 90
        3
 70
     0
 43
0.0
 10
336.6625043958176
 20
580.5376240101906
 10
316.6625043958176
 20
580.5376240101906
 42
-0.2152504370215498
 10
313.6625043958174
 20
581.8918726991264
  0
LWPOLYLINE
  5
123E
330
18
100
AcDbEntity
  8
1
  6
ByBlock
100
AcDbPolyline
 90
        4
 70
     1
 43
0.0
 10
142.6625043958176
 20
575.5376240101906
 10
194.6625043958176
 20
575.5376240101906
 10
194.6625043958176
 20
528.5376240101905
 10
142.6625043958176
 20
528.5376240101905
  0
CIRCLE
  5
123F
330
18
100
AcDbEntity
  8
1
  6
ByBlock
100
AcDbCircle
 10
150.6625043958176
 20
568.5376240101906
 30
0.0
 40
1.5
  0
CIRCLE
  5
1240
330
18
100
AcDbEntity
  8
1
  6
ByBlock
100
AcDbCircle
 10
150.6625043958176
 20
568.5376240101906
 30
0.0
 40
3.0
  0
CIRCLE
  5
1241
330
18
100
AcDbEntity
  8
1
  6
ByBlock
100
AcDbCircle
 10
162.6625043958176
 20
568.5376240101906
 30
0.0
 40
3.0
  0
CIRCLE
  5
1242
330
18
100
AcDbEntity
  8
1
  6
ByBlock
100
AcDbCircle
 10
162.6625043958176
 20
568.5376240101906
 30
0.0
 40
1.5
  0
CIRCLE
  5
1243
330
18
100
AcDbEntity
  8
1
  6
ByBlock
100
AcDbCircle
 10
174.6625043958176
 20
568.5376240101906
 30
0.0
 40
3.0
  0
CIRCLE
  5
1244
330
18
100
AcDbEntity
  8
1
  6
ByBlock
100
AcDbCircle
 10
174.6625043958176
 20
568.5376240101906
 30
0.0
 40
1.5
  0
CIRCLE
  5
1245
330
18
100
AcDbEntity
  8
1
  6
ByBlock
100
AcDbCircle
 10
186.6625043958176
 20
568.5376240101906
 30
0.0
 40
1.5
  0
CIRCLE
  5
1246
330
18
100
AcDbEntity
  8
1
  6
ByBlock
100
AcDbCircle
 10
186.6625043958176
 20
568.5376240101906
 30
0.0
 40
3.0
  0
LWPOLYLINE
  5
1247
330
18
100
AcDbEntity
  8
1
  6
ByBlock
100
AcDbPolyline
 90
        4
 70
     1
 43
0.0
 10
145.6625043958176
 20
562.5376240101906
 10
155.6625043958176
 20
562.5376240101906
 10
155.6625043958176
 20
551.5376240101906
 10
145.6625043958176
 20
551.5376240101906
  0
LWPOLYLINE
  5
1248
330
18
100
AcDbEntity
  8
1
  6
ByBlock
100
AcDbPolyline
 90
        4
 70
     1
 43
0.0
 10
157.6625043958176
 20
562.5376240101906
 10
167.6625043958176
 20
562.5376240101906
 10
167.6625043958176
 20
551.5376240101906
 10
157.6625043958176
 20
551.5376240101906
  0
LWPOLYLINE
  5
1249
330
18
100
AcDbEntity
  8
1
  6
ByBlock
100
AcDbPolyline
 90
        4
 70
     1
 43
0.0
 10
169.6625043958176
 20
562.5376240101906
 10
179.6625043958176
 20
562.5376240101906
 10
179.6625043958176
 20
551.5376240101906
 10
169.6625043958176
 20
551.5376240101906
  0
LWPOLYLINE
  5
124A
330
18
100
AcDbEntity
  8
1
  6
ByBlock
100
AcDbPolyline
 90
        4
 70
     1
 43
0.0
 10
181.6625043958176
 20
562.5376240101906
 10
191.6625043958176
 20
562.5376240101906
 10
191.6625043958176
 20
551.5376240101906
 10
181.6625043958176
 20
551.5376240101906
  0
CIRCLE
  5
124B
330
18
100
AcDbEntity
  8
1
  6
ByBlock
100
AcDbCircle
 10
156.6625043958176
 20
543.5376240101906
 30
0.0
 40
1.5
  0
CIRCLE
  5
124C
330
18
100
AcDbEntity
  8
1
  6
ByBlock
100
AcDbCircle
 10
156.6625043958176
 20
543.5376240101906
 30
0.0
 40
3.0
  0
CIRCLE
  5
124D
330
18
100
AcDbEntity
  8
1
  6
ByBlock
100
AcDbCircle
 10
180.6625043958176
 20
543.5376240101906
 30
0.0
 40
3.0
  0
CIRCLE
  5
124E
330
18
100
AcDbEntity
  8
1
  6
ByBlock
100
AcDbCircle
 10
180.6625043958176
 20
543.5376240101906
 30
0.0
 40
1.5
  0
LWPOLYLINE
  5
124F
330
18
100
AcDbEntity
  8
1
  6
ByBlock
100
AcDbPolyline
 90
       10
 70
     0
 43
0.0
 10
156.6625043958176
 20
463.5376240101906
 10
144.1625043958176
 20
463.5376240101906
 42
-0.4142135623730618
 10
140.1625043958176
 20
467.5376240101906
 10
140.1625043958176
 20
522.5376240101907
 42
-0.4142135623730369
 10
144.1625043958176
 20
526.5376240101906
 10
193.1625043958176
 20
526.5376240101906
 42
-0.4142135623730618
 10
197.1625043958176
 20
522.5376240101906
 10
197.1625043958176
 20
467.5376240101904
 42
-0.4142135623730369
 10
193.1625043958178
 20
463.5376240101906
 10
180.6625043958176
 20
463.5376240101906
  0
LWPOLYLINE
  5
1250
330
18
100
AcDbEntity
  8
1
  6
ByBlock
100
AcDbPolyline
 90
       10
 70
     0
 43
0.0
 10
156.6625043958176
 20
465.5376240101905
 10
144.1625043958176
 20
465.5376240101905
 42
-0.4142135623730285
 10
142.1625043958176
 20
467.5376240101906
 10
142.1625043958176
 20
522.5376240101905
 42
-0.4142135623730784
 10
144.1625043958176
 20
524.5376240101905
 10
193.1625043958176
 20
524.5376240101905
 42
-0.4142135623730285
 10
195.1625043958176
 20
522.5376240101906
 10
195.1625043958176
 20
467.5376240101907
 42
-0.4142135623730784
 10
193.1625043958174
 20
465.5376240101905
 10
180.6625043958176
 20
465.5376240101905
  0
LINE
  5
1251
330
18
100
AcDbEntity
  8
1
  6
ByBlock
100
AcDbLine
 10
180.6625043958176
 20
463.5376240101906
 30
0.0
 11
180.6625043958176
 21
465.5376240101905
 31
0.0
  0
LINE
  5
1252
330
18
100
AcDbEntity
  8
1
  6
ByBlock
100
AcDbLine
 10
156.6625043958176
 20
463.5376240101906
 30
0.0
 11
156.6625043958176
 21
465.5376240101905
 31
0.0
  0
LWPOLYLINE
  5
1253
330
18
100
AcDbEntity
  8
1
  6
ByBlock
100
AcDbPolyline
 90
        4
 70
     1
 43
0.0
 10
157.6625043958176
 20
484.5376240101906
 10
179.6625043958176
 20
484.5376240101906
 10
179.6625043958176
 20
475.5376240101906
 10
157.6625043958176
 20
475.5376240101906
  0
LWPOLYLINE
  5
1254
330
18
100
AcDbEntity
  8
1
  6
ByBlock
100
AcDbPolyline
 90
        4
 70
     1
 43
0.0
 10
157.6625043958176
 20
484.5376240101906
 10
159.6625043958176
 20
484.5376240101906
 10
159.6625043958176
 20
475.5376240101906
 10
157.6625043958176
 20
475.5376240101906
  0
LINE
  5
1255
330
18
100
AcDbEntity
  8
1
  6
ByBlock
100
AcDbLine
 10
154.9906984966646
 20
478.9620079652226
 30
0.0
 11
154.9906984966646
 21
479.3120079652225
 31
0.0
  0
LINE
  5
1256
330
18
100
AcDbEntity
  8
1
  6
ByBlock
100
AcDbLine
 10
154.2906984966648
 20
478.9620079652226
 30
0.0
 11
154.2906984966648
 21
479.3120079652227
 31
0.0
  0
LINE
  5
1257
330
18
100
AcDbEntity
  8
1
  6
ByBlock
100
AcDbLine
 10
155.6906984966647
 20
480.3620079652225
 30
0.0
 11
155.3406984966648
 21
480.3620079652225
 31
0.0
  0
LINE
  5
1258
330
18
100
AcDbEntity
  8
1
  6
ByBlock
100
AcDbLine
 10
155.6906984966647
 20
479.6620079652224
 30
0.0
 11
155.3406984966648
 21
479.6620079652224
 31
0.0
  0
LINE
  5
1259
330
18
100
AcDbEntity
  8
1
  6
ByBlock
100
AcDbLine
 10
154.9906984966646
 20
478.9620079652226
 30
0.0
 11
154.9906984966646
 21
479.3120079652225
 31
0.0
  0
LINE
  5
125A
330
18
100
AcDbEntity
  8
1
  6
ByBlock
100
AcDbLine
 10
154.2906984966648
 20
480.7120079652226
 30
0.0
 11
154.2906984966648
 21
481.0620079652225
 31
0.0
  0
LINE
  5
125B
330
18
100
AcDbEntity
  8
1
  6
ByBlock
100
AcDbLine
 10
154.9906984966646
 20
480.7120079652226
 30
0.0
 11
154.9906984966646
 21
481.0620079652225
 31
0.0
  0
LINE
  5
125C
330
18
100
AcDbEntity
  8
1
  6
ByBlock
100
AcDbLine
 10
154.9906984966646
 20
480.7120079652226
 30
0.0
 11
154.9906984966646
 21
481.0620079652225
 31
0.0
  0
LINE
  5
125D
330
18
100
AcDbEntity
  8
1
  6
ByBlock
100
AcDbLine
 10
153.9406984966647
 20
480.3620079652226
 30
0.0
 11
153.5906984966648
 21
480.3620079652226
 31
0.0
  0
LINE
  5
125E
330
18
100
AcDbEntity
  8
1
  6
ByBlock
100
AcDbLine
 10
153.9406984966647
 20
479.6620079652227
 30
0.0
 11
153.5906984966648
 21
479.6620079652227
 31
0.0
  0
ARC
  5
125F
330
18
100
AcDbEntity
  8
1
  6
ByBlock
100
AcDbCircle
 10
155.3406984966648
 20
480.7120079652226
 30
0.0
 40
0.35
100
AcDbArc
 50
180.0
 51
270.0
  0
ARC
  5
1260
330
18
100
AcDbEntity
  8
1
  6
ByBlock
100
AcDbCircle
 10
153.9406984966647
 20
480.7120079652226
 30
0.0
 40
0.35
100
AcDbArc
 50
270.0
 51
0.0
  0
ARC
  5
1261
330
18
100
AcDbEntity
  8
1
  6
ByBlock
100
AcDbCircle
 10
153.9406984966647
 20
479.3120079652227
 30
0.0
 40
0.35
100
AcDbArc
 50
0.0
 51
90.0
  0
ARC
  5
1262
330
18
100
AcDbEntity
  8
1
  6
ByBlock
100
AcDbCircle
 10
155.3406984966648
 20
479.3120079652225
 30
0.0
 40
0.35
100
AcDbArc
 50
90.0
 51
180.0
  0
LINE
  5
1263
330
18
100
AcDbEntity
  8
1
  6
ByBlock
100
AcDbLine
 10
154.2906984966648
 20
481.0620079652225
 30
0.0
 11
154.9906984966646
 21
481.0620079652225
 31
0.0
  0
LINE
  5
1264
330
18
100
AcDbEntity
  8
1
  6
ByBlock
100
AcDbLine
 10
154.2906984966648
 20
478.9620079652226
 30
0.0
 11
154.9906984966646
 21
478.9620079652224
 31
0.0
  0
LINE
  5
1265
330
18
100
AcDbEntity
  8
1
  6
ByBlock
100
AcDbLine
 10
153.5906984966645
 20
479.6620079652227
 30
0.0
 11
153.5906984966648
 21
480.3620079652226
 31
0.0
  0
LINE
  5
1266
330
18
100
AcDbEntity
  8
1
  6
ByBlock
100
AcDbLine
 10
155.6906984966649
 20
479.6620079652224
 30
0.0
 11
155.6906984966647
 21
480.3620079652225
 31
0.0
  0
CIRCLE
  5
1267
330
18
100
AcDbEntity
  8
1
  6
ByBlock
100
AcDbCircle
 10
154.6625043958176
 20
480.0376240101906
 30
0.0
 40
1.5
  0
ARC
  5
1268
330
18
100
AcDbEntity
  8
1
  6
ByBlock
100
AcDbCircle
 10
183.3843102949706
 20
480.7120079652226
 30
0.0
 40
0.35
100
AcDbArc
 50
180.0
 51
270.0
  0
LINE
  5
1269
330
18
100
AcDbEntity
  8
1
  6
ByBlock
100
AcDbLine
 10
181.6343102949704
 20
479.6620079652224
 30
0.0
 11
181.6343102949706
 21
480.3620079652225
 31
0.0
  0
LINE
  5
126A
330
18
100
AcDbEntity
  8
1
  6
ByBlock
100
AcDbLine
 10
183.7343102949707
 20
479.6620079652227
 30
0.0
 11
183.7343102949705
 21
480.3620079652226
 31
0.0
  0
LINE
  5
126B
330
18
100
AcDbEntity
  8
1
  6
ByBlock
100
AcDbLine
 10
183.0343102949704
 20
478.9620079652226
 30
0.0
 11
182.3343102949706
 21
478.9620079652224
 31
0.0
  0
LINE
  5
126C
330
18
100
AcDbEntity
  8
1
  6
ByBlock
100
AcDbLine
 10
183.0343102949704
 20
481.0620079652225
 30
0.0
 11
182.3343102949706
 21
481.0620079652225
 31
0.0
  0
ARC
  5
126D
330
18
100
AcDbEntity
  8
1
  6
ByBlock
100
AcDbCircle
 10
181.9843102949705
 20
479.3120079652225
 30
0.0
 40
0.35
100
AcDbArc
 50
0.0
 51
90.0
  0
ARC
  5
126E
330
18
100
AcDbEntity
  8
1
  6
ByBlock
100
AcDbCircle
 10
183.3843102949706
 20
479.3120079652227
 30
0.0
 40
0.35
100
AcDbArc
 50
90.0
 51
180.0
  0
ARC
  5
126F
330
18
100
AcDbEntity
  8
1
  6
ByBlock
100
AcDbCircle
 10
181.9843102949705
 20
480.7120079652226
 30
0.0
 40
0.35
100
AcDbArc
 50
270.0
 51
0.0
  0
LINE
  5
1270
330
18
100
AcDbEntity
  8
1
  6
ByBlock
100
AcDbLine
 10
183.3843102949706
 20
479.6620079652227
 30
0.0
 11
183.7343102949705
 21
479.6620079652227
 31
0.0
  0
LINE
  5
1271
330
18
100
AcDbEntity
  8
1
  6
ByBlock
100
AcDbLine
 10
183.3843102949706
 20
480.3620079652226
 30
0.0
 11
183.7343102949705
 21
480.3620079652226
 31
0.0
  0
LINE
  5
1272
330
18
100
AcDbEntity
  8
1
  6
ByBlock
100
AcDbLine
 10
182.3343102949706
 20
480.7120079652226
 30
0.0
 11
182.3343102949706
 21
481.0620079652225
 31
0.0
  0
LINE
  5
1273
330
18
100
AcDbEntity
  8
1
  6
ByBlock
100
AcDbLine
 10
182.3343102949706
 20
480.7120079652226
 30
0.0
 11
182.3343102949706
 21
481.0620079652225
 31
0.0
  0
LINE
  5
1274
330
18
100
AcDbEntity
  8
1
  6
ByBlock
100
AcDbLine
 10
183.0343102949704
 20
480.7120079652226
 30
0.0
 11
183.0343102949704
 21
481.0620079652225
 31
0.0
  0
LINE
  5
1275
330
18
100
AcDbEntity
  8
1
  6
ByBlock
100
AcDbLine
 10
182.3343102949706
 20
478.9620079652226
 30
0.0
 11
182.3343102949706
 21
479.3120079652225
 31
0.0
  0
LINE
  5
1276
330
18
100
AcDbEntity
  8
1
  6
ByBlock
100
AcDbLine
 10
181.6343102949706
 20
479.6620079652224
 30
0.0
 11
181.9843102949705
 21
479.6620079652224
 31
0.0
  0
LINE
  5
1277
330
18
100
AcDbEntity
  8
1
  6
ByBlock
100
AcDbLine
 10
181.6343102949706
 20
480.3620079652225
 30
0.0
 11
181.9843102949705
 21
480.3620079652225
 31
0.0
  0
LINE
  5
1278
330
18
100
AcDbEntity
  8
1
  6
ByBlock
100
AcDbLine
 10
183.0343102949704
 20
478.9620079652226
 30
0.0
 11
183.0343102949704
 21
479.3120079652227
 31
0.0
  0
LINE
  5
1279
330
18
100
AcDbEntity
  8
1
  6
ByBlock
100
AcDbLine
 10
182.3343102949706
 20
478.9620079652226
 30
0.0
 11
182.3343102949706
 21
479.3120079652225
 31
0.0
  0
CIRCLE
  5
127A
330
18
100
AcDbEntity
  8
1
  6
ByBlock
100
AcDbCircle
 10
182.6625043958176
 20
480.0376240101906
 30
0.0
 40
1.5
  0
CIRCLE
  5
127B
330
18
100
AcDbEntity
  8
1
  6
ByBlock
100
AcDbCircle
 10
255.6625043958177
 20
521.5376240101906
 30
0.0
 40
43.5
  0
CIRCLE
  5
127C
330
18
100
AcDbEntity
  8
1
  6
ByBlock
100
AcDbCircle
 10
255.6625043958177
 20
521.5376240101906
 30
0.0
 40
45.49999999999999
  0
ARC
  5
127D
330
18
100
AcDbEntity
  8
1
  6
ByBlock
100
AcDbCircle
 10
255.6625043958177
 20
521.5376240101906
 30
0.0
 40
53.0
100
AcDbArc
 50
297.5270852878641
 51
85.67167456740312
  0
LINE
  5
127E
330
18
100
AcDbEntity
  8
1
  6
ByBlock
100
AcDbLine
 10
203.1625043958178
 20
482.0376240101905
 30
0.0
 11
203.1625043958176
 21
483.0376240101905
 31
0.0
  0
LINE
  5
127F
330
18
100
AcDbEntity
  8
1
  6
ByBlock
100
AcDbLine
 10
200.1625043958174
 20
482.0376240101908
 30
0.0
 11
200.1625043958176
 21
483.0376240101907
 31
0.0
  0
LINE
  5
1280
330
18
100
AcDbEntity
  8
1
  6
ByBlock
100
AcDbLine
 10
201.1625043958178
 20
481.0376240101906
 30
0.0
 11
202.1625043958176
 21
481.0376240101905
 31
0.0
  0
LINE
  5
1281
330
18
100
AcDbEntity
  8
1
  6
ByBlock
100
AcDbLine
 10
201.1625043958176
 20
484.0376240101906
 30
0.0
 11
202.1625043958176
 21
484.0376240101906
 31
0.0
  0
ARC
  5
1282
330
18
100
AcDbEntity
  8
1
  6
ByBlock
100
AcDbCircle
 10
202.6625043958176
 20
481.5376240101905
 30
0.0
 40
0.5
100
AcDbArc
 50
90.0
 51
180.0
  0
ARC
  5
1283
330
18
100
AcDbEntity
  8
1
  6
ByBlock
100
AcDbCircle
 10
200.6625043958176
 20
481.5376240101908
 30
0.0
 40
0.5
100
AcDbArc
 50
0.0
 51
90.0
  0
ARC
  5
1284
330
18
100
AcDbEntity
  8
1
  6
ByBlock
100
AcDbCircle
 10
200.6625043958176
 20
483.5376240101907
 30
0.0
 40
0.5
100
AcDbArc
 50
270.0
 51
0.0
  0
ARC
  5
1285
330
18
100
AcDbEntity
  8
1
  6
ByBlock
100
AcDbCircle
 10
202.6625043958176
 20
483.5376240101906
 30
0.0
 40
0.5
100
AcDbArc
 50
180.0
 51
270.0
  0
LINE
  5
1286
330
18
100
AcDbEntity
  8
1
  6
ByBlock
100
AcDbLine
 10
200.6625043958176
 20
482.0376240101908
 30
0.0
 11
200.1625043958176
 21
482.0376240101908
 31
0.0
  0
LINE
  5
1287
330
18
100
AcDbEntity
  8
1
  6
ByBlock
100
AcDbLine
 10
200.6625043958176
 20
483.0376240101907
 30
0.0
 11
200.1625043958176
 21
483.0376240101907
 31
0.0
  0
LINE
  5
1288
330
18
100
AcDbEntity
  8
1
  6
ByBlock
100
AcDbLine
 10
202.1625043958176
 20
483.5376240101906
 30
0.0
 11
202.1625043958176
 21
484.0376240101906
 31
0.0
  0
LINE
  5
1289
330
18
100
AcDbEntity
  8
1
  6
ByBlock
100
AcDbLine
 10
202.1625043958176
 20
483.5376240101906
 30
0.0
 11
202.1625043958176
 21
484.0376240101906
 31
0.0
  0
LINE
  5
128A
330
18
100
AcDbEntity
  8
1
  6
ByBlock
100
AcDbLine
 10
201.1625043958176
 20
483.5376240101907
 30
0.0
 11
201.1625043958176
 21
484.0376240101906
 31
0.0
  0
LINE
  5
128B
330
18
100
AcDbEntity
  8
1
  6
ByBlock
100
AcDbLine
 10
202.1625043958176
 20
481.0376240101906
 30
0.0
 11
202.1625043958176
 21
481.5376240101905
 31
0.0
  0
LINE
  5
128C
330
18
100
AcDbEntity
  8
1
  6
ByBlock
100
AcDbLine
 10
203.1625043958176
 20
482.0376240101905
 30
0.0
 11
202.6625043958176
 21
482.0376240101905
 31
0.0
  0
LINE
  5
128D
330
18
100
AcDbEntity
  8
1
  6
ByBlock
100
AcDbLine
 10
203.1625043958176
 20
483.0376240101905
 30
0.0
 11
202.6625043958176
 21
483.0376240101905
 31
0.0
  0
LINE
  5
128E
330
18
100
AcDbEntity
  8
1
  6
ByBlock
100
AcDbLine
 10
201.1625043958178
 20
481.0376240101906
 30
0.0
 11
201.1625043958176
 21
481.5376240101908
 31
0.0
  0
LINE
  5
128F
330
18
100
AcDbEntity
  8
1
  6
ByBlock
100
AcDbLine
 10
202.1625043958176
 20
481.0376240101906
 30
0.0
 11
202.1625043958176
 21
481.5376240101905
 31
0.0
  0
CIRCLE
  5
1290
330
18
100
AcDbEntity
  8
1
  6
ByBlock
100
AcDbCircle
 10
201.6625043958176
 20
482.5376240101905
 30
0.0
 40
2.0
  0
LINE
  5
1291
330
18
100
AcDbEntity
  8
1
  6
ByBlock
100
AcDbLine
 10
231.1676069679858
 20
474.5376240101905
 30
0.0
 11
280.1574018236495
 21
474.5376240101905
 31
0.0
  0
LINE
  5
1292
330
18
100
AcDbEntity
  8
1
  6
ByBlock
100
AcDbLine
 10
251.6625043958176
 20
574.3864650570858
 30
0.0
 11
255.6625043958177
 21
565.5376240101905
 31
0.0
  0
LINE
  5
1293
330
18
100
AcDbEntity
  8
1
  6
ByBlock
100
AcDbLine
 10
255.6625043958177
 20
565.5376240101905
 30
0.0
 11
259.6625043958176
 21
574.3864650570858
 31
0.0
  0
ARC
  5
1294
330
18
100
AcDbEntity
  8
1
  6
ByBlock
100
AcDbCircle
 10
255.6625043958177
 20
521.5376240101906
 30
0.0
 40
53.0
100
AcDbArc
 50
94.32832543259687
 51
242.4729147121359
  0
CIRCLE
  5
1295
330
18
100
AcDbEntity
  8
1
  6
ByBlock
100
AcDbCircle
 10
200.6625043958176
 20
567.5376240101906
 30
0.0
 40
2.0
  0
LINE
  5
1296
330
18
100
AcDbEntity
  8
1
  6
ByBlock
100
AcDbLine
 10
201.1625043958176
 20
566.0376240101905
 30
0.0
 11
201.1625043958176
 21
566.5376240101904
 31
0.0
  0
LINE
  5
1297
330
18
100
AcDbEntity
  8
1
  6
ByBlock
100
AcDbLine
 10
200.1625043958179
 20
566.0376240101905
 30
0.0
 11
200.1625043958176
 21
566.5376240101908
 31
0.0
  0
LINE
  5
1298
330
18
100
AcDbEntity
  8
1
  6
ByBlock
100
AcDbLine
 10
202.1625043958176
 20
568.0376240101906
 30
0.0
 11
201.6625043958176
 21
568.0376240101906
 31
0.0
  0
LINE
  5
1299
330
18
100
AcDbEntity
  8
1
  6
ByBlock
100
AcDbLine
 10
202.1625043958176
 20
567.0376240101904
 30
0.0
 11
201.6625043958176
 21
567.0376240101904
 31
0.0
  0
LINE
  5
129A
330
18
100
AcDbEntity
  8
1
  6
ByBlock
100
AcDbLine
 10
201.1625043958176
 20
566.0376240101905
 30
0.0
 11
201.1625043958176
 21
566.5376240101904
 31
0.0
  0
LINE
  5
129B
330
18
100
AcDbEntity
  8
1
  6
ByBlock
100
AcDbLine
 10
200.1625043958176
 20
568.5376240101907
 30
0.0
 11
200.1625043958176
 21
569.0376240101906
 31
0.0
  0
LINE
  5
129C
330
18
100
AcDbEntity
  8
1
  6
ByBlock
100
AcDbLine
 10
201.1625043958176
 20
568.5376240101906
 30
0.0
 11
201.1625043958176
 21
569.0376240101906
 31
0.0
  0
LINE
  5
129D
330
18
100
AcDbEntity
  8
1
  6
ByBlock
100
AcDbLine
 10
201.1625043958176
 20
568.5376240101906
 30
0.0
 11
201.1625043958176
 21
569.0376240101906
 31
0.0
  0
LINE
  5
129E
330
18
100
AcDbEntity
  8
1
  6
ByBlock
100
AcDbLine
 10
199.6625043958176
 20
568.0376240101907
 30
0.0
 11
199.1625043958176
 21
568.0376240101907
 31
0.0
  0
LINE
  5
129F
330
18
100
AcDbEntity
  8
1
  6
ByBlock
100
AcDbLine
 10
199.6625043958176
 20
567.0376240101908
 30
0.0
 11
199.1625043958176
 21
567.0376240101908
 31
0.0
  0
ARC
  5
12A0
330
18
100
AcDbEntity
  8
1
  6
ByBlock
100
AcDbCircle
 10
201.6625043958176
 20
568.5376240101906
 30
0.0
 40
0.5
100
AcDbArc
 50
180.0
 51
270.0
  0
ARC
  5
12A1
330
18
100
AcDbEntity
  8
1
  6
ByBlock
100
AcDbCircle
 10
199.6625043958176
 20
568.5376240101907
 30
0.0
 40
0.5
100
AcDbArc
 50
270.0
 51
0.0
  0
ARC
  5
12A2
330
18
100
AcDbEntity
  8
1
  6
ByBlock
100
AcDbCircle
 10
199.6625043958176
 20
566.5376240101908
 30
0.0
 40
0.5
100
AcDbArc
 50
0.0
 51
90.0
  0
ARC
  5
12A3
330
18
100
AcDbEntity
  8
1
  6
ByBlock
100
AcDbCircle
 10
201.6625043958176
 20
566.5376240101904
 30
0.0
 40
0.5
100
AcDbArc
 50
90.0
 51
180.0
  0
LINE
  5
12A4
330
18
100
AcDbEntity
  8
1
  6
ByBlock
100
AcDbLine
 10
200.1625043958176
 20
569.0376240101906
 30
0.0
 11
201.1625043958176
 21
569.0376240101906
 31
0.0
  0
LINE
  5
12A5
330
18
100
AcDbEntity
  8
1
  6
ByBlock
100
AcDbLine
 10
200.1625043958179
 20
566.0376240101905
 30
0.0
 11
201.1625043958176
 21
566.0376240101904
 31
0.0
  0
LINE
  5
12A6
330
18
100
AcDbEntity
  8
1
  6
ByBlock
100
AcDbLine
 10
199.1625043958174
 20
567.0376240101908
 30
0.0
 11
199.1625043958176
 21
568.0376240101907
 31
0.0
  0
LINE
  5
12A7
330
18
100
AcDbEntity
  8
1
  6
ByBlock
100
AcDbLine
 10
202.1625043958179
 20
567.0376240101904
 30
0.0
 11
202.1625043958176
 21
568.0376240101906
 31
0.0
  0
CIRCLE
  5
12A8
330
18
100
AcDbEntity
  8
1
  6
ByBlock
100
AcDbCircle
 10
295.6625043958176
 20
490.5376240101905
 30
0.0
 40
2.0
  0
LINE
  5
12A9
330
18
100
AcDbEntity
  8
1
  6
ByBlock
100
AcDbLine
 10
296.1625043958176
 20
489.0376240101906
 30
0.0
 11
296.1625043958176
 21
489.5376240101905
 31
0.0
  0
LINE
  5
12AA
330
18
100
AcDbEntity
  8
1
  6
ByBlock
100
AcDbLine
 10
295.1625043958179
 20
489.0376240101906
 30
0.0
 11
295.1625043958177
 21
489.5376240101908
 31
0.0
  0
LINE
  5
12AB
330
18
100
AcDbEntity
  8
1
  6
ByBlock
100
AcDbLine
 10
297.1625043958176
 20
491.0376240101905
 30
0.0
 11
296.6625043958176
 21
491.0376240101905
 31
0.0
  0
LINE
  5
12AC
330
18
100
AcDbEntity
  8
1
  6
ByBlock
100
AcDbLine
 10
297.1625043958176
 20
490.0376240101905
 30
0.0
 11
296.6625043958176
 21
490.0376240101905
 31
0.0
  0
LINE
  5
12AD
330
18
100
AcDbEntity
  8
1
  6
ByBlock
100
AcDbLine
 10
296.1625043958176
 20
489.0376240101906
 30
0.0
 11
296.1625043958176
 21
489.5376240101905
 31
0.0
  0
LINE
  5
12AE
330
18
100
AcDbEntity
  8
1
  6
ByBlock
100
AcDbLine
 10
295.1625043958177
 20
491.5376240101907
 30
0.0
 11
295.1625043958177
 21
492.0376240101906
 31
0.0
  0
LINE
  5
12AF
330
18
100
AcDbEntity
  8
1
  6
ByBlock
100
AcDbLine
 10
296.1625043958176
 20
491.5376240101905
 30
0.0
 11
296.1625043958176
 21
492.0376240101906
 31
0.0
  0
LINE
  5
12B0
330
18
100
AcDbEntity
  8
1
  6
ByBlock
100
AcDbLine
 10
296.1625043958176
 20
491.5376240101905
 30
0.0
 11
296.1625043958176
 21
492.0376240101906
 31
0.0
  0
LINE
  5
12B1
330
18
100
AcDbEntity
  8
1
  6
ByBlock
100
AcDbLine
 10
294.6625043958176
 20
491.0376240101907
 30
0.0
 11
294.1625043958176
 21
491.0376240101907
 31
0.0
  0
LINE
  5
12B2
330
18
100
AcDbEntity
  8
1
  6
ByBlock
100
AcDbLine
 10
294.6625043958176
 20
490.0376240101908
 30
0.0
 11
294.1625043958176
 21
490.0376240101908
 31
0.0
  0
ARC
  5
12B3
330
18
100
AcDbEntity
  8
1
  6
ByBlock
100
AcDbCircle
 10
296.6625043958176
 20
491.5376240101905
 30
0.0
 40
0.5
100
AcDbArc
 50
180.0
 51
270.0
  0
ARC
  5
12B4
330
18
100
AcDbEntity
  8
1
  6
ByBlock
100
AcDbCircle
 10
294.6625043958176
 20
491.5376240101907
 30
0.0
 40
0.5
100
AcDbArc
 50
270.0
 51
0.0
  0
ARC
  5
12B5
330
18
100
AcDbEntity
  8
1
  6
ByBlock
100
AcDbCircle
 10
294.6625043958176
 20
489.5376240101908
 30
0.0
 40
0.5
100
AcDbArc
 50
0.0
 51
90.0
  0
ARC
  5
12B6
330
18
100
AcDbEntity
  8
1
  6
ByBlock
100
AcDbCircle
 10
296.6625043958176
 20
489.5376240101905
 30
0.0
 40
0.5
100
AcDbArc
 50
90.0
 51
180.0
  0
LINE
  5
12B7
330
18
100
AcDbEntity
  8
1
  6
ByBlock
100
AcDbLine
 10
295.1625043958177
 20
492.0376240101906
 30
0.0
 11
296.1625043958176
 21
492.0376240101906
 31
0.0
  0
LINE
  5
12B8
330
18
100
AcDbEntity
  8
1
  6
ByBlock
100
AcDbLine
 10
295.1625043958179
 20
489.0376240101906
 30
0.0
 11
296.1625043958176
 21
489.0376240101905
 31
0.0
  0
LINE
  5
12B9
330
18
100
AcDbEntity
  8
1
  6
ByBlock
100
AcDbLine
 10
294.1625043958174
 20
490.0376240101908
 30
0.0
 11
294.1625043958176
 21
491.0376240101907
 31
0.0
  0
LINE
  5
12BA
330
18
100
AcDbEntity
  8
1
  6
ByBlock
100
AcDbLine
 10
297.1625043958179
 20
490.0376240101905
 30
0.0
 11
297.1625043958176
 21
491.0376240101905
 31
0.0
  0
ARC
  5
12BB
330
18
100
AcDbEntity
  8
1
  6
ByBlock
100
AcDbCircle
 10
127.6625043958176
 20
460.5376240101906
 30
0.0
 40
5.0
100
AcDbArc
 50
143.1301023541532
 51
216.8698976458467
  0
LINE
  5
12BC
330
18
100
AcDbEntity
  8
1
  6
ByBlock
100
AcDbLine
 10
124.6625043958176
 20
463.5376240101906
 30
0.0
 11
123.6625043958176
 21
463.5376240101906
 31
0.0
  0
LINE
  5
12BD
330
18
100
AcDbEntity
  8
1
  6
ByBlock
100
AcDbLine
 10
124.6625043958176
 20
457.5376240101905
 30
0.0
 11
123.6625043958176
 21
457.5376240101905
 31
0.0
  0
LINE
  5
12BE
330
18
100
AcDbEntity
  8
1
  6
ByBlock
100
AcDbLine
 10
386.6625043958176
 20
457.5376240101905
 30
0.0
 11
387.6625043958176
 21
457.5376240101905
 31
0.0
  0
LINE
  5
12BF
330
18
100
AcDbEntity
  8
1
  6
ByBlock
100
AcDbLine
 10
386.6625043958176
 20
463.5376240101906
 30
0.0
 11
387.6625043958176
 21
463.5376240101906
 31
0.0
  0
ARC
  5
12C0
330
18
100
AcDbEntity
  8
1
  6
ByBlock
100
AcDbCircle
 10
383.6625043958176
 20
460.5376240101906
 30
0.0
 40
5.0
100
AcDbArc
 50
323.1301023541532
 51
36.86989764584675
  0
LWPOLYLINE
  5
12C1
330
18
100
AcDbEntity
  8
1
  6
ByBlock
100
AcDbPolyline
 90
        4
 70
     1
 43
0.0
 10
386.6625043958176
 20
503.5376240101905
 10
387.1625043958177
 20
503.5376240101905
 10
387.1625043958177
 20
507.5376240101905
 10
386.6625043958176
 20
507.5376240101905
  0
ARC
  5
12C2
330
18
100
AcDbEntity
  8
1
  6
ByBlock
100
AcDbCircle
 10
386.6625043958176
 20
505.5376240101906
 30
0.0
 40
2.5
100
AcDbArc
 50
306.8698976458374
 51
53.1301023541625
  0
LINE
  5
12C3
330
18
100
AcDbEntity
  8
1
  6
ByBlock
100
AcDbLine
 10
388.1625043958176
 20
507.5376240101905
 30
0.0
 11
387.1625043958177
 21
507.5376240101905
 31
0.0
  0
LINE
  5
12C4
330
18
100
AcDbEntity
  8
1
  6
ByBlock
100
AcDbLine
 10
387.1625043958177
 20
507.5376240101905
 30
0.0
 11
387.1625043958177
 21
503.5376240101905
 31
0.0
  0
LINE
  5
12C5
330
18
100
AcDbEntity
  8
1
  6
ByBlock
100
AcDbLine
 10
387.1625043958177
 20
503.5376240101905
 30
0.0
 11
388.1625043958176
 21
503.5376240101905
 31
0.0
  0
LWPOLYLINE
  5
12C6
330
18
100
AcDbEntity
  8
1
  6
ByBlock
100
AcDbPolyline
 90
        4
 70
     1
 43
0.0
 10
386.6625043958176
 20
493.5376240101906
 10
387.1625043958177
 20
493.5376240101906
 10
387.1625043958177
 20
468.5376240101906
 10
386.6625043958176
 20
468.5376240101906
  0
LWPOLYLINE
  5
12C7
330
18
100
AcDbEntity
  8
1
  6
ByBlock
100
AcDbPolyline
 90
        4
 70
     1
 43
0.0
 10
387.1625043958177
 20
493.5376240101906
 10
390.1625043958176
 20
493.5376240101906
 10
390.1625043958176
 20
468.5376240101906
 10
387.1625043958177
 20
468.5376240101906
  0
LINE
  5
12C8
330
18
100
AcDbEntity
  8
1
  6
ByBlock
100
AcDbLine
 10
387.1625043958177
 20
486.5376240101905
 30
0.0
 11
390.1625043958176
 21
486.5376240101905
 31
0.0
  0
LINE
  5
12C9
330
18
100
AcDbEntity
  8
1
  6
ByBlock
100
AcDbLine
 10
387.1625043958177
 20
475.5376240101906
 30
0.0
 11
390.1625043958176
 21
475.5376240101906
 31
0.0
  0
LWPOLYLINE
  5
12CA
330
18
100
AcDbEntity
  8
1
  6
ByBlock
100
AcDbPolyline
 90
        4
 70
     1
 43
0.0
 10
387.1625043958177
 20
554.5376240101906
 10
390.1625043958176
 20
554.5376240101906
 10
390.1625043958176
 20
529.5376240101906
 10
387.1625043958177
 20
529.5376240101906
  0
LINE
  5
12CB
330
18
100
AcDbEntity
  8
1
  6
ByBlock
100
AcDbLine
 10
387.1625043958177
 20
536.5376240101905
 30
0.0
 11
390.1625043958176
 21
536.5376240101905
 31
0.0
  0
LINE
  5
12CC
330
18
100
AcDbEntity
  8
1
  6
ByBlock
100
AcDbLine
 10
387.1625043958177
 20
547.5376240101906
 30
0.0
 11
390.1625043958176
 21
547.5376240101906
 31
0.0
  0
LWPOLYLINE
  5
12CD
330
18
100
AcDbEntity
  8
1
  6
ByBlock
100
AcDbPolyline
 90
        4
 70
     1
 43
0.0
 10
386.6625043958176
 20
554.5376240101906
 10
387.1625043958177
 20
554.5376240101906
 10
387.1625043958177
 20
529.5376240101906
 10
386.6625043958176
 20
529.5376240101906
  0
CIRCLE
  5
12CE
330
18
100
AcDbEntity
  8
1
  6
ByBlock
100
AcDbCircle
 10
540.6625043958176
 20
505.5376240101906
 30
0.0
 40
2.0
  0
LINE
  5
12CF
330
18
100
AcDbEntity
  8
1
  6
ByBlock
100
AcDbLine
 10
541.1625043958176
 20
504.0376240101905
 30
0.0
 11
541.1625043958176
 21
504.5376240101904
 31
0.0
  0
LINE
  5
12D0
330
18
100
AcDbEntity
  8
1
  6
ByBlock
100
AcDbLine
 10
540.1625043958176
 20
504.0376240101905
 30
0.0
 11
540.1625043958176
 21
504.5376240101908
 31
0.0
  0
LINE
  5
12D1
330
18
100
AcDbEntity
  8
1
  6
ByBlock
100
AcDbLine
 10
542.1625043958177
 20
506.0376240101906
 30
0.0
 11
541.6625043958176
 21
506.0376240101906
 31
0.0
  0
LINE
  5
12D2
330
18
100
AcDbEntity
  8
1
  6
ByBlock
100
AcDbLine
 10
542.1625043958177
 20
505.0376240101904
 30
0.0
 11
541.6625043958176
 21
505.0376240101904
 31
0.0
  0
LINE
  5
12D3
330
18
100
AcDbEntity
  8
1
  6
ByBlock
100
AcDbLine
 10
541.1625043958176
 20
504.0376240101905
 30
0.0
 11
541.1625043958176
 21
504.5376240101904
 31
0.0
  0
LINE
  5
12D4
330
18
100
AcDbEntity
  8
1
  6
ByBlock
100
AcDbLine
 10
540.1625043958176
 20
506.5376240101906
 30
0.0
 11
540.1625043958176
 21
507.0376240101905
 31
0.0
  0
LINE
  5
12D5
330
18
100
AcDbEntity
  8
1
  6
ByBlock
100
AcDbLine
 10
541.1625043958176
 20
506.5376240101906
 30
0.0
 11
541.1625043958176
 21
507.0376240101905
 31
0.0
  0
LINE
  5
12D6
330
18
100
AcDbEntity
  8
1
  6
ByBlock
100
AcDbLine
 10
541.1625043958176
 20
506.5376240101906
 30
0.0
 11
541.1625043958176
 21
507.0376240101905
 31
0.0
  0
LINE
  5
12D7
330
18
100
AcDbEntity
  8
1
  6
ByBlock
100
AcDbLine
 10
539.6625043958176
 20
506.0376240101907
 30
0.0
 11
539.1625043958176
 21
506.0376240101907
 31
0.0
  0
LINE
  5
12D8
330
18
100
AcDbEntity
  8
1
  6
ByBlock
100
AcDbLine
 10
539.6625043958176
 20
505.0376240101908
 30
0.0
 11
539.1625043958176
 21
505.0376240101908
 31
0.0
  0
ARC
  5
12D9
330
18
100
AcDbEntity
  8
1
  6
ByBlock
100
AcDbCircle
 10
541.6625043958176
 20
506.5376240101906
 30
0.0
 40
0.5
100
AcDbArc
 50
180.0
 51
270.0
  0
ARC
  5
12DA
330
18
100
AcDbEntity
  8
1
  6
ByBlock
100
AcDbCircle
 10
539.6625043958176
 20
506.5376240101906
 30
0.0
 40
0.5
100
AcDbArc
 50
270.0
 51
0.0
  0
ARC
  5
12DB
330
18
100
AcDbEntity
  8
1
  6
ByBlock
100
AcDbCircle
 10
539.6625043958176
 20
504.5376240101908
 30
0.0
 40
0.5
100
AcDbArc
 50
0.0
 51
90.0
  0
ARC
  5
12DC
330
18
100
AcDbEntity
  8
1
  6
ByBlock
100
AcDbCircle
 10
541.6625043958176
 20
504.5376240101904
 30
0.0
 40
0.5
100
AcDbArc
 50
90.0
 51
180.0
  0
LINE
  5
12DD
330
18
100
AcDbEntity
  8
1
  6
ByBlock
100
AcDbLine
 10
540.1625043958176
 20
507.0376240101905
 30
0.0
 11
541.1625043958176
 21
507.0376240101905
 31
0.0
  0
LINE
  5
12DE
330
18
100
AcDbEntity
  8
1
  6
ByBlock
100
AcDbLine
 10
540.1625043958176
 20
504.0376240101905
 30
0.0
 11
541.1625043958176
 21
504.0376240101904
 31
0.0
  0
LINE
  5
12DF
330
18
100
AcDbEntity
  8
1
  6
ByBlock
100
AcDbLine
 10
539.1625043958176
 20
505.0376240101908
 30
0.0
 11
539.1625043958176
 21
506.0376240101907
 31
0.0
  0
LINE
  5
12E0
330
18
100
AcDbEntity
  8
1
  6
ByBlock
100
AcDbLine
 10
542.1625043958177
 20
505.0376240101904
 30
0.0
 11
542.1625043958177
 21
506.0376240101906
 31
0.0
  0
CIRCLE
  5
12E1
330
18
100
AcDbEntity
  8
1
  6
ByBlock
100
AcDbCircle
 10
540.6625043958176
 20
505.5376240101906
 30
0.0
 40
3.5
  0
ARC
  5
12E2
330
18
100
AcDbEntity
  8
1
  6
ByBlock
100
AcDbCircle
 10
531.6625043958176
 20
461.5376240101905
 30
0.0
 40
0.5
100
AcDbArc
 50
180.0
 51
270.0
  0
LINE
  5
12E3
330
18
100
AcDbEntity
  8
1
  6
ByBlock
100
AcDbLine
 10
532.1625043958176
 20
460.0376240101905
 30
0.0
 11
532.1625043958176
 21
461.0376240101905
 31
0.0
  0
LINE
  5
12E4
330
18
100
AcDbEntity
  8
1
  6
ByBlock
100
AcDbLine
 10
529.1625043958176
 20
460.0376240101907
 30
0.0
 11
529.1625043958176
 21
461.0376240101906
 31
0.0
  0
LINE
  5
12E5
330
18
100
AcDbEntity
  8
1
  6
ByBlock
100
AcDbLine
 10
530.1625043958177
 20
459.0376240101906
 30
0.0
 11
531.1625043958176
 21
459.0376240101904
 31
0.0
  0
LINE
  5
12E6
330
18
100
AcDbEntity
  8
1
  6
ByBlock
100
AcDbLine
 10
530.1625043958177
 20
462.0376240101905
 30
0.0
 11
531.1625043958176
 21
462.0376240101905
 31
0.0
  0
ARC
  5
12E7
330
18
100
AcDbEntity
  8
1
  6
ByBlock
100
AcDbCircle
 10
531.6625043958176
 20
459.5376240101905
 30
0.0
 40
0.5
100
AcDbArc
 50
90.0
 51
180.0
  0
ARC
  5
12E8
330
18
100
AcDbEntity
  8
1
  6
ByBlock
100
AcDbCircle
 10
529.6625043958177
 20
459.5376240101908
 30
0.0
 40
0.5
100
AcDbArc
 50
0.0
 51
90.0
  0
ARC
  5
12E9
330
18
100
AcDbEntity
  8
1
  6
ByBlock
100
AcDbCircle
 10
529.6625043958177
 20
461.5376240101907
 30
0.0
 40
0.5
100
AcDbArc
 50
270.0
 51
0.0
  0
LINE
  5
12EA
330
18
100
AcDbEntity
  8
1
  6
ByBlock
100
AcDbLine
 10
529.6625043958177
 20
460.0376240101907
 30
0.0
 11
529.1625043958176
 21
460.0376240101907
 31
0.0
  0
LINE
  5
12EB
330
18
100
AcDbEntity
  8
1
  6
ByBlock
100
AcDbLine
 10
529.6625043958177
 20
461.0376240101906
 30
0.0
 11
529.1625043958176
 21
461.0376240101906
 31
0.0
  0
LINE
  5
12EC
330
18
100
AcDbEntity
  8
1
  6
ByBlock
100
AcDbLine
 10
531.1625043958176
 20
461.5376240101905
 30
0.0
 11
531.1625043958176
 21
462.0376240101905
 31
0.0
  0
LINE
  5
12ED
330
18
100
AcDbEntity
  8
1
  6
ByBlock
100
AcDbLine
 10
531.1625043958176
 20
461.5376240101905
 30
0.0
 11
531.1625043958176
 21
462.0376240101905
 31
0.0
  0
LINE
  5
12EE
330
18
100
AcDbEntity
  8
1
  6
ByBlock
100
AcDbLine
 10
530.1625043958177
 20
461.5376240101907
 30
0.0
 11
530.1625043958177
 21
462.0376240101905
 31
0.0
  0
LINE
  5
12EF
330
18
100
AcDbEntity
  8
1
  6
ByBlock
100
AcDbLine
 10
531.1625043958176
 20
459.0376240101906
 30
0.0
 11
531.1625043958176
 21
459.5376240101905
 31
0.0
  0
LINE
  5
12F0
330
18
100
AcDbEntity
  8
1
  6
ByBlock
100
AcDbLine
 10
532.1625043958176
 20
460.0376240101905
 30
0.0
 11
531.6625043958176
 21
460.0376240101905
 31
0.0
  0
LINE
  5
12F1
330
18
100
AcDbEntity
  8
1
  6
ByBlock
100
AcDbLine
 10
532.1625043958176
 20
461.0376240101905
 30
0.0
 11
531.6625043958176
 21
461.0376240101905
 31
0.0
  0
LINE
  5
12F2
330
18
100
AcDbEntity
  8
1
  6
ByBlock
100
AcDbLine
 10
530.1625043958177
 20
459.0376240101906
 30
0.0
 11
530.1625043958177
 21
459.5376240101908
 31
0.0
  0
LINE
  5
12F3
330
18
100
AcDbEntity
  8
1
  6
ByBlock
100
AcDbLine
 10
531.1625043958176
 20
459.0376240101906
 30
0.0
 11
531.1625043958176
 21
459.5376240101905
 31
0.0
  0
CIRCLE
  5
12F4
330
18
100
AcDbEntity
  8
1
  6
ByBlock
100
AcDbCircle
 10
530.6625043958177
 20
460.5376240101906
 30
0.0
 40
3.0
  0
LINE
  5
12F5
330
18
100
AcDbEntity
  8
1
  6
ByBlock
100
AcDbLine
 10
618.1625043958177
 20
547.5376240101907
 30
0.0
 11
621.1625043958177
 21
547.5376240101907
 31
0.0
  0
LINE
  5
12F6
330
18
100
AcDbEntity
  8
1
  6
ByBlock
100
AcDbLine
 10
618.1625043958177
 20
536.5376240101907
 30
0.0
 11
621.1625043958177
 21
536.5376240101907
 31
0.0
  0
LWPOLYLINE
  5
12F7
330
18
100
AcDbEntity
  8
1
  6
ByBlock
100
AcDbPolyline
 90
        4
 70
     1
 43
0.0
 10
618.1625043958177
 20
554.5376240101907
 10
621.1625043958177
 20
554.5376240101907
 10
621.1625043958177
 20
529.5376240101907
 10
618.1625043958177
 20
529.5376240101907
  0
LINE
  5
12F8
330
18
100
AcDbEntity
  8
1
  6
ByBlock
100
AcDbLine
 10
618.1625043958177
 20
475.5376240101906
 30
0.0
 11
621.1625043958177
 21
475.5376240101906
 31
0.0
  0
LINE
  5
12F9
330
18
100
AcDbEntity
  8
1
  6
ByBlock
100
AcDbLine
 10
618.1625043958177
 20
486.5376240101905
 30
0.0
 11
621.1625043958177
 21
486.5376240101905
 31
0.0
  0
LWPOLYLINE
  5
12FA
330
18
100
AcDbEntity
  8
1
  6
ByBlock
100
AcDbPolyline
 90
        4
 70
     1
 43
0.0
 10
618.1625043958177
 20
493.5376240101906
 10
621.1625043958177
 20
493.5376240101906
 10
621.1625043958177
 20
468.5376240101906
 10
618.1625043958177
 20
468.5376240101906
  0
LWPOLYLINE
  5
12FB
330
18
100
AcDbEntity
  8
1
  6
ByBlock
100
AcDbPolyline
 90
        4
 70
     1
 43
0.0
 10
609.6625043958177
 20
554.5376240101907
 10
629.6625043958177
 20
554.5376240101907
 10
629.6625043958177
 20
529.5376240101907
 10
609.6625043958177
 20
529.5376240101907
  0
LWPOLYLINE
  5
12FC
330
18
100
AcDbEntity
  8
1
  6
ByBlock
100
AcDbPolyline
 90
        4
 70
     1
 43
0.0
 10
609.6625043958177
 20
493.5376240101907
 10
629.6625043958177
 20
493.5376240101907
 10
629.6625043958177
 20
468.5376240101906
 10
609.6625043958177
 20
468.5376240101906
  0
LWPOLYLINE
  5
12FD
330
18
100
AcDbEntity
  8
1
  6
ByBlock
100
AcDbPolyline
 90
        4
 70
     1
 43
0.0
 10
536.6625043958176
 20
558.5376240101907
 10
629.6625043958177
 20
558.5376240101907
 10
629.6625043958177
 20
453.5376240101905
 10
536.6625043958176
 20
453.5376240101905
  0
LWPOLYLINE
  5
12FE
330
18
100
AcDbEntity
  8
1
  6
ByBlock
100
AcDbPolyline
 90
        4
 70
     1
 43
0.0
 10
497.1625043958177
 20
577.5376240101905
 10
505.1625043958177
 20
577.5376240101905
 10
505.1625043958177
 20
528.5376240101905
 10
497.1625043958177
 20
528.5376240101905
  0
LINE
  5
12FF
330
18
100
AcDbEntity
  8
1
  6
ByBlock
100
AcDbLine
 10
203.6625043958177
 20
637.5376240101906
 30
0.0
 11
224.6625043958176
 21
637.5376240101906
 31
0.0
  0
LINE
  5
1300
330
18
100
AcDbEntity
  8
1
  6
ByBlock
100
AcDbLine
 10
307.6625043958177
 20
637.5376240101906
 30
0.0
 11
305.5148339868805
 21
652.5713168727487
 31
0.0
  0
LINE
  5
1301
330
18
100
AcDbEntity
  8
1
  6
ByBlock
100
AcDbLine
 10
205.8101748047543
 20
652.5713168727487
 30
0.0
 11
203.6625043958177
 21
637.5376240101906
 31
0.0
  0
LINE
  5
1302
330
18
100
AcDbEntity
  8
1
  6
ByBlock
100
AcDbLine
 10
224.6625043958176
 20
637.5376240101906
 30
0.0
 11
224.6625043958176
 21
649.7728600018168
 31
0.0
  0
LINE
  5
1303
330
18
100
AcDbEntity
  8
1
  6
ByBlock
100
AcDbLine
 10
286.6625043958176
 20
649.7728600018168
 30
0.0
 11
286.6625043958176
 21
637.5376240101906
 31
0.0
  0
ARC
  5
1304
330
18
100
AcDbEntity
  8
1
  6
ByBlock
100
AcDbCircle
 10
255.6625043958172
 20
50.26721584687982
 30
0.0
 40
608.2704081633105
100
AcDbArc
 50
85.73141681384598
 51
94.268583186154
  0
ARC
  5
1305
330
18
100
AcDbEntity
  8
1
  6
ByBlock
100
AcDbCircle
 10
210.7599222730602
 20
651.8642100915623
 30
0.0
 40
5.0
100
AcDbArc
 50
94.268583186154
 51
171.8698976458442
  0
ARC
  5
1306
330
18
100
AcDbEntity
  8
1
  6
ByBlock
100
AcDbCircle
 10
300.5650865185748
 20
651.8642100915622
 30
0.0
 40
5.0
100
AcDbArc
 50
8.13010235415572
 51
85.73141681384598
  0
ARC
  5
1307
330
18
100
AcDbEntity
  8
1
  6
ByBlock
100
AcDbCircle
 10
210.75992227306
 20
651.8642100915622
 30
0.0
 40
5.0
100
AcDbArc
 50
94.26858318614097
 51
171.8698976458458
  0
ARC
  5
1308
330
18
100
AcDbEntity
  8
1
  6
ByBlock
100
AcDbCircle
 10
255.6625043958177
 20
173.5376240101905
 30
0.0
 40
481.0
100
AcDbArc
 50
86.75510832826082
 51
93.24489167173917
  0
ARC
  5
1309
330
18
100
AcDbEntity
  8
1
  6
ByBlock
100
AcDbCircle
 10
228.6625043958177
 20
649.7728600018168
 30
0.0
 40
4.0
100
AcDbArc
 50
93.24489167173917
 51
180.0
  0
ARC
  5
130A
330
18
100
AcDbEntity
  8
1
  6
ByBlock
100
AcDbCircle
 10
282.6625043958177
 20
649.7728600018168
 30
0.0
 40
4.0
100
AcDbArc
 50
0.0
 51
86.75510832824777
  0
LINE
  5
130B
330
18
100
AcDbEntity
  8
1
  6
ByBlock
100
AcDbLine
 10
575.6625043958177
 20
637.5376240101906
 30
0.0
 11
574.8367961990823
 21
649.2917750509406
 31
0.0
  0
LINE
  5
130C
330
18
100
AcDbEntity
  8
1
  6
ByBlock
100
AcDbLine
 10
571.6625043958177
 20
637.5376240101906
 30
0.0
 11
572.488212592553
 21
649.2917750509406
 31
0.0
  0
LINE
  5
130D
330
18
100
AcDbEntity
  8
1
  6
ByBlock
100
AcDbLine
 10
571.6541990793346
 20
654.0465091732825
 30
0.0
 11
570.1545799142648
 21
657.0515642898893
 31
0.0
  0
LINE
  5
130E
330
18
100
AcDbEntity
  8
1
  6
ByBlock
100
AcDbLine
 10
575.6708097123008
 20
654.0465091732825
 30
0.0
 11
577.1704288773701
 21
657.0515642898893
 31
0.0
  0
ARC
  5
130F
330
18
100
AcDbEntity
  8
1
  6
ByBlock
100
AcDbCircle
 10
562.5127957076536
 20
649.9925303380863
 30
0.0
 40
10.0
100
AcDbArc
 50
355.9816746523974
 51
23.91606297006307
  0
ARC
  5
1310
330
18
100
AcDbEntity
  8
1
  6
ByBlock
100
AcDbCircle
 10
584.8122130839818
 20
649.9925303380863
 30
0.0
 40
10.0
100
AcDbArc
 50
156.0839370299369
 51
184.0183253476025
  0
ARC
  5
1311
330
18
100
AcDbEntity
  8
1
  6
ByBlock
100
AcDbCircle
 10
573.6625043958176
 20
642.2876240101905
 30
0.0
 40
16.24999999999977
100
AcDbArc
 50
83.64736637852308
 51
96.35263362147693
  0
LINE
  5
1312
330
18
100
AcDbEntity
  8
1
  6
ByBlock
100
AcDbLine
 10
577.6625043958176
 20
637.5376240101906
 30
0.0
 11
569.6625043958176
 21
637.5376240101906
 31
0.0
  0
LINE
  5
1313
330
18
100
AcDbEntity
  8
1
  6
ByBlock
100
AcDbLine
 10
569.6625043958176
 20
637.5376240101906
 30
0.0
 11
569.6625043958176
 21
655.5779503454593
 31
0.0
  0
LINE
  5
1314
330
18
100
AcDbEntity
  8
1
  6
ByBlock
100
AcDbLine
 10
577.6625043958176
 20
655.5779503454593
 30
0.0
 11
577.6625043958176
 21
637.5376240101906
 31
0.0
  0
LWPOLYLINE
  5
1315
330
18
100
AcDbEntity
  8
1
  6
ByBlock
100
AcDbPolyline
 90
        6
 70
     1
 43
0.0
 10
327.6625043958176
 20
662.5376240101904
 10
343.6625043958174
 20
662.5376240101906
 42
-0.4142135623730961
 10
345.6625043958174
 20
660.5376240101906
 10
345.6625043958176
 20
637.5376240101906
 10
325.6625043958176
 20
637.5376240101906
 10
325.6625043958176
 20
660.5376240101905
 42
-0.4142135623730951
  0
LWPOLYLINE
  5
1316
330
18
100
AcDbEntity
  8
1
  6
ByBlock
100
AcDbPolyline
 90
        6
 70
     1
 43
0.0
 10
183.6625043958176
 20
662.5376240101904
 10
167.6625043958179
 20
662.5376240101906
 42
0.4142135623730961
 10
165.6625043958179
 20
660.5376240101906
 10
165.6625043958176
 20
637.5376240101906
 10
185.6625043958176
 20
637.5376240101906
 10
185.6625043958176
 20
660.5376240101905
 42
0.4142135623730951
  0
LINE
  5
1317
330
18
100
AcDbEntity
  8
2
  6
CENTER
100
AcDbLine
 10
169.6625043958176
 20
653.5376240101905
 30
0.0
 11
181.6625043958176
 21
653.5376240101905
 31
0.0
  0
LINE
  5
1318
330
18
100
AcDbEntity
  8
2
  6
CENTER
100
AcDbLine
 10
169.6625043958176
 20
647.5376240101906
 30
0.0
 11
181.6625043958176
 21
647.5376240101906
 31
0.0
  0
LINE
  5
1319
330
18
100
AcDbEntity
  8
1
100
AcDbLine
 10
173.6625043958176
 20
653.5376240101905
 30
0.0
 11
173.6625043958176
 21
651.0017256253283
 31
0.0
  0
LINE
  5
131A
330
18
100
AcDbEntity
  8
1
100
AcDbLine
 10
177.6625043958176
 20
653.5376240101905
 30
0.0
 11
177.6625043958176
 21
651.0017256253283
 31
0.0
  0
ARC
  5
131B
330
18
100
AcDbEntity
  8
1
100
AcDbCircle
 10
175.6625043958176
 20
647.5376240101906
 30
0.0
 40
4.0
100
AcDbArc
 50
119.9999999999999
 51
60.00000000000007
  0
ARC
  5
131C
330
18
100
AcDbEntity
  8
1
100
AcDbCircle
 10
175.6625043958176
 20
653.5376240101905
 30
0.0
 40
2.0
100
AcDbArc
 50
0.0
 51
180.0
  0
LINE
  5
131D
330
18
100
AcDbEntity
  8
2
  6
CENTER2
100
AcDbLine
 10
633.2743900728226
 20
622.5376240101906
 30
0.0
 11
662.2870557981429
 21
622.5376240101906
 31
0.0
  0
LINE
  5
131E
330
18
100
AcDbEntity
  8
2
  6
CENTER2
100
AcDbLine
 10
633.2743900728226
 20
460.5376240101906
 30
0.0
 11
662.2870557981429
 21
460.5376240101906
 31
0.0
  0
CIRCLE
  5
131F
330
18
100
AcDbEntity
  8
1
  6
ByBlock
100
AcDbCircle
 10
635.6625043958176
 20
460.5376240101906
 30
0.0
 40
3.0
  0
LINE
  5
1320
330
18
100
AcDbEntity
  8
1
  6
ByBlock
100
AcDbLine
 10
636.1625043958176
 20
459.0376240101906
 30
0.0
 11
636.1625043958176
 21
459.5376240101905
 31
0.0
  0
LINE
  5
1321
330
18
100
AcDbEntity
  8
1
  6
ByBlock
100
AcDbLine
 10
635.1625043958176
 20
459.0376240101906
 30
0.0
 11
635.1625043958176
 21
459.5376240101908
 31
0.0
  0
LINE
  5
1322
330
18
100
AcDbEntity
  8
1
  6
ByBlock
100
AcDbLine
 10
637.1625043958176
 20
461.0376240101905
 30
0.0
 11
636.6625043958176
 21
461.0376240101905
 31
0.0
  0
LINE
  5
1323
330
18
100
AcDbEntity
  8
1
  6
ByBlock
100
AcDbLine
 10
637.1625043958176
 20
460.0376240101905
 30
0.0
 11
636.6625043958176
 21
460.0376240101905
 31
0.0
  0
LINE
  5
1324
330
18
100
AcDbEntity
  8
1
  6
ByBlock
100
AcDbLine
 10
636.1625043958176
 20
459.0376240101906
 30
0.0
 11
636.1625043958176
 21
459.5376240101905
 31
0.0
  0
LINE
  5
1325
330
18
100
AcDbEntity
  8
1
  6
ByBlock
100
AcDbLine
 10
635.1625043958176
 20
461.5376240101907
 30
0.0
 11
635.1625043958176
 21
462.0376240101905
 31
0.0
  0
LINE
  5
1326
330
18
100
AcDbEntity
  8
1
  6
ByBlock
100
AcDbLine
 10
636.1625043958176
 20
461.5376240101905
 30
0.0
 11
636.1625043958176
 21
462.0376240101905
 31
0.0
  0
LINE
  5
1327
330
18
100
AcDbEntity
  8
1
  6
ByBlock
100
AcDbLine
 10
636.1625043958176
 20
461.5376240101905
 30
0.0
 11
636.1625043958176
 21
462.0376240101905
 31
0.0
  0
LINE
  5
1328
330
18
100
AcDbEntity
  8
1
  6
ByBlock
100
AcDbLine
 10
634.6625043958177
 20
461.0376240101906
 30
0.0
 11
634.1625043958177
 21
461.0376240101906
 31
0.0
  0
LINE
  5
1329
330
18
100
AcDbEntity
  8
1
  6
ByBlock
100
AcDbLine
 10
634.6625043958177
 20
460.0376240101907
 30
0.0
 11
634.1625043958177
 21
460.0376240101907
 31
0.0
  0
ARC
  5
132A
330
18
100
AcDbEntity
  8
1
  6
ByBlock
100
AcDbCircle
 10
634.6625043958177
 20
461.5376240101907
 30
0.0
 40
0.5
100
AcDbArc
 50
270.0
 51
0.0
  0
ARC
  5
132B
330
18
100
AcDbEntity
  8
1
  6
ByBlock
100
AcDbCircle
 10
634.6625043958177
 20
459.5376240101908
 30
0.0
 40
0.5
100
AcDbArc
 50
0.0
 51
90.0
  0
ARC
  5
132C
330
18
100
AcDbEntity
  8
1
  6
ByBlock
100
AcDbCircle
 10
636.6625043958176
 20
459.5376240101905
 30
0.0
 40
0.5
100
AcDbArc
 50
90.0
 51
180.0
  0
LINE
  5
132D
330
18
100
AcDbEntity
  8
1
  6
ByBlock
100
AcDbLine
 10
635.1625043958176
 20
462.0376240101905
 30
0.0
 11
636.1625043958176
 21
462.0376240101905
 31
0.0
  0
LINE
  5
132E
330
18
100
AcDbEntity
  8
1
  6
ByBlock
100
AcDbLine
 10
635.1625043958176
 20
459.0376240101906
 30
0.0
 11
636.1625043958176
 21
459.0376240101904
 31
0.0
  0
LINE
  5
132F
330
18
100
AcDbEntity
  8
1
  6
ByBlock
100
AcDbLine
 10
634.1625043958177
 20
460.0376240101907
 30
0.0
 11
634.1625043958177
 21
461.0376240101906
 31
0.0
  0
LINE
  5
1330
330
18
100
AcDbEntity
  8
1
  6
ByBlock
100
AcDbLine
 10
637.1625043958176
 20
460.0376240101905
 30
0.0
 11
637.1625043958176
 21
461.0376240101905
 31
0.0
  0
ARC
  5
1331
330
18
100
AcDbEntity
  8
1
  6
ByBlock
100
AcDbCircle
 10
636.6625043958176
 20
461.5376240101905
 30
0.0
 40
0.5
100
AcDbArc
 50
180.0
 51
270.0
  0
LWPOLYLINE
  5
1332
330
18
100
AcDbEntity
  8
1
  6
ByBlock
100
AcDbPolyline
 90
        6
 70
     1
 43
0.0
 10
245.6625043958176
 20
454.5376240101906
 10
265.6625043958176
 20
454.5376240101906
 10
265.6625043958176
 20
422.5376240101906
 42
-0.4142135623730951
 10
263.6625043958176
 20
420.5376240101905
 10
247.6625043958176
 20
420.5376240101905
 42
-0.4142135623730951
 10
245.6625043958176
 20
422.5376240101906
  0
CIRCLE
  5
1333
330
18
100
AcDbEntity
  8
1
  6
ByBlock
100
AcDbCircle
 10
255.6625043958177
 20
429.5376240101906
 30
0.0
 40
2.5
  0
LINE
  5
1334
330
18
100
AcDbEntity
  8
1
  6
ByBlock
100
AcDbLine
 10
536.9682502190519
 20
439.5376240101906
 30
0.0
 11
520.3567585725834
 21
439.5376240101906
 31
0.0
  0
ARC
  5
1335
330
18
100
AcDbEntity
  8
1
  6
ByBlock
100
AcDbCircle
 10
536.9682502190519
 20
441.5376240101907
 30
0.0
 40
2.0
100
AcDbArc
 50
270.0
 51
350.5376777919738
  0
LINE
  5
1336
330
18
100
AcDbEntity
  8
1
  6
ByBlock
100
AcDbLine
 10
540.9958377291506
 20
453.5376240101905
 30
0.0
 11
538.9410380667161
 21
441.20882603558
 31
0.0
  0
ARC
  5
1337
330
18
100
AcDbEntity
  8
1
  6
ByBlock
100
AcDbCircle
 10
520.3567585725834
 20
441.5376240101907
 30
0.0
 40
2.0
100
AcDbArc
 50
189.4623222080261
 51
270.0
  0
LINE
  5
1338
330
18
100
AcDbEntity
  8
1
  6
ByBlock
100
AcDbLine
 10
516.3291710624846
 20
453.5376240101905
 30
0.0
 11
518.3839707249192
 21
441.20882603558
 31
0.0
  0
LINE
  5
1339
330
18
100
AcDbEntity
  8
1
  6
ByBlock
100
AcDbLine
 10
640.9958377291506
 20
453.5376240101905
 30
0.0
 11
638.9410380667161
 21
441.20882603558
 31
0.0
  0
ARC
  5
133A
330
18
100
AcDbEntity
  8
1
  6
ByBlock
100
AcDbCircle
 10
636.9682502190519
 20
441.5376240101907
 30
0.0
 40
2.0
100
AcDbArc
 50
270.0
 51
350.5376777919738
  0
LINE
  5
133B
330
18
100
AcDbEntity
  8
1
  6
ByBlock
100
AcDbLine
 10
636.9682502190519
 20
439.5376240101906
 30
0.0
 11
620.3567585725834
 21
439.5376240101906
 31
0.0
  0
ARC
  5
133C
330
18
100
AcDbEntity
  8
1
  6
ByBlock
100
AcDbCircle
 10
620.3567585725834
 20
441.5376240101907
 30
0.0
 40
2.0
100
AcDbArc
 50
189.4623222080261
 51
270.0
  0
LINE
  5
133D
330
18
100
AcDbEntity
  8
1
  6
ByBlock
100
AcDbLine
 10
616.3291710624847
 20
453.5376240101905
 30
0.0
 11
618.3839707249192
 21
441.20882603558
 31
0.0
  0
ARC
  5
133E
330
18
100
AcDbEntity
  8
1
  6
ByBlock
100
AcDbCircle
 10
511.6625043958176
 20
457.5376240101904
 30
0.0
 40
5.0
100
AcDbArc
 50
233.1301023541624
 51
306.8698976458374
  0
LINE
  5
133F
330
18
100
AcDbEntity
  8
1
  6
ByBlock
100
AcDbLine
 10
492.5726462708382
 20
615.8669036249412
 30
0.0
 11
505.1625043958177
 21
615.8669036249412
 31
0.0
  0
LINE
  5
1340
330
18
100
AcDbEntity
  8
1
  6
ByBlock
100
AcDbLine
 10
491.6625043958176
 20
610.2387846940427
 30
0.0
 11
505.1625043958177
 21
610.2387846940427
 31
0.0
  0
LINE
  5
1341
330
18
100
AcDbEntity
  8
1
  6
ByBlock
100
AcDbLine
 10
491.6625043958176
 20
601.3955223616371
 30
0.0
 11
505.1625043958177
 21
601.3955223616372
 31
0.0
  0
LINE
  5
1342
330
18
100
AcDbEntity
  8
1
  6
ByBlock
100
AcDbLine
 10
492.5726462708382
 20
595.564775952443
 30
0.0
 11
505.1625043958177
 21
595.5647759524429
 31
0.0
  0
ARC
  5
1343
330
18
100
AcDbEntity
  8
1
  6
ByBlock
100
AcDbCircle
 10
594.4566002716767
 20
605.7158397886921
 30
0.0
 40
103.2940958813371
100
AcDbArc
 50
174.8675512846317
 51
185.1324487153681
  0
ARC
  5
1344
330
18
100
AcDbEntity
  8
1
  6
ByBlock
100
AcDbCircle
 10
492.5726462708382
 20
614.8669036249412
 30
0.0
 40
1.0
100
AcDbArc
 50
90.0
 51
174.8675512846301
  0
ARC
  5
1345
330
18
100
AcDbEntity
  8
1
  6
ByBlock
100
AcDbCircle
 10
492.5726462708382
 20
596.564775952443
 30
0.0
 40
1.0
100
AcDbArc
 50
185.1324487153665
 51
270.0
  0
LWPOLYLINE
  5
1346
330
18
100
AcDbEntity
  8
1
  6
ByBlock
100
AcDbPolyline
 90
        8
 70
     1
 43
0.0
 10
314.6625043958176
 20
508.5376240101906
 10
368.6625043958176
 20
508.5376240101906
 42
-0.4142135623730285
 10
370.6625043958176
 20
506.5376240101906
 10
370.6625043958176
 20
484.5376240101907
 42
-0.4142135623730784
 10
368.6625043958176
 20
482.5376240101905
 10
314.6625043958176
 20
482.5376240101905
 42
-0.4142135623730285
 10
312.6625043958176
 20
484.5376240101906
 10
312.6625043958176
 20
506.5376240101905
 42
-0.4142135623730784
  0
CIRCLE
  5
1347
330
18
100
AcDbEntity
  8
1
  6
ByBlock
100
AcDbCircle
 10
356.1625043958176
 20
499.5376240101905
 30
0.0
 40
1.5
  0
LINE
  5
1348
330
18
100
AcDbEntity
  8
1
  6
ByBlock
100
AcDbLine
 10
355.8343102949706
 20
498.4620079652225
 30
0.0
 11
355.8343102949706
 21
498.8120079652225
 31
0.0
  0
LINE
  5
1349
330
18
100
AcDbEntity
  8
1
  6
ByBlock
100
AcDbLine
 10
356.5343102949705
 20
498.4620079652225
 30
0.0
 11
356.5343102949705
 21
498.8120079652227
 31
0.0
  0
LINE
  5
134A
330
18
100
AcDbEntity
  8
1
  6
ByBlock
100
AcDbLine
 10
355.1343102949706
 20
499.8620079652225
 30
0.0
 11
355.4843102949705
 21
499.8620079652225
 31
0.0
  0
LINE
  5
134B
330
18
100
AcDbEntity
  8
1
  6
ByBlock
100
AcDbLine
 10
355.1343102949706
 20
499.1620079652224
 30
0.0
 11
355.4843102949705
 21
499.1620079652224
 31
0.0
  0
LINE
  5
134C
330
18
100
AcDbEntity
  8
1
  6
ByBlock
100
AcDbLine
 10
355.8343102949706
 20
498.4620079652225
 30
0.0
 11
355.8343102949706
 21
498.8120079652225
 31
0.0
  0
LINE
  5
134D
330
18
100
AcDbEntity
  8
1
  6
ByBlock
100
AcDbLine
 10
356.5343102949705
 20
500.2120079652225
 30
0.0
 11
356.5343102949705
 21
500.5620079652224
 31
0.0
  0
LINE
  5
134E
330
18
100
AcDbEntity
  8
1
  6
ByBlock
100
AcDbLine
 10
355.8343102949706
 20
500.2120079652225
 30
0.0
 11
355.8343102949706
 21
500.5620079652224
 31
0.0
  0
LINE
  5
134F
330
18
100
AcDbEntity
  8
1
  6
ByBlock
100
AcDbLine
 10
355.8343102949706
 20
500.2120079652225
 30
0.0
 11
355.8343102949706
 21
500.5620079652224
 31
0.0
  0
LINE
  5
1350
330
18
100
AcDbEntity
  8
1
  6
ByBlock
100
AcDbLine
 10
356.8843102949706
 20
499.8620079652226
 30
0.0
 11
357.2343102949705
 21
499.8620079652226
 31
0.0
  0
LINE
  5
1351
330
18
100
AcDbEntity
  8
1
  6
ByBlock
100
AcDbLine
 10
356.8843102949706
 20
499.1620079652228
 30
0.0
 11
357.2343102949705
 21
499.1620079652228
 31
0.0
  0
ARC
  5
1352
330
18
100
AcDbEntity
  8
1
  6
ByBlock
100
AcDbCircle
 10
355.4843102949705
 20
500.2120079652225
 30
0.0
 40
0.35
100
AcDbArc
 50
270.0
 51
0.0
  0
ARC
  5
1353
330
18
100
AcDbEntity
  8
1
  6
ByBlock
100
AcDbCircle
 10
356.8843102949706
 20
498.8120079652227
 30
0.0
 40
0.35
100
AcDbArc
 50
90.0
 51
180.0
  0
ARC
  5
1354
330
18
100
AcDbEntity
  8
1
  6
ByBlock
100
AcDbCircle
 10
355.4843102949705
 20
498.8120079652225
 30
0.0
 40
0.35
100
AcDbArc
 50
0.0
 51
90.0
  0
LINE
  5
1355
330
18
100
AcDbEntity
  8
1
  6
ByBlock
100
AcDbLine
 10
356.5343102949705
 20
500.5620079652224
 30
0.0
 11
355.8343102949706
 21
500.5620079652224
 31
0.0
  0
LINE
  5
1356
330
18
100
AcDbEntity
  8
1
  6
ByBlock
100
AcDbLine
 10
356.5343102949705
 20
498.4620079652225
 30
0.0
 11
355.8343102949706
 21
498.4620079652224
 31
0.0
  0
LINE
  5
1357
330
18
100
AcDbEntity
  8
1
  6
ByBlock
100
AcDbLine
 10
357.2343102949707
 20
499.1620079652228
 30
0.0
 11
357.2343102949705
 21
499.8620079652226
 31
0.0
  0
LINE
  5
1358
330
18
100
AcDbEntity
  8
1
  6
ByBlock
100
AcDbLine
 10
355.1343102949704
 20
499.1620079652224
 30
0.0
 11
355.1343102949706
 21
499.8620079652225
 31
0.0
  0
ARC
  5
1359
330
18
100
AcDbEntity
  8
1
  6
ByBlock
100
AcDbCircle
 10
356.8843102949706
 20
500.2120079652225
 30
0.0
 40
0.35
100
AcDbArc
 50
180.0
 51
270.0
  0
CIRCLE
  5
135A
330
18
100
AcDbEntity
  8
1
  6
ByBlock
100
AcDbCircle
 10
328.1625043958176
 20
499.5376240101905
 30
0.0
 40
1.5
  0
LINE
  5
135B
330
18
100
AcDbEntity
  8
1
  6
ByBlock
100
AcDbLine
 10
329.1906984966649
 20
499.1620079652224
 30
0.0
 11
329.1906984966647
 21
499.8620079652225
 31
0.0
  0
LINE
  5
135C
330
18
100
AcDbEntity
  8
1
  6
ByBlock
100
AcDbLine
 10
327.0906984966645
 20
499.1620079652228
 30
0.0
 11
327.0906984966647
 21
499.8620079652226
 31
0.0
  0
LINE
  5
135D
330
18
100
AcDbEntity
  8
1
  6
ByBlock
100
AcDbLine
 10
327.7906984966648
 20
498.4620079652225
 30
0.0
 11
328.4906984966646
 21
498.4620079652224
 31
0.0
  0
LINE
  5
135E
330
18
100
AcDbEntity
  8
1
  6
ByBlock
100
AcDbLine
 10
327.7906984966648
 20
500.5620079652224
 30
0.0
 11
328.4906984966646
 21
500.5620079652224
 31
0.0
  0
ARC
  5
135F
330
18
100
AcDbEntity
  8
1
  6
ByBlock
100
AcDbCircle
 10
328.8406984966647
 20
498.8120079652225
 30
0.0
 40
0.35
100
AcDbArc
 50
90.0
 51
180.0
  0
ARC
  5
1360
330
18
100
AcDbEntity
  8
1
  6
ByBlock
100
AcDbCircle
 10
327.4406984966647
 20
498.8120079652227
 30
0.0
 40
0.35
100
AcDbArc
 50
0.0
 51
90.0
  0
ARC
  5
1361
330
18
100
AcDbEntity
  8
1
  6
ByBlock
100
AcDbCircle
 10
327.4406984966647
 20
500.2120079652225
 30
0.0
 40
0.35
100
AcDbArc
 50
270.0
 51
0.0
  0
ARC
  5
1362
330
18
100
AcDbEntity
  8
1
  6
ByBlock
100
AcDbCircle
 10
328.8406984966647
 20
500.2120079652225
 30
0.0
 40
0.35
100
AcDbArc
 50
180.0
 51
270.0
  0
LINE
  5
1363
330
18
100
AcDbEntity
  8
1
  6
ByBlock
100
AcDbLine
 10
327.4406984966647
 20
499.1620079652228
 30
0.0
 11
327.0906984966647
 21
499.1620079652228
 31
0.0
  0
LINE
  5
1364
330
18
100
AcDbEntity
  8
1
  6
ByBlock
100
AcDbLine
 10
327.4406984966647
 20
499.8620079652226
 30
0.0
 11
327.0906984966647
 21
499.8620079652226
 31
0.0
  0
LINE
  5
1365
330
18
100
AcDbEntity
  8
1
  6
ByBlock
100
AcDbLine
 10
328.4906984966646
 20
500.2120079652225
 30
0.0
 11
328.4906984966646
 21
500.5620079652224
 31
0.0
  0
LINE
  5
1366
330
18
100
AcDbEntity
  8
1
  6
ByBlock
100
AcDbLine
 10
328.4906984966646
 20
500.2120079652225
 30
0.0
 11
328.4906984966646
 21
500.5620079652224
 31
0.0
  0
LINE
  5
1367
330
18
100
AcDbEntity
  8
1
  6
ByBlock
100
AcDbLine
 10
327.7906984966648
 20
500.2120079652225
 30
0.0
 11
327.7906984966648
 21
500.5620079652224
 31
0.0
  0
LINE
  5
1368
330
18
100
AcDbEntity
  8
1
  6
ByBlock
100
AcDbLine
 10
328.4906984966646
 20
498.4620079652225
 30
0.0
 11
328.4906984966646
 21
498.8120079652225
 31
0.0
  0
LINE
  5
1369
330
18
100
AcDbEntity
  8
1
  6
ByBlock
100
AcDbLine
 10
329.1906984966647
 20
499.1620079652224
 30
0.0
 11
328.8406984966647
 21
499.1620079652224
 31
0.0
  0
LINE
  5
136A
330
18
100
AcDbEntity
  8
1
  6
ByBlock
100
AcDbLine
 10
329.1906984966647
 20
499.8620079652225
 30
0.0
 11
328.8406984966647
 21
499.8620079652225
 31
0.0
  0
LINE
  5
136B
330
18
100
AcDbEntity
  8
1
  6
ByBlock
100
AcDbLine
 10
327.7906984966648
 20
498.4620079652225
 30
0.0
 11
327.7906984966648
 21
498.8120079652227
 31
0.0
  0
LINE
  5
136C
330
18
100
AcDbEntity
  8
1
  6
ByBlock
100
AcDbLine
 10
328.4906984966646
 20
498.4620079652225
 30
0.0
 11
328.4906984966646
 21
498.8120079652225
 31
0.0
  0
LWPOLYLINE
  5
136D
330
18
100
AcDbEntity
  8
1
  6
ByBlock
100
AcDbPolyline
 90
        4
 70
     1
 43
0.0
 10
331.1625043958176
 20
504.0376240101905
 10
333.1625043958176
 20
504.0376240101905
 10
333.1625043958176
 20
495.0376240101905
 10
331.1625043958176
 20
495.0376240101905
  0
LWPOLYLINE
  5
136E
330
18
100
AcDbEntity
  8
1
  6
ByBlock
100
AcDbPolyline
 90
        4
 70
     1
 43
0.0
 10
331.1625043958176
 20
504.0376240101905
 10
353.1625043958176
 20
504.0376240101905
 10
353.1625043958176
 20
495.0376240101905
 10
331.1625043958176
 20
495.0376240101905
  0
CIRCLE
  5
136F
330
18
100
AcDbEntity
  8
1
  6
ByBlock
100
AcDbCircle
 10
342.1625043958176
 20
531.5376240101906
 30
0.0
 40
3.0
  0
LINE
  5
1370
330
18
100
AcDbEntity
  8
1
  6
ByBlock
100
AcDbLine
 10
359.1557843534421
 20
556.8455943374011
 30
0.0
 11
363.0448713580508
 21
560.8067014717248
 31
0.0
  0
LINE
  5
1371
330
18
100
AcDbEntity
  8
1
  6
ByBlock
100
AcDbLine
 10
358.0354755483499
 20
557.8784578886381
 30
0.0
 11
359.4711990264741
 21
559.5374016084132
 31
0.0
  0
LINE
  5
1372
330
18
100
AcDbEntity
  8
1
  6
ByBlock
100
AcDbLine
 10
356.8525233777886
 20
558.838938547687
 30
0.0
 11
358.1812478455542
 21
560.5847585440726
 31
0.0
  0
LINE
  5
1373
330
18
100
AcDbEntity
  8
1
  6
ByBlock
100
AcDbLine
 10
355.6115964135367
 20
559.7232457361883
 30
0.0
 11
356.8280780025054
 21
561.5490520552481
 31
0.0
  0
LINE
  5
1374
330
18
100
AcDbEntity
  8
1
  6
ByBlock
100
AcDbLine
 10
354.3175920273963
 20
560.5278894976702
 30
0.0
 11
355.4170298404944
 21
562.4264765159944
 31
0.0
  0
LINE
  5
1375
330
18
100
AcDbEntity
  8
1
  6
ByBlock
100
AcDbLine
 10
352.9756170635053
 20
561.2496942708133
 30
0.0
 11
355.4503091806172
 21
566.2187249996545
 31
0.0
  0
LINE
  5
1376
330
18
100
AcDbEntity
  8
1
  6
ByBlock
100
AcDbLine
 10
351.5909676839553
 20
561.8858114219392
 30
0.0
 11
352.4437800513012
 21
563.9072236107617
 31
0.0
  0
LINE
  5
1377
330
18
100
AcDbEntity
  8
1
  6
ByBlock
100
AcDbLine
 10
350.1691084672616
 20
562.4337304872665
 30
0.0
 11
350.8933124826883
 21
564.5047024124886
 31
0.0
  0
LINE
  5
1378
330
18
100
AcDbEntity
  8
1
  6
ByBlock
100
AcDbLine
 10
348.7156508421683
 20
562.8912890805644
 30
0.0
 11
349.3083884032833
 21
565.0036475621346
 31
0.0
  0
LINE
  5
1379
330
18
100
AcDbEntity
  8
1
  6
ByBlock
100
AcDbLine
 10
347.2363309418981
 20
563.2566814271042
 30
0.0
 11
347.6952627843447
 21
565.4020899511404
 31
0.0
  0
LINE
  5
137A
330
18
100
AcDbEntity
  8
1
  6
ByBlock
100
AcDbLine
 10
345.7369869662616
 20
563.5284654902259
 30
0.0
 11
346.55504408928
 21
569.0190164645789
 31
0.0
  0
LINE
  5
137B
330
18
100
AcDbEntity
  8
1
  6
ByBlock
100
AcDbLine
 10
344.2235361409448
 20
563.7055686623986
 30
0.0
 11
344.4099581811038
 21
565.8915794112196
 31
0.0
  0
LINE
  5
137C
330
18
100
AcDbEntity
  8
1
  6
ByBlock
100
AcDbLine
 10
342.7019513649265
 20
563.7872919983124
 30
0.0
 11
342.750744793158
 21
565.9806946910207
 31
0.0
  0
LINE
  5
137D
330
18
100
AcDbEntity
  8
1
  6
ByBlock
100
AcDbLine
 10
341.1782376381702
 20
563.7733129732964
 30
0.0
 11
341.0892098891045
 21
565.9654512515341
 31
0.0
  0
LINE
  5
137E
330
18
100
AcDbEntity
  8
1
  6
ByBlock
100
AcDbLine
 10
339.6584083626387
 20
563.6636867561759
 30
0.0
 11
339.4319107881285
 21
565.8459092516515
 31
0.0
  0
LINE
  5
137F
330
18
100
AcDbEntity
  8
1
  6
ByBlock
100
AcDbLine
 10
338.1484616101365
 20
563.4588459915464
 30
0.0
 11
337.2298066081278
 21
568.9334638271382
 31
0.0
  0
LINE
  5
1380
330
18
100
AcDbEntity
  8
1
  6
ByBlock
100
AcDbLine
 10
336.6543564506678
 20
563.1595990923231
 30
0.0
 11
336.1561398754697
 21
565.2962264382158
 31
0.0
  0
LINE
  5
1381
330
18
100
AcDbEntity
  8
1
  6
ByBlock
100
AcDbLine
 10
335.1819894347056
 20
562.7671270493043
 30
0.0
 11
334.5505960350228
 21
564.8682549716011
 31
0.0
  0
LINE
  5
1382
330
18
100
AcDbEntity
  8
1
  6
ByBlock
100
AcDbLine
 10
333.7371713222016
 20
562.2829787703405
 30
0.0
 11
332.9750929193264
 21
564.3403150770463
 31
0.0
  0
LINE
  5
1383
330
18
100
AcDbEntity
  8
1
  6
ByBlock
100
AcDbLine
 10
332.3256041501701
 20
561.7090649675021
 30
0.0
 11
331.4358483193982
 21
563.7144902921219
 31
0.0
  0
LINE
  5
1384
330
18
100
AcDbEntity
  8
1
  6
ByBlock
100
AcDbLine
 10
330.9528587293568
 20
561.0476506163735
 30
0.0
 11
328.3874159545553
 21
565.9704415755651
 31
0.0
  0
LINE
  5
1385
330
18
100
AcDbEntity
  8
1
  6
ByBlock
100
AcDbLine
 10
329.6243526587888
 20
560.3013460172262
 30
0.0
 11
328.4902663778934
 21
562.1794419888163
 31
0.0
  0
LINE
  5
1386
330
18
100
AcDbEntity
  8
1
  6
ByBlock
100
AcDbLine
 10
328.3453289449905
 20
559.4730964933593
 30
0.0
 11
327.0955539025308
 21
561.2762766047912
 31
0.0
  0
LINE
  5
1387
330
18
100
AcDbEntity
  8
1
  6
ByBlock
100
AcDbLine
 10
327.1208353102306
 20
558.5661707672528
 30
0.0
 11
325.7603037973315
 21
560.2873186904213
 31
0.0
  0
LINE
  5
1388
330
18
100
AcDbEntity
  8
1
  6
ByBlock
100
AcDbLine
 10
325.9557042714661
 20
557.5841480604118
 30
0.0
 11
324.4897856844413
 21
559.2164712107818
 31
0.0
  0
LINE
  5
1389
330
18
100
AcDbEntity
  8
1
  6
ByBlock
100
AcDbLine
 10
324.8545340686105
 20
556.5309039678176
 30
0.0
 11
320.8934269342853
 21
560.4199909724277
 31
0.0
  0
ARC
  5
138A
330
18
100
AcDbEntity
  8
1
  6
ByBlock
100
AcDbCircle
 10
342.1625043958176
 20
539.5376240102492
 30
0.0
 40
7.757906160757556
100
AcDbArc
 50
40.1284822804084
 51
139.8715177195916
  0
LINE
  5
138B
330
18
100
AcDbEntity
  8
1
  6
ByBlock
370
    30
100
AcDbLine
 10
337.0699118031448
 20
544.5376240101905
 30
0.0
 11
323.2890137184087
 21
558.0679603116522
 31
0.0
  0
LINE
  5
138C
330
18
100
AcDbEntity
  8
2
  6
CENTER2
100
AcDbLine
 10
241.2917420444562
 20
429.5376240101906
 30
0.0
 11
270.3044077697766
 21
429.5376240101906
 31
0.0
  0
CIRCLE
  5
138D
330
18
100
AcDbEntity
  8
1
  6
ByBlock
100
AcDbCircle
 10
255.6625043958177
 20
521.5376240101906
 30
0.0
 40
7.5
  0
LINE
  5
138E
330
18
100
AcDbEntity
  8
1
  6
ByBlock
100
AcDbLine
 10
253.6625043958177
 20
528.766040157591
 30
0.0
 11
255.0450989000503
 21
532.7032857302397
 31
0.0
  0
LINE
  5
138F
330
18
100
AcDbEntity
  8
1
  6
ByBlock
100
AcDbLine
 10
255.5168575189545
 20
533.0376240101905
 30
0.0
 11
255.8081512726807
 21
533.0376240101905
 31
0.0
  0
LINE
  5
1390
330
18
100
AcDbEntity
  8
1
  6
ByBlock
100
AcDbLine
 10
256.279909891585
 20
532.7032857302397
 30
0.0
 11
257.6625043958177
 21
528.766040157591
 31
0.0
  0
ARC
  5
1391
330
18
100
AcDbEntity
  8
1
  6
ByBlock
100
AcDbCircle
 10
255.5168575189545
 20
532.5376240101905
 30
0.0
 40
0.5
100
AcDbArc
 50
90.0
 51
160.6508773899144
  0
ARC
  5
1392
330
18
100
AcDbEntity
  8
1
  6
ByBlock
100
AcDbCircle
 10
255.8081512726807
 20
532.5376240101905
 30
0.0
 40
0.5
100
AcDbArc
 50
19.3491226100855
 51
90.0
  0
CIRCLE
  5
1393
330
18
100
AcDbEntity
  8
1
  6
ByBlock
100
AcDbCircle
 10
255.6625043958177
 20
521.5376240101906
 30
0.0
 40
30.0
  0
LINE
  5
1394
330
18
100
AcDbEntity
  8
1
  6
ByBlock
100
AcDbLine
 10
569.8632024075161
 20
656.4511698796508
 30
0.0
 11
570.2864777126817
 21
657.3233447089607
 31
0.0
  0
ARC
  5
1395
330
18
100
AcDbEntity
  8
1
  6
ByBlock
100
AcDbCircle
 10
572.0857797009832
 20
656.4501251747696
 30
0.0
 40
2.0
100
AcDbArc
 50
96.35263362149004
 51
154.112229829684
  0
ARC
  5
1396
330
18
100
AcDbEntity
  8
1
  6
ByBlock
100
AcDbCircle
 10
571.6625043958177
 20
655.5779503454593
 30
0.0
 40
2.0
100
AcDbArc
 50
154.1122298296694
 51
180.0
  0
ARC
  5
1397
330
18
100
AcDbEntity
  8
1
  6
ByBlock
100
AcDbCircle
 10
575.239229090652
 20
656.4501251747696
 30
0.0
 40
2.0
100
AcDbArc
 50
25.88777017031599
 51
83.64736637850995
  0
LINE
  5
1398
330
18
100
AcDbEntity
  8
1
  6
ByBlock
100
AcDbLine
 10
577.4618063841192
 20
656.4511698796508
 30
0.0
 11
577.0385310789536
 21
657.3233447089607
 31
0.0
  0
ARC
  5
1399
330
18
100
AcDbEntity
  8
1
  6
ByBlock
100
AcDbCircle
 10
575.6625043958177
 20
655.5779503454593
 30
0.0
 40
2.0
100
AcDbArc
 50
0.0
 51
25.88777017033175
  0
DIMENSION
  5
139A
330
18
100
AcDbEntity
  8
2
  6
ByBlock
100
AcDbDimension
  2
*D5
 10
676.6625043958177
 20
420.5376240101905
 30
0.0
 11
676.6625043958176
 21
541.5376240101909
 31
0.0
 70
   160
 71
     5
 42
241.9999999999999
  3
STANDARD
100
AcDbAlignedDimension
 13
647.2625043958166
 23
662.5376240101906
 33
0.0
 14
647.2625043958166
 24
420.5376240101905
 34
0.0
 50
90.0
100
AcDbRotatedDimension
1001
ACAD
1000
DSTYLE
1002
{
1070
    40
1040
1.0
1002
}
  0
LINE
  5
139B
330
18
100
AcDbEntity
  8
2
100
AcDbLine
 10
175.6625043958176
 20
657.5376240101905
 30
0.0
 11
175.6625043958176
 21
672.5376240101906
 31
0.0
  0
LINE
  5
139C
330
18
100
AcDbEntity
  8
2
100
AcDbLine
 10
335.6625043958176
 20
657.5376240101905
 30
0.0
 11
335.6625043958176
 21
672.5376240101906
 31
0.0
  0
DIMENSION
  5
139D
330
18
100
AcDbEntity
  8
2
  6
ByBlock
100
AcDbDimension
  2
*D6
 10
335.6625043958176
 20
670.5725008443588
 30
0.0
 11
255.6625043958177
 21
676.0725008443588
 31
0.0
 70
    32
 71
     5
 42
160.0
  3
STANDARD
100
AcDbAlignedDimension
 13
175.6625043958176
 23
662.5376240101906
 33
0.0
 14
335.6625043958176
 24
662.5376240101904
 34
0.0
100
AcDbRotatedDimension
1001
ACAD
1000
DSTYLE
1002
{
1070
    40
1040
1.0
1002
}
  0
LEADER
  5
139F
330
18
100
AcDbEntity
  8
2
  6
ByBlock
100
AcDbLeader
  3
STANDARD
 40
25.24344569288389
 41
49.30337078651685
 76
     3
 10
337.6624800073898
 20
653.5376200575703
 30
0.0
 10
349.7120003555303
 20
686.7815005230733
 30
0.0
 10
414.1587053517926
 20
686.7815005230733
 30
0.0
213
57.79267541450827
223
-15.33401680068345
233
0.0
1001
ACAD
1000
DSTYLE
1002
{
1070
    40
1040
1.0
1070
    77
1070
     0
1002
}
  0
DIMENSION
  5
13A0
330
18
100
AcDbEntity
  8
2
  6
ByBlock
100
AcDbDimension
  2
*D7
 10
408.6933206896703
 20
662.5376240101906
 30
0.0
 11
403.1933206896702
 21
650.0376240101907
 31
0.0
 70
    32
 71
     5
 42
25.0
  3
STANDARD
100
AcDbAlignedDimension
 13
386.6625043958176
 23
637.5376240101906
 33
0.0
 14
344.6625043958174
 24
662.5376240101906
 34
0.0
 50
90.0
100
AcDbRotatedDimension
1001
ACAD
1000
DSTYLE
1002
{
1070
    40
1040
1.0
1002
}
  0
MTEXT
  5
13A1
102
{ACAD_REACTORS
330
13A2
102
}
330
18
100
AcDbEntity
  8
2
  6
ByBlock
100
AcDbMText
 10
198.0212707437733
 20
370.7380175847102
 30
0.0
 40
10.0
 41
66.74566407249222
 71
     9
 72
     1
  1
\A1;φ5取付孔
  7
ROMANS
 73
     1
 44
1.0
  0
LEADER
  5
13A2
330
18
100
AcDbEntity
  8
2
  6
ByBlock
100
AcDbLeader
  3
STANDARD
 73
     0
 40
13.37078651685393
 41
60.50561797752809
 76
     3
 10
253.733508801479
 20
427.6008141392959
 30
0.0
 10
204.3007938972862
 20
368.3970059019558
 30
0.0
 10
131.4192139308272
 20
368.5850780114088
 30
0.0
340
13A1
213
-67.1020568129461
223
-2.152939573301409
233
0.0
1001
ACAD
1000
DSTYLE
1002
{
1070
    40
1040
1.0
1070
    77
1070
     0
1002
}
  0
LEADER
  5
13A4
330
18
100
AcDbEntity
  8
2
  6
ByBlock
100
AcDbLeader
  3
STANDARD
 40
13.03370786516854
 41
84.7191011235955
 76
     3
 10
647.2625113567107
 20
447.821178788283
 30
0.0
 10
722.0031470902165
 20
420.5376275258641
 30
0.0
 10
818.4282412169839
 20
420.5376275258641
 30
0.0
213
83.25901252379116
223
-17.0862118313853
233
0.0
1001
ACAD
1000
DSTYLE
1002
{
1070
    40
1040
1.0
1070
    77
1070
     0
1002
}
  0
LEADER
  5
13A5
330
18
100
AcDbEntity
  8
2
  6
ByBlock
100
AcDbLeader
  3
STANDARD
 76
     2
 10
647.2625043958166
 20
637.5376240101906
 30
0.0
 10
722.0031470902165
 20
420.5376275258641
 30
0.0
1001
ACAD
1000
DSTYLE
1002
{
1070
    40
1040
1.0
1070
    77
1070
     0
1002
}
  0
DIMENSION
  5
13AF
330
18
100
AcDbEntity
  8
2
  6
ByBlock
100
AcDbDimension
  2
*D8
 10
505.1625043958177
 20
398.5376240101905
 30
0.0
 11
465.2355381036825
 21
398.5376240101905
 31
0.0
 70
   160
 71
     5
 42
14.0
  3
STANDARD
100
AcDbAlignedDimension
 13
491.1625043958176
 23
480.0376240101906
 33
0.0
 14
505.1625043958177
 24
453.5376240101905
 34
0.0
100
AcDbRotatedDimension
1001
ACAD
1000
DSTYLE
1002
{
1070
    40
1040
1.0
1002
}
  0
LWPOLYLINE
  5
13B0
330
18
100
AcDbEntity
  8
1
  6
ByBlock
100
AcDbPolyline
 90
        6
 70
     0
 43
0.0
 10
505.1625043958177
 20
478.0376240101905
 10
493.1625043958177
 20
478.0376240101905
 42
-0.4142135623730951
 10
491.1625043958176
 20
480.0376240101906
 10
491.1625043958176
 20
563.0376240101906
 42
-0.4142135623730951
 10
493.1625043958177
 20
565.0376240101905
 10
497.1625043958177
 20
565.0376240101905
  0
LWPOLYLINE
  5
13B2
330
18
100
AcDbEntity
  8
1
  6
ByBlock
100
AcDbPolyline
 90
        4
 70
     1
 43
0.0
 10
518.6625043958176
 20
189.5376240101906
 10
567.6625043958177
 20
189.5376240101906
 10
567.6625043958177
 20
172.5376240101905
 10
518.6625043958176
 20
172.5376240101905
  0
CIRCLE
  5
13B3
330
18
100
AcDbEntity
  8
1
100
AcDbCircle
 10
294.6625043958176
 20
46.5376240101906
 30
0.0
 40
9.0
  0
CIRCLE
  5
13B4
330
18
100
AcDbEntity
  8
1
  6
ByBlock
100
AcDbCircle
 10
297.6625043958176
 20
215.5376240101905
 30
0.0
 40
5.0
  0
CIRCLE
  5
13B5
330
18
100
AcDbEntity
  8
1
  6
ByBlock
100
AcDbCircle
 10
267.6625043958176
 20
215.5376240101905
 30
0.0
 40
5.0
  0
LINE
  5
13B6
330
18
100
AcDbEntity
  8
1
  6
ByBlock
100
AcDbLine
 10
262.6625043958176
 20
215.5376240101905
 30
0.0
 11
244.6625043958176
 21
215.5376240101905
 31
0.0
  0
LINE
  5
13B7
330
18
100
AcDbEntity
  8
1
  6
ByBlock
100
AcDbLine
 10
244.6625043958176
 20
215.5376240101905
 30
0.0
 11
244.6625043958176
 21
190.5376240101906
 31
0.0
  0
LINE
  5
13B8
330
18
100
AcDbEntity
  8
1
  6
ByBlock
100
AcDbLine
 10
262.6625043958176
 20
190.5376240101906
 30
0.0
 11
244.6625043958176
 21
190.5376240101906
 31
0.0
  0
CIRCLE
  5
13B9
330
18
100
AcDbEntity
  8
1
  6
ByBlock
100
AcDbCircle
 10
267.6625043958176
 20
190.5376240101906
 30
0.0
 40
5.0
  0
CIRCLE
  5
13BA
330
18
100
AcDbEntity
  8
1
  6
ByBlock
100
AcDbCircle
 10
297.6625043958176
 20
190.5376240101906
 30
0.0
 40
5.0
  0
ARC
  5
13BB
330
18
100
AcDbEntity
  8
1
100
AcDbCircle
 10
277.5125043958175
 20
187.3376240101917
 30
0.0
 40
5.94999999999998
100
AcDbArc
 50
28.07248693584707
 51
144.6947081706048
  0
ARC
  5
13BC
330
18
100
AcDbEntity
  8
1
100
AcDbCircle
 10
288.0125043958175
 20
192.9376240101904
 30
0.0
 40
5.94999999999998
100
AcDbArc
 50
208.072486935847
 51
323.4822658982096
  0
LINE
  5
13BD
330
18
100
AcDbEntity
  8
1
100
AcDbLine
 10
339.6625043958176
 20
190.5376240101906
 30
0.0
 11
302.6625043958176
 21
190.5376240101906
 31
0.0
  0
LINE
  5
13BE
330
18
100
AcDbEntity
  8
1
  6
ByBlock
100
AcDbLine
 10
292.8607732620496
 20
216.9316749845103
 30
0.0
 11
266.6625043958176
 21
224.5376240101906
 31
0.0
  0
LINE
  5
13BF
330
18
100
AcDbEntity
  8
1
  6
ByBlock
100
AcDbLine
 10
339.6625043958176
 20
190.5376240101906
 30
0.0
 11
339.6625043958176
 21
180.5376240101906
 31
0.0
  0
LINE
  5
13C0
330
18
100
AcDbEntity
  8
1
  6
ByBlock
100
AcDbLine
 10
339.6625043958176
 20
180.5376240101906
 30
0.0
 11
429.6625043958177
 21
180.5376240101906
 31
0.0
  0
LINE
  5
13C1
330
18
100
AcDbEntity
  8
1
  6
ByBlock
100
AcDbLine
 10
339.6625043958176
 20
182.5376240101905
 30
0.0
 11
429.6625043958177
 21
182.5376240101905
 31
0.0
  0
LWPOLYLINE
  5
13C2
330
18
100
AcDbEntity
  8
1
  6
CENTER2
100
AcDbPolyline
 90
        2
 70
     0
 43
0.0
 10
348.6625043958176
 20
234.5376240101905
 10
375.6625043958176
 20
234.5376240101905
  0
LWPOLYLINE
  5
13C3
330
18
100
AcDbEntity
  8
1
  6
CENTER2
100
AcDbPolyline
 90
        2
 70
     0
 43
0.0
 10
393.6625043958176
 20
234.5376240101905
 10
420.6625043958176
 20
234.5376240101905
  0
LWPOLYLINE
  5
13C4
330
18
100
AcDbEntity
  8
1
  6
CENTER2
100
AcDbPolyline
 90
        2
 70
     0
 43
0.0
 10
438.6625043958177
 20
234.5376240101905
 10
465.6625043958176
 20
234.5376240101905
  0
LWPOLYLINE
  5
13C5
330
18
100
AcDbEntity
  8
1
  6
CENTER2
100
AcDbPolyline
 90
        2
 70
     0
 43
0.0
 10
483.6625043958177
 20
234.5376240101905
 10
510.6625043958176
 20
234.5376240101905
  0
LWPOLYLINE
  5
13C6
330
18
100
AcDbEntity
  8
1
  6
CENTER2
100
AcDbPolyline
 90
        2
 70
     0
 43
0.0
 10
528.6625043958176
 20
234.5376240101905
 10
555.6625043958177
 20
234.5376240101905
  0
LWPOLYLINE
  5
13C7
330
18
100
AcDbEntity
  8
1
  6
CENTER2
100
AcDbPolyline
 90
        2
 70
     0
 43
0.0
 10
573.6625043958176
 20
234.5376240101905
 10
600.6625043958177
 20
234.5376240101905
  0
LWPOLYLINE
  5
13C8
330
18
100
AcDbEntity
  8
1
  6
CENTER2
100
AcDbPolyline
 90
        4
 70
     0
 43
0.0
 10
618.6625043958176
 20
234.5376240101905
 10
655.6625043958177
 20
234.5376240101905
 10
655.6625043958177
 20
46.5376240101906
 10
618.6625043958176
 20
46.5376240101906
  0
LWPOLYLINE
  5
13C9
330
18
100
AcDbEntity
  8
1
  6
CENTER2
100
AcDbPolyline
 90
        2
 70
     0
 43
0.0
 10
375.6625043958176
 20
46.5376240101906
 10
348.6625043958176
 20
46.5376240101906
  0
LWPOLYLINE
  5
13CA
330
18
100
AcDbEntity
  8
1
  6
CENTER2
100
AcDbPolyline
 90
        2
 70
     0
 43
0.0
 10
330.6625043958177
 20
46.5376240101906
 10
303.6625043958177
 20
46.5376240101906
  0
LWPOLYLINE
  5
13CB
330
18
100
AcDbEntity
  8
1
  6
CENTER2
100
AcDbPolyline
 90
        4
 70
     0
 43
0.0
 10
285.6625043958176
 20
46.5376240101906
 10
223.6625043958176
 20
46.5376240101906
 10
223.6625043958176
 20
234.5376240101905
 10
330.6625043958177
 20
234.5376240101905
  0
LWPOLYLINE
  5
13CC
330
18
100
AcDbEntity
  8
1
  6
CENTER2
100
AcDbPolyline
 90
        2
 70
     0
 43
0.0
 10
420.6625043958176
 20
46.5376240101906
 10
393.6625043958176
 20
46.5376240101906
  0
LWPOLYLINE
  5
13CD
330
18
100
AcDbEntity
  8
1
  6
CENTER2
100
AcDbPolyline
 90
        2
 70
     0
 43
0.0
 10
465.6625043958176
 20
46.5376240101906
 10
438.6625043958177
 20
46.5376240101906
  0
LWPOLYLINE
  5
13CE
330
18
100
AcDbEntity
  8
1
  6
CENTER2
100
AcDbPolyline
 90
        2
 70
     0
 43
0.0
 10
510.6625043958176
 20
46.5376240101906
 10
483.6625043958177
 20
46.5376240101906
  0
LWPOLYLINE
  5
13CF
330
18
100
AcDbEntity
  8
1
  6
CENTER2
100
AcDbPolyline
 90
        2
 70
     0
 43
0.0
 10
555.6625043958177
 20
46.5376240101906
 10
528.6625043958176
 20
46.5376240101906
  0
LWPOLYLINE
  5
13D0
330
18
100
AcDbEntity
  8
1
  6
CENTER2
100
AcDbPolyline
 90
        2
 70
     0
 43
0.0
 10
600.6625043958177
 20
46.5376240101906
 10
573.6625043958176
 20
46.5376240101906
  0
LINE
  5
13D1
330
18
100
AcDbEntity
  8
1
  6
ByBlock
100
AcDbLine
 10
294.6625043958176
 20
37.53762401019059
 30
0.0
 11
294.6625043958176
 21
15.53762401019059
 31
0.0
  0
LINE
  5
13D2
330
18
100
AcDbEntity
  8
1
  6
ByBlock
100
AcDbLine
 10
281.6625043958176
 20
15.53762401019059
 30
0.0
 11
307.6625043958177
 21
15.53762401019059
 31
0.0
  0
LINE
  5
13D3
330
18
100
AcDbEntity
  8
1
  6
ByBlock
100
AcDbLine
 10
285.6625043958176
 20
10.53762401019059
 30
0.0
 11
303.6625043958177
 21
10.53762401019059
 31
0.0
  0
LINE
  5
13D4
330
18
100
AcDbEntity
  8
1
  6
ByBlock
100
AcDbLine
 10
290.6625043958176
 20
5.537624010190597
 30
0.0
 11
298.6625043958176
 21
5.537624010190597
 31
0.0
  0
LINE
  5
13D5
330
18
100
AcDbEntity
  8
1
  6
ByBlock
100
AcDbLine
 10
339.6625043958176
 20
55.5376240101906
 30
0.0
 11
339.6625043958176
 21
159.5376240101906
 31
0.0
  0
LINE
  5
13D6
330
18
100
AcDbEntity
  8
1
  6
ByBlock
100
AcDbLine
 10
384.6625043958177
 20
55.5376240101906
 30
0.0
 11
384.6625043958177
 21
111.5376240101906
 31
0.0
  0
LINE
  5
13D7
330
18
100
AcDbEntity
  8
1
  6
ByBlock
100
AcDbLine
 10
429.6625043958177
 20
55.5376240101906
 30
0.0
 11
429.6625043958177
 21
111.5376240101906
 31
0.0
  0
LINE
  5
13D8
330
18
100
AcDbEntity
  8
1
  6
ByBlock
100
AcDbLine
 10
474.6625043958176
 20
55.5376240101906
 30
0.0
 11
474.6625043958176
 21
69.53762401019059
 31
0.0
  0
LINE
  5
13D9
330
18
100
AcDbEntity
  8
1
  6
ByBlock
100
AcDbLine
 10
519.6625043958176
 20
55.5376240101906
 30
0.0
 11
519.6625043958176
 21
62.53762401019059
 31
0.0
  0
LINE
  5
13DA
330
18
100
AcDbEntity
  8
1
  6
ByBlock
100
AcDbLine
 10
564.6625043958176
 20
55.5376240101906
 30
0.0
 11
564.6625043958176
 21
159.5376240101906
 31
0.0
  0
LINE
  5
13DB
330
18
100
AcDbEntity
  8
1
  6
ByBlock
100
AcDbLine
 10
564.6625043958176
 20
159.5376240101906
 30
0.0
 11
608.6625043958177
 21
159.5376240101906
 31
0.0
  0
LINE
  5
13DC
330
18
100
AcDbEntity
  8
1
  6
ByBlock
100
AcDbLine
 10
608.6625043958177
 20
159.5376240101906
 30
0.0
 11
608.6625043958177
 21
146.4366034957569
 31
0.0
  0
LINE
  5
13DD
330
18
100
AcDbEntity
  8
1
  6
ByBlock
100
AcDbLine
 10
609.6625043958177
 20
55.5376240101906
 30
0.0
 11
609.6625043958177
 21
106.5376240101906
 31
0.0
  0
CIRCLE
  5
13DE
330
18
100
AcDbEntity
  8
1
  6
ByBlock
100
AcDbCircle
 10
394.6625043958176
 20
111.5376240101906
 30
0.0
 40
5.0
  0
CIRCLE
  5
13DF
330
18
100
AcDbEntity
  8
1
  6
ByBlock
100
AcDbCircle
 10
419.6625043958176
 20
111.5376240101906
 30
0.0
 40
5.0
  0
CIRCLE
  5
13E0
330
18
100
AcDbEntity
  8
1
  6
ByBlock
100
AcDbCircle
 10
394.6625043958176
 20
141.5376240101906
 30
0.0
 40
5.0
  0
CIRCLE
  5
13E1
330
18
100
AcDbEntity
  8
1
  6
ByBlock
100
AcDbCircle
 10
419.6625043958176
 20
141.5376240101906
 30
0.0
 40
5.0
  0
LINE
  5
13E2
330
18
100
AcDbEntity
  8
1
  6
ByBlock
100
AcDbLine
 10
394.6625043958176
 20
146.5376240101905
 30
0.0
 11
394.6625043958176
 21
151.5376240101906
 31
0.0
  0
LINE
  5
13E3
330
18
100
AcDbEntity
  8
1
  6
ByBlock
100
AcDbLine
 10
394.6625043958176
 20
151.5376240101906
 30
0.0
 11
419.6625043958176
 21
151.5376240101906
 31
0.0
  0
LINE
  5
13E4
330
18
100
AcDbEntity
  8
1
  6
ByBlock
100
AcDbLine
 10
419.6625043958176
 20
151.5376240101906
 30
0.0
 11
419.6625043958176
 21
146.5376240101905
 31
0.0
  0
LINE
  5
13E5
330
18
100
AcDbEntity
  8
1
  6
ByBlock
100
AcDbLine
 10
389.6625043958176
 20
111.5376240101906
 30
0.0
 11
384.6625043958177
 21
111.5376240101906
 31
0.0
  0
LINE
  5
13E6
330
18
100
AcDbEntity
  8
1
  6
ByBlock
100
AcDbLine
 10
424.6625043958176
 20
111.5376240101906
 30
0.0
 11
429.6625043958177
 21
111.5376240101906
 31
0.0
  0
LINE
  5
13E7
330
18
100
AcDbEntity
  8
1
  6
ByBlock
100
AcDbLine
 10
407.6625043958176
 20
151.5376240101906
 30
0.0
 11
407.6625043958176
 21
159.5376240101906
 31
0.0
  0
LINE
  5
13E8
330
18
100
AcDbEntity
  8
1
  6
ByBlock
100
AcDbLine
 10
407.6625043958176
 20
159.5376240101906
 30
0.0
 11
339.6625043958176
 21
159.5376240101906
 31
0.0
  0
LINE
  5
13E9
330
18
100
AcDbEntity
  8
1
  6
ByBlock
100
AcDbLine
 10
414.6625043958176
 20
144.5376240101905
 30
0.0
 11
414.6625043958176
 21
108.5376240101906
 31
0.0
  0
LINE
  5
13EA
330
18
100
AcDbEntity
  8
1
  6
ByBlock
100
AcDbLine
 10
617.6625043958177
 20
144.5376240101905
 30
0.0
 11
617.6625043958177
 21
108.5376240101906
 31
0.0
  0
CIRCLE
  5
13EB
330
18
100
AcDbEntity
  8
1
  6
ByBlock
100
AcDbCircle
 10
609.6625043958177
 20
141.5376240101906
 30
0.0
 40
5.0
  0
CIRCLE
  5
13EC
330
18
100
AcDbEntity
  8
1
  6
ByBlock
100
AcDbCircle
 10
609.6625043958177
 20
111.5376240101906
 30
0.0
 40
5.0
  0
LINE
  5
13ED
330
18
100
AcDbEntity
  8
1
  6
HIDDEN
100
AcDbLine
 10
414.6625043958176
 20
126.5376240101905
 30
0.0
 11
617.6625043958177
 21
126.5376240101905
 31
0.0
  0
CIRCLE
  5
13EE
330
18
100
AcDbEntity
  8
1
  6
ByBlock
100
AcDbCircle
 10
474.6625043958176
 20
74.53762401019059
 30
0.0
 40
5.0
  0
LINE
  5
13EF
330
18
100
AcDbEntity
  8
1
  6
ByBlock
100
AcDbLine
 10
507.6625043958176
 20
62.53762401019059
 30
0.0
 11
531.6625043958176
 21
62.53762401019059
 31
0.0
  0
LINE
  5
13F0
330
18
100
AcDbEntity
  8
1
  6
ByBlock
100
AcDbLine
 10
507.6625043958176
 20
69.53762401019059
 30
0.0
 11
507.6625043958176
 21
62.53762401019059
 31
0.0
  0
LINE
  5
13F1
330
18
100
AcDbEntity
  8
1
  6
ByBlock
100
AcDbLine
 10
531.6625043958176
 20
69.53762401019059
 30
0.0
 11
531.6625043958176
 21
62.53762401019059
 31
0.0
  0
CIRCLE
  5
13F2
330
18
100
AcDbEntity
  8
1
  6
ByBlock
100
AcDbCircle
 10
532.1625043958176
 20
74.53762401019059
 30
0.0
 40
5.0
  0
CIRCLE
  5
13F3
330
18
100
AcDbEntity
  8
1
  6
ByBlock
100
AcDbCircle
 10
507.1625043958176
 20
74.53762401019059
 30
0.0
 40
5.0
  0
CIRCLE
  5
13F4
330
18
100
AcDbEntity
  8
1
  6
ByBlock
100
AcDbCircle
 10
507.1625043958176
 20
104.5376240101905
 30
0.0
 40
5.0
  0
CIRCLE
  5
13F5
330
18
100
AcDbEntity
  8
1
  6
ByBlock
100
AcDbCircle
 10
532.1625043958176
 20
104.5376240101905
 30
0.0
 40
5.0
  0
LINE
  5
13F6
330
18
100
AcDbEntity
  8
1
  6
ByBlock
100
AcDbLine
 10
527.1625043958176
 20
107.5376240101906
 30
0.0
 11
527.1625043958176
 21
71.5376240101906
 31
0.0
  0
LINE
  5
13F7
330
18
100
AcDbEntity
  8
1
  6
ByBlock
100
AcDbLine
 10
482.3767901101034
 20
110.5376240101906
 30
0.0
 11
475.710149839472
 21
79.42663608057762
 31
0.0
  0
CIRCLE
  5
13F8
330
18
100
AcDbEntity
  8
1
  6
ByBlock
100
AcDbCircle
 10
486.1625043958176
 20
104.5376240101905
 30
0.0
 40
5.0
  0
CIRCLE
  5
13F9
330
18
100
AcDbEntity
  8
1
  6
ByBlock
100
AcDbCircle
 10
461.1625043958176
 20
104.5376240101905
 30
0.0
 40
5.0
  0
LINE
  5
13FA
330
18
100
AcDbEntity
  8
1
  6
ByBlock
100
AcDbLine
 10
486.1625043958176
 20
109.5376240101906
 30
0.0
 11
486.1625043958176
 21
115.5376240101906
 31
0.0
  0
LINE
  5
13FB
330
18
100
AcDbEntity
  8
1
  6
ByBlock
100
AcDbLine
 10
486.1625043958176
 20
115.5376240101906
 30
0.0
 11
507.1625043958176
 21
115.5376240101906
 31
0.0
  0
LINE
  5
13FC
330
18
100
AcDbEntity
  8
1
  6
ByBlock
100
AcDbLine
 10
507.1625043958176
 20
109.5376240101906
 30
0.0
 11
507.1625043958176
 21
115.5376240101906
 31
0.0
  0
LINE
  5
13FD
330
18
100
AcDbEntity
  8
1
  6
ByBlock
100
AcDbLine
 10
461.1625043958176
 20
118.5376240101905
 30
0.0
 11
532.1625043958176
 21
118.5376240101905
 31
0.0
  0
LINE
  5
13FE
330
18
100
AcDbEntity
  8
1
  6
ByBlock
100
AcDbLine
 10
532.1625043958176
 20
109.5376240101906
 30
0.0
 11
532.1625043958176
 21
118.5376240101905
 31
0.0
  0
LINE
  5
13FF
330
18
100
AcDbEntity
  8
1
  6
ByBlock
100
AcDbLine
 10
461.1625043958176
 20
109.5376240101906
 30
0.0
 11
461.1625043958176
 21
118.5376240101905
 31
0.0
  0
ARC
  5
1400
330
18
100
AcDbEntity
  8
2
  6
ByBlock
100
AcDbCircle
 10
341.9806862139994
 20
255.9921694647361
 30
0.0
 40
10.62752157730256
100
AcDbArc
 50
97.1250163489047
 51
166.1420623242383
  0
LINE
  5
1401
330
18
100
AcDbEntity
  8
2
  6
ByBlock
100
AcDbLine
 10
340.6625043958176
 20
266.5376240101906
 30
0.0
 11
380.6625043958177
 21
266.5376240101906
 31
0.0
  0
ARC
  5
1402
330
18
100
AcDbEntity
  8
2
  6
ByBlock
100
AcDbCircle
 10
399.9806862139996
 20
277.0830785556451
 30
0.0
 40
10.62752157730256
100
AcDbArc
 50
193.8579376757616
 51
262.8749836510952
  0
ARC
  5
1403
330
18
100
AcDbEntity
  8
2
  6
ByBlock
100
AcDbCircle
 10
379.3443225776357
 20
277.0830785556451
 30
0.0
 40
10.62752157730256
100
AcDbArc
 50
277.1250163489046
 51
346.1420623242383
  0
LINE
  5
1404
330
18
100
AcDbEntity
  8
2
  6
ByBlock
100
AcDbLine
 10
438.6625043958177
 20
266.5376240101906
 30
0.0
 11
398.6625043958176
 21
266.5376240101906
 31
0.0
  0
ARC
  5
1405
330
18
100
AcDbEntity
  8
2
  6
ByBlock
100
AcDbCircle
 10
437.3443225776356
 20
255.9921694647361
 30
0.0
 40
10.62752157730256
100
AcDbArc
 50
13.85793767576166
 51
82.87498365109531
  0
ARC
  5
1406
330
18
100
AcDbEntity
  8
2
  6
ByBlock
100
AcDbCircle
 10
610.3443225776357
 20
26.0830785556451
 30
0.0
 40
10.62752157730256
100
AcDbArc
 50
277.1250163489046
 51
346.1420623242383
  0
LINE
  5
1407
330
18
100
AcDbEntity
  8
2
  6
ByBlock
100
AcDbLine
 10
611.6625043958176
 20
15.53762401019059
 30
0.0
 11
481.6625043958176
 21
15.53762401019059
 31
0.0
  0
ARC
  5
1408
330
18
100
AcDbEntity
  8
2
  6
ByBlock
100
AcDbCircle
 10
462.3443225776356
 20
4.992169464736093
 30
0.0
 40
10.62752157730256
100
AcDbArc
 50
13.85793767576166
 51
82.87498365109531
  0
ARC
  5
1409
330
18
100
AcDbEntity
  8
2
  6
ByBlock
100
AcDbCircle
 10
482.9806862139996
 20
4.992169464736093
 30
0.0
 40
10.62752157730256
100
AcDbArc
 50
97.1250163489047
 51
166.1420623242383
  0
LINE
  5
140A
330
18
100
AcDbEntity
  8
2
  6
ByBlock
100
AcDbLine
 10
335.6625043958176
 20
15.53762401019059
 30
0.0
 11
463.6625043958177
 21
15.53762401019059
 31
0.0
  0
ARC
  5
140B
330
18
100
AcDbEntity
  8
2
  6
ByBlock
100
AcDbCircle
 10
336.9806862139994
 20
26.0830785556451
 30
0.0
 40
10.62752157730256
100
AcDbArc
 50
193.8579376757616
 51
262.8749836510952
  0
MTEXT
  5
140C
330
18
100
AcDbEntity
  8
2
  6
ByBlock
100
AcDbMText
 10
473.1625043958176
 20
-3.299939441586161
 30
0.0
 40
10.0
 41
45.0
 71
     5
 72
     5
  1
{\fＭＳ ゴシック|b0|i0|c128|p49;出力部}
  7
書体１
 73
     1
 44
1.0
  0
MTEXT
  5
140D
330
18
100
AcDbEntity
  8
2
  6
ByBlock
100
AcDbMText
 10
388.1625043958176
 20
281.7000605584138
 30
0.0
 40
10.0
 41
45.0
 71
     5
 72
     5
  1
{\fＭＳ ゴシック|b0|i0|c128|p49;電源部}
  7
書体１
 73
     1
 44
1.0
  0
MTEXT
  5
140E
330
18
100
AcDbEntity
  8
2
  6
ByBlock
100
AcDbMText
 10
256.6625043958176
 20
185.5376240101906
 30
0.0
 40
10.0
 41
71.0
 71
     1
 72
     5
  1
{\fＭＳ ゴシック|b0|i0|c128|p49;ヒューズ1A}
  7
書体１
 73
     1
 44
1.0
  0
MTEXT
  5
140F
330
18
100
AcDbEntity
  8
2
  6
ByBlock
100
AcDbMText
 10
234.961988394016
 20
228.3491749698297
 30
0.0
 40
10.0
 41
29.70051600180159
 71
     1
 72
     5
  1
{\fＭＳ ゴシック|b0|i0|c128|p49;ＳＷ}
  7
書体１
 73
     1
 44
1.0
  0
MTEXT
  5
1410
330
18
100
AcDbEntity
  8
2
  6
ByBlock
100
AcDbMText
 10
342.6625043958176
 20
178.5376240101905
 30
0.0
 40
10.0
 41
84.0
 71
     1
 72
     5
  1
{\fＭＳ ゴシック|b0|i0|c128|p49;電源トランス}
  7
書体１
 73
     1
 44
1.0
  0
MTEXT
  5
1411
330
18
100
AcDbEntity
  8
2
  6
ByBlock
100
AcDbMText
 10
391.9619883940161
 20
103.3491749698297
 30
0.0
 40
10.0
 41
27.70051600180166
 71
     1
 72
     5
  1
{\fＭＳ ゴシック|b0|i0|c128|p49;切替\PＳＷ}
  7
書体１
 73
     1
 44
1.0
  0
MTEXT
  5
1412
330
18
100
AcDbEntity
  8
2
  6
ByBlock
100
AcDbMText
 10
448.6625043958176
 20
139.5376240101906
 30
0.0
 40
10.0
 41
75.0
 71
     1
 72
     5
  1
{\fＭＳ ゴシック|b0|i0|c128|p49;AC250V 10A}
  7
書体１
 73
     1
 44
1.0
  0
MTEXT
  5
1413
330
18
100
AcDbEntity
  8
2
100
AcDbMText
 10
274.6625043958176
 20
67.53762401019059
 30
0.0
 40
10.0
 41
46.0
 71
     1
 72
     5
  1
アース
  7
ＭＳゴシック
 73
     1
 44
1.0
  0
MTEXT
  5
1414
330
18
100
AcDbEntity
  8
2
  6
ByBlock
100
AcDbMText
 10
538.1650291505777
 20
94.33394909500941
 30
0.0
 40
10.0
 41
18.49747524523991
 71
     1
 72
     5
  1
{\fＭＳ ゴシック|b0|i0|c128|p49;1A}
  7
書体１
 73
     1
 44
1.0
  0
TEXT
  5
1415
330
18
100
AcDbEntity
  8
1
 48
0.5
100
AcDbText
 10
553.1625043958176
 20
604.7876240101905
 30
0.0
 40
2.5
  1
コード引出部に手を
  7
ＭＳゴシック
 11
553.1625043958176
 21
606.0376240101906
 31
0.0
100
AcDbText
 73
     2
  0
TEXT
  5
1416
330
18
100
AcDbEntity
  8
1
 48
0.5
100
AcDbText
 10
553.1625043958176
 20
608.7876240101905
 30
0.0
 40
2.5
  1
から行うこと
  7
ＭＳゴシック
 11
553.1625043958176
 21
610.0376240101906
 31
0.0
100
AcDbText
 73
     2
  0
LINE
  5
1417
330
18
100
AcDbEntity
  8
1
 48
0.5
370
    15
100
AcDbLine
 10
512.6625043958177
 20
598.5376240101905
 30
0.0
 11
585.6625043958176
 21
598.5376240101905
 31
0.0
  0
LWPOLYLINE
  5
1418
330
18
100
AcDbEntity
  8
1
 48
0.5
370
    25
100
AcDbPolyline
 90
        4
 70
     1
 43
0.0
 10
512.6625043958177
 20
565.5376240101905
 10
585.6625043958176
 20
565.5376240101905
 10
585.6625043958176
 20
632.5376240101905
 10
512.6625043958177
 20
632.5376240101905
  0
LWPOLYLINE
  5
1419
330
18
100
AcDbEntity
  8
1
 48
0.5
370
    15
100
AcDbPolyline
 90
        4
 70
     1
 43
0.0
 10
511.6625043958176
 20
564.5376240101906
 10
586.6625043958176
 20
564.5376240101906
 10
586.6625043958176
 20
633.5376240101906
 10
511.6625043958176
 20
633.5376240101906
  0
HATCH
  5
141A
330
18
100
AcDbEntity
  8
1
 48
0.5
370
     0
100
AcDbHatch
 10
0.0
 20
0.0
 30
0.0
210
0.0
220
0.0
230
1.0
  2
SOLID
 70
     1
 71
     0
 91
        1
 92
        7
 72
     0
 73
     1
 93
       11
 10
521.3790807991183
 20
609.7286944141859
 10
520.788865071004
 20
610.0133963527975
 10
519.316202874462
 20
606.6020663312603
 10
520.8332504392322
 20
607.4333821089843
 10
520.1693106057166
 20
605.2343962264363
 10
519.888925628875
 20
605.2923604772376
 10
520.1596421582392
 20
604.7803464493434
 10
520.672069874536
 20
605.0508442745016
 10
520.4110217926492
 20
605.1377901477247
 10
521.6657774648122
 20
608.2206732639498
 10
520.1047899498655
 20
607.3294003532302
 97
        0
 75
     0
 76
     1
 47
0.0148545531075745
 98
        1
 10
520.3129212675833
 20
608.265237160975
  0
LINE
  5
141B
330
18
100
AcDbEntity
  8
1
 48
0.5
370
     0
100
AcDbLine
 10
521.3790807991183
 20
609.7286944141859
 30
0.0
 11
520.788865071004
 21
610.0133963527975
 31
0.0
  0
LINE
  5
141C
330
18
100
AcDbEntity
  8
1
 48
0.5
370
     0
100
AcDbLine
 10
520.1047899498655
 20
607.3294003532302
 30
0.0
 11
521.3790807991183
 21
609.7286944141859
 31
0.0
  0
LINE
  5
141D
330
18
100
AcDbEntity
  8
1
 48
0.5
370
     0
100
AcDbLine
 10
521.6657774648122
 20
608.2206732639498
 30
0.0
 11
520.1047899498655
 21
607.3294003532302
 31
0.0
  0
LINE
  5
141E
330
18
100
AcDbEntity
  8
1
 48
0.5
370
     0
100
AcDbLine
 10
520.4110217926492
 20
605.1377901477247
 30
0.0
 11
521.6657774648122
 21
608.2206732639498
 31
0.0
  0
LINE
  5
141F
330
18
100
AcDbEntity
  8
1
 48
0.5
370
     0
100
AcDbLine
 10
520.672069874536
 20
605.0508442745016
 30
0.0
 11
520.4110217926492
 21
605.1377901477247
 31
0.0
  0
LINE
  5
1420
330
18
100
AcDbEntity
  8
1
 48
0.5
370
     0
100
AcDbLine
 10
520.1596421582392
 20
604.7803464493434
 30
0.0
 11
520.672069874536
 21
605.0508442745016
 31
0.0
  0
LINE
  5
1421
330
18
100
AcDbEntity
  8
1
 48
0.5
370
     0
100
AcDbLine
 10
519.888925628875
 20
605.2923604772376
 30
0.0
 11
520.1596421582392
 21
604.7803464493434
 31
0.0
  0
LINE
  5
1422
330
18
100
AcDbEntity
  8
1
 48
0.5
370
     0
100
AcDbLine
 10
520.1693106057166
 20
605.2343962264363
 30
0.0
 11
519.888925628875
 21
605.2923604772376
 31
0.0
  0
LINE
  5
1423
330
18
100
AcDbEntity
  8
1
 48
0.5
370
     0
100
AcDbLine
 10
520.8332504392322
 20
607.4333821089843
 30
0.0
 11
520.1693106057166
 21
605.2343962264363
 31
0.0
  0
LINE
  5
1424
330
18
100
AcDbEntity
  8
1
 48
0.5
370
     0
100
AcDbLine
 10
519.316202874462
 20
606.6020663312603
 30
0.0
 11
520.8332504392322
 21
607.4333821089843
 31
0.0
  0
LINE
  5
1425
330
18
100
AcDbEntity
  8
1
 48
0.5
370
     0
100
AcDbLine
 10
520.788865071004
 20
610.0133963527975
 30
0.0
 11
519.316202874462
 21
606.6020663312603
 31
0.0
  0
HATCH
  5
1426
330
18
100
AcDbEntity
  8
1
 48
0.5
370
     0
100
AcDbHatch
 10
0.0
 20
0.0
 30
0.0
210
0.0
220
0.0
230
1.0
  2
SOLID
 70
     1
 71
     0
 91
        2
 92
        7
 72
     1
 73
     1
 93
        4
 10
521.6650043958177
 20
574.2462018869774
 42
1.0
 10
520.6600043958176
 20
574.2462018869769
 42
0.0
 10
520.9950043958176
 20
571.0637018869771
 42
1.0
 10
521.3300043958176
 20
571.0637018869771
 42
0.0
 97
        0
 92
        7
 72
     1
 73
     1
 93
        2
 10
520.8275043958176
 20
570.2262018869771
 42
1.0
 10
521.4975043958177
 20
570.2262018869771
 42
1.0
 97
        0
 75
     0
 76
     1
 47
0.0161553715635943
 98
        2
 10
521.1506439869892
 20
573.1621780155022
 10
521.1668136319079
 20
570.254210709994
  0
LINE
  5
1427
330
18
100
AcDbEntity
  8
1
 48
0.5
370
     0
100
AcDbLine
 10
521.3300043958176
 20
571.0637018869771
 30
0.0
 11
521.6650043958172
 21
574.2462018869772
 31
0.0
  0
LINE
  5
1428
330
18
100
AcDbEntity
  8
1
 48
0.5
370
     0
100
AcDbLine
 10
520.9950043958176
 20
571.0637018869771
 30
0.0
 11
520.6600043958176
 21
574.2462018869772
 31
0.0
  0
ARC
  5
1429
330
18
100
AcDbEntity
  8
1
 48
0.5
370
     0
100
AcDbCircle
 10
521.1625043958177
 20
574.2462018869772
 30
0.0
 40
0.5025000000000001
100
AcDbArc
 50
347.9819880850145
 51
192.0180119149854
  0
ARC
  5
142A
330
18
100
AcDbEntity
  8
1
 48
0.5
370
     0
100
AcDbCircle
 10
521.1625043958177
 20
571.0637018869771
 30
0.0
 40
0.1675
100
AcDbArc
 50
180.0
 51
0.0
  0
CIRCLE
  5
142B
330
18
100
AcDbEntity
  8
1
 48
0.5
370
     0
100
AcDbCircle
 10
521.1625043958177
 20
570.2262018869771
 30
0.0
 40
0.335
  0
TEXT
  5
142C
330
18
100
AcDbEntity
  8
1
 48
0.5
100
AcDbText
 10
528.6625043958176
 20
568.0376240101906
 30
0.0
 40
4.0
  1
らない様に
  7
ＭＳゴシック
 11
528.6625043958176
 21
570.0376240101905
 31
0.0
100
AcDbText
 73
     2
  0
TEXT
  5
142D
330
18
100
AcDbEntity
  8
1
 48
0.5
100
AcDbText
 10
528.6625043958176
 20
574.5376240101905
 30
0.0
 40
4.0
  1
ほこり、虫が内部に入
  7
ＭＳゴシック
 11
528.6625043958176
 21
576.5376240101906
 31
0.0
100
AcDbText
 73
     2
  0
LWPOLYLINE
  5
142E
330
18
100
AcDbEntity
  8
1
 48
0.5
370
    25
100
AcDbPolyline
 90
        6
 70
     1
 43
0.0
 10
517.7227414163533
 20
569.5562018869772
 10
524.602267375282
 20
569.5562018869772
 42
0.5773502691896244
 10
524.8923858855498
 20
570.0587018869772
 10
521.4526229060854
 20
576.016546133404
 42
0.5773502691896251
 10
520.8723858855498
 20
576.016546133404
 10
517.4326229060855
 20
570.0587018869772
 42
0.5773502691896243
  0
TEXT
  5
142F
330
18
100
AcDbEntity
  8
1
 48
0.5
100
AcDbText
 10
528.6625043958176
 20
583.0376240101905
 30
0.0
 40
4.0
  1
直接地面に置くな
  7
ＭＳゴシック
 11
528.6625043958176
 21
585.0376240101906
 31
0.0
100
AcDbText
 73
     2
  0
CIRCLE
  5
1430
330
18
100
AcDbEntity
  8
1
 48
0.5
370
    25
100
AcDbCircle
 10
521.1625043958177
 20
585.0376240101906
 30
0.0
 40
3.0
  0
LINE
  5
1431
330
18
100
AcDbEntity
  8
1
 48
0.5
370
    25
100
AcDbLine
 10
519.0411840522581
 20
587.1589443537502
 30
0.0
 11
523.2838247393772
 21
582.9163036666309
 31
0.0
  0
TEXT
  5
1432
330
18
100
AcDbEntity
  8
1
 48
0.5
100
AcDbText
 10
528.6625043958176
 20
592.0376240101906
 30
0.0
 40
4.0
  1
水濡れ禁止
  7
ＭＳゴシック
 11
528.6625043958176
 21
594.0376240101906
 31
0.0
100
AcDbText
 73
     2
  0
CIRCLE
  5
1433
330
18
100
AcDbEntity
  8
1
 48
0.5
370
    25
100
AcDbCircle
 10
521.1625043958177
 20
594.0376240101906
 30
0.0
 40
3.0
  0
LINE
  5
1434
330
18
100
AcDbEntity
  8
1
 48
0.5
370
    25
100
AcDbLine
 10
519.0411840522581
 20
596.1589443537502
 30
0.0
 11
523.2838247393772
 21
591.9163036666309
 31
0.0
  0
TEXT
  5
1435
330
18
100
AcDbEntity
  8
1
 48
0.5
100
AcDbText
 10
553.1625043958176
 20
600.7876240101905
 30
0.0
 40
2.5
  1
入れるな
  7
ＭＳゴシック
 11
553.1625043958176
 21
602.0376240101906
 31
0.0
100
AcDbText
 73
     2
  0
TEXT
  5
1436
330
18
100
AcDbEntity
  8
1
 48
0.5
100
AcDbText
 10
553.1625043958176
 20
612.7876240101906
 30
0.0
 40
2.5
  1
工事は電源を切って
  7
ＭＳゴシック
 11
553.1625043958176
 21
614.0376240101906
 31
0.0
100
AcDbText
 73
     2
  0
TEXT
  5
1437
330
18
100
AcDbEntity
  8
1
 48
0.5
100
AcDbText
 10
528.6625043958176
 20
606.0376240101906
 30
0.0
 40
4.0
  1
感電注意
  7
ＭＳゴシック
 11
528.6625043958176
 21
608.0376240101905
 31
0.0
100
AcDbText
 73
     2
  0
LWPOLYLINE
  5
1438
330
18
100
AcDbEntity
  8
1
 48
0.5
370
    25
100
AcDbPolyline
 90
        6
 70
     1
 43
0.0
 10
517.7227414163533
 20
604.5562018869771
 10
524.602267375282
 20
604.5562018869771
 42
0.5773502691896244
 10
524.8923858855498
 20
605.0587018869771
 10
521.4526229060854
 20
611.016546133404
 42
0.5773502691896251
 10
520.8723858855498
 20
611.016546133404
 10
517.4326229060855
 20
605.0587018869771
 42
0.5773502691896243
  0
HATCH
  5
1439
330
18
100
AcDbEntity
  8
1
 48
0.5
370
     0
100
AcDbHatch
 10
0.0
 20
0.0
 30
0.0
210
0.0
220
0.0
230
1.0
  2
SOLID
 70
     1
 71
     1
 91
        2
 92
        7
 72
     1
 73
     1
 93
        2
 10
527.1625043958176
 20
620.841471587484
 42
1.0
 10
528.1625043958176
 20
620.841471587484
 42
1.0
 97
        1
330
143E
 92
        7
 72
     1
 73
     1
 93
        4
 10
528.4125043958177
 20
626.8414715874841
 42
1.0
 10
526.9125043958176
 20
626.8414715874841
 42
0.0
 10
527.4125043958177
 20
622.091471587484
 42
1.0
 10
527.9125043958177
 20
622.091471587484
 42
0.0
 97
        4
330
143C
330
143B
330
143D
330
143A
 75
     0
 76
     1
 47
0.0221856504697444
 98
        2
 10
527.6561895979205
 20
620.8736824390988
 10
527.7228001123823
 20
624.024045153799
  0
LINE
  5
143A
102
{ACAD_REACTORS
330
1439
102
}
330
18
100
AcDbEntity
  8
1
 48
0.5
370
     0
100
AcDbLine
 10
527.9125043958177
 20
622.091471587484
 30
0.0
 11
528.4125043958177
 21
626.8414715874841
 31
0.0
  0
LINE
  5
143B
102
{ACAD_REACTORS
330
1439
102
}
330
18
100
AcDbEntity
  8
1
 48
0.5
370
     0
100
AcDbLine
 10
527.4125043958177
 20
622.091471587484
 30
0.0
 11
526.9125043958176
 21
626.8414715874841
 31
0.0
  0
ARC
  5
143C
102
{ACAD_REACTORS
330
1439
102
}
330
18
100
AcDbEntity
  8
1
 48
0.5
370
     0
100
AcDbCircle
 10
527.6625043958176
 20
626.8414715874841
 30
0.0
 40
0.75
100
AcDbArc
 50
347.9819880850145
 51
192.0180119149854
  0
ARC
  5
143D
102
{ACAD_REACTORS
330
1439
102
}
330
18
100
AcDbEntity
  8
1
 48
0.5
370
     0
100
AcDbCircle
 10
527.6625043958176
 20
622.091471587484
 30
0.0
 40
0.25
100
AcDbArc
 50
180.0
 51
0.0
  0
CIRCLE
  5
143E
102
{ACAD_REACTORS
330
1439
102
}
330
18
100
AcDbEntity
  8
1
 48
0.5
370
     0
100
AcDbCircle
 10
527.6625043958176
 20
620.841471587484
 30
0.0
 40
0.5
  0
TEXT
  5
143F
330
18
100
AcDbEntity
  8
1
 48
0.5
100
AcDbText
 10
542.9188495734827
 20
620.3421925381094
 30
0.0
 40
10.0
  1
警 告
  7
ＭＳゴシック
 72
     4
 11
559.1625043958177
 21
625.0376240101906
 31
0.0
100
AcDbText
  0
LWPOLYLINE
  5
1440
330
18
100
AcDbEntity
  8
1
 48
0.5
370
    40
100
AcDbPolyline
 90
        6
 70
     1
 43
0.0
 10
522.5285297996022
 20
619.841471587484
 10
532.7964789920331
 20
619.841471587484
 42
0.5773502691896244
 10
533.2294916939256
 20
620.5914715874841
 10
528.0955170977096
 20
629.4837764328973
 42
0.5773502691896251
 10
527.2294916939256
 20
629.4837764328973
 10
522.0955170977097
 20
620.5914715874841
 42
0.5773502691896243
  0
LINE
  5
1441
330
18
100
AcDbEntity
  8
1
 48
0.5
370
    15
100
AcDbLine
 10
512.6625043958177
 20
617.5376240101906
 30
0.0
 11
585.6625043958176
 21
617.5376240101906
 31
0.0
  0
LINE
  5
1442
330
18
100
AcDbEntity
  8
1
 48
0.5
370
    15
100
AcDbLine
 10
512.6625043958177
 20
589.5376240101906
 30
0.0
 11
585.6625043958176
 21
589.5376240101906
 31
0.0
  0
LINE
  5
1443
330
18
100
AcDbEntity
  8
1
 48
0.5
370
    15
100
AcDbLine
 10
512.6625043958177
 20
580.5376240101906
 30
0.0
 11
585.6625043958176
 21
580.5376240101906
 31
0.0
  0
TEXT
  5
1561
330
18
100
AcDbEntity
  8
1
100
AcDbText
 10
149.196836726423
 20
553.4989181415462
 30
0.0
 40
6.0
  1
1
  7
書体１
100
AcDbText
  0
TEXT
  5
1562
330
18
100
AcDbEntity
  8
1
100
AcDbText
 10
160.696836726423
 20
553.4989181415462
 30
0.0
 40
6.0
  1
2
  7
書体１
100
AcDbText
  0
TEXT
  5
1563
330
18
100
AcDbEntity
  8
1
100
AcDbText
 10
172.696836726423
 20
553.4989181415462
 30
0.0
 40
6.0
  1
3
  7
書体１
100
AcDbText
  0
TEXT
  5
1564
330
18
100
AcDbEntity
  8
1
100
AcDbText
 10
184.9594907706541
 20
553.5293300557687
 30
0.0
 40
6.0
  1
4
  7
書体１
100
AcDbText
  0
TEXT
  5
1572
330
18
100
AcDbEntity
  8
1
100
AcDbText
 10
161.4190445174904
 20
461.1342294239284
 30
0.0
 40
6.0
  1
警告
  7
MSｺﾞｼｯｸ
100
AcDbText
  0
TEXT
  5
1573
330
18
100
AcDbEntity
  8
1
100
AcDbText
 10
166.3283882778446
 20
578.4475890553767
 30
0.0
 40
6.0
  1
1
  7
書体１
100
AcDbText
  0
TEXT
  5
1574
330
18
100
AcDbEntity
  8
1
100
AcDbText
 10
224.9084055504911
 20
578.9865590196017
 30
0.0
 40
6.0
  1
2
  7
書体１
100
AcDbText
  0
TEXT
  5
1575
330
18
100
AcDbEntity
  8
1
100
AcDbText
 10
283.6346137872435
 20
578.7405203483725
 30
0.0
 40
6.0
  1
3
  7
書体１
100
AcDbText
  0
TEXT
  5
1576
330
18
100
AcDbEntity
  8
1
100
AcDbText
 10
340.9401642775908
 20
578.7049461870745
 30
0.0
 40
6.0
  1
4
  7
書体１
100
AcDbText
  0
TEXT
  5
1577
330
18
100
AcDbEntity
  8
1
100
AcDbText
 10
164.8136696520832
 20
586.9328704296152
 30
0.0
 40
5.0
  1
℃
  7
ＭＳゴシック
100
AcDbText
  0
TEXT
  5
157E
330
18
100
AcDbEntity
  8
1
100
AcDbText
 10
222.8136696520832
 20
586.9328704296151
 30
0.0
 40
5.0
  1
℃
  7
ＭＳゴシック
100
AcDbText
  0
TEXT
  5
1584
330
18
100
AcDbEntity
  8
1
100
AcDbText
 10
280.8136696520832
 20
586.9328704296152
 30
0.0
 40
5.0
  1
℃
  7
ＭＳゴシック
100
AcDbText
  0
TEXT
  5
158A
330
18
100
AcDbEntity
  8
1
100
AcDbText
 10
338.8136696520831
 20
586.9328704296151
 30
0.0
 40
5.0
  1
℃
  7
ＭＳゴシック
100
AcDbText
  0
TEXT
  5
158B
330
18
100
AcDbEntity
  8
1
100
AcDbText
 10
150.1318300727143
 20
595.2027492636316
 30
0.0
 40
3.5
  1
0
  7
書体１
100
AcDbText
  0
TEXT
  5
158C
330
18
100
AcDbEntity
  8
1
100
AcDbText
 10
147.5176872568863
 20
613.3022096815848
 30
0.0
 40
3.5
  1
10
  7
書体１
100
AcDbText
  0
TEXT
  5
158D
330
18
100
AcDbEntity
  8
1
100
AcDbText
 10
166.1441725460294
 20
623.4906663341894
 30
0.0
 40
3.5
  1
20
  7
書体１
100
AcDbText
  0
TEXT
  5
158E
330
18
100
AcDbEntity
  8
1
100
AcDbText
 10
183.8526148696603
 20
613.1482722074363
 30
0.0
 40
3.5
  1
30
  7
書体１
100
AcDbText
  0
TEXT
  5
158F
330
18
100
AcDbEntity
  8
1
100
AcDbText
 10
184.4302440481428
 20
595.0136816388399
 30
0.0
 40
3.5
  1
40
  7
書体１
100
AcDbText
  0
TEXT
  5
159B
330
18
100
AcDbEntity
  8
1
100
AcDbText
 10
208.1318300727143
 20
595.2027492636315
 30
0.0
 40
3.5
  1
0
  7
書体１
100
AcDbText
  0
TEXT
  5
159C
330
18
100
AcDbEntity
  8
1
100
AcDbText
 10
205.5176872568863
 20
613.3022096815847
 30
0.0
 40
3.5
  1
10
  7
書体１
100
AcDbText
  0
TEXT
  5
159D
330
18
100
AcDbEntity
  8
1
100
AcDbText
 10
224.1441725460294
 20
623.4906663341893
 30
0.0
 40
3.5
  1
20
  7
書体１
100
AcDbText
  0
TEXT
  5
159E
330
18
100
AcDbEntity
  8
1
100
AcDbText
 10
241.8526148696603
 20
613.1482722074362
 30
0.0
 40
3.5
  1
30
  7
書体１
100
AcDbText
  0
TEXT
  5
159F
330
18
100
AcDbEntity
  8
1
100
AcDbText
 10
242.4302440481428
 20
595.0136816388398
 30
0.0
 40
3.5
  1
40
  7
書体１
100
AcDbText
  0
TEXT
  5
15A9
330
18
100
AcDbEntity
  8
1
100
AcDbText
 10
266.1318300727143
 20
595.2027492636316
 30
0.0
 40
3.5
  1
0
  7
書体１
100
AcDbText
  0
TEXT
  5
15AA
330
18
100
AcDbEntity
  8
1
100
AcDbText
 10
263.5176872568863
 20
613.3022096815848
 30
0.0
 40
3.5
  1
10
  7
書体１
100
AcDbText
  0
TEXT
  5
15AB
330
18
100
AcDbEntity
  8
1
100
AcDbText
 10
282.1441725460294
 20
623.4906663341894
 30
0.0
 40
3.5
  1
20
  7
書体１
100
AcDbText
  0
TEXT
  5
15AC
330
18
100
AcDbEntity
  8
1
100
AcDbText
 10
299.8526148696603
 20
613.1482722074363
 30
0.0
 40
3.5
  1
30
  7
書体１
100
AcDbText
  0
TEXT
  5
15AD
330
18
100
AcDbEntity
  8
1
100
AcDbText
 10
300.4302440481428
 20
595.0136816388399
 30
0.0
 40
3.5
  1
40
  7
書体１
100
AcDbText
  0
TEXT
  5
15B7
330
18
100
AcDbEntity
  8
1
100
AcDbText
 10
324.1318300727143
 20
595.2027492636315
 30
0.0
 40
3.5
  1
0
  7
書体１
100
AcDbText
  0
TEXT
  5
15B8
330
18
100
AcDbEntity
  8
1
100
AcDbText
 10
321.5176872568863
 20
613.3022096815847
 30
0.0
 40
3.5
  1
10
  7
書体１
100
AcDbText
  0
TEXT
  5
15B9
330
18
100
AcDbEntity
  8
1
100
AcDbText
 10
340.1441725460295
 20
623.4906663341893
 30
0.0
 40
3.5
  1
20
  7
書体１
100
AcDbText
  0
TEXT
  5
15BA
330
18
100
AcDbEntity
  8
1
100
AcDbText
 10
357.8526148696603
 20
613.1482722074362
 30
0.0
 40
3.5
  1
30
  7
書体１
100
AcDbText
  0
TEXT
  5
15BB
330
18
100
AcDbEntity
  8
1
100
AcDbText
 10
358.4302440481428
 20
595.0136816388398
 30
0.0
 40
3.5
  1
40
  7
書体１
100
AcDbText
  0
TEXT
  5
15BC
330
18
100
AcDbEntity
  8
1
100
AcDbText
 10
154.5898249262236
 20
497.6461841142786
 30
0.0
 40
2.5
  1
0
  7
書体１
100
AcDbText
  0
TEXT
  5
15BD
330
18
100
AcDbEntity
  8
1
100
AcDbText
 10
152.8596258952684
 20
511.6261929962811
 30
0.0
 40
2.5
  1
10
  7
書体１
100
AcDbText
  0
TEXT
  5
15BE
330
18
100
AcDbEntity
  8
1
100
AcDbText
 10
166.8341763377739
 20
519.2330382066502
 30
0.0
 40
2.5
  1
20
  7
書体１
100
AcDbText
  0
TEXT
  5
15BF
330
18
100
AcDbEntity
  8
1
100
AcDbText
 10
180.2315507422911
 20
511.2506561487546
 30
0.0
 40
2.5
  1
30
  7
書体１
100
AcDbText
  0
TEXT
  5
15C0
330
18
100
AcDbEntity
  8
1
100
AcDbText
 10
180.6739568539107
 20
497.8606233816123
 30
0.0
 40
2.5
  1
40
  7
書体１
100
AcDbText
  0
TEXT
  5
15C1
330
18
100
AcDbEntity
  8
1
100
AcDbText
 10
165.5433124558421
 20
491.6112430376026
 30
0.0
 40
3.75
  1
℃
  7
ＭＳゴシック
100
AcDbText
  0
TEXT
  5
15CC
330
18
100
AcDbEntity
  8
2
100
AcDbText
 10
356.5413185820935
 20
705.9114486119929
 30
0.0
 40
8.0
  1
2-ﾀﾞﾙﾏ穴
  7
ROMANS
100
AcDbText
  0
TEXT
  5
15CE
330
18
100
AcDbEntity
  8
2
100
AcDbText
 10
356.9099294207062
 20
691.0156103167742
 30
0.0
 40
8.0
  1
（φ4-φ8）
  7
ROMANS
100
AcDbText
  0
TEXT
  5
15DC
330
18
100
AcDbEntity
  8
2
100
AcDbText
 10
523.6701186090156
 20
176.3168118274494
 30
0.0
 40
10.0
  1
感熱部
  7
ＭＳゴシック
 72
     4
 11
543.1625043958177
 21
181.0376240101906
 31
0.0
100
AcDbText
  0
TEXT
  5
15DD
330
18
100
AcDbEntity
  8
2
100
AcDbText
 10
732.4862875463095
 20
426.1483159554402
 30
0.0
 40
10.0
  1
壁掛け用金具
  7
ROMANS
100
AcDbText
  0
VIEWPORT
  5
699
330
692
100
AcDbEntity
 67
     1
  8
0
100
AcDbViewport
 10
176.1193351233462
 20
99.00077671910931
 30
0.0
 40
311.7058758396825
 41
199.6198588425364
 68
     1
 69
     1
 12
176.1193351233462
 22
99.00077671910931
 13
0.0
 23
0.0
 14
1.0
 24
1.0
 15
10.0
 25
10.0
 16
0.0
 26
0.0
 36
1.0
 17
0.0
 27
0.0
 37
0.0
 42
50.0
 43
0.0
 44
0.0
 45
199.6198588425364
 50
0.0
 51
0.0
 72
   100
 90
    33056
  1

281
     0
 71
     1
 74
     0
110
0.0
120
0.0
130
0.0
111
1.0
121
0.0
131
0.0
112
0.0
122
1.0
132
0.0
 79
     0
146
0.0
  0
VIEWPORT
  5
69B
330
692
100
AcDbEntity
 67
     1
  8
X ﾋﾞｭｰ
100
AcDbViewport
 10
142.5
 20
99.0
 30
0.0
 40
285.0
 41
198.0
 68
     2
 69
     2
 12
446.341356579804
 22
398.9467883218054
 13
0.0
 23
0.0
 14
1.0
 24
1.0
 15
10.0
 25
10.0
 16
0.0
 26
0.0
 36
1.0
 17
0.0
 27
0.0
 37
0.0
 42
50.0
 43
0.0
 44
0.0
 45
926.2575701646108
 50
0.0
 51
0.0
 72
   100
 90
    33056
  1

281
     0
 71
     1
 74
     0
110
0.0
120
0.0
130
0.0
111
1.0
121
0.0
131
0.0
112
0.0
122
1.0
132
0.0
 79
     0
146
0.0
  0
ENDSEC
  0
SECTION
  2
OBJECTS
  0
DICTIONARY
  5
C
330
0
100
AcDbDictionary
281
     1
  3
ACAD_GROUP
350
D
  3
ACAD_LAYOUT
350
5E1
  3
ACAD_MLINESTYLE
350
1B
  3
ACAD_PLOTSETTINGS
350
5E2
  3
ACAD_PLOTSTYLENAME
350
5DF
  3
AcadDim
350
662
  3
CONTENTDICTIONARY
350
20
  0
DICTIONARY
  5
D
102
{ACAD_REACTORS
330
C
102
}
330
C
100
AcDbDictionary
281
     1
  0
DICTIONARY
  5
5E1
102
{ACAD_REACTORS
330
C
102
}
330
C
100
AcDbDictionary
281
     1
  3
Model
350
5E3
  3
ﾚｲｱｳﾄ1
350
693
  0
DICTIONARY
  5
1B
102
{ACAD_REACTORS
330
C
102
}
330
C
100
AcDbDictionary
281
     1
  3
STANDARD
350
1C
  0
DICTIONARY
  5
5E2
102
{ACAD_REACTORS
330
C
102
}
330
C
100
AcDbDictionary
281
     1
  0
ACDBDICTIONARYWDFLT
  5
5DF
102
{ACAD_REACTORS
330
C
102
}
330
C
100
AcDbDictionary
281
     1
  3
Normal
350
5E0
100
AcDbDictionaryWithDefault
340
5E0
  0
XRECORD
  5
662
102
{ACAD_REACTORS
330
C
102
}
330
C
100
AcDbXrecord
280
     1
 90
   990106
  3

 60
     0
 61
     0
 62
     4
 63
     4
 64
     1
 65
     0
 66
     0
 67
     3
 68
     1
 69
     0
 70
     0
 71
     0
 72
     0
 40
0.0
170
     2
340
0
  0
DICTIONARY
  5
20
102
{ACAD_REACTORS
330
C
102
}
330
C
100
AcDbDictionary
281
     1
1001
CONTENTTABDATA
1070
     6
1000
ビス.dwg
1000
C:\Program Files\AutoCAD LT 97\SYMBOLS\ビス.dwg
1070
     0
1070
     0
1070
     1
1000
ｺﾈｸﾀ.dwg
1000
C:\Program Files\AutoCAD LT 97\SYMBOLS\ｺﾈｸﾀ.dwg
1070
     0
1070
     0
1070
     1
1000
表示器.dwg
1000
C:\Program Files\AutoCAD LT 97\SYMBOLS\表示器.dwg
1070
     0
1070
     0
1070
     1
1000
ﾄﾗﾝｽ.dwg
1000
C:\Program Files\AutoCAD LT 97\SYMBOLS\ﾄﾗﾝｽ.dwg
1070
     0
1070
     0
1070
     1
1000
ﾘﾚｰ.dwg
1000
C:\Program Files\AutoCAD LT 97\SYMBOLS\ﾘﾚｰ.dwg
1070
     0
1070
     0
1070
     1
1000
汎用.dwg
1000
C:\Program Files\AutoCAD LT 97\SYMBOLS\汎用.dwg
1070
     0
1070
     0
1070
     1
1001
CONTENTCURRENTTAB
1070
     2
  0
LAYOUT
  5
5E3
102
{ACAD_REACTORS
330
5E1
102
}
330
5E1
100
AcDbPlotSettings
  1

  2
RICOH imagio MP C3000 RPCS.pc3
  4
A3
  6

 40
5.873749732971191
 41
5.873747825622558
 42
5.873748779296875
 43
5.873748779296875
 44
419.9466552734374
 45
296.9259948730469
 46
0.0
 47
0.0
 48
0.0
 49
0.0
140
0.0
141
0.0
142
1.0
143
1.286122978510651
 70
 11952
 72
     1
 73
     0
 74
     0
  7
monochrome.ctb
 75
     0
147
0.7775306224277355
148
0.0
149
0.0
100
AcDbLayout
  1
Model
 70
     1
 71
     0
 10
0.0
 20
0.0
 11
12.0
 21
9.0
 12
0.0
 22
0.0
 32
0.0
 14
0.0
 24
0.0
 34
0.0
 15
0.0
 25
0.0
 35
0.0
146
0.0
 13
0.0
 23
0.0
 33
0.0
 16
1.0
 26
0.0
 36
0.0
 17
0.0
 27
1.0
 37
0.0
 76
     0
330
18
  0
LAYOUT
  5
693
102
{ACAD_REACTORS
330
5E1
102
}
330
5E1
100
AcDbPlotSettings
  1

  2
RICOH imagio MP C3000 RPCS
  4
A4
  6

 40
5.873749732971191
 41
5.873747825622558
 42
5.873748779296875
 43
5.873748779296875
 44
209.9733276367187
 45
296.9259948730469
 46
0.0
 47
0.0
 48
0.0
 49
0.0
140
0.0
141
0.0
142
1.0
143
1.0
 70
   688
 72
     1
 73
     1
 74
     5
  7
monochrome.ctb
 75
    16
147
1.0
148
0.0
149
0.0
100
AcDbLayout
  1
ﾚｲｱｳﾄ1
 70
     1
 71
     1
 10
-5.873748779296875
 20
-5.873749732971191
 11
291.05224609375
 21
204.0995779037475
 12
0.0
 22
0.0
 32
0.0
 14
0.0
 24
0.0
 34
0.0
 15
285.0
 25
198.0
 35
0.0
146
0.0
 13
0.0
 23
0.0
 33
0.0
 16
1.0
 26
0.0
 36
0.0
 17
0.0
 27
1.0
 37
0.0
 76
     0
330
692
331
699
  0
MLINESTYLE
  5
1C
102
{ACAD_REACTORS
330
1B
102
}
330
1B
100
AcDbMlineStyle
  2
STANDARD
 70
     0
  3

 62
   256
 51
90.0
 52
90.0
 71
     2
 49
0.5
 62
   256
  6
BYLAYER
 49
-0.5
 62
   256
  6
BYLAYER
  0
ACDBPLACEHOLDER
  5
5E0
102
{ACAD_REACTORS
330
5DF
102
}
330
5DF
  0
ENDSEC
  0
EOF
