  0
SECTION
  2
HEADER
  9
$ACADVER
  1
AC1015
  9
$ACADMAINTVER
 70
    11
  9
$DWGCODEPAGE
  3
ANSI_932
  9
$INSBASE
 10
0.0
 20
0.0
 30
0.0
  9
$EXTMIN
 10
-954.4320934025572
 20
903.8286801707723
 30
0.0
  9
$EXTMAX
 10
4283.591328614487
 20
5315.987454033652
 30
0.0
  9
$LIMMIN
 10
0.0
 20
0.0
  9
$LIMMAX
 10
420.0
 20
297.0
  9
$ORTHOMODE
 70
     0
  9
$REGENMODE
 70
     1
  9
$FILLMODE
 70
     1
  9
$QTEXTMODE
 70
     0
  9
$MIRRTEXT
 70
     1
  9
$LTSCALE
 40
1.0
  9
$ATTMODE
 70
     1
  9
$TEXTSIZE
 40
2.5
  9
$TRACEWID
 40
1.0
  9
$TEXTSTYLE
  7
ＭＳ明朝
  9
$CLAYER
  8
0
  9
$CELTYPE
  6
BYLAYER
  9
$CECOLOR
 62
   256
  9
$CELTSCALE
 40
1.0
  9
$DISPSILH
 70
     0
  9
$DIMSCALE
 40
0.0
  9
$DIMASZ
 40
25.0
  9
$DIMEXO
 40
1.5
  9
$DIMDLI
 40
5.0
  9
$DIMRND
 40
0.0
  9
$DIMDLE
 40
0.0
  9
$DIMEXE
 40
1.25
  9
$DIMTP
 40
0.0
  9
$DIMTM
 40
0.0
  9
$DIMTXT
 40
50.0
  9
$DIMCEN
 40
-5.0
  9
$DIMTSZ
 40
0.0
  9
$DIMTOL
 70
     0
  9
$DIMLIM
 70
     0
  9
$DIMTIH
 70
     0
  9
$DIMTOH
 70
     0
  9
$DIMSE1
 70
     0
  9
$DIMSE2
 70
     0
  9
$DIMTAD
 70
     1
  9
$DIMZIN
 70
     8
  9
$DIMBLK
  1

  9
$DIMASO
 70
     1
  9
$DIMSHO
 70
     1
  9
$DIMPOST
  1

  9
$DIMAPOST
  1

  9
$DIMALT
 70
     0
  9
$DIMALTD
 70
     4
  9
$DIMALTF
 40
0.0394
  9
$DIMLFAC
 40
1.0
  9
$DIMTOFL
 70
     1
  9
$DIMTVP
 40
0.0
  9
$DIMTIX
 70
     0
  9
$DIMSOXD
 70
     0
  9
$DIMSAH
 70
     0
  9
$DIMBLK1
  1

  9
$DIMBLK2
  1

  9
$DIMSTYLE
  2
STANDARD
  9
$DIMCLRD
 70
     0
  9
$DIMCLRE
 70
     0
  9
$DIMCLRT
 70
     0
  9
$DIMTFAC
 40
1.0
  9
$DIMGAP
 40
0.5
  9
$DIMJUST
 70
     0
  9
$DIMSD1
 70
     0
  9
$DIMSD2
 70
     0
  9
$DIMTOLJ
 70
     1
  9
$DIMTZIN
 70
     0
  9
$DIMALTZ
 70
     0
  9
$DIMALTTZ
 70
     0
  9
$DIMUPT
 70
     0
  9
$DIMDEC
 70
     3
  9
$DIMTDEC
 70
     3
  9
$DIMALTU
 70
     8
  9
$DIMALTTD
 70
     4
  9
$DIMTXSTY
  7
ＭＳ明朝
  9
$DIMAUNIT
 70
     0
  9
$DIMADEC
 70
     0
  9
$DIMALTRND
 40
0.0
  9
$DIMAZIN
 70
     0
  9
$DIMDSEP
 70
    46
  9
$DIMATFIT
 70
     3
  9
$DIMFRAC
 70
     0
  9
$DIMLDRBLK
  1

  9
$DIMLUNIT
 70
     6
  9
$DIMLWD
 70
    -2
  9
$DIMLWE
 70
    -2
  9
$DIMTMOVE
 70
     0
  9
$LUNITS
 70
     2
  9
$LUPREC
 70
     2
  9
$SKETCHINC
 40
1.0
  9
$FILLETRAD
 40
2.0
  9
$AUNITS
 70
     0
  9
$AUPREC
 70
     0
  9
$MENU
  1
acad
  9
$ELEVATION
 40
0.0
  9
$PELEVATION
 40
0.0
  9
$THICKNESS
 40
0.0
  9
$LIMCHECK
 70
     0
  9
$CHAMFERA
 40
10.0
  9
$CHAMFERB
 40
10.0
  9
$CHAMFERC
 40
20.0
  9
$CHAMFERD
 40
0.0
  9
$SKPOLY
 70
     0
  9
$TDCREATE
 40
2455957.594655949
  9
$TDUCREATE
 40
2455957.219655949
  9
$TDUPDATE
 40
2456029.633694421
  9
$TDUUPDATE
 40
2456029.258694421
  9
$TDINDWG
 40
0.0412478241
  9
$TDUSRTIMER
 40
0.0412478241
  9
$USRTIMER
 70
     1
  9
$ANGBASE
 50
0.0
  9
$ANGDIR
 70
     0
  9
$PDMODE
 70
     0
  9
$PDSIZE
 40
0.0
  9
$PLINEWID
 40
0.0
  9
$SPLFRAME
 70
     0
  9
$SPLINETYPE
 70
     6
  9
$SPLINESEGS
 70
     8
  9
$HANDSEED
  5
409D
  9
$SURFTAB1
 70
     6
  9
$SURFTAB2
 70
     6
  9
$SURFTYPE
 70
     6
  9
$SURFU
 70
     6
  9
$SURFV
 70
     6
  9
$UCSBASE
  2

  9
$UCSNAME
  2

  9
$UCSORG
 10
0.0
 20
0.0
 30
0.0
  9
$UCSXDIR
 10
1.0
 20
0.0
 30
0.0
  9
$UCSYDIR
 10
0.0
 20
1.0
 30
0.0
  9
$UCSORTHOREF
  2

  9
$UCSORTHOVIEW
 70
     0
  9
$UCSORGTOP
 10
0.0
 20
0.0
 30
0.0
  9
$UCSORGBOTTOM
 10
0.0
 20
0.0
 30
0.0
  9
$UCSORGLEFT
 10
0.0
 20
0.0
 30
0.0
  9
$UCSORGRIGHT
 10
0.0
 20
0.0
 30
0.0
  9
$UCSORGFRONT
 10
0.0
 20
0.0
 30
0.0
  9
$UCSORGBACK
 10
0.0
 20
0.0
 30
0.0
  9
$PUCSBASE
  2

  9
$PUCSNAME
  2

  9
$PUCSORG
 10
0.0
 20
0.0
 30
0.0
  9
$PUCSXDIR
 10
1.0
 20
0.0
 30
0.0
  9
$PUCSYDIR
 10
0.0
 20
1.0
 30
0.0
  9
$PUCSORTHOREF
  2

  9
$PUCSORTHOVIEW
 70
     0
  9
$PUCSORGTOP
 10
0.0
 20
0.0
 30
0.0
  9
$PUCSORGBOTTOM
 10
0.0
 20
0.0
 30
0.0
  9
$PUCSORGLEFT
 10
0.0
 20
0.0
 30
0.0
  9
$PUCSORGRIGHT
 10
0.0
 20
0.0
 30
0.0
  9
$PUCSORGFRONT
 10
0.0
 20
0.0
 30
0.0
  9
$PUCSORGBACK
 10
0.0
 20
0.0
 30
0.0
  9
$USERI1
 70
     0
  9
$USERI2
 70
     0
  9
$USERI3
 70
     0
  9
$USERI4
 70
     0
  9
$USERI5
 70
     0
  9
$USERR1
 40
0.0
  9
$USERR2
 40
0.0
  9
$USERR3
 40
0.0
  9
$USERR4
 40
0.0
  9
$USERR5
 40
0.0
  9
$WORLDVIEW
 70
     1
  9
$SHADEDGE
 70
     3
  9
$SHADEDIF
 70
    70
  9
$TILEMODE
 70
     0
  9
$MAXACTVP
 70
    48
  9
$PINSBASE
 10
0.0
 20
0.0
 30
0.0
  9
$PLIMCHECK
 70
     0
  9
$PEXTMIN
 10
0.0
 20
0.0
 30
0.0
  9
$PEXTMAX
 10
285.0
 20
198.0
 30
0.0
  9
$PLIMMIN
 10
-5.873748779296875
 20
-5.873749732971191
  9
$PLIMMAX
 10
291.05224609375
 20
204.0995779037475
  9
$UNITMODE
 70
     0
  9
$VISRETAIN
 70
     1
  9
$PLINEGEN
 70
     0
  9
$PSLTSCALE
 70
     1
  9
$TREEDEPTH
 70
  3020
  9
$CMLSTYLE
  2
STANDARD
  9
$CMLJUST
 70
     0
  9
$CMLSCALE
 40
20.0
  9
$PROXYGRAPHICS
 70
     1
  9
$MEASUREMENT
 70
     1
  9
$CELWEIGHT
370
    -1
  9
$ENDCAPS
280
     0
  9
$JOINSTYLE
280
     0
  9
$LWDISPLAY
290
     0
  9
$INSUNITS
 70
     0
  9
$HYPERLINKBASE
  1

  9
$STYLESHEET
  1

  9
$XEDIT
290
     1
  9
$CEPSNTYPE
380
     0
  9
$PSTYLEMODE
290
     1
  9
$FINGERPRINTGUID
  2
{778B7AA4-961B-11D4-A809-0000F45A11F6}
  9
$VERSIONGUID
  2
{6713425D-4334-4987-A1C5-2EDEBA378485}
  9
$EXTNAMES
290
     1
  9
$PSVPSCALE
 40
0.0
  9
$OLESTARTUP
290
     0
  0
ENDSEC
  0
SECTION
  2
CLASSES
  0
CLASS
  1
LWPOLYLINE
  2
AcDbPolyline
  3
AutoCAD 2000
 90
    32768
280
     0
281
     1
  0
CLASS
  1
ACDBDICTIONARYWDFLT
  2
AcDbDictionaryWithDefault
  3
AutoCAD 2000
 90
        0
280
     0
281
     0
  0
CLASS
  1
ACDBPLACEHOLDER
  2
AcDbPlaceHolder
  3
AutoCAD 2000
 90
        0
280
     0
281
     0
  0
CLASS
  1
LAYOUT
  2
AcDbLayout
  3
AutoCAD 2000
 90
        0
280
     0
281
     0
  0
ENDSEC
  0
SECTION
  2
TABLES
  0
TABLE
  2
VPORT
  5
8
330
0
100
AcDbSymbolTable
 70
     1
  0
VPORT
  5
4096
330
8
100
AcDbSymbolTableRecord
100
AcDbViewportTableRecord
  2
*Active
 70
     0
 10
0.0
 20
0.0
 11
1.0
 21
1.0
 12
2228.306068348561
 22
4149.484176018817
 13
0.0
 23
0.0
 14
1.0
 24
1.0
 15
10.0
 25
10.0
 16
0.0
 26
0.0
 36
1.0
 17
0.0
 27
0.0
 37
0.0
 40
4300.686474245561
 41
1.540127388535031
 42
50.0
 43
0.0
 44
0.0
 50
0.0
 51
0.0
 71
     0
 72
   100
 73
     1
 74
     1
 75
     1
 76
     1
 77
     0
 78
     0
281
     0
 65
     1
110
0.0
120
0.0
130
0.0
111
1.0
121
0.0
131
0.0
112
0.0
122
1.0
132
0.0
 79
     0
146
0.0
  0
ENDTAB
  0
TABLE
  2
LTYPE
  5
5
330
0
100
AcDbSymbolTable
 70
     4
  0
LTYPE
  5
12
330
5
100
AcDbSymbolTableRecord
100
AcDbLinetypeTableRecord
  2
BYBLOCK
 70
     0
  3

 72
    65
 73
     0
 40
0.0
  0
LTYPE
  5
13
330
5
100
AcDbSymbolTableRecord
100
AcDbLinetypeTableRecord
  2
BYLAYER
 70
     0
  3

 72
    65
 73
     0
 40
0.0
  0
LTYPE
  5
14
330
5
100
AcDbSymbolTableRecord
100
AcDbLinetypeTableRecord
  2
CONTINUOUS
 70
     0
  3
Solid line
 72
    65
 73
     0
 40
0.0
  0
LTYPE
  5
CE2
330
5
100
AcDbSymbolTableRecord
100
AcDbLinetypeTableRecord
  2
1-隠れ線
 70
     0
  3
Hidden (.5x) _ _ _ _ _ _ _ _ _ _ _ _ _ _ _ _ _
 72
    65
 73
     2
 40
4.762499999999999
 49
3.174999999999999
 74
     0
 49
-1.587499999999999
 74
     0
  0
LTYPE
  5
CE3
330
5
100
AcDbSymbolTableRecord
100
AcDbLinetypeTableRecord
  2
4-中心線
 70
     0
  3
Center (.5x) ___ _ ___ _ ___ _ ___ _ ___ _ ___
 72
    65
 73
     4
 40
28.57499999999999
 49
19.05
 74
     0
 49
-3.174999999999999
 74
     0
 49
3.174999999999999
 74
     0
 49
-3.174999999999999
 74
     0
  0
LTYPE
  5
CE4
330
5
100
AcDbSymbolTableRecord
100
AcDbLinetypeTableRecord
  2
DASHDOT
 70
     0
  3
__ . __ . __ .
 72
    65
 73
     4
 40
10.73684210526316
 49
5.368421052631576
 74
     0
 49
-2.684210526315788
 74
     0
 49
0.0
 74
     0
 49
-2.684210526315788
 74
     0
  0
ENDTAB
  0
TABLE
  2
LAYER
  5
2
330
0
100
AcDbSymbolTable
 70
     5
  0
LAYER
  5
E
330
2
100
AcDbSymbolTableRecord
100
AcDbLayerTableRecord
  2
0
 70
     0
 62
     4
  6
CONTINUOUS
370
    -3
390
5E0
  0
LAYER
  5
21F
330
2
100
AcDbSymbolTableRecord
100
AcDbLayerTableRecord
  2
DEFPOINTS
 70
     0
 62
     9
  6
CONTINUOUS
290
     0
370
    -3
390
5E0
  0
LAYER
  5
508
330
2
100
AcDbSymbolTableRecord
100
AcDbLayerTableRecord
  2
X ﾋﾞｭｰ
 70
     0
 62
     2
  6
CONTINUOUS
290
     0
370
    35
390
5E0
  0
LAYER
  5
CE5
330
2
100
AcDbSymbolTableRecord
100
AcDbLayerTableRecord
  2
1
 70
     0
 62
     5
  6
CONTINUOUS
370
    30
390
5E0
  0
LAYER
  5
CE7
330
2
100
AcDbSymbolTableRecord
100
AcDbLayerTableRecord
  2
2
 70
     0
 62
     6
  6
CONTINUOUS
370
     9
390
5E0
  0
ENDTAB
  0
TABLE
  2
STYLE
  5
3
330
0
100
AcDbSymbolTable
 70
     4
  0
STYLE
  5
F
330
3
100
AcDbSymbolTableRecord
100
AcDbTextStyleTableRecord
  2
STANDARD
 70
     0
 40
0.0
 41
1.0
 50
0.0
 71
     0
 42
2.5
  3
txt.shx
  4
bigfont.shx
  0
STYLE
  5
4B4
330
3
100
AcDbSymbolTableRecord
100
AcDbTextStyleTableRecord
  2
ＭＳ明朝
 70
     0
 40
0.0
 41
1.0
 50
0.0
 71
     0
 42
2.5
  3
MS Mincho.ttf
  4

1001
ACAD
1000
MS Mincho
1071
    32785
  0
STYLE
  5
66E
330
3
100
AcDbSymbolTableRecord
100
AcDbTextStyleTableRecord
  2
MSｺﾞｼｯｸ
 70
     0
 40
0.0
 41
1.0
 50
0.0
 71
     0
 42
2.5
  3
MS Gothic.ttf
  4

1001
ACAD
1000
MS Gothic
1071
    32817
  0
STYLE
  5
CE8
330
3
100
AcDbSymbolTableRecord
100
AcDbTextStyleTableRecord
  2
ＭＳゴシック
 70
     0
 40
0.0
 41
1.0
 50
0.0
 71
     0
 42
2.0
  3
MS Gothic.ttf
  4

1001
ACAD
1000
MS Gothic
1071
    32817
  0
ENDTAB
  0
TABLE
  2
VIEW
  5
6
330
0
100
AcDbSymbolTable
 70
     0
  0
ENDTAB
  0
TABLE
  2
UCS
  5
7
330
0
100
AcDbSymbolTable
 70
     0
  0
ENDTAB
  0
TABLE
  2
APPID
  5
9
330
0
100
AcDbSymbolTable
 70
     5
  0
APPID
  5
10
330
9
100
AcDbSymbolTableRecord
100
AcDbRegAppTableRecord
  2
ACAD
 70
     0
  0
APPID
  5
21
330
9
100
AcDbSymbolTableRecord
100
AcDbRegAppTableRecord
  2
CONTENTTABDATA
 70
     0
  0
APPID
  5
22
330
9
100
AcDbSymbolTableRecord
100
AcDbRegAppTableRecord
  2
CONTENTCURRENTTAB
 70
     0
  0
APPID
  5
137
330
9
100
AcDbSymbolTableRecord
100
AcDbRegAppTableRecord
  2
CONTENTBLOCKDESCRIPTION
 70
     0
  0
APPID
  5
186
330
9
100
AcDbSymbolTableRecord
100
AcDbRegAppTableRecord
  2
CONTENTBLOCKICON
 70
     0
  0
ENDTAB
  0
TABLE
  2
DIMSTYLE
  5
A
330
0
100
AcDbSymbolTable
 70
     3
100
AcDbDimStyleTable
 71
     1
340
1D
  0
DIMSTYLE
105
1D
102
{ACAD_REACTORS
330
38AB
330
38D4
330
38E3
330
3A4C
330
3A4D
330
3A5D
330
3C16
330
3C17
330
3CC0
330
3CC4
330
3CC5
102
}
330
A
100
AcDbSymbolTableRecord
100
AcDbDimStyleTableRecord
  2
STANDARD
 70
     0
 40
0.0
 41
25.0
 42
1.5
 43
5.0
 44
1.25
 73
     0
 74
     0
 77
     1
 78
     8
140
50.0
141
-5.0
143
0.0394
147
0.5
171
     4
172
     1
271
     3
272
     3
273
     8
274
     4
277
     6
340
4B4
  0
DIMSTYLE
105
CE9
330
A
100
AcDbSymbolTableRecord
100
AcDbDimStyleTableRecord
  2
タイル
 70
     0
 41
60.0
 42
15.0
 43
5.0
 44
5.0
 73
     0
 74
     0
 77
     1
 78
     8
140
50.0
141
2.5
143
0.0394
147
5.0
171
     4
172
     1
273
     8
274
     4
277
     6
340
4B4
  0
DIMSTYLE
105
CEA
330
A
100
AcDbSymbolTableRecord
100
AcDbDimStyleTableRecord
  2
変更１
 70
     0
 40
0.0
 41
3.5
 42
1.5
 43
3.75
 44
1.25
 73
     0
 74
     0
 77
     1
 78
     8
140
2.5
141
2.5
143
0.0394
147
0.625
171
     4
172
     1
273
     8
274
     4
277
     6
340
F
  0
ENDTAB
  0
TABLE
  2
BLOCK_RECORD
  5
1
330
0
100
AcDbSymbolTable
 70
    11
  0
BLOCK_RECORD
  5
18
330
1
100
AcDbSymbolTableRecord
100
AcDbBlockTableRecord
  2
*MODEL_SPACE
340
5E3
  0
BLOCK_RECORD
  5
692
330
1
100
AcDbSymbolTableRecord
100
AcDbBlockTableRecord
  2
*Paper_Space
340
693
  0
BLOCK_RECORD
  5
3F02
330
1
100
AcDbSymbolTableRecord
100
AcDbBlockTableRecord
  2
*D0
340
0
  0
BLOCK_RECORD
  5
3F0E
330
1
100
AcDbSymbolTableRecord
100
AcDbBlockTableRecord
  2
*D1
340
0
  0
BLOCK_RECORD
  5
3F1A
330
1
100
AcDbSymbolTableRecord
100
AcDbBlockTableRecord
  2
*D2
340
0
  0
BLOCK_RECORD
  5
3F26
330
1
100
AcDbSymbolTableRecord
100
AcDbBlockTableRecord
  2
*D3
340
0
  0
BLOCK_RECORD
  5
3F32
330
1
100
AcDbSymbolTableRecord
100
AcDbBlockTableRecord
  2
*D4
340
0
  0
BLOCK_RECORD
  5
3F3E
330
1
100
AcDbSymbolTableRecord
100
AcDbBlockTableRecord
  2
*D5
340
0
  0
BLOCK_RECORD
  5
3F4A
330
1
100
AcDbSymbolTableRecord
100
AcDbBlockTableRecord
  2
*D6
340
0
  0
BLOCK_RECORD
  5
3F56
330
1
100
AcDbSymbolTableRecord
100
AcDbBlockTableRecord
  2
*D7
340
0
  0
BLOCK_RECORD
  5
3F62
330
1
100
AcDbSymbolTableRecord
100
AcDbBlockTableRecord
  2
*D8
340
0
  0
BLOCK_RECORD
  5
3F70
330
1
100
AcDbSymbolTableRecord
100
AcDbBlockTableRecord
  2
*D9
340
0
  0
BLOCK_RECORD
  5
3F7C
330
1
100
AcDbSymbolTableRecord
100
AcDbBlockTableRecord
  2
*D10
340
0
  0
ENDTAB
  0
ENDSEC
  0
SECTION
  2
BLOCKS
  0
BLOCK
  5
19
330
18
100
AcDbEntity
  8
0
100
AcDbBlockBegin
  2
*MODEL_SPACE
 70
     0
 10
0.0
 20
0.0
 30
0.0
  3
*MODEL_SPACE
  1

  0
ENDBLK
  5
1A
330
18
100
AcDbEntity
  8
0
100
AcDbBlockEnd
  0
BLOCK
  5
694
330
692
100
AcDbEntity
 67
     1
  8
0
100
AcDbBlockBegin
  2
*Paper_Space
 70
     0
 10
0.0
 20
0.0
 30
0.0
  3
*Paper_Space
  1

  0
ENDBLK
  5
695
330
692
100
AcDbEntity
 67
     1
  8
0
100
AcDbBlockEnd
  0
BLOCK
  5
3F0C
330
3F02
100
AcDbEntity
  8
0
100
AcDbBlockBegin
  2
*D0
 70
     1
 10
0.0
 20
0.0
 30
0.0
  3
*D0
  1

  0
LINE
  5
401A
330
3F02
100
AcDbEntity
  8
2
 62
     0
370
    -2
100
AcDbLine
 10
931.0761098140702
 20
4942.130311538361
 30
0.0
 11
1063.32610981407
 21
4942.130311538361
 31
0.0
  0
LINE
  5
401B
330
3F02
100
AcDbEntity
  8
2
 62
     0
370
    -2
100
AcDbLine
 10
575.0761098141283
 20
3547.13031153836
 30
0.0
 11
1063.32610981407
 21
3547.13031153836
 31
0.0
  0
LINE
  5
401C
330
3F02
100
AcDbEntity
  8
2
 62
     0
370
    -2
100
AcDbLine
 10
1062.07610981407
 20
4917.130311538361
 30
0.0
 11
1062.07610981407
 21
3572.13031153836
 31
0.0
  0
SOLID
  5
401D
330
3F02
100
AcDbEntity
  8
2
 62
     0
100
AcDbTrace
 10
1057.909443147403
 20
4917.130311538361
 30
0.0
 11
1066.242776480737
 21
4917.130311538361
 31
0.0
 12
1062.07610981407
 22
4942.130311538361
 32
0.0
 13
1062.07610981407
 23
4942.130311538361
 33
0.0
  0
SOLID
  5
401E
330
3F02
100
AcDbEntity
  8
2
 62
     0
100
AcDbTrace
 10
1057.909443147403
 20
3572.13031153836
 30
0.0
 11
1066.242776480736
 21
3572.13031153836
 31
0.0
 12
1062.07610981407
 22
3547.13031153836
 32
0.0
 13
1062.07610981407
 23
3547.13031153836
 33
0.0
  0
MTEXT
  5
401F
330
3F02
100
AcDbEntity
  8
2
 62
     0
100
AcDbMText
 10
1028.433252671212
 20
4244.630311538361
 30
0.0
 40
50.0
 41
0.0
 71
     5
 72
     1
  1
\A1;（1395）
  7
ＭＳ明朝
 11
0.0000000000000001
 21
1.0
 31
0.0
 73
     1
 44
1.0
  0
POINT
  5
4020
330
3F02
100
AcDbEntity
  8
DEFPOINTS
 62
     0
100
AcDbPoint
 10
929.5761098140701
 20
4942.130311538361
 30
0.0
  0
POINT
  5
4021
330
3F02
100
AcDbEntity
  8
DEFPOINTS
 62
     0
100
AcDbPoint
 10
573.5761098141283
 20
3547.13031153836
 30
0.0
  0
POINT
  5
4022
330
3F02
100
AcDbEntity
  8
DEFPOINTS
 62
     0
100
AcDbPoint
 10
1062.07610981407
 20
3547.13031153836
 30
0.0
  0
ENDBLK
  5
3F0D
330
3F02
100
AcDbEntity
  8
0
100
AcDbBlockEnd
  0
BLOCK
  5
3F18
330
3F0E
100
AcDbEntity
  8
0
100
AcDbBlockBegin
  2
*D1
 70
     1
 10
0.0
 20
0.0
 30
0.0
  3
*D1
  1

  0
LINE
  5
4011
330
3F0E
100
AcDbEntity
  8
2
 62
     0
370
    -2
100
AcDbLine
 10
-4.423890185929849
 20
3545.63031153836
 30
0.0
 11
-4.42389018592986
 21
3365.380311538361
 31
0.0
  0
LINE
  5
4012
330
3F0E
100
AcDbEntity
  8
2
 62
     0
370
    -2
100
AcDbLine
 10
575.5761098140701
 20
3545.63031153836
 30
0.0
 11
575.5761098140701
 21
3365.380311538361
 31
0.0
  0
LINE
  5
4013
330
3F0E
100
AcDbEntity
  8
2
 62
     0
370
    -2
100
AcDbLine
 10
20.57610981407014
 20
3366.63031153836
 30
0.0
 11
550.5761098140701
 21
3366.63031153836
 31
0.0
  0
SOLID
  5
4014
330
3F0E
100
AcDbEntity
  8
2
 62
     0
100
AcDbTrace
 10
20.57610981407014
 20
3370.796978205027
 30
0.0
 11
20.57610981407014
 21
3362.463644871694
 31
0.0
 12
-4.42389018592986
 22
3366.63031153836
 32
0.0
 13
-4.42389018592986
 23
3366.63031153836
 33
0.0
  0
SOLID
  5
4015
330
3F0E
100
AcDbEntity
  8
2
 62
     0
100
AcDbTrace
 10
550.5761098140701
 20
3370.796978205027
 30
0.0
 11
550.5761098140701
 21
3362.463644871694
 31
0.0
 12
575.5761098140701
 22
3366.63031153836
 32
0.0
 13
575.5761098140701
 23
3366.63031153836
 33
0.0
  0
MTEXT
  5
4016
330
3F0E
100
AcDbEntity
  8
2
 62
     0
100
AcDbMText
 10
285.5761098140701
 20
3392.130311538361
 30
0.0
 40
50.0
 41
0.0
 71
     5
 72
     1
  1
\A1;580
  7
ＭＳ明朝
 73
     1
 44
1.0
  0
POINT
  5
4017
330
3F0E
100
AcDbEntity
  8
DEFPOINTS
 62
     0
100
AcDbPoint
 10
-4.423890185929849
 20
3547.13031153836
 30
0.0
  0
POINT
  5
4018
330
3F0E
100
AcDbEntity
  8
DEFPOINTS
 62
     0
100
AcDbPoint
 10
575.5761098140701
 20
3547.13031153836
 30
0.0
  0
POINT
  5
4019
330
3F0E
100
AcDbEntity
  8
DEFPOINTS
 62
     0
100
AcDbPoint
 10
575.5761098140701
 20
3366.63031153836
 30
0.0
  0
ENDBLK
  5
3F19
330
3F0E
100
AcDbEntity
  8
0
100
AcDbBlockEnd
  0
BLOCK
  5
3F24
330
3F1A
100
AcDbEntity
  8
0
100
AcDbBlockBegin
  2
*D2
 70
     1
 10
0.0
 20
0.0
 30
0.0
  3
*D2
  1

  0
LINE
  5
4008
330
3F1A
100
AcDbEntity
  8
2
 62
     0
370
    -2
100
AcDbLine
 10
-356.4238901864137
 20
903.8286801709269
 30
0.0
 11
-528.0313628090172
 21
903.8286801709269
 31
0.0
  0
LINE
  5
4009
330
3F1A
100
AcDbEntity
  8
2
 62
     0
370
    -2
100
AcDbLine
 10
-308.9238901859298
 20
1738.828680170763
 30
0.0
 11
-528.031362809017
 21
1738.828680170763
 31
0.0
  0
LINE
  5
400A
330
3F1A
100
AcDbEntity
  8
2
 62
     0
370
    -2
100
AcDbLine
 10
-526.7813628090172
 20
928.8286801709269
 30
0.0
 11
-526.7813628090171
 21
1713.828680170764
 31
0.0
  0
SOLID
  5
400B
330
3F1A
100
AcDbEntity
  8
2
 62
     0
100
AcDbTrace
 10
-530.9480294756838
 20
928.8286801709269
 30
0.0
 11
-522.6146961423506
 21
928.8286801709269
 31
0.0
 12
-526.7813628090172
 22
903.8286801709269
 32
0.0
 13
-526.7813628090172
 23
903.8286801709269
 33
0.0
  0
SOLID
  5
400C
330
3F1A
100
AcDbEntity
  8
2
 62
     0
100
AcDbTrace
 10
-530.9480294756837
 20
1713.828680170764
 30
0.0
 11
-522.6146961423504
 21
1713.828680170764
 31
0.0
 12
-526.7813628090171
 22
1738.828680170763
 32
0.0
 13
-526.7813628090171
 23
1738.828680170763
 33
0.0
  0
MTEXT
  5
400D
330
3F1A
100
AcDbEntity
  8
2
 62
     0
100
AcDbMText
 10
-552.2813628090172
 20
1321.328680170845
 30
0.0
 40
50.0
 41
0.0
 71
     5
 72
     1
  1
\A1;835
  7
ＭＳ明朝
 11
0.0000000000000001
 21
1.0
 31
0.0
 73
     1
 44
1.0
  0
POINT
  5
400E
330
3F1A
100
AcDbEntity
  8
DEFPOINTS
 62
     0
100
AcDbPoint
 10
-354.9238901864137
 20
903.8286801709269
 30
0.0
  0
POINT
  5
400F
330
3F1A
100
AcDbEntity
  8
DEFPOINTS
 62
     0
100
AcDbPoint
 10
-307.4238901859298
 20
1738.828680170763
 30
0.0
  0
POINT
  5
4010
330
3F1A
100
AcDbEntity
  8
DEFPOINTS
 62
     0
100
AcDbPoint
 10
-526.7813628090171
 20
1738.828680170763
 30
0.0
  0
ENDBLK
  5
3F25
330
3F1A
100
AcDbEntity
  8
0
100
AcDbBlockEnd
  0
BLOCK
  5
3F30
330
3F26
100
AcDbEntity
  8
0
100
AcDbBlockBegin
  2
*D3
 70
     1
 10
0.0
 20
0.0
 30
0.0
  3
*D3
  1

  0
LINE
  5
3FFF
330
3F26
100
AcDbEntity
  8
2
 62
     0
370
    -2
100
AcDbLine
 10
585.076109814041
 20
3135.088303972123
 30
0.0
 11
1075.326109814012
 21
3135.088303972122
 31
0.0
  0
LINE
  5
4000
330
3F26
100
AcDbEntity
  8
2
 62
     0
370
    -2
100
AcDbLine
 10
679.0761098140119
 20
1978.828680170772
 30
0.0
 11
1075.326109814012
 21
1978.828680170772
 31
0.0
  0
LINE
  5
4001
330
3F26
100
AcDbEntity
  8
2
 62
     0
370
    -2
100
AcDbLine
 10
1074.076109814012
 20
3110.088303972122
 30
0.0
 11
1074.076109814011
 21
2003.828680170772
 31
0.0
  0
SOLID
  5
4002
330
3F26
100
AcDbEntity
  8
2
 62
     0
100
AcDbTrace
 10
1069.909443147345
 20
3110.088303972122
 30
0.0
 11
1078.242776480679
 21
3110.088303972122
 31
0.0
 12
1074.076109814012
 22
3135.088303972122
 32
0.0
 13
1074.076109814012
 23
3135.088303972122
 33
0.0
  0
SOLID
  5
4003
330
3F26
100
AcDbEntity
  8
2
 62
     0
100
AcDbTrace
 10
1069.909443147345
 20
2003.828680170772
 30
0.0
 11
1078.242776480678
 21
2003.828680170772
 31
0.0
 12
1074.076109814011
 22
1978.828680170772
 32
0.0
 13
1074.076109814011
 23
1978.828680170772
 33
0.0
  0
MTEXT
  5
4004
330
3F26
100
AcDbEntity
  8
2
 62
     0
100
AcDbMText
 10
1039.576109814011
 20
2556.958492071448
 30
0.0
 40
50.0
 41
0.0
 71
     5
 72
     1
  1
\A1;（1,156.26）
  7
ＭＳ明朝
 11
0.0000000000000001
 21
1.0
 31
0.0
 73
     1
 44
1.0
  0
POINT
  5
4005
330
3F26
100
AcDbEntity
  8
DEFPOINTS
 62
     0
100
AcDbPoint
 10
583.576109814041
 20
3135.088303972123
 30
0.0
  0
POINT
  5
4006
330
3F26
100
AcDbEntity
  8
DEFPOINTS
 62
     0
100
AcDbPoint
 10
677.5761098140119
 20
1978.828680170772
 30
0.0
  0
POINT
  5
4007
330
3F26
100
AcDbEntity
  8
DEFPOINTS
 62
     0
100
AcDbPoint
 10
1074.076109814011
 20
1978.828680170772
 30
0.0
  0
ENDBLK
  5
3F31
330
3F26
100
AcDbEntity
  8
0
100
AcDbBlockEnd
  0
BLOCK
  5
3F3C
330
3F32
100
AcDbEntity
  8
0
100
AcDbBlockBegin
  2
*D4
 70
     1
 10
0.0
 20
0.0
 30
0.0
  3
*D4
  1

  0
LINE
  5
3FF6
330
3F32
100
AcDbEntity
  8
2
 62
     0
370
    -2
100
AcDbLine
 10
1077.300584099195
 20
903.8286801707723
 30
0.0
 11
1184.524241857213
 21
903.8286801707723
 31
0.0
  0
LINE
  5
3FF7
330
3F32
100
AcDbEntity
  8
2
 62
     0
370
    -2
100
AcDbLine
 10
1085.576109814011
 20
3135.088303972123
 30
0.0
 11
1184.524241857214
 21
3135.088303972123
 31
0.0
  0
LINE
  5
3FF8
330
3F32
100
AcDbEntity
  8
2
 62
     0
370
    -2
100
AcDbLine
 10
1183.274241857213
 20
928.8286801707723
 30
0.0
 11
1183.274241857214
 21
3110.088303972123
 31
0.0
  0
SOLID
  5
3FF9
330
3F32
100
AcDbEntity
  8
2
 62
     0
100
AcDbTrace
 10
1179.107575190547
 20
928.8286801707723
 30
0.0
 11
1187.44090852388
 21
928.8286801707723
 31
0.0
 12
1183.274241857213
 22
903.8286801707723
 32
0.0
 13
1183.274241857213
 23
903.8286801707723
 33
0.0
  0
SOLID
  5
3FFA
330
3F32
100
AcDbEntity
  8
2
 62
     0
100
AcDbTrace
 10
1179.107575190547
 20
3110.088303972123
 30
0.0
 11
1187.440908523881
 21
3110.088303972123
 31
0.0
 12
1183.274241857214
 22
3135.088303972123
 32
0.0
 13
1183.274241857214
 23
3135.088303972123
 33
0.0
  0
MTEXT
  5
3FFB
330
3F32
100
AcDbEntity
  8
2
 62
     0
100
AcDbMText
 10
1149.059956142928
 20
2019.458492071448
 30
0.0
 40
50.0
 41
0.0
 71
     5
 72
     1
  1
\A1;(2,231.26)
  7
ＭＳ明朝
 11
0.0000000000000001
 21
1.0
 31
0.0
 73
     1
 44
1.0
  0
POINT
  5
3FFC
330
3F32
100
AcDbEntity
  8
DEFPOINTS
 62
     0
100
AcDbPoint
 10
1075.800584099195
 20
903.8286801707723
 30
0.0
  0
POINT
  5
3FFD
330
3F32
100
AcDbEntity
  8
DEFPOINTS
 62
     0
100
AcDbPoint
 10
1084.076109814011
 20
3135.088303972123
 30
0.0
  0
POINT
  5
3FFE
330
3F32
100
AcDbEntity
  8
DEFPOINTS
 62
     0
100
AcDbPoint
 10
1183.274241857214
 20
3135.088303972123
 30
0.0
  0
ENDBLK
  5
3F3D
330
3F32
100
AcDbEntity
  8
0
100
AcDbBlockEnd
  0
BLOCK
  5
3F48
330
3F3E
100
AcDbEntity
  8
0
100
AcDbBlockBegin
  2
*D5
 70
     1
 10
0.0
 20
0.0
 30
0.0
  3
*D5
  1

  0
LINE
  5
3FED
330
3F3E
100
AcDbEntity
  8
2
 62
     0
370
    -2
100
AcDbLine
 10
679.0761098140119
 20
1903.828680170772
 30
0.0
 11
1067.050584099195
 21
1903.828680170772
 31
0.0
  0
LINE
  5
3FEE
330
3F3E
100
AcDbEntity
  8
2
 62
     0
370
    -2
100
AcDbLine
 10
651.5761098140119
 20
903.8286801707727
 30
0.0
 11
1067.050584099195
 21
903.8286801707725
 31
0.0
  0
LINE
  5
3FEF
330
3F3E
100
AcDbEntity
  8
2
 62
     0
370
    -2
100
AcDbLine
 10
1065.800584099195
 20
1878.828680170772
 30
0.0
 11
1065.800584099195
 21
928.8286801707725
 31
0.0
  0
SOLID
  5
3FF0
330
3F3E
100
AcDbEntity
  8
2
 62
     0
100
AcDbTrace
 10
1061.633917432529
 20
1878.828680170772
 30
0.0
 11
1069.967250765862
 21
1878.828680170772
 31
0.0
 12
1065.800584099195
 22
1903.828680170772
 32
0.0
 13
1065.800584099195
 23
1903.828680170772
 33
0.0
  0
SOLID
  5
3FF1
330
3F3E
100
AcDbEntity
  8
2
 62
     0
100
AcDbTrace
 10
1061.633917432528
 20
928.8286801707725
 30
0.0
 11
1069.967250765862
 21
928.8286801707725
 31
0.0
 12
1065.800584099195
 22
903.8286801707725
 32
0.0
 13
1065.800584099195
 23
903.8286801707725
 33
0.0
  0
MTEXT
  5
3FF2
330
3F3E
100
AcDbEntity
  8
2
 62
     0
100
AcDbMText
 10
1031.586298384909
 20
1403.828680170772
 30
0.0
 40
50.0
 41
0.0
 71
     5
 72
     1
  1
\A1;(1,000)
  7
ＭＳ明朝
 11
0.0000000000000001
 21
1.0
 31
0.0
 73
     1
 44
1.0
  0
POINT
  5
3FF3
330
3F3E
100
AcDbEntity
  8
DEFPOINTS
 62
     0
100
AcDbPoint
 10
677.5761098140119
 20
1903.828680170772
 30
0.0
  0
POINT
  5
3FF4
330
3F3E
100
AcDbEntity
  8
DEFPOINTS
 62
     0
100
AcDbPoint
 10
650.0761098140119
 20
903.8286801707727
 30
0.0
  0
POINT
  5
3FF5
330
3F3E
100
AcDbEntity
  8
DEFPOINTS
 62
     0
100
AcDbPoint
 10
1065.800584099195
 20
903.8286801707725
 30
0.0
  0
ENDBLK
  5
3F49
330
3F3E
100
AcDbEntity
  8
0
100
AcDbBlockEnd
  0
BLOCK
  5
3F54
330
3F4A
100
AcDbEntity
  8
0
100
AcDbBlockBegin
  2
*D6
 70
     1
 10
0.0
 20
0.0
 30
0.0
  3
*D6
  1

  0
LINE
  5
402C
330
3F4A
100
AcDbEntity
  8
2
 62
     0
370
    -2
100
AcDbLine
 10
-39.423890185868
 20
4933.630311538361
 30
0.0
 11
-39.423890185868
 21
5038.078680170773
 31
0.0
  0
LINE
  5
402D
330
3F4A
100
AcDbEntity
  8
2
 62
     0
370
    -2
100
AcDbLine
 10
610.576109814132
 20
4933.630311538361
 30
0.0
 11
610.576109814132
 21
5038.078680170773
 31
0.0
  0
LINE
  5
402E
330
3F4A
100
AcDbEntity
  8
2
 62
     0
370
    -2
100
AcDbLine
 10
-14.42389018586799
 20
5036.828680170772
 30
0.0
 11
585.576109814132
 21
5036.828680170772
 31
0.0
  0
SOLID
  5
402F
330
3F4A
100
AcDbEntity
  8
2
 62
     0
100
AcDbTrace
 10
-14.42389018586799
 20
5040.99534683744
 30
0.0
 11
-14.42389018586799
 21
5032.662013504106
 31
0.0
 12
-39.423890185868
 22
5036.828680170772
 32
0.0
 13
-39.423890185868
 23
5036.828680170772
 33
0.0
  0
SOLID
  5
4030
330
3F4A
100
AcDbEntity
  8
2
 62
     0
100
AcDbTrace
 10
585.576109814132
 20
5040.99534683744
 30
0.0
 11
585.576109814132
 21
5032.662013504106
 31
0.0
 12
610.576109814132
 22
5036.828680170772
 32
0.0
 13
610.576109814132
 23
5036.828680170772
 33
0.0
  0
MTEXT
  5
4031
330
3F4A
100
AcDbEntity
  8
2
 62
     0
100
AcDbMText
 10
285.576109814132
 20
5062.328680170772
 30
0.0
 40
50.0
 41
0.0
 71
     5
 72
     1
  1
\A1;650
  7
ＭＳ明朝
 73
     1
 44
1.0
  0
POINT
  5
4032
330
3F4A
100
AcDbEntity
  8
DEFPOINTS
 62
     0
100
AcDbPoint
 10
-39.423890185868
 20
4932.130311538361
 30
0.0
  0
POINT
  5
4033
330
3F4A
100
AcDbEntity
  8
DEFPOINTS
 62
     0
100
AcDbPoint
 10
610.576109814132
 20
4932.130311538361
 30
0.0
  0
POINT
  5
4034
330
3F4A
100
AcDbEntity
  8
DEFPOINTS
 62
     0
100
AcDbPoint
 10
610.576109814132
 20
5036.828680170772
 30
0.0
  0
ENDBLK
  5
3F55
330
3F4A
100
AcDbEntity
  8
0
100
AcDbBlockEnd
  0
BLOCK
  5
3F60
330
3F56
100
AcDbEntity
  8
0
100
AcDbBlockBegin
  2
*D7
 70
     1
 10
0.0
 20
0.0
 30
0.0
  3
*D7
  1

  0
LINE
  5
4023
330
3F56
100
AcDbEntity
  8
2
 62
     0
370
    -2
100
AcDbLine
 10
-402.4095286938627
 20
4865.392995498673
 30
0.0
 11
-402.4095286938627
 21
5140.842097453719
 31
0.0
  0
LINE
  5
4024
330
3F56
100
AcDbEntity
  8
2
 62
     0
370
    -2
100
AcDbLine
 10
681.5761098140738
 20
4943.630311538361
 30
0.0
 11
681.5761098140738
 21
5140.842097453719
 31
0.0
  0
LINE
  5
4025
330
3F56
100
AcDbEntity
  8
2
 62
     0
370
    -2
100
AcDbLine
 10
-377.4095286938627
 20
5139.592097453718
 30
0.0
 11
656.5761098140738
 21
5139.592097453718
 31
0.0
  0
SOLID
  5
4026
330
3F56
100
AcDbEntity
  8
2
 62
     0
100
AcDbTrace
 10
-377.4095286938627
 20
5143.758764120385
 30
0.0
 11
-377.4095286938627
 21
5135.425430787051
 31
0.0
 12
-402.4095286938627
 22
5139.592097453718
 32
0.0
 13
-402.4095286938627
 23
5139.592097453718
 33
0.0
  0
SOLID
  5
4027
330
3F56
100
AcDbEntity
  8
2
 62
     0
100
AcDbTrace
 10
656.5761098140738
 20
5143.758764120385
 30
0.0
 11
656.5761098140738
 21
5135.425430787051
 31
0.0
 12
681.5761098140738
 22
5139.592097453718
 32
0.0
 13
681.5761098140738
 23
5139.592097453718
 33
0.0
  0
MTEXT
  5
4028
330
3F56
100
AcDbEntity
  8
2
 62
     0
100
AcDbMText
 10
139.5832905601055
 20
5169.377811739433
 30
0.0
 40
50.0
 41
0.0
 71
     5
 72
     1
  1
\A1;1,083.986
  7
ＭＳ明朝
 73
     1
 44
1.0
  0
POINT
  5
4029
330
3F56
100
AcDbEntity
  8
DEFPOINTS
 62
     0
100
AcDbPoint
 10
-402.4095286938627
 20
4863.892995498673
 30
0.0
  0
POINT
  5
402A
330
3F56
100
AcDbEntity
  8
DEFPOINTS
 62
     0
100
AcDbPoint
 10
681.5761098140738
 20
4942.130311538361
 30
0.0
  0
POINT
  5
402B
330
3F56
100
AcDbEntity
  8
DEFPOINTS
 62
     0
100
AcDbPoint
 10
681.5761098140738
 20
5139.592097453718
 30
0.0
  0
ENDBLK
  5
3F61
330
3F56
100
AcDbEntity
  8
0
100
AcDbBlockEnd
  0
BLOCK
  5
3F6E
330
3F62
100
AcDbEntity
  8
0
100
AcDbBlockBegin
  2
*D8
 70
     1
 10
0.0
 20
0.0
 30
0.0
  3
*D8
  1

  0
LINE
  5
4035
330
3F62
100
AcDbEntity
  8
2
 62
     0
370
    -2
100
AcDbLine
 10
677.0761098140702
 20
4902.13031153836
 30
0.0
 11
920.8261098140701
 21
4902.13031153836
 31
0.0
  0
LINE
  5
4036
330
3F62
100
AcDbEntity
  8
2
 62
     0
370
    -2
100
AcDbLine
 10
683.0761098140738
 20
4942.130311538361
 30
0.0
 11
920.8261098140701
 21
4942.130311538361
 31
0.0
  0
LINE
  5
4037
330
3F62
100
AcDbEntity
  8
2
 62
     0
370
    -2
100
AcDbLine
 10
919.5761098140701
 20
4877.130311538361
 30
0.0
 11
919.57610981407
 21
4852.130311538361
 31
0.0
  0
LINE
  5
4038
330
3F62
100
AcDbEntity
  8
2
 62
     0
370
    -2
100
AcDbLine
 10
919.5761098140701
 20
4967.130311538361
 30
0.0
 11
919.5761098140701
 21
5059.987454395503
 31
0.0
  0
LINE
  5
4039
330
3F62
100
AcDbEntity
  8
2
 62
     0
370
    -2
100
AcDbLine
 10
919.5761098140701
 20
4902.13031153836
 30
0.0
 11
919.5761098140701
 21
4942.130311538361
 31
0.0
  0
SOLID
  5
403A
330
3F62
100
AcDbEntity
  8
2
 62
     0
100
AcDbTrace
 10
915.4094431474035
 20
4877.130311538361
 30
0.0
 11
923.7427764807367
 21
4877.130311538361
 31
0.0
 12
919.5761098140701
 22
4902.13031153836
 32
0.0
 13
919.5761098140701
 23
4902.13031153836
 33
0.0
  0
SOLID
  5
403B
330
3F62
100
AcDbEntity
  8
2
 62
     0
100
AcDbTrace
 10
915.4094431474035
 20
4967.130311538361
 30
0.0
 11
923.7427764807367
 21
4967.130311538361
 31
0.0
 12
919.5761098140701
 22
4942.130311538361
 32
0.0
 13
919.5761098140701
 23
4942.130311538361
 33
0.0
  0
MTEXT
  5
403C
330
3F62
100
AcDbEntity
  8
2
 62
     0
100
AcDbMText
 10
894.0761098140693
 20
5026.058882966932
 30
0.0
 40
50.0
 41
0.0
 71
     5
 72
     1
  1
\A1;40
  7
ＭＳ明朝
 11
0.0000000000000001
 21
1.0
 31
0.0
 73
     1
 44
1.0
  0
POINT
  5
403D
330
3F62
100
AcDbEntity
  8
DEFPOINTS
 62
     0
100
AcDbPoint
 10
675.5761098140701
 20
4902.13031153836
 30
0.0
  0
POINT
  5
403E
330
3F62
100
AcDbEntity
  8
DEFPOINTS
 62
     0
100
AcDbPoint
 10
681.5761098140738
 20
4942.130311538361
 30
0.0
  0
POINT
  5
403F
330
3F62
100
AcDbEntity
  8
DEFPOINTS
 62
     0
100
AcDbPoint
 10
919.5761098140701
 20
4942.130311538361
 30
0.0
  0
ENDBLK
  5
3F6F
330
3F62
100
AcDbEntity
  8
0
100
AcDbBlockEnd
  0
BLOCK
  5
3F7A
330
3F70
100
AcDbEntity
  8
0
100
AcDbBlockBegin
  2
*D9
 70
     1
 10
0.0
 20
0.0
 30
0.0
  3
*D9
  1

  0
LINE
  5
4049
330
3F70
100
AcDbEntity
  8
2
 62
     0
370
    -2
100
AcDbLine
 10
662.0761098141319
 20
4882.130311538361
 30
0.0
 11
838.3261098140703
 21
4882.130311538361
 31
0.0
  0
LINE
  5
404A
330
3F70
100
AcDbEntity
  8
2
 62
     0
370
    -2
100
AcDbLine
 10
662.0761098141319
 20
4077.13031153836
 30
0.0
 11
838.3261098140701
 21
4077.13031153836
 31
0.0
  0
LINE
  5
404B
330
3F70
100
AcDbEntity
  8
2
 62
     0
370
    -2
100
AcDbLine
 10
837.0761098140702
 20
4857.130311538361
 30
0.0
 11
837.07610981407
 21
4102.130311538361
 31
0.0
  0
SOLID
  5
404C
330
3F70
100
AcDbEntity
  8
2
 62
     0
100
AcDbTrace
 10
832.9094431474036
 20
4857.130311538361
 30
0.0
 11
841.2427764807368
 21
4857.130311538361
 31
0.0
 12
837.0761098140704
 22
4882.130311538361
 32
0.0
 13
837.0761098140704
 23
4882.130311538361
 33
0.0
  0
SOLID
  5
404D
330
3F70
100
AcDbEntity
  8
2
 62
     0
100
AcDbTrace
 10
832.9094431474034
 20
4102.130311538361
 30
0.0
 11
841.2427764807368
 21
4102.130311538361
 31
0.0
 12
837.07610981407
 22
4077.13031153836
 32
0.0
 13
837.07610981407
 23
4077.13031153836
 33
0.0
  0
MTEXT
  5
404E
330
3F70
100
AcDbEntity
  8
2
 62
     0
100
AcDbMText
 10
811.5761098140694
 20
4479.63031153836
 30
0.0
 40
50.0
 41
0.0
 71
     5
 72
     1
  1
\A1;805
  7
ＭＳ明朝
 11
0.0000000000000001
 21
1.0
 31
0.0
 73
     1
 44
1.0
  0
POINT
  5
404F
330
3F70
100
AcDbEntity
  8
DEFPOINTS
 62
     0
100
AcDbPoint
 10
660.576109814132
 20
4882.130311538361
 30
0.0
  0
POINT
  5
4050
330
3F70
100
AcDbEntity
  8
DEFPOINTS
 62
     0
100
AcDbPoint
 10
660.576109814132
 20
4077.13031153836
 30
0.0
  0
POINT
  5
4051
330
3F70
100
AcDbEntity
  8
DEFPOINTS
 62
     0
100
AcDbPoint
 10
837.07610981407
 20
4077.13031153836
 30
0.0
  0
ENDBLK
  5
3F7B
330
3F70
100
AcDbEntity
  8
0
100
AcDbBlockEnd
  0
BLOCK
  5
3F86
330
3F7C
100
AcDbEntity
  8
0
100
AcDbBlockBegin
  2
*D10
 70
     1
 10
0.0
 20
0.0
 30
0.0
  3
*D10
  1

  0
LINE
  5
4040
330
3F7C
100
AcDbEntity
  8
2
 62
     0
370
    -2
100
AcDbLine
 10
677.0761098140702
 20
4902.13031153836
 30
0.0
 11
920.8261098140704
 21
4902.13031153836
 31
0.0
  0
LINE
  5
4041
330
3F7C
100
AcDbEntity
  8
2
 62
     0
370
    -2
100
AcDbLine
 10
675.0761098141283
 20
4057.130311538361
 30
0.0
 11
920.8261098140701
 21
4057.130311538361
 31
0.0
  0
LINE
  5
4042
330
3F7C
100
AcDbEntity
  8
2
 62
     0
370
    -2
100
AcDbLine
 10
919.5761098140703
 20
4877.130311538361
 30
0.0
 11
919.5761098140701
 21
4082.13031153836
 31
0.0
  0
SOLID
  5
4043
330
3F7C
100
AcDbEntity
  8
2
 62
     0
100
AcDbTrace
 10
915.4094431474037
 20
4877.130311538361
 30
0.0
 11
923.7427764807369
 21
4877.130311538361
 31
0.0
 12
919.5761098140703
 22
4902.13031153836
 32
0.0
 13
919.5761098140703
 23
4902.13031153836
 33
0.0
  0
SOLID
  5
4044
330
3F7C
100
AcDbEntity
  8
2
 62
     0
100
AcDbTrace
 10
915.4094431474035
 20
4082.13031153836
 30
0.0
 11
923.7427764807367
 21
4082.13031153836
 31
0.0
 12
919.5761098140701
 22
4057.130311538361
 32
0.0
 13
919.5761098140701
 23
4057.130311538361
 33
0.0
  0
MTEXT
  5
4045
330
3F7C
100
AcDbEntity
  8
2
 62
     0
100
AcDbMText
 10
894.0761098140695
 20
4479.63031153836
 30
0.0
 40
50.0
 41
0.0
 71
     5
 72
     1
  1
\A1;845
  7
ＭＳ明朝
 11
0.0000000000000001
 21
1.0
 31
0.0
 73
     1
 44
1.0
  0
POINT
  5
4046
330
3F7C
100
AcDbEntity
  8
DEFPOINTS
 62
     0
100
AcDbPoint
 10
675.5761098140701
 20
4902.13031153836
 30
0.0
  0
POINT
  5
4047
330
3F7C
100
AcDbEntity
  8
DEFPOINTS
 62
     0
100
AcDbPoint
 10
673.5761098141283
 20
4057.130311538361
 30
0.0
  0
POINT
  5
4048
330
3F7C
100
AcDbEntity
  8
DEFPOINTS
 62
     0
100
AcDbPoint
 10
919.5761098140701
 20
4057.130311538361
 30
0.0
  0
ENDBLK
  5
3F87
330
3F7C
100
AcDbEntity
  8
0
100
AcDbBlockEnd
  0
ENDSEC
  0
SECTION
  2
ENTITIES
  0
LINE
  5
38A7
330
18
100
AcDbEntity
  8
1
100
AcDbLine
 10
4283.591328614487
 20
4034.630309194959
 30
0.0
 11
4283.591328614487
 21
3971.311396823333
 31
0.0
  0
ARC
  5
38A8
330
18
100
AcDbEntity
  8
1
100
AcDbCircle
 10
4209.260984877894
 20
4034.630309194959
 30
0.0
 40
74.33034373659253
100
AcDbArc
 50
209.9999999999334
 51
129.4597498015958
  0
LINE
  5
38A9
330
18
100
AcDbEntity
  8
1
100
AcDbLine
 10
580.576109814041
 20
3613.540867622845
 30
0.0
 11
580.576109814041
 21
4101.53031153836
 31
0.0
  0
LINE
  5
38AA
330
18
100
AcDbEntity
  8
1
100
AcDbLine
 10
-9.423890185958953
 20
3613.540867622845
 30
0.0
 11
-9.423890185958953
 21
4101.53031153836
 31
0.0
  0
DIMENSION
  5
38AB
330
18
100
AcDbEntity
  8
2
100
AcDbDimension
  2
*D0
 10
1062.07610981407
 20
3547.13031153836
 30
0.0
 11
1028.433252671212
 21
4244.630311538361
 31
0.0
 70
    32
  1
（1395）
 71
     5
 42
1395.000000000001
  3
STANDARD
100
AcDbAlignedDimension
 13
929.5761098140701
 23
4942.130311538361
 33
0.0
 14
573.5761098141283
 24
3547.13031153836
 34
0.0
 50
90.0
100
AcDbRotatedDimension
1001
ACAD
1000
DSTYLE
1002
{
1070
    40
1040
1.0
1002
}
  0
LINE
  5
38AC
330
18
100
AcDbEntity
  8
1
100
AcDbLine
 10
2457.324430662427
 20
3547.13031153836
 30
0.0
 11
2558.591328614488
 21
4097.13031153836
 31
0.0
  0
LINE
  5
38AD
330
18
100
AcDbEntity
  8
1
100
AcDbLine
 10
2558.591328614491
 20
3619.484934625244
 30
0.0
 11
2558.591328614488
 21
4097.13031153836
 31
0.0
  0
LINE
  5
38AE
330
18
100
AcDbEntity
  8
1
100
AcDbLine
 10
2558.591328614488
 20
3619.484934625244
 30
0.0
 11
2858.591328614488
 21
4097.13031153836
 31
0.0
  0
LINE
  5
38AF
330
18
100
AcDbEntity
  8
1
100
AcDbLine
 10
2335.219343727132
 20
4094.609093857566
 30
0.0
 11
2459.452485376341
 21
3630.964697238812
 31
0.0
  0
LINE
  5
38B0
330
18
100
AcDbEntity
  8
1
100
AcDbLine
 10
2047.683034520834
 20
4027.916733815213
 30
0.0
 11
2158.714713230025
 21
3613.540867622846
 31
0.0
  0
TEXT
  5
38B2
330
18
100
AcDbEntity
  8
2
  6
1-隠れ線
100
AcDbText
 10
73.63325267115397
 20
1289.160545306405
 30
0.0
 40
60.0
  1
おが屑排出
  7
ＭＳ明朝
100
AcDbText
  0
LINE
  5
38B3
330
18
100
AcDbEntity
  8
1
100
AcDbLine
 10
677.5761098140119
 20
1978.828680170772
 30
0.0
 11
-102.423890185988
 21
1978.828680170772
 31
0.0
  0
LINE
  5
38B4
330
18
100
AcDbEntity
  8
1
100
AcDbLine
 10
677.5761098140119
 20
1983.828680170772
 30
0.0
 11
-102.423890185988
 21
1983.828680170772
 31
0.0
  0
LINE
  5
38B5
330
18
100
AcDbEntity
  8
1
100
AcDbLine
 10
677.5761098140119
 20
1978.828680170772
 30
0.0
 11
-102.423890185988
 21
1978.828680170772
 31
0.0
  0
LINE
  5
38B6
330
18
100
AcDbEntity
  8
1
100
AcDbLine
 10
677.5761098140119
 20
1978.828680170772
 30
0.0
 11
-102.423890185988
 21
1978.828680170772
 31
0.0
  0
LINE
  5
38B7
330
18
100
AcDbEntity
  8
1
100
AcDbLine
 10
677.5761098140119
 20
1978.828680170772
 30
0.0
 11
-102.423890185988
 21
1978.828680170772
 31
0.0
  0
LINE
  5
38B8
330
18
100
AcDbEntity
  8
1
100
AcDbLine
 10
677.5761098140119
 20
1908.828680170772
 30
0.0
 11
-382.423890185988
 21
1908.828680170772
 31
0.0
  0
LINE
  5
38B9
330
18
100
AcDbEntity
  8
1
100
AcDbLine
 10
-382.423890185988
 20
1973.828680170772
 30
0.0
 11
677.5761098140119
 21
1973.828680170772
 31
0.0
  0
LINE
  5
38BA
330
18
100
AcDbEntity
  8
1
100
AcDbLine
 10
677.5761098140119
 20
1903.828680170772
 30
0.0
 11
-382.423890185988
 21
1903.828680170772
 31
0.0
  0
LINE
  5
38BB
330
18
100
AcDbEntity
  8
1
100
AcDbLine
 10
677.5761098140119
 20
1978.828680170772
 30
0.0
 11
-102.423890185988
 21
1978.828680170772
 31
0.0
  0
LINE
  5
38BC
330
18
100
AcDbEntity
  8
1
100
AcDbLine
 10
677.5761098140119
 20
2048.828680170772
 30
0.0
 11
-102.423890185988
 21
2048.828680170772
 31
0.0
  0
LINE
  5
38BD
330
18
100
AcDbEntity
  8
1
100
AcDbLine
 10
677.5761098140119
 20
2053.828680170772
 30
0.0
 11
-102.423890185988
 21
2053.828680170772
 31
0.0
  0
LINE
  5
38BE
330
18
100
AcDbEntity
  8
1
100
AcDbLine
 10
677.5761098140119
 20
2053.828680170772
 30
0.0
 11
-102.423890185988
 21
2053.828680170772
 31
0.0
  0
LINE
  5
38BF
330
18
100
AcDbEntity
  8
1
100
AcDbLine
 10
677.5761098140119
 20
2048.828680170772
 30
0.0
 11
-102.423890185988
 21
2048.828680170772
 31
0.0
  0
LINE
  5
38C0
330
18
100
AcDbEntity
  8
1
100
AcDbLine
 10
677.5761098140119
 20
1983.828680170772
 30
0.0
 11
-102.423890185988
 21
1983.828680170772
 31
0.0
  0
LINE
  5
38C1
330
18
100
AcDbEntity
  8
1
100
AcDbLine
 10
677.5761098140119
 20
1978.828680170772
 30
0.0
 11
-102.423890185988
 21
1978.828680170772
 31
0.0
  0
LINE
  5
38C2
330
18
100
AcDbEntity
  8
1
100
AcDbLine
 10
427.5761098140119
 20
2361.828680170773
 30
0.0
 11
147.5761098140119
 21
2361.828680170773
 31
0.0
  0
LINE
  5
38C3
330
18
100
AcDbEntity
  8
1
100
AcDbLine
 10
577.5761098140119
 20
2648.828680170772
 30
0.0
 11
-2.423890185988057
 21
2648.828680170772
 31
0.0
  0
LINE
  5
38C4
330
18
100
AcDbEntity
  8
1
100
AcDbLine
 10
-2.423890185988057
 20
2908.828680170772
 30
0.0
 11
577.5761098140119
 21
2908.828680170772
 31
0.0
  0
LINE
  5
38C5
330
18
100
AcDbEntity
  8
1
100
AcDbLine
 10
16.12610981407306
 20
2877.228680170764
 30
0.0
 11
559.0261098140708
 21
2877.228680170763
 31
0.0
  0
LINE
  5
38C6
330
18
100
AcDbEntity
  8
1
100
AcDbLine
 10
-2.423890185988057
 20
2908.828680170772
 30
0.0
 11
577.5761098140119
 21
2908.828680170772
 31
0.0
  0
LWPOLYLINE
  5
38C7
330
18
100
AcDbEntity
  8
1
370
    18
100
AcDbPolyline
 90
        4
 70
     1
 43
0.0
 10
87.57610980601203
 20
2853.228680237922
 10
487.576109806012
 20
2853.228680103605
 10
487.5761098140701
 20
2877.228680103605
 10
87.57610981407015
 20
2877.228680237921
  0
LWPOLYLINE
  5
38C8
330
18
100
AcDbEntity
  8
1
370
    18
100
AcDbPolyline
 90
        4
 70
     1
 43
0.0
 10
87.57610980601203
 20
2853.228680237922
 10
487.576109806012
 20
2853.228680103605
 10
487.5761098140701
 20
2877.228680103605
 10
87.57610981407015
 20
2877.228680237921
  0
LINE
  5
38C9
330
18
100
AcDbEntity
  8
1
100
AcDbLine
 10
-12.42389018595895
 20
3058.912284287035
 30
0.0
 11
583.576109814041
 21
3058.912284287035
 31
0.0
  0
LINE
  5
38CA
330
18
100
AcDbEntity
  8
1
100
AcDbLine
 10
571.8608904651755
 20
2878.828680170773
 30
0.0
 11
-0.7086708370898123
 21
2878.828680170773
 31
0.0
  0
LINE
  5
38CB
330
18
100
AcDbEntity
  8
1
100
AcDbLine
 10
-11.22389018595822
 20
2912.528680170773
 30
0.0
 11
582.3761098140439
 21
2912.528680170773
 31
0.0
  0
LINE
  5
38CC
330
18
100
AcDbEntity
  8
1
100
AcDbLine
 10
562.3761098140439
 20
2758.828680170772
 30
0.0
 11
8.776109814041774
 21
2758.828680170772
 31
0.0
  0
LINE
  5
38CD
330
18
100
AcDbEntity
  8
2
100
AcDbLine
 10
237.5761098140119
 20
1652.228680170773
 30
0.0
 11
337.5761098140119
 21
1652.228680170773
 31
0.0
  0
LINE
  5
38CE
330
18
100
AcDbEntity
  8
2
100
AcDbLine
 10
287.5761098140119
 20
1452.228680170772
 30
0.0
 11
187.5761098140119
 21
1552.228680170773
 31
0.0
  0
LINE
  5
38CF
330
18
100
AcDbEntity
  8
1
  6
1-隠れ線
100
AcDbLine
 10
-307.423890185988
 20
1166.52868017094
 30
0.0
 11
602.5761098140228
 21
1166.52868017081
 31
0.0
  0
LINE
  5
38D0
330
18
100
AcDbEntity
  8
1
100
AcDbLine
 10
-307.42389018641
 20
1108.82868017094
 30
0.0
 11
602.5761098140119
 21
1108.828680170773
 31
0.0
  0
LINE
  5
38D1
330
18
100
AcDbEntity
  8
1
100
AcDbLine
 10
-307.4238901863991
 20
1168.82868017094
 30
0.0
 11
602.5761098140228
 21
1168.828680170773
 31
0.0
  0
LINE
  5
38D2
330
18
100
AcDbEntity
  8
1
  6
1-隠れ線
100
AcDbLine
 10
-246.4238901859262
 20
1111.128680170929
 30
0.0
 11
541.5761098140701
 21
1111.128680170783
 31
0.0
  0
LINE
  5
38D3
330
18
100
AcDbEntity
  8
1
100
AcDbLine
 10
-4.423890185929849
 20
3547.13031153836
 30
0.0
 11
575.5761098140701
 21
3547.13031153836
 31
0.0
  0
DIMENSION
  5
38D4
330
18
100
AcDbEntity
  8
2
100
AcDbDimension
  2
*D1
 10
575.5761098140701
 20
3366.63031153836
 30
0.0
 11
285.5761098140701
 21
3392.130311538361
 31
0.0
 70
    32
 71
     5
 42
580.0
  3
STANDARD
100
AcDbAlignedDimension
 13
-4.423890185929849
 23
3547.13031153836
 33
0.0
 14
575.5761098140701
 24
3547.13031153836
 34
0.0
100
AcDbRotatedDimension
1001
ACAD
1000
DSTYLE
1002
{
1070
    40
1040
1.0
1002
}
  0
LINE
  5
38D5
330
18
100
AcDbEntity
  8
1
100
AcDbLine
 10
425.5761098140701
 20
3617.13031153836
 30
0.0
 11
145.5761098140701
 21
3617.13031153836
 31
0.0
  0
LINE
  5
38D6
330
18
100
AcDbEntity
  8
1
100
AcDbLine
 10
-12.42389018595895
 20
3135.088303972125
 30
0.0
 11
583.576109814041
 21
3135.088303972123
 31
0.0
  0
LINE
  5
38D7
330
18
100
AcDbEntity
  8
1
100
AcDbLine
 10
580.576109814041
 20
3738.449568782616
 30
0.0
 11
-9.423890185958953
 21
3738.449568782616
 31
0.0
  0
CIRCLE
  5
38DA
330
18
100
AcDbEntity
  8
1
100
AcDbCircle
 10
287.5761098140119
 20
2288.828680170772
 30
0.0
 40
18.0
  0
CIRCLE
  5
38DB
330
18
100
AcDbEntity
  8
1
100
AcDbCircle
 10
287.5761098140119
 20
2288.828680170772
 30
0.0
 40
23.0
  0
CIRCLE
  5
38DC
330
18
100
AcDbEntity
  8
1
100
AcDbCircle
 10
287.5924529405147
 20
2339.828677552166
 30
0.0
 40
8.0
  0
CIRCLE
  5
38DD
330
18
100
AcDbEntity
  8
1
100
AcDbCircle
 10
287.5761098140119
 20
2288.828680170772
 30
0.0
 40
35.0
  0
CIRCLE
  5
38DE
330
18
100
AcDbEntity
  8
1
100
AcDbCircle
 10
287.5761098140119
 20
2288.828680170772
 30
0.0
 40
60.0
  0
ARC
  5
38DF
330
18
100
AcDbEntity
  8
1
100
AcDbCircle
 10
44.48610981403362
 20
2073.828680170772
 30
0.0
 40
20.0
100
AcDbArc
 50
270.0
 51
0.0
  0
LINE
  5
38E0
330
18
100
AcDbEntity
  8
1
  6
ByBlock
100
AcDbLine
 10
-382.4238901859298
 20
1738.828680170763
 30
0.0
 11
-382.4238901859298
 21
2471.958622485684
 31
0.0
  0
LINE
  5
38E1
330
18
100
AcDbEntity
  8
1
100
AcDbLine
 10
-232.42389018641
 20
1102.828680170927
 30
0.0
 11
-232.4238901864136
 21
1094.001006782383
 31
0.0
  0
LINE
  5
38E2
330
18
100
AcDbEntity
  8
1
100
AcDbLine
 10
-382.4238901864136
 20
1094.00100678241
 30
0.0
 11
-382.4238901864136
 21
1102.828680170927
 31
0.0
  0
DIMENSION
  5
38E3
330
18
100
AcDbEntity
  8
2
100
AcDbDimension
  2
*D2
 10
-526.7813628090171
 20
1738.828680170763
 30
0.0
 11
-552.2813628090172
 21
1321.328680170845
 31
0.0
 70
    32
 71
     5
 42
834.9999999998368
  3
STANDARD
100
AcDbAlignedDimension
 13
-354.9238901864137
 23
903.8286801709269
 33
0.0
 14
-307.4238901859298
 24
1738.828680170763
 34
0.0
 50
90.0
100
AcDbRotatedDimension
1001
ACAD
1000
DSTYLE
1002
{
1070
    40
1040
1.0
1002
}
  0
CIRCLE
  5
38E4
330
18
100
AcDbEntity
  8
1
100
AcDbCircle
 10
-354.9238901864137
 20
978.1590239075194
 30
0.0
 40
15.0
  0
ARC
  5
38E5
330
18
100
AcDbEntity
  8
1
100
AcDbCircle
 10
-354.9238901864137
 20
978.1590239075194
 30
0.0
 40
35.0
100
AcDbArc
 50
180.0
 51
0.0
  0
ARC
  5
38E6
330
18
100
AcDbEntity
  8
1
100
AcDbCircle
 10
-354.9238901864137
 20
978.1590239075194
 30
0.0
 40
74.33034373659253
100
AcDbArc
 50
120.0000000000005
 51
39.45974980167422
  0
LINE
  5
38E7
330
18
100
AcDbEntity
  8
2
100
AcDbLine
 10
-354.9238901864137
 20
903.8286801709269
 30
0.0
 11
-147.753445377757
 21
903.8286801709269
 31
0.0
  0
LINE
  5
38E8
330
18
100
AcDbEntity
  8
1
100
AcDbLine
 10
-346.4238901859298
 20
1079.001006782399
 30
0.0
 11
-378.4238901859298
 21
1079.001006782414
 31
0.0
  0
LINE
  5
38E9
330
18
100
AcDbEntity
  8
1
100
AcDbLine
 10
-346.4238901859298
 20
1094.001006782399
 30
0.0
 11
-378.4238901859298
 21
1094.001006782414
 31
0.0
  0
LINE
  5
38EA
330
18
100
AcDbEntity
  8
1
100
AcDbLine
 10
-382.4238901864136
 20
1094.00100678241
 30
0.0
 11
-232.4238901864136
 21
1094.001006782383
 31
0.0
  0
LINE
  5
38EB
330
18
100
AcDbEntity
  8
1
100
AcDbLine
 10
-284.9238901864136
 20
1073.159023907517
 30
0.0
 11
-389.9238901864137
 21
1073.159023907517
 31
0.0
  0
LINE
  5
38EC
330
18
100
AcDbEntity
  8
1
100
AcDbLine
 10
-354.4238901859298
 20
1094.001006782403
 30
0.0
 11
-354.4238901859298
 21
1079.001006782403
 31
0.0
  0
LINE
  5
38ED
330
18
100
AcDbEntity
  8
1
100
AcDbLine
 10
-370.4238901859298
 20
1094.00100678241
 30
0.0
 11
-370.4238901859298
 21
1079.00100678241
 31
0.0
  0
LINE
  5
38EE
330
18
100
AcDbEntity
  8
1
100
AcDbLine
 10
-378.4238901859298
 20
1094.001006782414
 30
0.0
 11
-378.4238901859298
 21
1079.001006782415
 31
0.0
  0
LINE
  5
38EF
330
18
100
AcDbEntity
  8
1
100
AcDbLine
 10
-389.9238901864137
 20
1073.159023907517
 30
0.0
 11
-389.9238901864137
 21
978.1590239075176
 31
0.0
  0
LINE
  5
38F0
330
18
100
AcDbEntity
  8
1
100
AcDbLine
 10
-274.9238901864137
 20
1079.001006782395
 30
0.0
 11
-274.9238901864137
 21
1073.159023907517
 31
0.0
  0
LINE
  5
38F1
330
18
100
AcDbEntity
  8
1
100
AcDbLine
 10
-254.4238901859298
 20
1094.001006782385
 30
0.0
 11
-254.4238901859298
 21
1079.001006782384
 31
0.0
  0
LINE
  5
38F2
330
18
100
AcDbEntity
  8
1
100
AcDbLine
 10
-270.4238901859298
 20
1094.001006782392
 30
0.0
 11
-270.4238901859298
 21
1079.001006782392
 31
0.0
  0
LINE
  5
38F3
330
18
100
AcDbEntity
  8
1
100
AcDbLine
 10
-278.4238901859298
 20
1094.001006782396
 30
0.0
 11
-278.4238901859298
 21
1079.001006782396
 31
0.0
  0
LINE
  5
38F4
330
18
100
AcDbEntity
  8
1
100
AcDbLine
 10
-246.4238901859298
 20
1094.001006782381
 30
0.0
 11
-246.4238901859298
 21
1079.001006782381
 31
0.0
  0
LINE
  5
38F5
330
18
100
AcDbEntity
  8
1
100
AcDbLine
 10
-246.4238901859298
 20
1079.001006782381
 30
0.0
 11
-278.4238901859298
 21
1079.001006782396
 31
0.0
  0
LINE
  5
38F6
330
18
100
AcDbEntity
  8
1
100
AcDbLine
 10
-246.4238901859298
 20
1094.001006782381
 30
0.0
 11
-278.4238901859298
 21
1094.001006782396
 31
0.0
  0
LINE
  5
38F7
330
18
100
AcDbEntity
  8
1
100
AcDbLine
 10
-344.9238901864136
 20
1086.001006782397
 30
0.0
 11
-344.9238901864136
 21
1094.001006782397
 31
0.0
  0
LINE
  5
38F8
330
18
100
AcDbEntity
  8
1
100
AcDbLine
 10
-339.9238901864137
 20
1073.159023907517
 30
0.0
 11
-339.9238901864137
 21
1086.001006782397
 31
0.0
  0
LINE
  5
38F9
330
18
100
AcDbEntity
  8
1
100
AcDbLine
 10
-346.4238901859298
 20
1094.001006782399
 30
0.0
 11
-346.4238901859298
 21
1079.001006782399
 31
0.0
  0
LINE
  5
38FA
330
18
100
AcDbEntity
  8
1
100
AcDbLine
 10
-344.9238901864136
 20
1086.001006782397
 30
0.0
 11
-278.4238901859298
 21
1086.001006782397
 31
0.0
  0
LINE
  5
38FB
330
18
100
AcDbEntity
  8
1
100
AcDbLine
 10
-344.9238901864136
 20
1094.001006782397
 30
0.0
 11
-269.9238901864136
 21
1094.001006782397
 31
0.0
  0
LINE
  5
38FC
330
18
100
AcDbEntity
  8
1
100
AcDbLine
 10
-339.9238901864137
 20
1086.0010067824
 30
0.0
 11
-278.4238901859298
 21
1086.001006782403
 31
0.0
  0
LINE
  5
38FD
330
18
100
AcDbEntity
  8
1
100
AcDbLine
 10
-339.9238901864137
 20
1086.001006782397
 30
0.0
 11
-278.4238901859298
 21
1086.001006782399
 31
0.0
  0
LINE
  5
38FE
330
18
100
AcDbEntity
  8
1
100
AcDbLine
 10
-278.4238901859298
 20
1086.001006782397
 30
0.0
 11
-339.9238901864137
 21
1086.001006782397
 31
0.0
  0
LINE
  5
38FF
330
18
100
AcDbEntity
  8
1
100
AcDbLine
 10
-274.9238901864137
 20
1073.159023907517
 30
0.0
 11
-339.9238901864137
 21
1073.159023907517
 31
0.0
  0
LINE
  5
3900
330
18
100
AcDbEntity
  8
1
100
AcDbLine
 10
-319.9238901864136
 20
978.1590239075176
 30
0.0
 11
-274.9238901864137
 21
1073.109532631733
 31
0.0
  0
LINE
  5
3901
330
18
100
AcDbEntity
  8
2
100
AcDbLine
 10
237.5761098140119
 20
1552.228680170772
 30
0.0
 11
237.5761098140119
 21
1652.228680170773
 31
0.0
  0
LINE
  5
3902
330
18
100
AcDbEntity
  8
1
100
AcDbLine
 10
-382.423890185988
 20
1903.828680170772
 30
0.0
 11
-382.4238901863627
 21
1108.828680170954
 31
0.0
  0
LINE
  5
3903
330
18
100
AcDbEntity
  8
1
100
AcDbLine
 10
-312.423890186068
 20
1108.828680170941
 30
0.0
 11
-312.4238901859953
 21
1903.828680170772
 31
0.0
  0
LINE
  5
3904
330
18
100
AcDbEntity
  8
1
100
AcDbLine
 10
-377.4238901859953
 20
1903.828680170772
 30
0.0
 11
-377.4238901860644
 21
1125.828680170957
 31
0.0
  0
LINE
  5
3905
330
18
100
AcDbEntity
  8
1
100
AcDbLine
 10
-307.423890185988
 20
1108.82868017094
 30
0.0
 11
-307.423890185988
 21
1903.828680170772
 31
0.0
  0
LINE
  5
3906
330
18
100
AcDbEntity
  8
1
100
AcDbLine
 10
-346.4238901859262
 20
1110.828680170942
 30
0.0
 11
-378.4238901859298
 21
1110.828680170958
 31
0.0
  0
LINE
  5
3907
330
18
100
AcDbEntity
  8
1
100
AcDbLine
 10
-346.4238901859262
 20
1125.828680170942
 30
0.0
 11
-378.4238901859262
 21
1125.828680170958
 31
0.0
  0
LINE
  5
3908
330
18
100
AcDbEntity
  8
1
100
AcDbLine
 10
-378.4238901859298
 20
1108.828680170958
 30
0.0
 11
-346.4238901859262
 21
1108.828680170942
 31
0.0
  0
LINE
  5
3909
330
18
100
AcDbEntity
  8
1
100
AcDbLine
 10
-382.4238901864136
 20
1102.828680170927
 30
0.0
 11
-232.4238901864136
 21
1102.828680170926
 31
0.0
  0
LINE
  5
390A
330
18
100
AcDbEntity
  8
1
100
AcDbLine
 10
-382.42389018641
 20
1102.828680170954
 30
0.0
 11
-232.42389018641
 21
1102.828680170927
 31
0.0
  0
LINE
  5
390B
330
18
100
AcDbEntity
  8
1
100
AcDbLine
 10
-382.42389018641
 20
1108.828680170954
 30
0.0
 11
-232.42389018641
 21
1108.828680170927
 31
0.0
  0
LINE
  5
390C
330
18
100
AcDbEntity
  8
1
100
AcDbLine
 10
-382.4238901864136
 20
1102.828680170927
 30
0.0
 11
-232.4238901864136
 21
1102.828680170926
 31
0.0
  0
LINE
  5
390D
330
18
100
AcDbEntity
  8
1
100
AcDbLine
 10
-382.42389018641
 20
1102.828680170954
 30
0.0
 11
-232.42389018641
 21
1102.828680170927
 31
0.0
  0
LINE
  5
390E
330
18
100
AcDbEntity
  8
1
100
AcDbLine
 10
-355.4238901859262
 20
1142.828680170965
 30
0.0
 11
-354.4238901859262
 21
1141.828680170965
 31
0.0
  0
LINE
  5
390F
330
18
100
AcDbEntity
  8
1
100
AcDbLine
 10
-370.4238901859262
 20
1141.828680170965
 30
0.0
 11
-369.4238901859262
 21
1142.828680170965
 31
0.0
  0
LINE
  5
3910
330
18
100
AcDbEntity
  8
1
100
AcDbLine
 10
-355.4238901859262
 20
1142.828680170965
 30
0.0
 11
-369.4238901859262
 21
1142.828680170965
 31
0.0
  0
LINE
  5
3911
330
18
100
AcDbEntity
  8
1
100
AcDbLine
 10
-354.4238901859262
 20
1141.828680170965
 30
0.0
 11
-370.4238901859262
 21
1141.828680170965
 31
0.0
  0
LINE
  5
3912
330
18
100
AcDbEntity
  8
1
100
AcDbLine
 10
-382.4238901864136
 20
1102.828680170927
 30
0.0
 11
-382.42389018641
 21
1108.828680170954
 31
0.0
  0
LINE
  5
3913
330
18
100
AcDbEntity
  8
1
100
AcDbLine
 10
-378.4238901859262
 20
1125.828680170958
 30
0.0
 11
-378.4238901859298
 21
1108.828680170958
 31
0.0
  0
LINE
  5
3914
330
18
100
AcDbEntity
  8
1
100
AcDbLine
 10
-370.4238901859262
 20
1141.828680170966
 30
0.0
 11
-370.4238901859262
 21
1110.828680170954
 31
0.0
  0
LINE
  5
3915
330
18
100
AcDbEntity
  8
1
100
AcDbLine
 10
-354.4238901859262
 20
1141.828680170965
 30
0.0
 11
-354.4238901859262
 21
1110.828680170946
 31
0.0
  0
LINE
  5
3916
330
18
100
AcDbEntity
  8
1
100
AcDbLine
 10
-355.4238901859262
 20
1142.828680170965
 30
0.0
 11
-355.4238901859262
 21
1125.828680170947
 31
0.0
  0
LINE
  5
3917
330
18
100
AcDbEntity
  8
1
100
AcDbLine
 10
-369.4238901859262
 20
1142.828680170965
 30
0.0
 11
-369.4238901859262
 21
1125.828680170953
 31
0.0
  0
LINE
  5
3918
330
18
100
AcDbEntity
  8
1
100
AcDbLine
 10
-255.4238901859262
 20
1142.828680170947
 30
0.0
 11
-269.4238901859262
 21
1142.828680170947
 31
0.0
  0
LINE
  5
3919
330
18
100
AcDbEntity
  8
1
100
AcDbLine
 10
-255.4238901859262
 20
1142.828680170947
 30
0.0
 11
-254.4238901859262
 21
1141.828680170947
 31
0.0
  0
LINE
  5
391A
330
18
100
AcDbEntity
  8
1
100
AcDbLine
 10
-270.4238901859262
 20
1141.828680170947
 30
0.0
 11
-269.4238901859262
 21
1142.828680170947
 31
0.0
  0
LINE
  5
391B
330
18
100
AcDbEntity
  8
1
100
AcDbLine
 10
-254.4238901859262
 20
1141.828680170947
 30
0.0
 11
-270.4238901859262
 21
1141.828680170947
 31
0.0
  0
LINE
  5
391C
330
18
100
AcDbEntity
  8
1
100
AcDbLine
 10
-232.42389018641
 20
1108.828680170927
 30
0.0
 11
-232.42389018641
 21
1103.328680170926
 31
0.0
  0
LINE
  5
391D
330
18
100
AcDbEntity
  8
1
100
AcDbLine
 10
-246.4238901859262
 20
1110.828680170924
 30
0.0
 11
-278.4238901859298
 21
1110.82868017094
 31
0.0
  0
LINE
  5
391E
330
18
100
AcDbEntity
  8
1
100
AcDbLine
 10
-246.4238901859262
 20
1125.828680170924
 30
0.0
 11
-278.4238901859262
 21
1125.82868017094
 31
0.0
  0
LINE
  5
391F
330
18
100
AcDbEntity
  8
1
100
AcDbLine
 10
-278.4238901859298
 20
1108.82868017094
 30
0.0
 11
-246.4238901859262
 21
1108.828680170924
 31
0.0
  0
LINE
  5
3920
330
18
100
AcDbEntity
  8
1
100
AcDbLine
 10
-278.4238901859262
 20
1125.82868017094
 30
0.0
 11
-278.4238901859298
 21
1108.82868017094
 31
0.0
  0
LINE
  5
3921
330
18
100
AcDbEntity
  8
1
100
AcDbLine
 10
-246.4238901859262
 20
1125.828680170924
 30
0.0
 11
-246.4238901859262
 21
1108.828680170924
 31
0.0
  0
LINE
  5
3922
330
18
100
AcDbEntity
  8
1
100
AcDbLine
 10
-270.4238901859262
 20
1141.828680170948
 30
0.0
 11
-270.4238901859262
 21
1110.828680170936
 31
0.0
  0
LINE
  5
3923
330
18
100
AcDbEntity
  8
1
100
AcDbLine
 10
-254.4238901859262
 20
1141.828680170947
 30
0.0
 11
-254.4238901859262
 21
1110.828680170928
 31
0.0
  0
LINE
  5
3924
330
18
100
AcDbEntity
  8
1
100
AcDbLine
 10
-255.4238901859262
 20
1142.828680170947
 30
0.0
 11
-255.4238901859262
 21
1125.828680170929
 31
0.0
  0
LINE
  5
3925
330
18
100
AcDbEntity
  8
1
100
AcDbLine
 10
-269.4238901859262
 20
1142.828680170947
 30
0.0
 11
-269.4238901859262
 21
1125.828680170935
 31
0.0
  0
LINE
  5
3926
330
18
100
AcDbEntity
  8
1
100
AcDbLine
 10
-346.4238901859262
 20
1125.828680170942
 30
0.0
 11
-346.4238901859262
 21
1108.828680170942
 31
0.0
  0
LINE
  5
3927
330
18
100
AcDbEntity
  8
1
100
AcDbLine
 10
-307.423890185988
 20
1168.828680170773
 30
0.0
 11
-307.423890185988
 21
1108.82868017094
 31
0.0
  0
LINE
  5
3928
330
18
100
AcDbEntity
  8
1
  6
1-隠れ線
100
AcDbLine
 10
-307.42389018641
 20
1111.12868017094
 30
0.0
 11
-278.4238901859298
 21
1111.128680170934
 31
0.0
  0
LINE
  5
3929
330
18
100
AcDbEntity
  8
1
  6
1-隠れ線
100
AcDbLine
 10
-24.72389018591821
 20
1166.52868017089
 30
0.0
 11
-50.12389018591966
 21
1166.52868017089
 31
0.0
  0
LINE
  5
392A
330
18
100
AcDbEntity
  8
1
  6
1-隠れ線
100
AcDbLine
 10
-24.72389018591821
 20
1111.128680170891
 30
0.0
 11
-50.12389018592694
 21
1111.128680170891
 31
0.0
  0
LINE
  5
392B
330
18
100
AcDbEntity
  8
1
  6
1-隠れ線
100
AcDbLine
 10
-50.12389018592694
 20
1111.128680170891
 30
0.0
 11
-50.12389018591966
 21
1166.52868017089
 31
0.0
  0
LINE
  5
392C
330
18
100
AcDbEntity
  8
1
  6
1-隠れ線
100
AcDbLine
 10
-22.42389018591529
 20
1168.828680170891
 30
0.0
 11
-22.42389018591529
 21
1108.82868017089
 31
0.0
  0
LINE
  5
392D
330
18
100
AcDbEntity
  8
1
  6
1-隠れ線
100
AcDbLine
 10
-24.72389018591821
 20
1166.52868017089
 30
0.0
 11
-24.72389018591821
 21
1111.128680170891
 31
0.0
  0
LINE
  5
392E
330
18
100
AcDbEntity
  8
1
  6
1-隠れ線
100
AcDbLine
 10
-52.42389018592985
 20
1108.82868017089
 30
0.0
 11
-52.4238901859153
 21
1168.828680170891
 31
0.0
  0
LINE
  5
392F
330
18
100
AcDbEntity
  8
1
  6
1-隠れ線
100
AcDbLine
 10
-22.42389018592985
 20
1108.82868017089
 30
0.0
 11
-52.42389018592985
 21
1108.82868017089
 31
0.0
  0
LINE
  5
3930
330
18
100
AcDbEntity
  8
1
  6
1-隠れ線
100
AcDbLine
 10
-22.42389018591529
 20
1168.828680170891
 30
0.0
 11
-52.4238901859153
 21
1168.828680170891
 31
0.0
  0
LINE
  5
3931
330
18
100
AcDbEntity
  8
2
100
AcDbLine
 10
237.5761098140119
 20
1552.228680170772
 30
0.0
 11
187.5761098140119
 21
1552.228680170773
 31
0.0
  0
TEXT
  5
3933
330
18
100
AcDbEntity
  8
2
  6
1-隠れ線
100
AcDbText
 10
-953.4320934025581
 20
1851.970787657357
 30
0.0
 40
60.0
  1
袋排出口
  7
ＭＳ明朝
100
AcDbText
  0
LINE
  5
3934
330
18
100
AcDbEntity
  8
1
  6
ByBlock
100
AcDbLine
 10
-102.4238901859298
 20
1738.828680170763
 30
0.0
 11
-102.4238901859298
 21
1902.228680170764
 31
0.0
  0
LINE
  5
3935
330
18
100
AcDbEntity
  8
1
100
AcDbLine
 10
-307.4238901859298
 20
1738.828680170763
 30
0.0
 11
-102.4238901859298
 21
1738.828680170763
 31
0.0
  0
LINE
  5
3936
330
18
100
AcDbEntity
  8
1
100
AcDbLine
 10
-382.423890185988
 20
1978.828680170772
 30
0.0
 11
-32.42389018598805
 21
1978.828680170772
 31
0.0
  0
LINE
  5
3937
330
18
100
AcDbEntity
  8
1
100
AcDbLine
 10
-382.423890185988
 20
1903.828680170772
 30
0.0
 11
-382.423890185988
 21
1978.828680170772
 31
0.0
  0
LINE
  5
3938
330
18
100
AcDbEntity
  8
1
  6
1-隠れ線
100
AcDbLine
 10
-17.42389018592985
 20
1903.828680170772
 30
0.0
 11
-17.42389018592985
 21
1978.828680170772
 31
0.0
  0
LINE
  5
3939
330
18
100
AcDbEntity
  8
1
  6
1-隠れ線
100
AcDbLine
 10
-22.42389018592985
 20
1908.828680170772
 30
0.0
 11
-22.42389018592985
 21
1973.828680170772
 31
0.0
  0
LINE
  5
393A
330
18
100
AcDbEntity
  8
1
  6
1-隠れ線
100
AcDbLine
 10
-57.42389018592985
 20
1903.828680170772
 30
0.0
 11
-57.42389018592985
 21
1908.828680170772
 31
0.0
  0
LINE
  5
393B
330
18
100
AcDbEntity
  8
1
  6
1-隠れ線
100
AcDbLine
 10
-57.42389018592985
 20
1903.828680170772
 30
0.0
 11
-17.42389018592985
 21
1903.828680170772
 31
0.0
  0
LINE
  5
393C
330
18
100
AcDbEntity
  8
1
  6
1-隠れ線
100
AcDbLine
 10
-57.42389018592985
 20
1908.828680170772
 30
0.0
 11
-22.42389018592985
 21
1908.828680170772
 31
0.0
  0
LINE
  5
393D
330
18
100
AcDbEntity
  8
1
100
AcDbLine
 10
-31.423890185868
 20
2008.578680170785
 30
0.0
 11
-43.423890185868
 21
2008.578680170785
 31
0.0
  0
LINE
  5
393E
330
18
100
AcDbEntity
  8
1
100
AcDbLine
 10
-43.423890185868
 20
2008.578680170785
 30
0.0
 11
-42.673890185868
 21
2009.328680170784
 31
0.0
  0
LINE
  5
393F
330
18
100
AcDbEntity
  8
1
100
AcDbLine
 10
-32.173890185868
 20
2009.328680170784
 30
0.0
 11
-31.423890185868
 21
2008.578680170785
 31
0.0
  0
LINE
  5
3940
330
18
100
AcDbEntity
  8
1
100
AcDbLine
 10
-32.173890185868
 20
2009.328680170784
 30
0.0
 11
-42.673890185868
 21
2009.328680170784
 31
0.0
  0
LINE
  5
3941
330
18
100
AcDbEntity
  8
1
100
AcDbLine
 10
-25.423890185868
 20
1996.578680170767
 30
0.0
 11
-49.423890185868
 21
1996.578680170778
 31
0.0
  0
LINE
  5
3942
330
18
100
AcDbEntity
  8
1
100
AcDbLine
 10
-42.673890185868
 20
2009.328680170784
 30
0.0
 11
-42.673890185868
 21
1996.578680170775
 31
0.0
  0
LINE
  5
3943
330
18
100
AcDbEntity
  8
1
100
AcDbLine
 10
-32.173890185868
 20
2009.328680170784
 30
0.0
 11
-32.173890185868
 21
1996.57868017077
 31
0.0
  0
LINE
  5
3944
330
18
100
AcDbEntity
  8
1
100
AcDbLine
 10
-49.423890185868
 20
1983.828680170779
 30
0.0
 11
-25.423890185868
 21
1983.828680170767
 31
0.0
  0
LINE
  5
3945
330
18
100
AcDbEntity
  8
1
100
AcDbLine
 10
-25.423890185868
 20
1985.328680170767
 30
0.0
 11
-49.423890185868
 21
1985.328680170778
 31
0.0
  0
LINE
  5
3946
330
18
100
AcDbEntity
  8
1
100
AcDbLine
 10
-25.423890185868
 20
1962.578680170767
 30
0.0
 11
-49.423890185868
 21
1962.578680170778
 31
0.0
  0
LINE
  5
3947
330
18
100
AcDbEntity
  8
1
100
AcDbLine
 10
-25.423890185868
 20
1973.828680170767
 30
0.0
 11
-49.423890185868
 21
1973.828680170778
 31
0.0
  0
LINE
  5
3948
330
18
100
AcDbEntity
  8
1
100
AcDbLine
 10
-43.423890185868
 20
1973.828680170772
 30
0.0
 11
-43.423890185868
 21
1962.578680170775
 31
0.0
  0
LINE
  5
3949
330
18
100
AcDbEntity
  8
1
100
AcDbLine
 10
-31.423890185868
 20
1973.828680170772
 30
0.0
 11
-31.423890185868
 21
1962.57868017077
 31
0.0
  0
LINE
  5
394A
330
18
100
AcDbEntity
  8
1
100
AcDbLine
 10
-49.423890185868
 20
1973.828680170778
 30
0.0
 11
-49.423890185868
 21
1962.578680170778
 31
0.0
  0
LINE
  5
394B
330
18
100
AcDbEntity
  8
1
100
AcDbLine
 10
-25.423890185868
 20
1973.828680170766
 30
0.0
 11
-25.423890185868
 21
1962.578680170767
 31
0.0
  0
LINE
  5
394C
330
18
100
AcDbEntity
  8
1
100
AcDbLine
 10
-49.423890185868
 20
1996.578680170778
 30
0.0
 11
-49.423890185868
 21
1983.828680170779
 31
0.0
  0
LINE
  5
394D
330
18
100
AcDbEntity
  8
1
100
AcDbLine
 10
-25.423890185868
 20
1996.578680170767
 30
0.0
 11
-25.423890185868
 21
1983.828680170767
 31
0.0
  0
LINE
  5
394E
330
18
100
AcDbEntity
  8
1
100
AcDbLine
 10
-31.423890185868
 20
2008.578680170785
 30
0.0
 11
-31.423890185868
 21
1985.32868017077
 31
0.0
  0
LINE
  5
394F
330
18
100
AcDbEntity
  8
1
100
AcDbLine
 10
-43.423890185868
 20
2008.578680170785
 30
0.0
 11
-43.423890185868
 21
1985.328680170776
 31
0.0
  0
LINE
  5
3950
330
18
100
AcDbEntity
  8
1
  6
1-隠れ線
100
AcDbLine
 10
-57.42389018592985
 20
1973.828680170772
 30
0.0
 11
-57.42389018592985
 21
1978.828680170772
 31
0.0
  0
LINE
  5
3951
330
18
100
AcDbEntity
  8
1
100
AcDbLine
 10
-102.423890185988
 20
1978.828680170772
 30
0.0
 11
-102.423890185988
 21
2053.828680170772
 31
0.0
  0
LINE
  5
3952
330
18
100
AcDbEntity
  8
1
  6
ByBlock
100
AcDbLine
 10
-102.4238901859298
 20
1977.228680170764
 30
0.0
 11
-102.4238901859298
 21
2053.828680170772
 31
0.0
  0
LINE
  5
3953
330
18
100
AcDbEntity
  8
1
100
AcDbLine
 10
-102.423890185988
 20
1978.828680170772
 30
0.0
 11
-102.423890185988
 21
2053.828680170772
 31
0.0
  0
LINE
  5
3954
330
18
100
AcDbEntity
  8
1
100
AcDbLine
 10
-102.423890185988
 20
1978.828680170772
 30
0.0
 11
-2.423890185988057
 21
1978.828680170772
 31
0.0
  0
LINE
  5
3955
330
18
100
AcDbEntity
  8
1
100
AcDbLine
 10
-102.423890185988
 20
1978.828680170772
 30
0.0
 11
-2.423890185988057
 21
1978.828680170772
 31
0.0
  0
LINE
  5
3956
330
18
100
AcDbEntity
  8
1
100
AcDbLine
 10
-102.423890185988
 20
1978.828680170772
 30
0.0
 11
-2.423890185988057
 21
1978.828680170772
 31
0.0
  0
LINE
  5
3957
330
18
100
AcDbEntity
  8
1
  6
1-隠れ線
100
AcDbLine
 10
-57.42389018592985
 20
1973.828680170772
 30
0.0
 11
-22.42389018592985
 21
1973.828680170772
 31
0.0
  0
LINE
  5
3958
330
18
100
AcDbEntity
  8
1
  6
1-隠れ線
100
AcDbLine
 10
-57.42389018592985
 20
1978.828680170772
 30
0.0
 11
-17.42389018592985
 21
1978.828680170772
 31
0.0
  0
LINE
  5
3959
330
18
100
AcDbEntity
  8
1
100
AcDbLine
 10
-102.423890185988
 20
1978.828680170772
 30
0.0
 11
-2.423890185988057
 21
1978.828680170772
 31
0.0
  0
LINE
  5
395A
330
18
100
AcDbEntity
  8
1
100
AcDbLine
 10
-102.423890185988
 20
1978.828680170772
 30
0.0
 11
-2.423890185988057
 21
1978.828680170772
 31
0.0
  0
LINE
  5
395B
330
18
100
AcDbEntity
  8
1
100
AcDbLine
 10
-102.423890185988
 20
1978.828680170772
 30
0.0
 11
-2.423890185988057
 21
1978.828680170772
 31
0.0
  0
LINE
  5
395C
330
18
100
AcDbEntity
  8
1
100
AcDbLine
 10
44.48610981403362
 20
2053.828680170772
 30
0.0
 11
-135.002418516482
 21
2053.828680170772
 31
0.0
  0
LINE
  5
395D
330
18
100
AcDbEntity
  8
1
100
AcDbLine
 10
-11.22389018595822
 20
2724.788546962281
 30
0.0
 11
-11.22389018595822
 21
3058.912284287035
 31
0.0
  0
LINE
  5
395E
330
18
100
AcDbEntity
  8
1
100
AcDbLine
 10
-12.42389018595895
 20
2724.788546962281
 30
0.0
 11
-12.42389018595895
 21
3135.088303972123
 31
0.0
  0
LINE
  5
395F
330
18
100
AcDbEntity
  8
1
100
AcDbLine
 10
72.4861098140118
 20
2468.828680170773
 30
0.0
 11
72.4861098140118
 21
2568.828680170772
 31
0.0
  0
LINE
  5
3960
330
18
100
AcDbEntity
  8
1
100
AcDbLine
 10
9.486109814011797
 20
2480.828680170772
 30
0.0
 11
9.486109814011797
 21
2536.828680170772
 31
0.0
  0
LINE
  5
3961
330
18
100
AcDbEntity
  8
1
100
AcDbLine
 10
59.4861098140118
 20
2480.828680170772
 30
0.0
 11
59.4861098140118
 21
2536.828680170772
 31
0.0
  0
LINE
  5
3962
330
18
100
AcDbEntity
  8
1
100
AcDbLine
 10
70.48610981401179
 20
2470.828680170773
 30
0.0
 11
70.48610981401544
 21
2566.828680170772
 31
0.0
  0
LINE
  5
3963
330
18
100
AcDbEntity
  8
1
100
AcDbLine
 10
-3.513890185988202
 20
2468.828680170773
 30
0.0
 11
-3.513890185988202
 21
2568.828680170772
 31
0.0
  0
LINE
  5
3964
330
18
100
AcDbEntity
  8
1
100
AcDbLine
 10
-1.513890185988202
 20
2470.828680170773
 30
0.0
 11
-1.513890185988202
 21
2566.828680170772
 31
0.0
  0
LINE
  5
3965
330
18
100
AcDbEntity
  8
1
100
AcDbLine
 10
74.4861098140118
 20
2440.828680170772
 30
0.0
 11
74.4861098140118
 21
2594.828680170772
 31
0.0
  0
LINE
  5
3966
330
18
100
AcDbEntity
  8
1
100
AcDbLine
 10
-5.513890185988202
 20
2440.828680170772
 30
0.0
 11
-5.513890185988202
 21
2594.828680170772
 31
0.0
  0
LINE
  5
3967
330
18
100
AcDbEntity
  8
1
100
AcDbLine
 10
-242.8381037483031
 20
2639.828680170763
 30
0.0
 11
-400.4095286939246
 21
2482.25725522515
 31
0.0
  0
LINE
  5
3968
330
18
100
AcDbEntity
  8
1
100
AcDbLine
 10
-242.7247029269619
 20
2611.657809744645
 30
0.0
 11
-386.2673930701948
 21
2468.115119601419
 31
0.0
  0
LINE
  5
3969
330
18
100
AcDbEntity
  8
1
100
AcDbLine
 10
-102.4238901859298
 20
2328.828680170772
 30
0.0
 11
-102.4238901859298
 21
2589.942133988801
 31
0.0
  0
LINE
  5
396A
330
18
100
AcDbEntity
  8
1
100
AcDbLine
 10
-102.4238901859298
 20
2589.942133988801
 30
0.0
 11
-102.4238901859298
 21
2328.828680170763
 31
0.0
  0
LINE
  5
396B
330
18
100
AcDbEntity
  8
1
100
AcDbLine
 10
-102.4238901859298
 20
2619.942133988801
 30
0.0
 11
-102.4238901859298
 21
2328.828680170763
 31
0.0
  0
LINE
  5
396C
330
18
100
AcDbEntity
  8
1
100
AcDbLine
 10
-102.4238901859298
 20
2589.942133988801
 30
0.0
 11
-102.4238901859298
 21
2328.828680170763
 31
0.0
  0
LINE
  5
396D
330
18
100
AcDbEntity
  8
1
100
AcDbLine
 10
-102.4238901859298
 20
2328.828680170772
 30
0.0
 11
-102.4238901859298
 21
2589.942133988801
 31
0.0
  0
LINE
  5
396E
330
18
100
AcDbEntity
  8
1
100
AcDbLine
 10
147.5761098140119
 20
2361.828680170773
 30
0.0
 11
147.5761098140119
 21
2648.828680170772
 31
0.0
  0
LINE
  5
396F
330
18
100
AcDbEntity
  8
1
100
AcDbLine
 10
-102.423890185988
 20
2330.428680170781
 30
0.0
 11
-102.423890185988
 21
2591.54213398881
 31
0.0
  0
LINE
  5
3970
330
18
100
AcDbEntity
  8
1
100
AcDbLine
 10
-102.423890185988
 20
2591.54213398881
 30
0.0
 11
-102.423890185988
 21
2330.428680170772
 31
0.0
  0
LINE
  5
3971
330
18
100
AcDbEntity
  8
1
100
AcDbLine
 10
-102.423890185988
 20
2640.828680170772
 30
0.0
 11
-102.423890185988
 21
2330.428680170772
 31
0.0
  0
LINE
  5
3972
330
18
100
AcDbEntity
  8
1
  6
ByBlock
100
AcDbLine
 10
-102.4238901859298
 20
2067.828680170773
 30
0.0
 11
-102.4238901859298
 21
2589.942133988801
 31
0.0
  0
LWPOLYLINE
  5
3973
330
18
100
AcDbEntity
  8
1
370
    18
100
AcDbPolyline
 90
        4
 70
     1
 43
0.0
 10
72.89460824575326
 20
2271.63031153836
 10
192.8946082457532
 20
2271.63031153836
 10
192.8946082457532
 20
2295.63031153836
 10
72.89460824575326
 20
2295.63031153836
  0
LINE
  5
3974
330
18
100
AcDbEntity
  8
1
100
AcDbLine
 10
65.48610981401907
 20
2296.328680170772
 30
0.0
 11
65.48610981401907
 21
2281.328680170772
 31
0.0
  0
LINE
  5
3975
330
18
100
AcDbEntity
  8
1
100
AcDbLine
 10
48.48610981401908
 20
2296.328680170772
 30
0.0
 11
48.48610981401908
 21
2281.328680170772
 31
0.0
  0
ARC
  5
3976
330
18
100
AcDbEntity
  8
1
100
AcDbCircle
 10
45.48610981401907
 20
2288.828680170773
 30
0.0
 40
7.5
100
AcDbArc
 50
90.0
 51
270.0
  0
LINE
  5
3977
330
18
100
AcDbEntity
  8
1
100
AcDbLine
 10
-2.423890185988057
 20
2330.428680170772
 30
0.0
 11
-2.423890185988057
 21
2067.828680170773
 31
0.0
  0
LINE
  5
3978
330
18
100
AcDbEntity
  8
1
100
AcDbLine
 10
50.48610981403363
 20
2087.828680170773
 30
0.0
 11
50.48610981402271
 21
2281.328680170772
 31
0.0
  0
LINE
  5
3979
330
18
100
AcDbEntity
  8
1
100
AcDbLine
 10
64.48610981403362
 20
2073.828680170773
 30
0.0
 11
64.48610981402271
 21
2281.328680170772
 31
0.0
  0
LINE
  5
397A
330
18
100
AcDbEntity
  8
1
100
AcDbLine
 10
30.48610981403362
 20
2067.828680170773
 30
0.0
 11
-135.002418516482
 21
2067.828680170773
 31
0.0
  0
ARC
  5
397B
330
18
100
AcDbEntity
  8
1
100
AcDbCircle
 10
30.48610981403362
 20
2087.828680170772
 30
0.0
 40
20.0
100
AcDbArc
 50
270.0
 51
0.0
  0
LINE
  5
397C
330
18
100
AcDbEntity
  8
1
100
AcDbLine
 10
65.48610981401907
 20
2281.328680170772
 30
0.0
 11
45.48610981401907
 21
2281.328680170772
 31
0.0
  0
ARC
  5
397D
330
18
100
AcDbEntity
  8
1
100
AcDbCircle
 10
45.48610981401907
 20
2288.828680170773
 30
0.0
 40
4.0
100
AcDbArc
 50
41.40962210927894
 51
318.590377890721
  0
CIRCLE
  5
397F
330
18
100
AcDbEntity
  8
1
100
AcDbCircle
 10
243.2030795259616
 20
2263.688390135539
 30
0.0
 40
8.0
  0
LINE
  5
3980
330
18
100
AcDbEntity
  8
1
100
AcDbLine
 10
-383.3238901859385
 20
2465.92308857974
 30
0.0
 11
-383.3238901859385
 21
2449.423088579741
 31
0.0
  0
LINE
  5
3981
330
18
100
AcDbEntity
  8
1
100
AcDbLine
 10
-382.4238901859407
 20
2449.42308857974
 30
0.0
 11
-383.3238901859385
 21
2449.423088579741
 31
0.0
  0
ARC
  5
3982
330
18
100
AcDbEntity
  8
1
100
AcDbCircle
 10
-384.9238901859371
 20
2465.92308857974
 30
0.0
 40
2.500000000000454
100
AcDbArc
 50
0.0
 51
309.7918194995227
  0
CIRCLE
  5
3983
330
18
100
AcDbEntity
  8
1
100
AcDbCircle
 10
-384.9238901859371
 20
2465.92308857974
 30
0.0
 40
1.199999999999999
  0
CIRCLE
  5
3984
330
18
100
AcDbEntity
  8
1
100
AcDbCircle
 10
-384.9238901859371
 20
2465.92308857974
 30
0.0
 40
1.600000000000454
  0
LINE
  5
3985
330
18
100
AcDbEntity
  8
1
100
AcDbLine
 10
-385.5602862890064
 20
2468.822226382605
 30
0.0
 11
-385.1508271067632
 21
2468.41276720036
 31
0.0
  0
LINE
  5
3986
330
18
100
AcDbEntity
  8
1
100
AcDbLine
 10
-382.4238901859371
 20
2471.958622485674
 30
0.0
 11
-382.4238901859407
 21
2449.42308857974
 31
0.0
  0
LINE
  5
3987
330
18
100
AcDbEntity
  8
1
100
AcDbLine
 10
-400.4095286939246
 20
2482.25725522515
 30
0.0
 11
-386.2673930701948
 21
2468.115119601419
 31
0.0
  0
LINE
  5
3988
330
18
100
AcDbEntity
  8
1
100
AcDbLine
 10
64.48610981401907
 20
2296.328680170772
 30
0.0
 11
64.4861098140118
 21
2433.828680170773
 31
0.0
  0
LINE
  5
3989
330
18
100
AcDbEntity
  8
1
100
AcDbLine
 10
50.48610981401907
 20
2296.328680170772
 30
0.0
 11
50.48610981401179
 21
2433.828680170773
 31
0.0
  0
LINE
  5
398A
330
18
100
AcDbEntity
  8
1
100
AcDbLine
 10
-2.423890185988057
 20
2433.828680170773
 30
0.0
 11
-2.423890185988057
 21
2344.918059791425
 31
0.0
  0
LINE
  5
398B
330
18
100
AcDbEntity
  8
1
100
AcDbLine
 10
18.48610981401907
 20
2350.428680170773
 30
0.0
 11
18.48610981401179
 21
2433.828680170773
 31
0.0
  0
LINE
  5
398C
330
18
100
AcDbEntity
  8
1
100
AcDbLine
 10
4.486109814019073
 20
2354.428680170773
 30
0.0
 11
4.486109814011797
 21
2433.828680170773
 31
0.0
  0
LINE
  5
398D
330
18
100
AcDbEntity
  8
1
100
AcDbLine
 10
-5.513890185980926
 20
2344.428680170772
 30
0.0
 11
-9.423890185988057
 21
2344.428680170772
 31
0.0
  0
ARC
  5
398E
330
18
100
AcDbEntity
  8
1
100
AcDbCircle
 10
-5.513890185980926
 20
2354.428680170771
 30
0.0
 40
10.0
100
AcDbArc
 50
270.0
 51
0.0
  0
LINE
  5
398F
330
18
100
AcDbEntity
  8
1
100
AcDbLine
 10
65.48610981401907
 20
2296.328680170772
 30
0.0
 11
45.48610981401907
 21
2296.328680170772
 31
0.0
  0
ARC
  5
3990
330
18
100
AcDbEntity
  8
1
100
AcDbCircle
 10
-1.513890185980926
 20
2350.428680170771
 30
0.0
 40
20.0
100
AcDbArc
 50
270.0
 51
0.0
  0
ARC
  5
3991
330
18
100
AcDbEntity
  8
1
100
AcDbCircle
 10
-9.423890185988057
 20
2337.428680170772
 30
0.0
 40
7.0
100
AcDbArc
 50
90.0
 51
270.0
  0
CIRCLE
  5
3992
330
18
100
AcDbEntity
  8
1
100
AcDbCircle
 10
-82.42389018592986
 20
2375.828680170763
 30
0.0
 40
3.5
  0
CIRCLE
  5
3993
330
18
100
AcDbEntity
  8
1
100
AcDbCircle
 10
-82.42389018592986
 20
2375.828680170763
 30
0.0
 40
3.5
  0
CIRCLE
  5
3994
330
18
100
AcDbEntity
  8
1
100
AcDbCircle
 10
-82.42389018592986
 20
2375.828680170763
 30
0.0
 40
3.5
  0
CIRCLE
  5
3995
330
18
100
AcDbEntity
  8
1
100
AcDbCircle
 10
-82.42389018592986
 20
2375.828680170763
 30
0.0
 40
3.5
  0
CIRCLE
  5
3996
330
18
100
AcDbEntity
  8
1
100
AcDbCircle
 10
-82.42389018592986
 20
2375.828680170763
 30
0.0
 40
3.5
  0
CIRCLE
  5
3997
330
18
100
AcDbEntity
  8
1
100
AcDbCircle
 10
-82.42389018598805
 20
2377.428680170772
 30
0.0
 40
3.5
  0
CIRCLE
  5
3998
330
18
100
AcDbEntity
  8
1
100
AcDbCircle
 10
-82.42389018598805
 20
2377.428680170772
 30
0.0
 40
3.5
  0
CIRCLE
  5
3999
330
18
100
AcDbEntity
  8
1
100
AcDbCircle
 10
-82.42389018598805
 20
2377.428680170772
 30
0.0
 40
3.0
  0
CIRCLE
  5
399A
330
18
100
AcDbEntity
  8
1
100
AcDbCircle
 10
-82.42389018598805
 20
2377.428680170772
 30
0.0
 40
3.5
  0
LINE
  5
399B
330
18
100
AcDbEntity
  8
1
  6
ByBlock
100
AcDbLine
 10
-102.4238901859298
 20
2327.828680170763
 30
0.0
 11
-82.42389018592986
 21
2327.828680170763
 31
0.0
  0
LINE
  5
399C
330
18
100
AcDbEntity
  8
1
  6
ByBlock
100
AcDbLine
 10
-101.4238901859298
 20
2326.828680170763
 30
0.0
 11
-82.42389018592986
 21
2326.828680170763
 31
0.0
  0
LINE
  5
399D
330
18
100
AcDbEntity
  8
1
  6
ByBlock
100
AcDbLine
 10
-102.4238901859298
 20
2307.828680170763
 30
0.0
 11
-101.4238901859298
 21
2307.828680170763
 31
0.0
  0
LINE
  5
399E
330
18
100
AcDbEntity
  8
1
  6
ByBlock
100
AcDbLine
 10
-101.4238901859298
 20
2307.828680170763
 30
0.0
 11
-101.4238901859298
 21
2326.828680170763
 31
0.0
  0
LINE
  5
399F
330
18
100
AcDbEntity
  8
1
100
AcDbLine
 10
-2.423890185988057
 20
2330.428680170772
 30
0.0
 11
-102.423890185988
 21
2330.428680170772
 31
0.0
  0
LWPOLYLINE
  5
39A1
330
18
100
AcDbEntity
  8
1
370
    18
100
AcDbPolyline
 90
        4
 70
     1
 43
0.0
 10
72.81284530196171
 20
2328.758742588083
 10
202.8128453019617
 20
2328.758742588083
 10
202.8128453019617
 20
2352.758742588083
 10
72.81284530196171
 20
2352.758742588083
  0
LINE
  5
39A3
330
18
100
AcDbEntity
  8
1
100
AcDbLine
 10
74.4861098140118
 20
2440.828680170772
 30
0.0
 11
-5.513890185988202
 21
2440.828680170772
 31
0.0
  0
LINE
  5
39A4
330
18
100
AcDbEntity
  8
1
100
AcDbLine
 10
-5.513890185988202
 20
2455.828680170772
 30
0.0
 11
74.4861098140118
 21
2455.828680170772
 31
0.0
  0
LINE
  5
39A5
330
18
100
AcDbEntity
  8
1
100
AcDbLine
 10
38.9861098140118
 20
2433.828680170773
 30
0.0
 11
75.98610981401179
 21
2433.828680170773
 31
0.0
  0
LINE
  5
39A6
330
18
100
AcDbEntity
  8
1
100
AcDbLine
 10
38.9861098140118
 20
2436.828680170773
 30
0.0
 11
75.98610981401179
 21
2436.828680170773
 31
0.0
  0
LINE
  5
39A7
330
18
100
AcDbEntity
  8
1
100
AcDbLine
 10
40.48610981401179
 20
2440.828680170772
 30
0.0
 11
74.4861098140118
 21
2440.828680170772
 31
0.0
  0
LINE
  5
39A8
330
18
100
AcDbEntity
  8
1
100
AcDbLine
 10
66.4861098140118
 20
2468.828680170773
 30
0.0
 11
72.4861098140118
 21
2468.828680170773
 31
0.0
  0
ARC
  5
39A9
330
18
100
AcDbEntity
  8
1
100
AcDbCircle
 10
47.48610981401543
 20
2526.828680170773
 30
0.0
 40
2.0
100
AcDbArc
 50
0.0
 51
90.0
  0
ARC
  5
39AA
330
18
100
AcDbEntity
  8
1
100
AcDbCircle
 10
21.4861098140118
 20
2526.828680170773
 30
0.0
 40
2.0
100
AcDbArc
 50
90.0
 51
180.0
  0
CIRCLE
  5
39AB
330
18
100
AcDbEntity
  8
1
100
AcDbCircle
 10
34.48610981401179
 20
2518.828680170773
 30
0.0
 40
8.0
  0
LINE
  5
39AC
330
18
100
AcDbEntity
  8
1
100
AcDbLine
 10
21.4861098140118
 20
2528.828680170772
 30
0.0
 11
47.48610981401543
 21
2528.828680170772
 31
0.0
  0
LINE
  5
39AD
330
18
100
AcDbEntity
  8
1
100
AcDbLine
 10
11.48610981401179
 20
2428.828680170772
 30
0.0
 11
11.48610981401179
 21
2445.828680170773
 31
0.0
  0
LINE
  5
39AE
330
18
100
AcDbEntity
  8
1
100
AcDbLine
 10
40.48610981401179
 20
2455.828680170772
 30
0.0
 11
40.48610981401179
 21
2440.828680170772
 31
0.0
  0
LINE
  5
39AF
330
18
100
AcDbEntity
  8
1
100
AcDbLine
 10
38.9861098140118
 20
2436.828680170773
 30
0.0
 11
38.9861098140118
 21
2433.828680170773
 31
0.0
  0
LINE
  5
39B0
330
18
100
AcDbEntity
  8
1
100
AcDbLine
 10
41.9861098140118
 20
2440.828680170772
 30
0.0
 11
41.9861098140118
 21
2436.828680170773
 31
0.0
  0
LINE
  5
39B1
330
18
100
AcDbEntity
  8
1
100
AcDbLine
 10
57.4861098140118
 20
2428.828680170772
 30
0.0
 11
57.4861098140118
 21
2445.828680170773
 31
0.0
  0
LINE
  5
39B2
330
18
100
AcDbEntity
  8
1
  6
4-中心線
100
AcDbLine
 10
34.57610981401194
 20
2443.828680170772
 30
0.0
 11
34.57610981401194
 21
2453.828680170772
 31
0.0
  0
CIRCLE
  5
39B3
330
18
100
AcDbEntity
  8
1
100
AcDbCircle
 10
34.57610981401194
 20
2448.828680170772
 30
0.0
 40
2.1
  0
LINE
  5
39B4
330
18
100
AcDbEntity
  8
1
100
AcDbLine
 10
28.48610981401179
 20
2455.828680170772
 30
0.0
 11
28.48610981401179
 21
2440.828680170772
 31
0.0
  0
LINE
  5
39B5
330
18
100
AcDbEntity
  8
1
100
AcDbLine
 10
26.98610981401543
 20
2440.828680170772
 30
0.0
 11
26.98610981401543
 21
2436.828680170773
 31
0.0
  0
LINE
  5
39B6
330
18
100
AcDbEntity
  8
1
100
AcDbLine
 10
29.98610981401543
 20
2436.828680170773
 30
0.0
 11
29.9861098140118
 21
2433.828680170773
 31
0.0
  0
CIRCLE
  5
39B7
330
18
100
AcDbEntity
  8
1
100
AcDbCircle
 10
34.57610981401194
 20
2448.828680170772
 30
0.0
 40
3.0
  0
LINE
  5
39B8
330
18
100
AcDbEntity
  8
1
  6
4-中心線
100
AcDbLine
 10
39.57610981401558
 20
2448.828680170772
 30
0.0
 11
29.57610981401558
 21
2448.828680170772
 31
0.0
  0
CIRCLE
  5
39B9
330
18
100
AcDbEntity
  8
1
100
AcDbCircle
 10
34.57610981401194
 20
2448.828680170772
 30
0.0
 40
2.5
  0
LINE
  5
39BA
330
18
100
AcDbEntity
  8
1
100
AcDbLine
 10
11.48610981401179
 20
2478.828680170773
 30
0.0
 11
57.4861098140118
 21
2478.828680170773
 31
0.0
  0
CIRCLE
  5
39BB
330
18
100
AcDbEntity
  8
1
100
AcDbCircle
 10
66.4861098140118
 20
2463.828680170772
 30
0.0
 40
3.0
  0
LINE
  5
39BC
330
18
100
AcDbEntity
  8
1
100
AcDbLine
 10
66.4861098140118
 20
2470.828680170773
 30
0.0
 11
70.48610981401179
 21
2470.828680170773
 31
0.0
  0
ARC
  5
39BD
330
18
100
AcDbEntity
  8
1
100
AcDbCircle
 10
47.4861098140118
 20
2490.828680170773
 30
0.0
 40
2.0
100
AcDbArc
 50
270.0
 51
0.0
  0
ARC
  5
39BE
330
18
100
AcDbEntity
  8
1
100
AcDbCircle
 10
21.4861098140118
 20
2490.828680170773
 30
0.0
 40
2.0
100
AcDbArc
 50
180.0
 51
270.0
  0
LINE
  5
39BF
330
18
100
AcDbEntity
  8
1
100
AcDbLine
 10
21.4861098140118
 20
2488.828680170772
 30
0.0
 11
47.4861098140118
 21
2488.828680170772
 31
0.0
  0
LINE
  5
39C0
330
18
100
AcDbEntity
  8
1
100
AcDbLine
 10
59.4861098140118
 20
2459.828680170772
 30
0.0
 11
59.4861098140118
 21
2463.828680170772
 31
0.0
  0
LINE
  5
39C1
330
18
100
AcDbEntity
  8
1
100
AcDbLine
 10
61.50513632355615
 20
2457.828680170772
 30
0.0
 11
61.4861098140118
 21
2463.828680170772
 31
0.0
  0
ARC
  5
39C2
330
18
100
AcDbEntity
  8
1
100
AcDbCircle
 10
57.4861098140118
 20
2480.828680170772
 30
0.0
 40
2.0
100
AcDbArc
 50
270.0
 51
0.0
  0
ARC
  5
39C3
330
18
100
AcDbEntity
  8
1
100
AcDbCircle
 10
66.4861098140118
 20
2463.828680170772
 30
0.0
 40
5.0
100
AcDbArc
 50
90.0
 51
180.0
  0
ARC
  5
39C4
330
18
100
AcDbEntity
  8
1
100
AcDbCircle
 10
66.4861098140118
 20
2463.828680170772
 30
0.0
 40
7.0
100
AcDbArc
 50
90.0
 51
180.0
  0
LINE
  5
39C5
330
18
100
AcDbEntity
  8
1
100
AcDbLine
 10
-5.513890185988202
 20
2455.828680170772
 30
0.0
 11
-5.513890185988202
 21
2440.828680170772
 31
0.0
  0
LINE
  5
39C6
330
18
100
AcDbEntity
  8
1
100
AcDbLine
 10
-7.013890185984564
 20
2436.828680170773
 30
0.0
 11
-7.013890185988202
 21
2433.828680170773
 31
0.0
  0
LINE
  5
39C7
330
18
100
AcDbEntity
  8
1
100
AcDbLine
 10
-4.013890185988202
 20
2440.828680170772
 30
0.0
 11
-4.013890185988202
 21
2436.828680170773
 31
0.0
  0
LINE
  5
39C8
330
18
100
AcDbEntity
  8
1
100
AcDbLine
 10
9.486109814011797
 20
2459.828680170772
 30
0.0
 11
9.486109814011797
 21
2463.828680170772
 31
0.0
  0
LINE
  5
39C9
330
18
100
AcDbEntity
  8
1
100
AcDbLine
 10
7.486109814011797
 20
2457.828680170772
 30
0.0
 11
7.486109814011797
 21
2463.828680170772
 31
0.0
  0
LINE
  5
39CA
330
18
100
AcDbEntity
  8
1
100
AcDbLine
 10
-3.513890185988202
 20
2468.828680170773
 30
0.0
 11
2.486109814011797
 21
2468.828680170773
 31
0.0
  0
LINE
  5
39CB
330
18
100
AcDbEntity
  8
1
100
AcDbLine
 10
-1.513890185988202
 20
2470.828680170773
 30
0.0
 11
2.486109814011797
 21
2470.828680170773
 31
0.0
  0
CIRCLE
  5
39CC
330
18
100
AcDbEntity
  8
1
100
AcDbCircle
 10
2.486109814011797
 20
2463.828680170772
 30
0.0
 40
3.0
  0
ARC
  5
39CD
330
18
100
AcDbEntity
  8
1
100
AcDbCircle
 10
2.486109814011797
 20
2463.828680170772
 30
0.0
 40
5.0
100
AcDbArc
 50
0.0
 51
90.0
  0
LINE
  5
39CE
330
18
100
AcDbEntity
  8
1
100
AcDbLine
 10
-7.013890185988202
 20
2433.828680170773
 30
0.0
 11
29.9861098140118
 21
2433.828680170773
 31
0.0
  0
LINE
  5
39CF
330
18
100
AcDbEntity
  8
1
100
AcDbLine
 10
-7.013890185984564
 20
2436.828680170773
 30
0.0
 11
29.9861098140118
 21
2436.828680170773
 31
0.0
  0
LINE
  5
39D0
330
18
100
AcDbEntity
  8
1
100
AcDbLine
 10
-5.513890185988202
 20
2440.828680170772
 30
0.0
 11
28.48610981401179
 21
2440.828680170772
 31
0.0
  0
LINE
  5
39D1
330
18
100
AcDbEntity
  8
1
100
AcDbLine
 10
9.486109814011797
 20
2459.828680170772
 30
0.0
 11
59.4861098140118
 21
2459.828680170772
 31
0.0
  0
LINE
  5
39D2
330
18
100
AcDbEntity
  8
1
100
AcDbLine
 10
7.486109814011797
 20
2457.828680170772
 30
0.0
 11
61.50513632355615
 21
2457.828680170772
 31
0.0
  0
ARC
  5
39D3
330
18
100
AcDbEntity
  8
1
100
AcDbCircle
 10
11.48610981401179
 20
2480.828680170772
 30
0.0
 40
2.0
100
AcDbArc
 50
180.0
 51
270.0
  0
ARC
  5
39D4
330
18
100
AcDbEntity
  8
1
100
AcDbCircle
 10
2.486109814011797
 20
2463.828680170772
 30
0.0
 40
7.0
100
AcDbArc
 50
0.0
 51
90.0
  0
LINE
  5
39D5
330
18
100
AcDbEntity
  8
1
100
AcDbLine
 10
49.4861098140118
 20
2490.828680170773
 30
0.0
 11
49.48610981401543
 21
2526.828680170773
 31
0.0
  0
LINE
  5
39D6
330
18
100
AcDbEntity
  8
1
100
AcDbLine
 10
19.48610981401179
 20
2490.828680170773
 30
0.0
 11
19.48610981401179
 21
2526.828680170773
 31
0.0
  0
CIRCLE
  5
39D7
330
18
100
AcDbEntity
  8
1
100
AcDbCircle
 10
34.48610981401179
 20
2498.828680170772
 30
0.0
 40
8.0
  0
CIRCLE
  5
39D8
330
18
100
AcDbEntity
  8
1
100
AcDbCircle
 10
-82.42389018592986
 20
2440.828680170763
 30
0.0
 40
3.5
  0
CIRCLE
  5
39D9
330
18
100
AcDbEntity
  8
1
100
AcDbCircle
 10
-82.42389018592986
 20
2440.828680170763
 30
0.0
 40
3.5
  0
CIRCLE
  5
39DA
330
18
100
AcDbEntity
  8
1
100
AcDbCircle
 10
-82.42389018592986
 20
2440.828680170763
 30
0.0
 40
3.5
  0
CIRCLE
  5
39DB
330
18
100
AcDbEntity
  8
1
100
AcDbCircle
 10
-82.42389018592986
 20
2440.828680170763
 30
0.0
 40
3.5
  0
CIRCLE
  5
39DC
330
18
100
AcDbEntity
  8
1
100
AcDbCircle
 10
-82.42389018592986
 20
2440.828680170763
 30
0.0
 40
3.5
  0
CIRCLE
  5
39DD
330
18
100
AcDbEntity
  8
1
100
AcDbCircle
 10
-82.42389018598805
 20
2442.428680170772
 30
0.0
 40
3.5
  0
CIRCLE
  5
39DE
330
18
100
AcDbEntity
  8
1
100
AcDbCircle
 10
-82.42389018598805
 20
2442.428680170772
 30
0.0
 40
3.5
  0
CIRCLE
  5
39DF
330
18
100
AcDbEntity
  8
1
100
AcDbCircle
 10
-82.42389018598805
 20
2442.428680170772
 30
0.0
 40
3.0
  0
CIRCLE
  5
39E0
330
18
100
AcDbEntity
  8
1
100
AcDbCircle
 10
-82.42389018598805
 20
2442.428680170772
 30
0.0
 40
3.5
  0
CIRCLE
  5
39E1
330
18
100
AcDbEntity
  8
1
100
AcDbCircle
 10
-82.42389018592986
 20
2505.828680170763
 30
0.0
 40
3.5
  0
CIRCLE
  5
39E2
330
18
100
AcDbEntity
  8
1
100
AcDbCircle
 10
-82.42389018592986
 20
2505.828680170763
 30
0.0
 40
3.5
  0
CIRCLE
  5
39E3
330
18
100
AcDbEntity
  8
1
100
AcDbCircle
 10
-82.42389018592986
 20
2505.828680170763
 30
0.0
 40
3.5
  0
CIRCLE
  5
39E4
330
18
100
AcDbEntity
  8
1
100
AcDbCircle
 10
-82.42389018592986
 20
2505.828680170763
 30
0.0
 40
3.5
  0
CIRCLE
  5
39E5
330
18
100
AcDbEntity
  8
1
100
AcDbCircle
 10
-82.42389018592986
 20
2505.828680170763
 30
0.0
 40
3.5
  0
CIRCLE
  5
39E6
330
18
100
AcDbEntity
  8
1
100
AcDbCircle
 10
-82.42389018598805
 20
2507.428680170772
 30
0.0
 40
3.5
  0
CIRCLE
  5
39E7
330
18
100
AcDbEntity
  8
1
100
AcDbCircle
 10
-82.42389018598805
 20
2507.428680170772
 30
0.0
 40
3.5
  0
CIRCLE
  5
39E8
330
18
100
AcDbEntity
  8
1
100
AcDbCircle
 10
-82.42389018598805
 20
2507.428680170772
 30
0.0
 40
3.0
  0
CIRCLE
  5
39E9
330
18
100
AcDbEntity
  8
1
100
AcDbCircle
 10
-82.42389018598805
 20
2507.428680170772
 30
0.0
 40
3.5
  0
LINE
  5
39EA
330
18
100
AcDbEntity
  8
1
100
AcDbLine
 10
74.4861098140118
 20
2455.828680170772
 30
0.0
 11
74.4861098140118
 21
2440.828680170772
 31
0.0
  0
LINE
  5
39EB
330
18
100
AcDbEntity
  8
1
100
AcDbLine
 10
75.98610981401179
 20
2436.828680170773
 30
0.0
 11
75.98610981401179
 21
2433.828680170773
 31
0.0
  0
LINE
  5
39EC
330
18
100
AcDbEntity
  8
1
100
AcDbLine
 10
72.98610981401544
 20
2440.828680170772
 30
0.0
 11
72.98610981401179
 21
2436.828680170773
 31
0.0
  0
LEADER
  5
39ED
330
18
100
AcDbEntity
  8
2
100
AcDbLeader
  3
STANDARD
 76
     3
 10
-5.553688526642872
 20
2567.703983038436
 30
0.0
 10
-212.597164528257
 20
3011.710150170256
 30
0.0
 10
-692.8314739976904
 20
3011.710150170256
 30
0.0
1001
ACAD
1000
DSTYLE
1002
{
1070
    40
1040
1.0
1070
    77
1070
     0
1070
   147
1040
1.0
1002
}
  0
LINE
  5
39EE
330
18
100
AcDbEntity
  8
1
100
AcDbLine
 10
84.11457135247292
 20
2758.828680170772
 30
0.0
 11
-2.423890185988057
 21
2908.828680170772
 31
0.0
  0
LINE
  5
39EF
330
18
100
AcDbEntity
  8
1
100
AcDbLine
 10
8.776109814041774
 20
2750.428110370265
 30
0.0
 11
8.776109814041774
 21
2873.352639508638
 31
0.0
  0
LINE
  5
39F0
330
18
100
AcDbEntity
  8
1
100
AcDbLine
 10
-92.72471648934333
 20
2619.94213935508
 30
0.0
 11
-222.7247164893251
 21
2619.942067429751
 31
0.0
  0
LINE
  5
39F1
330
18
100
AcDbEntity
  8
1
100
AcDbLine
 10
-92.72471648934333
 20
2639.94213935508
 30
0.0
 11
-242.7247164893251
 21
2639.942067429751
 31
0.0
  0
LINE
  5
39F2
330
18
100
AcDbEntity
  8
1
100
AcDbLine
 10
-242.7247029269619
 20
2611.657809744655
 30
0.0
 11
-242.7247164893251
 21
2639.942067429751
 31
0.0
  0
LINE
  5
39F3
330
18
100
AcDbEntity
  8
1
100
AcDbLine
 10
-242.7247164893251
 20
2639.942067429751
 30
0.0
 11
-222.7247164893251
 21
2619.942067429751
 31
0.0
  0
LINE
  5
39F4
330
18
100
AcDbEntity
  8
1
100
AcDbLine
 10
77.57610981401194
 20
2668.828680170773
 30
0.0
 11
77.57610981401194
 21
2648.828680170772
 31
0.0
  0
LINE
  5
39F5
330
18
100
AcDbEntity
  8
1
100
AcDbLine
 10
8.776109814041774
 20
2750.615346837419
 30
0.0
 11
147.5761098140119
 21
2648.828680170772
 31
0.0
  0
LINE
  5
39F6
330
18
100
AcDbEntity
  8
1
100
AcDbLine
 10
-3.513890185988202
 20
2596.828680170772
 30
0.0
 11
72.4861098140118
 21
2596.828680170772
 31
0.0
  0
LINE
  5
39F7
330
18
100
AcDbEntity
  8
1
100
AcDbLine
 10
-5.513890185988202
 20
2581.828680170772
 30
0.0
 11
74.4861098140118
 21
2581.828680170772
 31
0.0
  0
LINE
  5
39F8
330
18
100
AcDbEntity
  8
1
100
AcDbLine
 10
66.4861098140118
 20
2568.828680170772
 30
0.0
 11
72.48610981401544
 21
2568.828680170772
 31
0.0
  0
CIRCLE
  5
39F9
330
18
100
AcDbEntity
  8
1
100
AcDbCircle
 10
22.57610981401194
 20
2623.828680170772
 30
0.0
 40
10.0
  0
LINE
  5
39FA
330
18
100
AcDbEntity
  8
1
100
AcDbLine
 10
15.98610981401179
 20
2603.828680170773
 30
0.0
 11
52.98610981401179
 21
2603.828680170773
 31
0.0
  0
LINE
  5
39FB
330
18
100
AcDbEntity
  8
1
100
AcDbLine
 10
15.98610981401543
 20
2600.828680170772
 30
0.0
 11
52.98610981401179
 21
2600.828680170772
 31
0.0
  0
LINE
  5
39FC
330
18
100
AcDbEntity
  8
1
100
AcDbLine
 10
15.98610981401543
 20
2600.828680170772
 30
0.0
 11
15.98610981401179
 21
2603.828680170773
 31
0.0
  0
LINE
  5
39FD
330
18
100
AcDbEntity
  8
1
100
AcDbLine
 10
49.98610981401544
 20
2596.828680170772
 30
0.0
 11
49.98610981401544
 21
2600.828680170772
 31
0.0
  0
LINE
  5
39FE
330
18
100
AcDbEntity
  8
1
100
AcDbLine
 10
52.98610981401544
 20
2600.828680170772
 30
0.0
 11
52.98610981401179
 21
2603.828680170773
 31
0.0
  0
LINE
  5
39FF
330
18
100
AcDbEntity
  8
1
100
AcDbLine
 10
18.98610981401179
 20
2596.828680170772
 30
0.0
 11
18.98610981401179
 21
2600.828680170772
 31
0.0
  0
LINE
  5
3A00
330
18
100
AcDbEntity
  8
1
100
AcDbLine
 10
-2.423890185988057
 20
2648.828680170772
 30
0.0
 11
-2.423890185988057
 21
2596.828680170772
 31
0.0
  0
ARC
  5
3A01
330
18
100
AcDbEntity
  8
1
100
AcDbCircle
 10
-3.513890185988202
 20
2594.828680170772
 30
0.0
 40
2.0
100
AcDbArc
 50
90.0
 51
180.0
  0
LINE
  5
3A02
330
18
100
AcDbEntity
  8
1
100
AcDbLine
 10
11.48610981401179
 20
2538.828680170773
 30
0.0
 11
57.4861098140118
 21
2538.828680170773
 31
0.0
  0
ARC
  5
3A03
330
18
100
AcDbEntity
  8
1
100
AcDbCircle
 10
15.48610981401179
 20
2583.828680170773
 30
0.0
 40
2.0
100
AcDbArc
 50
270.0
 51
0.0
  0
ARC
  5
3A04
330
18
100
AcDbEntity
  8
1
100
AcDbCircle
 10
53.48610981401179
 20
2583.828680170773
 30
0.0
 40
2.0
100
AcDbArc
 50
180.0
 51
270.0
  0
CIRCLE
  5
3A05
330
18
100
AcDbEntity
  8
1
100
AcDbCircle
 10
59.57610981401194
 20
2588.828680170772
 30
0.0
 40
3.0
  0
CIRCLE
  5
3A06
330
18
100
AcDbEntity
  8
1
100
AcDbCircle
 10
59.57610981401194
 20
2588.828680170772
 30
0.0
 40
2.5
  0
LINE
  5
3A07
330
18
100
AcDbEntity
  8
1
  6
4-中心線
100
AcDbLine
 10
64.57610981401194
 20
2588.828680170772
 30
0.0
 11
54.57610981401194
 21
2588.828680170772
 31
0.0
  0
CIRCLE
  5
3A08
330
18
100
AcDbEntity
  8
1
100
AcDbCircle
 10
59.57610981401194
 20
2588.828680170772
 30
0.0
 40
2.1
  0
CIRCLE
  5
3A09
330
18
100
AcDbEntity
  8
1
100
AcDbCircle
 10
66.4861098140118
 20
2573.828680170772
 30
0.0
 40
3.0
  0
LINE
  5
3A0A
330
18
100
AcDbEntity
  8
1
100
AcDbLine
 10
66.4861098140118
 20
2566.828680170772
 30
0.0
 11
70.48610981401179
 21
2566.828680170772
 31
0.0
  0
ARC
  5
3A0B
330
18
100
AcDbEntity
  8
1
100
AcDbCircle
 10
66.4861098140118
 20
2573.828680170772
 30
0.0
 40
5.0
100
AcDbArc
 50
180.0
 51
270.0
  0
ARC
  5
3A0C
330
18
100
AcDbEntity
  8
1
100
AcDbCircle
 10
66.4861098140118
 20
2573.828680170772
 30
0.0
 40
7.0
100
AcDbArc
 50
180.0
 51
270.0
  0
ARC
  5
3A0D
330
18
100
AcDbEntity
  8
1
100
AcDbCircle
 10
57.4861098140118
 20
2536.828680170772
 30
0.0
 40
2.0
100
AcDbArc
 50
0.0
 51
90.0
  0
LINE
  5
3A0E
330
18
100
AcDbEntity
  8
1
100
AcDbLine
 10
61.50513632355615
 20
2573.828680170772
 30
0.0
 11
61.50513632355615
 21
2579.828680170773
 31
0.0
  0
LINE
  5
3A0F
330
18
100
AcDbEntity
  8
1
100
AcDbLine
 10
59.48610981401543
 20
2573.828680170772
 30
0.0
 11
59.4861098140118
 21
2577.828680170773
 31
0.0
  0
LINE
  5
3A10
330
18
100
AcDbEntity
  8
1
100
AcDbLine
 10
-3.513890185988202
 20
2568.828680170772
 30
0.0
 11
2.486109814011797
 21
2568.828680170772
 31
0.0
  0
LINE
  5
3A11
330
18
100
AcDbEntity
  8
1
100
AcDbLine
 10
-1.513890185984564
 20
2566.828680170772
 30
0.0
 11
2.486109814011797
 21
2566.828680170772
 31
0.0
  0
CIRCLE
  5
3A12
330
18
100
AcDbEntity
  8
1
100
AcDbCircle
 10
2.486109814011797
 20
2573.828680170772
 30
0.0
 40
3.0
  0
ARC
  5
3A13
330
18
100
AcDbEntity
  8
1
100
AcDbCircle
 10
2.486109814011797
 20
2573.828680170772
 30
0.0
 40
5.0
100
AcDbArc
 50
270.0
 51
0.0
  0
LINE
  5
3A14
330
18
100
AcDbEntity
  8
1
100
AcDbLine
 10
9.486109814011797
 20
2573.828680170772
 30
0.0
 11
9.486109814011797
 21
2577.828680170773
 31
0.0
  0
LINE
  5
3A15
330
18
100
AcDbEntity
  8
1
100
AcDbLine
 10
7.486109814011797
 20
2573.828680170772
 30
0.0
 11
7.486109814011797
 21
2579.828680170773
 31
0.0
  0
LINE
  5
3A16
330
18
100
AcDbEntity
  8
1
100
AcDbLine
 10
9.486109814011797
 20
2577.828680170773
 30
0.0
 11
59.4861098140118
 21
2577.828680170773
 31
0.0
  0
LINE
  5
3A17
330
18
100
AcDbEntity
  8
1
100
AcDbLine
 10
7.486109814011797
 20
2579.828680170773
 30
0.0
 11
61.50513632355615
 21
2579.828680170773
 31
0.0
  0
LINE
  5
3A18
330
18
100
AcDbEntity
  8
1
  6
4-中心線
100
AcDbLine
 10
14.57610981401194
 20
2588.828680170772
 30
0.0
 11
4.576109814011942
 21
2588.828680170772
 31
0.0
  0
CIRCLE
  5
3A19
330
18
100
AcDbEntity
  8
1
100
AcDbCircle
 10
9.486109814011797
 20
2588.828680170772
 30
0.0
 40
3.0
  0
CIRCLE
  5
3A1A
330
18
100
AcDbEntity
  8
1
100
AcDbCircle
 10
9.576109814011942
 20
2588.828680170772
 30
0.0
 40
2.5
  0
CIRCLE
  5
3A1B
330
18
100
AcDbEntity
  8
1
100
AcDbCircle
 10
9.576109814011942
 20
2588.828680170772
 30
0.0
 40
2.1
  0
ARC
  5
3A1C
330
18
100
AcDbEntity
  8
1
100
AcDbCircle
 10
11.48610981401179
 20
2536.828680170772
 30
0.0
 40
2.0
100
AcDbArc
 50
90.0
 51
180.0
  0
ARC
  5
3A1D
330
18
100
AcDbEntity
  8
1
100
AcDbCircle
 10
2.486109814011797
 20
2573.828680170772
 30
0.0
 40
7.0
100
AcDbArc
 50
270.0
 51
0.0
  0
LINE
  5
3A1E
330
18
100
AcDbEntity
  8
1
100
AcDbLine
 10
17.48610981401179
 20
2583.828680170773
 30
0.0
 11
17.48610981401179
 21
2596.828680170772
 31
0.0
  0
LINE
  5
3A1F
330
18
100
AcDbEntity
  8
1
  6
4-中心線
100
AcDbLine
 10
9.576109814011942
 20
2583.828680170773
 30
0.0
 11
9.576109814011942
 21
2593.828680170773
 31
0.0
  0
LINE
  5
3A20
330
18
100
AcDbEntity
  8
1
100
AcDbLine
 10
51.4861098140118
 20
2583.828680170773
 30
0.0
 11
51.4861098140118
 21
2596.828680170772
 31
0.0
  0
LINE
  5
3A21
330
18
100
AcDbEntity
  8
1
  6
4-中心線
100
AcDbLine
 10
59.57610981401194
 20
2583.828680170773
 30
0.0
 11
59.57610981401194
 21
2593.828680170773
 31
0.0
  0
LINE
  5
3A22
330
18
100
AcDbEntity
  8
1
100
AcDbLine
 10
-92.72471648934333
 20
2639.942139355085
 30
0.0
 11
-92.72471648934333
 21
2619.942139355086
 31
0.0
  0
CIRCLE
  5
3A23
330
18
100
AcDbEntity
  8
1
100
AcDbCircle
 10
-82.42389018592986
 20
2570.828680170763
 30
0.0
 40
3.5
  0
CIRCLE
  5
3A24
330
18
100
AcDbEntity
  8
1
100
AcDbCircle
 10
-82.42389018592986
 20
2570.828680170763
 30
0.0
 40
3.5
  0
CIRCLE
  5
3A25
330
18
100
AcDbEntity
  8
1
100
AcDbCircle
 10
-82.42389018592986
 20
2570.828680170763
 30
0.0
 40
3.5
  0
CIRCLE
  5
3A26
330
18
100
AcDbEntity
  8
1
100
AcDbCircle
 10
-82.42389018592986
 20
2570.828680170763
 30
0.0
 40
3.5
  0
CIRCLE
  5
3A27
330
18
100
AcDbEntity
  8
1
100
AcDbCircle
 10
-82.42389018592986
 20
2570.828680170763
 30
0.0
 40
3.5
  0
CIRCLE
  5
3A28
330
18
100
AcDbEntity
  8
1
100
AcDbCircle
 10
-82.42389018598805
 20
2572.428680170772
 30
0.0
 40
3.5
  0
CIRCLE
  5
3A29
330
18
100
AcDbEntity
  8
1
100
AcDbCircle
 10
-82.42389018598805
 20
2572.428680170772
 30
0.0
 40
3.5
  0
CIRCLE
  5
3A2A
330
18
100
AcDbEntity
  8
1
100
AcDbCircle
 10
-82.42389018598805
 20
2572.428680170772
 30
0.0
 40
3.0
  0
CIRCLE
  5
3A2B
330
18
100
AcDbEntity
  8
1
100
AcDbCircle
 10
-82.42389018598805
 20
2572.428680170772
 30
0.0
 40
3.5
  0
LINE
  5
3A2C
330
18
100
AcDbEntity
  8
1
100
AcDbLine
 10
-2.423890185929849
 20
2640.828680170772
 30
0.0
 11
-92.7247164893397
 21
2640.828680170772
 31
0.0
  0
LINE
  5
3A2D
330
18
100
AcDbEntity
  8
1
100
AcDbLine
 10
-2.423890185988057
 20
2640.828680170772
 30
0.0
 11
-102.423890185988
 21
2640.828680170772
 31
0.0
  0
ARC
  5
3A2E
330
18
100
AcDbEntity
  8
1
100
AcDbCircle
 10
72.4861098140118
 20
2594.828680170772
 30
0.0
 40
2.0
100
AcDbArc
 50
0.0
 51
90.0
  0
LINE
  5
3A2F
330
18
100
AcDbEntity
  8
1
100
AcDbLine
 10
8.776109814041774
 20
2750.428110370265
 30
0.0
 11
7.776109814041774
 21
2748.696059562697
 31
0.0
  0
LINE
  5
3A30
330
18
100
AcDbEntity
  8
1
100
AcDbLine
 10
-11.22389018595822
 20
2763.254693694245
 30
0.0
 11
8.776109814041774
 21
2750.428110370265
 31
0.0
  0
LINE
  5
3A31
330
18
100
AcDbEntity
  8
1
100
AcDbLine
 10
-9.223890185958225
 20
2759.790592079107
 30
0.0
 11
7.776109814041774
 21
2748.696059562697
 31
0.0
  0
LINE
  5
3A32
330
18
100
AcDbEntity
  8
1
100
AcDbLine
 10
-11.22389018595822
 20
2724.788546962281
 30
0.0
 11
-12.42389018595895
 21
2724.788546962281
 31
0.0
  0
LINE
  5
3A33
330
18
100
AcDbEntity
  8
1
100
AcDbLine
 10
-9.223890185958225
 20
2729.964927864333
 30
0.0
 11
-11.22389018595822
 21
2729.964927864333
 31
0.0
  0
LINE
  5
3A34
330
18
100
AcDbEntity
  8
1
100
AcDbLine
 10
-9.223890185958225
 20
2729.964927864333
 30
0.0
 11
-9.223890185958225
 21
2759.790592079106
 31
0.0
  0
LINE
  5
3A35
330
18
100
AcDbEntity
  8
1
100
AcDbLine
 10
120.303382541284
 20
2668.828680170772
 30
0.0
 11
77.57610981401194
 21
2668.828680170773
 31
0.0
  0
CIRCLE
  5
3A36
330
18
100
AcDbEntity
  8
1
100
AcDbCircle
 10
118.576109814041
 20
2894.528680170772
 30
0.0
 40
2.149999999999999
  0
CIRCLE
  5
3A37
330
18
100
AcDbEntity
  8
1
100
AcDbCircle
 10
95.57610981404105
 20
2894.528680170772
 30
0.0
 40
2.149999999999999
  0
LINE
  5
3A38
330
18
100
AcDbEntity
  8
1
100
AcDbLine
 10
-2.423890185988057
 20
2879.818962523578
 30
0.0
 11
-2.423890185988057
 21
2907.488934208617
 31
0.0
  0
CIRCLE
  5
3A39
330
18
100
AcDbEntity
  8
1
100
AcDbCircle
 10
72.57610981404105
 20
2894.528680170772
 30
0.0
 40
2.149999999999999
  0
CIRCLE
  5
3A3A
330
18
100
AcDbEntity
  8
1
100
AcDbCircle
 10
72.57610981404105
 20
2864.528680170773
 30
0.0
 40
2.149999999999999
  0
LINE
  5
3A3B
330
18
100
AcDbEntity
  8
1
100
AcDbLine
 10
-11.22389018595822
 20
2884.89964489243
 30
0.0
 11
8.776109814041774
 21
2873.352639508637
 31
0.0
  0
CIRCLE
  5
3A3C
330
18
100
AcDbEntity
  8
1
100
AcDbCircle
 10
118.576109814041
 20
2864.528680170773
 30
0.0
 40
2.149999999999999
  0
CIRCLE
  5
3A3D
330
18
100
AcDbEntity
  8
1
100
AcDbCircle
 10
95.57610981404105
 20
2864.528680170773
 30
0.0
 40
2.149999999999999
  0
TEXT
  5
3A3E
330
18
100
AcDbEntity
  8
2
  6
1-隠れ線
100
AcDbText
 10
-711.6294503135414
 20
3038.242346192255
 30
0.0
 40
60.0
  1
操作スイッチ
  7
ＭＳ明朝
100
AcDbText
  0
LINE
  5
3A3F
330
18
100
AcDbEntity
  8
1
100
AcDbLine
 10
-11.22389018595822
 20
3025.5263191086
 30
0.0
 11
-12.42389018595895
 21
3025.5263191086
 31
0.0
  0
TEXT
  5
3A40
330
18
100
AcDbEntity
  8
2
  6
1-隠れ線
100
AcDbText
 10
-444.7023430012686
 20
3688.266592700084
 30
0.0
 40
60.0
  1
投入口
  7
ＭＳ明朝
100
AcDbText
  0
LINE
  5
3A41
330
18
100
AcDbEntity
  8
1
100
AcDbLine
 10
11.77610981404177
 20
3738.449568782616
 30
0.0
 11
11.77610981404177
 21
3641.363247894249
 31
0.0
  0
LINE
  5
3A42
330
18
100
AcDbEntity
  8
1
100
AcDbLine
 10
-4.423890185929849
 20
3547.13031153836
 30
0.0
 11
47.75408906250413
 21
3738.449568782616
 31
0.0
  0
LINE
  5
3A43
330
18
100
AcDbEntity
  8
1
100
AcDbLine
 10
145.5761098140701
 20
3738.449568782616
 30
0.0
 11
145.5761098140701
 21
3617.13031153836
 31
0.0
  0
LINE
  5
3A44
330
18
100
AcDbEntity
  8
1
100
AcDbLine
 10
-8.223890185958225
 20
3613.540867622845
 30
0.0
 11
-8.223890185958225
 21
3738.449568782616
 31
0.0
  0
LINE
  5
3A46
330
18
100
AcDbEntity
  8
1
100
AcDbLine
 10
145.5761098140701
 20
3617.13031153836
 30
0.0
 11
-4.423890185929849
 21
3547.13031153836
 31
0.0
  0
LINE
  5
3A47
330
18
100
AcDbEntity
  8
1
100
AcDbLine
 10
-4.423890185929849
 20
3641.363247894249
 30
0.0
 11
-4.423890185929849
 21
3547.13031153836
 31
0.0
  0
LINE
  5
3A48
330
18
100
AcDbEntity
  8
1
100
AcDbLine
 10
-9.423890185958953
 20
3677.515069267697
 30
0.0
 11
-8.223890185958225
 21
3677.515069267697
 31
0.0
  0
LINE
  5
3A49
330
18
100
AcDbEntity
  8
1
100
AcDbLine
 10
11.77610981404177
 20
3641.363247894249
 30
0.0
 11
-8.223890185958225
 21
3641.363247894249
 31
0.0
  0
LINE
  5
3A4A
330
18
100
AcDbEntity
  8
1
100
AcDbLine
 10
-9.423890185958953
 20
3613.540867622845
 30
0.0
 11
-8.223890185958225
 21
3613.540867622845
 31
0.0
  0
TEXT
  5
3A4B
330
18
100
AcDbEntity
  8
2
  6
1-隠れ線
100
AcDbText
 10
2144.792415500489
 20
2051.528326777453
 30
0.0
 40
60.0
  1
黒　Ｒ
  7
ＭＳ明朝
100
AcDbText
  0
DIMENSION
  5
3A4C
330
18
100
AcDbEntity
  8
2
100
AcDbDimension
  2
*D3
 10
1074.076109814011
 20
1978.828680170772
 30
0.0
 11
1039.576109814011
 21
2556.958492071448
 31
0.0
 70
    32
  1
（<>）
 71
     5
 42
1156.25962380135
  3
STANDARD
100
AcDbAlignedDimension
 13
583.576109814041
 23
3135.088303972123
 33
0.0
 14
677.5761098140119
 24
1978.828680170772
 34
0.0
 50
90.0
100
AcDbRotatedDimension
1001
ACAD
1000
DSTYLE
1002
{
1070
    40
1040
1.0
1002
}
  0
DIMENSION
  5
3A4D
330
18
100
AcDbEntity
  8
2
100
AcDbDimension
  2
*D4
 10
1183.274241857214
 20
3135.088303972123
 30
0.0
 11
1149.059956142928
 21
2019.458492071448
 31
0.0
 70
    32
  1
(<>)
 71
     5
 42
2231.259623801351
  3
STANDARD
100
AcDbAlignedDimension
 13
1075.800584099195
 23
903.8286801707723
 33
0.0
 14
1084.076109814011
 24
3135.088303972123
 34
0.0
 50
90.0
100
AcDbRotatedDimension
1001
ACAD
1000
DSTYLE
1002
{
1070
    40
1040
1.0
1002
}
  0
LINE
  5
3A4E
330
18
100
AcDbEntity
  8
1
100
AcDbLine
 10
2868.591328614487
 20
2003.828680170772
 30
0.0
 11
2868.591328614487
 21
2323.828680170772
 31
0.0
  0
LINE
  5
3A4F
330
18
100
AcDbEntity
  8
1
100
AcDbLine
 10
2854.091328614487
 20
1978.828680170772
 30
0.0
 11
2854.091328614487
 21
2078.828680170772
 31
0.0
  0
LINE
  5
3A50
330
18
100
AcDbEntity
  8
1
100
AcDbLine
 10
2858.591328614488
 20
1978.828680170772
 30
0.0
 11
2858.591328614488
 21
2618.828680170773
 31
0.0
  0
LINE
  5
3A51
330
18
100
AcDbEntity
  8
1
100
AcDbLine
 10
577.5761098140119
 20
2053.828680170772
 30
0.0
 11
577.5761098140119
 21
2648.828680170772
 31
0.0
  0
LINE
  5
3A52
330
18
100
AcDbEntity
  8
1
100
AcDbLine
 10
3604.591328614488
 20
2003.828680170772
 30
0.0
 11
3604.591328614488
 21
2323.828680170772
 31
0.0
  0
LEADER
  5
3A53
330
18
100
AcDbEntity
  8
2
100
AcDbLeader
  3
STANDARD
 76
     3
 10
3510.922039753664
 20
2069.073711403702
 30
0.0
 10
3797.097139489853
 20
1903.850440535645
 30
0.0
 10
4109.79870025717
 20
1903.850440535645
 30
0.0
1001
ACAD
1000
DSTYLE
1002
{
1070
    40
1040
1.0
1070
    77
1070
     0
1070
   147
1040
1.0
1002
}
  0
LINE
  5
3A54
330
18
100
AcDbEntity
  8
1
100
AcDbLine
 10
3614.591328614488
 20
1978.828680170772
 30
0.0
 11
3614.591328614488
 21
2608.828680170772
 31
0.0
  0
LINE
  5
3A55
330
18
100
AcDbEntity
  8
1
100
AcDbLine
 10
3619.091328614487
 20
2608.828680170772
 30
0.0
 11
3619.091328614487
 21
2053.828680170773
 31
0.0
  0
LINE
  5
3A56
330
18
100
AcDbEntity
  8
1
100
AcDbLine
 10
3659.091328614487
 20
2048.828680170772
 30
0.0
 11
3624.091328614488
 21
2048.828680170772
 31
0.0
  0
LINE
  5
3A57
330
18
100
AcDbEntity
  8
1
100
AcDbLine
 10
3624.091328614488
 20
1983.828680170772
 30
0.0
 11
3659.091328614487
 21
1983.828680170772
 31
0.0
  0
LINE
  5
3A58
330
18
100
AcDbEntity
  8
1
100
AcDbLine
 10
3659.091328614487
 20
1978.828680170772
 30
0.0
 11
3614.591328614488
 21
1978.828680170772
 31
0.0
  0
LINE
  5
3A59
330
18
100
AcDbEntity
  8
1
100
AcDbLine
 10
3659.091328614487
 20
1978.828680170772
 30
0.0
 11
3614.591328614488
 21
1978.828680170772
 31
0.0
  0
LINE
  5
3A5A
330
18
100
AcDbEntity
  8
1
100
AcDbLine
 10
3619.091328614487
 20
2053.828680170772
 30
0.0
 11
3659.091328614487
 21
2053.828680170772
 31
0.0
  0
LINE
  5
3A5B
330
18
100
AcDbEntity
  8
1
100
AcDbLine
 10
677.5761098140119
 20
1094.001006782242
 30
0.0
 11
677.5761098140119
 21
1102.828680170772
 31
0.0
  0
LINE
  5
3A5C
330
18
100
AcDbEntity
  8
1
100
AcDbLine
 10
527.5761098140119
 20
1102.828680170772
 30
0.0
 11
527.5761098140119
 21
1094.001006782242
 31
0.0
  0
DIMENSION
  5
3A5D
330
18
100
AcDbEntity
  8
2
100
AcDbDimension
  2
*D5
 10
1065.800584099195
 20
903.8286801707725
 30
0.0
 11
1031.586298384909
 21
1403.828680170772
 31
0.0
 70
    32
  1
(<>)
 71
     5
 42
1000.0
  3
STANDARD
100
AcDbAlignedDimension
 13
677.5761098140119
 23
1903.828680170772
 33
0.0
 14
650.0761098140119
 24
903.8286801707727
 34
0.0
 50
90.0
100
AcDbRotatedDimension
1001
ACAD
1000
DSTYLE
1002
{
1070
    40
1040
1.0
1002
}
  0
ARC
  5
3A5E
330
18
100
AcDbEntity
  8
1
100
AcDbCircle
 10
650.0761098140119
 20
978.1590239073652
 30
0.0
 40
74.33034373659253
100
AcDbArc
 50
140.5402501983257
 51
59.99999999999946
  0
CIRCLE
  5
3A5F
330
18
100
AcDbEntity
  8
1
100
AcDbCircle
 10
650.0761098140119
 20
978.1590239073652
 30
0.0
 40
15.0
  0
ARC
  5
3A60
330
18
100
AcDbEntity
  8
1
100
AcDbCircle
 10
650.0761098140119
 20
978.1590239073652
 30
0.0
 40
35.0
100
AcDbArc
 50
180.0
 51
0.0
  0
LINE
  5
3A61
330
18
100
AcDbEntity
  8
2
100
AcDbLine
 10
650.0761098140119
 20
903.8286801707727
 30
0.0
 11
534.516390165556
 21
903.8286801707727
 31
0.0
  0
LINE
  5
3A62
330
18
100
AcDbEntity
  8
1
100
AcDbLine
 10
640.0761098140119
 20
1086.001006782242
 30
0.0
 11
640.0761098140119
 21
1094.001006782242
 31
0.0
  0
LINE
  5
3A63
330
18
100
AcDbEntity
  8
1
100
AcDbLine
 10
635.0761098140119
 20
1073.159023907363
 30
0.0
 11
635.0761098140119
 21
1086.001006782242
 31
0.0
  0
LINE
  5
3A64
330
18
100
AcDbEntity
  8
1
100
AcDbLine
 10
665.5761098140701
 20
1094.001006782239
 30
0.0
 11
665.5761098140701
 21
1079.001006782238
 31
0.0
  0
LINE
  5
3A65
330
18
100
AcDbEntity
  8
1
100
AcDbLine
 10
649.5761098140701
 20
1094.001006782246
 30
0.0
 11
649.5761098140701
 21
1079.001006782246
 31
0.0
  0
LINE
  5
3A66
330
18
100
AcDbEntity
  8
1
100
AcDbLine
 10
641.5761098140701
 20
1094.00100678225
 30
0.0
 11
641.5761098140701
 21
1079.00100678225
 31
0.0
  0
LINE
  5
3A67
330
18
100
AcDbEntity
  8
1
100
AcDbLine
 10
673.5761098140701
 20
1094.001006782234
 30
0.0
 11
673.5761098140701
 21
1079.001006782235
 31
0.0
  0
LINE
  5
3A68
330
18
100
AcDbEntity
  8
1
100
AcDbLine
 10
673.5761098140701
 20
1079.001006782234
 30
0.0
 11
641.5761098140701
 21
1079.00100678225
 31
0.0
  0
LINE
  5
3A69
330
18
100
AcDbEntity
  8
1
100
AcDbLine
 10
673.5761098140701
 20
1094.001006782234
 30
0.0
 11
641.5761098140701
 21
1094.00100678225
 31
0.0
  0
LINE
  5
3A6A
330
18
100
AcDbEntity
  8
1
100
AcDbLine
 10
570.0761098140119
 20
1079.001006782236
 30
0.0
 11
570.0761098140119
 21
1073.159023907363
 31
0.0
  0
LINE
  5
3A6B
330
18
100
AcDbEntity
  8
1
100
AcDbLine
 10
565.5761098140701
 20
1094.001006782239
 30
0.0
 11
565.5761098140701
 21
1079.001006782238
 31
0.0
  0
LINE
  5
3A6C
330
18
100
AcDbEntity
  8
1
100
AcDbLine
 10
573.5761098140701
 20
1094.001006782234
 30
0.0
 11
573.5761098140701
 21
1079.001006782235
 31
0.0
  0
LINE
  5
3A6D
330
18
100
AcDbEntity
  8
1
100
AcDbLine
 10
635.0761098140119
 20
1086.00100678224
 30
0.0
 11
573.5761098140701
 21
1086.001006782244
 31
0.0
  0
LINE
  5
3A6E
330
18
100
AcDbEntity
  8
1
100
AcDbLine
 10
640.0761098140119
 20
1086.001006782242
 30
0.0
 11
573.5761098140701
 21
1086.001006782242
 31
0.0
  0
LINE
  5
3A6F
330
18
100
AcDbEntity
  8
1
100
AcDbLine
 10
640.0761098140119
 20
1094.001006782242
 30
0.0
 11
565.0761098140119
 21
1094.001006782242
 31
0.0
  0
LINE
  5
3A70
330
18
100
AcDbEntity
  8
1
100
AcDbLine
 10
570.0761098140119
 20
1073.159023907363
 30
0.0
 11
635.0761098140119
 21
1073.159023907363
 31
0.0
  0
LINE
  5
3A71
330
18
100
AcDbEntity
  8
1
100
AcDbLine
 10
573.5761098140701
 20
1086.001006782242
 30
0.0
 11
635.0761098140119
 21
1086.001006782242
 31
0.0
  0
LINE
  5
3A72
330
18
100
AcDbEntity
  8
1
100
AcDbLine
 10
549.5761098140701
 20
1094.001006782246
 30
0.0
 11
549.5761098140701
 21
1079.001006782246
 31
0.0
  0
LINE
  5
3A73
330
18
100
AcDbEntity
  8
1
100
AcDbLine
 10
541.5761098140701
 20
1094.00100678225
 30
0.0
 11
541.5761098140701
 21
1079.00100678225
 31
0.0
  0
LINE
  5
3A74
330
18
100
AcDbEntity
  8
1
100
AcDbLine
 10
677.5761098140119
 20
1094.001006782242
 30
0.0
 11
527.5761098140119
 21
1094.001006782242
 31
0.0
  0
LINE
  5
3A75
330
18
100
AcDbEntity
  8
1
100
AcDbLine
 10
573.5761098140701
 20
1079.001006782234
 30
0.0
 11
541.5761098140701
 21
1079.00100678225
 31
0.0
  0
LINE
  5
3A76
330
18
100
AcDbEntity
  8
1
100
AcDbLine
 10
573.5761098140701
 20
1094.001006782234
 30
0.0
 11
541.5761098140701
 21
1094.00100678225
 31
0.0
  0
LINE
  5
3A77
330
18
100
AcDbEntity
  8
1
100
AcDbLine
 10
580.0761098140119
 20
1073.159023907363
 30
0.0
 11
685.0761098140119
 21
1073.159023907363
 31
0.0
  0
LINE
  5
3A78
330
18
100
AcDbEntity
  8
1
100
AcDbLine
 10
685.0761098140119
 20
1073.159023907363
 30
0.0
 11
685.0761098140119
 21
978.1590239073635
 31
0.0
  0
LINE
  5
3A79
330
18
100
AcDbEntity
  8
1
100
AcDbLine
 10
615.0761098140119
 20
978.1590239073635
 30
0.0
 11
570.0761098140119
 21
1073.109532631579
 31
0.0
  0
LINE
  5
3A7A
330
18
100
AcDbEntity
  8
2
100
AcDbLine
 10
337.5761098140119
 20
1552.228680170772
 30
0.0
 11
337.5761098140119
 21
1652.228680170773
 31
0.0
  0
LINE
  5
3A7B
330
18
100
AcDbEntity
  8
1
100
AcDbLine
 10
607.5761098140119
 20
1108.828680170772
 30
0.0
 11
607.5761098140119
 21
1903.828680170772
 31
0.0
  0
LINE
  5
3A7C
330
18
100
AcDbEntity
  8
1
100
AcDbLine
 10
672.5761098140119
 20
1903.828680170772
 30
0.0
 11
672.5761098140119
 21
1108.828680170773
 31
0.0
  0
LINE
  5
3A7D
330
18
100
AcDbEntity
  8
1
100
AcDbLine
 10
602.5761098140119
 20
1108.828680170773
 30
0.0
 11
602.5761098140119
 21
1903.828680170772
 31
0.0
  0
LINE
  5
3A7E
330
18
100
AcDbEntity
  8
1
100
AcDbLine
 10
677.5761098140119
 20
1903.828680170772
 30
0.0
 11
677.5761098140119
 21
1108.828680170773
 31
0.0
  0
LINE
  5
3A7F
330
18
100
AcDbEntity
  8
1
100
AcDbLine
 10
664.5761098140702
 20
1142.828680170788
 30
0.0
 11
650.5761098140701
 21
1142.828680170788
 31
0.0
  0
LINE
  5
3A80
330
18
100
AcDbEntity
  8
1
100
AcDbLine
 10
664.5761098140702
 20
1142.828680170788
 30
0.0
 11
665.5761098140701
 21
1141.828680170788
 31
0.0
  0
LINE
  5
3A81
330
18
100
AcDbEntity
  8
1
100
AcDbLine
 10
649.5761098140701
 20
1141.828680170788
 30
0.0
 11
650.5761098140701
 21
1142.828680170788
 31
0.0
  0
LINE
  5
3A82
330
18
100
AcDbEntity
  8
1
100
AcDbLine
 10
665.5761098140701
 20
1141.828680170788
 30
0.0
 11
649.5761098140701
 21
1141.828680170788
 31
0.0
  0
LINE
  5
3A83
330
18
100
AcDbEntity
  8
1
100
AcDbLine
 10
564.5761098140702
 20
1142.828680170788
 30
0.0
 11
565.5761098140701
 21
1141.828680170788
 31
0.0
  0
LINE
  5
3A84
330
18
100
AcDbEntity
  8
1
100
AcDbLine
 10
677.5761098140119
 20
1102.828680170772
 30
0.0
 11
677.5761098140119
 21
1108.828680170773
 31
0.0
  0
LINE
  5
3A85
330
18
100
AcDbEntity
  8
1
100
AcDbLine
 10
673.5761098140701
 20
1110.828680170765
 30
0.0
 11
641.5761098140701
 21
1110.82868017078
 31
0.0
  0
LINE
  5
3A86
330
18
100
AcDbEntity
  8
1
100
AcDbLine
 10
673.5761098140701
 20
1125.828680170765
 30
0.0
 11
641.5761098140701
 21
1125.828680170781
 31
0.0
  0
LINE
  5
3A87
330
18
100
AcDbEntity
  8
1
100
AcDbLine
 10
641.5761098140701
 20
1108.82868017078
 30
0.0
 11
673.5761098140701
 21
1108.828680170765
 31
0.0
  0
LINE
  5
3A88
330
18
100
AcDbEntity
  8
1
100
AcDbLine
 10
641.5761098140701
 20
1125.828680170781
 30
0.0
 11
641.5761098140701
 21
1108.82868017078
 31
0.0
  0
LINE
  5
3A89
330
18
100
AcDbEntity
  8
1
100
AcDbLine
 10
673.5761098140701
 20
1125.828680170765
 30
0.0
 11
673.5761098140701
 21
1108.828680170765
 31
0.0
  0
LINE
  5
3A8A
330
18
100
AcDbEntity
  8
1
100
AcDbLine
 10
573.5761098140701
 20
1125.828680170765
 30
0.0
 11
573.5761098140701
 21
1108.828680170765
 31
0.0
  0
LINE
  5
3A8B
330
18
100
AcDbEntity
  8
1
  6
1-隠れ線
100
AcDbLine
 10
573.5761098140701
 20
1111.128680170778
 30
0.0
 11
602.5761098140119
 21
1111.128680170772
 31
0.0
  0
LINE
  5
3A8C
330
18
100
AcDbEntity
  8
1
100
AcDbLine
 10
602.5761098140119
 20
1108.828680170773
 30
0.0
 11
602.5761098140119
 21
1168.828680170773
 31
0.0
  0
LINE
  5
3A8D
330
18
100
AcDbEntity
  8
1
100
AcDbLine
 10
565.5761098140701
 20
1141.828680170788
 30
0.0
 11
565.5761098140701
 21
1110.828680170768
 31
0.0
  0
LINE
  5
3A8E
330
18
100
AcDbEntity
  8
1
100
AcDbLine
 10
564.5761098140702
 20
1142.828680170788
 30
0.0
 11
564.5761098140702
 21
1125.828680170769
 31
0.0
  0
LINE
  5
3A8F
330
18
100
AcDbEntity
  8
1
100
AcDbLine
 10
649.5761098140701
 20
1141.828680170789
 30
0.0
 11
649.5761098140701
 21
1110.828680170777
 31
0.0
  0
LINE
  5
3A90
330
18
100
AcDbEntity
  8
1
100
AcDbLine
 10
665.5761098140701
 20
1141.828680170788
 30
0.0
 11
665.5761098140701
 21
1110.828680170768
 31
0.0
  0
LINE
  5
3A91
330
18
100
AcDbEntity
  8
1
100
AcDbLine
 10
664.5761098140702
 20
1142.828680170788
 30
0.0
 11
664.5761098140702
 21
1125.828680170769
 31
0.0
  0
LINE
  5
3A92
330
18
100
AcDbEntity
  8
1
100
AcDbLine
 10
650.5761098140701
 20
1142.828680170788
 30
0.0
 11
650.5761098140701
 21
1125.828680170776
 31
0.0
  0
LINE
  5
3A93
330
18
100
AcDbEntity
  8
1
100
AcDbLine
 10
549.5761098140701
 20
1141.828680170788
 30
0.0
 11
550.5761098140701
 21
1142.828680170788
 31
0.0
  0
LINE
  5
3A94
330
18
100
AcDbEntity
  8
1
100
AcDbLine
 10
527.5761098140119
 20
1108.828680170772
 30
0.0
 11
527.5761098140119
 21
1102.828680170772
 31
0.0
  0
LINE
  5
3A95
330
18
100
AcDbEntity
  8
1
100
AcDbLine
 10
541.5761098140701
 20
1125.82868017078
 30
0.0
 11
541.5761098140701
 21
1108.82868017078
 31
0.0
  0
LINE
  5
3A96
330
18
100
AcDbEntity
  8
1
100
AcDbLine
 10
549.5761098140701
 20
1141.828680170788
 30
0.0
 11
549.5761098140701
 21
1110.828680170776
 31
0.0
  0
LINE
  5
3A97
330
18
100
AcDbEntity
  8
1
100
AcDbLine
 10
550.5761098140701
 20
1142.828680170788
 30
0.0
 11
550.5761098140701
 21
1125.828680170776
 31
0.0
  0
LINE
  5
3A98
330
18
100
AcDbEntity
  8
1
100
AcDbLine
 10
677.5761098140119
 20
1102.828680170773
 30
0.0
 11
527.5761098140082
 21
1102.828680170772
 31
0.0
  0
LINE
  5
3A99
330
18
100
AcDbEntity
  8
1
100
AcDbLine
 10
527.5761098140119
 20
1102.828680170772
 30
0.0
 11
677.5761098140119
 21
1102.828680170773
 31
0.0
  0
LINE
  5
3A9A
330
18
100
AcDbEntity
  8
1
100
AcDbLine
 10
677.5761098140119
 20
1108.828680170773
 30
0.0
 11
527.5761098140119
 21
1108.828680170772
 31
0.0
  0
LINE
  5
3A9B
330
18
100
AcDbEntity
  8
1
100
AcDbLine
 10
677.5761098140119
 20
1102.828680170773
 30
0.0
 11
527.5761098140082
 21
1102.828680170772
 31
0.0
  0
LINE
  5
3A9C
330
18
100
AcDbEntity
  8
1
100
AcDbLine
 10
527.5761098140119
 20
1102.828680170772
 30
0.0
 11
677.5761098140119
 21
1102.828680170773
 31
0.0
  0
LINE
  5
3A9D
330
18
100
AcDbEntity
  8
1
100
AcDbLine
 10
573.5761098140701
 20
1110.828680170765
 30
0.0
 11
541.5761098140701
 21
1110.82868017078
 31
0.0
  0
LINE
  5
3A9E
330
18
100
AcDbEntity
  8
1
100
AcDbLine
 10
573.5761098140701
 20
1125.828680170765
 30
0.0
 11
541.5761098140701
 21
1125.82868017078
 31
0.0
  0
LINE
  5
3A9F
330
18
100
AcDbEntity
  8
1
100
AcDbLine
 10
541.5761098140701
 20
1108.82868017078
 30
0.0
 11
573.5761098140701
 21
1108.828680170765
 31
0.0
  0
LINE
  5
3AA0
330
18
100
AcDbEntity
  8
1
100
AcDbLine
 10
564.5761098140702
 20
1142.828680170788
 30
0.0
 11
550.5761098140701
 21
1142.828680170788
 31
0.0
  0
LINE
  5
3AA1
330
18
100
AcDbEntity
  8
1
100
AcDbLine
 10
565.5761098140701
 20
1141.828680170788
 30
0.0
 11
549.5761098140701
 21
1141.828680170788
 31
0.0
  0
LINE
  5
3AA2
330
18
100
AcDbEntity
  8
2
100
AcDbLine
 10
287.5761098140119
 20
1452.228680170772
 30
0.0
 11
387.5761098140119
 21
1552.228680170772
 31
0.0
  0
LINE
  5
3AA3
330
18
100
AcDbEntity
  8
2
100
AcDbLine
 10
337.5761098140119
 20
1552.228680170772
 30
0.0
 11
387.5761098140119
 21
1552.228680170772
 31
0.0
  0
LINE
  5
3AA4
330
18
100
AcDbEntity
  8
1
100
AcDbLine
 10
677.5761098140119
 20
1978.828680170772
 30
0.0
 11
677.5761098140119
 21
1903.828680170772
 31
0.0
  0
LINE
  5
3AA5
330
18
100
AcDbEntity
  8
1
  6
1-隠れ線
100
AcDbLine
 10
594.5761098140701
 20
1978.828680170772
 30
0.0
 11
594.5761098140701
 21
1903.828680170772
 31
0.0
  0
LINE
  5
3AA6
330
18
100
AcDbEntity
  8
1
  6
1-隠れ線
100
AcDbLine
 10
599.5761098140701
 20
1973.828680170772
 30
0.0
 11
599.5761098140701
 21
1908.828680170772
 31
0.0
  0
LINE
  5
3AA7
330
18
100
AcDbEntity
  8
1
  6
1-隠れ線
100
AcDbLine
 10
634.5761098140701
 20
1908.828680170772
 30
0.0
 11
634.5761098140701
 21
1903.828680170772
 31
0.0
  0
LINE
  5
3AA8
330
18
100
AcDbEntity
  8
1
  6
1-隠れ線
100
AcDbLine
 10
594.5761098140701
 20
1903.828680170772
 30
0.0
 11
634.5761098140701
 21
1903.828680170772
 31
0.0
  0
LINE
  5
3AA9
330
18
100
AcDbEntity
  8
1
  6
1-隠れ線
100
AcDbLine
 10
599.5761098140701
 20
1908.828680170772
 30
0.0
 11
634.5761098140701
 21
1908.828680170772
 31
0.0
  0
LINE
  5
3AAA
330
18
100
AcDbEntity
  8
1
100
AcDbLine
 10
618.576109814132
 20
2008.578680170785
 30
0.0
 11
606.576109814132
 21
2008.578680170785
 31
0.0
  0
LINE
  5
3AAB
330
18
100
AcDbEntity
  8
1
100
AcDbLine
 10
606.576109814132
 20
2008.578680170785
 30
0.0
 11
607.326109814132
 21
2009.328680170784
 31
0.0
  0
LINE
  5
3AAC
330
18
100
AcDbEntity
  8
1
100
AcDbLine
 10
617.8261098141319
 20
2009.328680170784
 30
0.0
 11
618.576109814132
 21
2008.578680170785
 31
0.0
  0
LINE
  5
3AAD
330
18
100
AcDbEntity
  8
1
100
AcDbLine
 10
617.8261098141319
 20
2009.328680170784
 30
0.0
 11
607.326109814132
 21
2009.328680170784
 31
0.0
  0
LINE
  5
3AAE
330
18
100
AcDbEntity
  8
1
100
AcDbLine
 10
607.326109814132
 20
2009.328680170784
 30
0.0
 11
607.326109814132
 21
1996.578680170775
 31
0.0
  0
LINE
  5
3AAF
330
18
100
AcDbEntity
  8
1
100
AcDbLine
 10
617.8261098141319
 20
2009.328680170784
 30
0.0
 11
617.8261098141319
 21
1996.57868017077
 31
0.0
  0
LINE
  5
3AB0
330
18
100
AcDbEntity
  8
1
100
AcDbLine
 10
624.5761098141319
 20
1996.578680170767
 30
0.0
 11
600.576109814132
 21
1996.578680170778
 31
0.0
  0
LINE
  5
3AB1
330
18
100
AcDbEntity
  8
1
  6
1-隠れ線
100
AcDbLine
 10
634.5761098140701
 20
1978.828680170772
 30
0.0
 11
634.5761098140701
 21
1973.828680170772
 31
0.0
  0
LINE
  5
3AB2
330
18
100
AcDbEntity
  8
1
100
AcDbLine
 10
624.5761098141319
 20
1973.828680170766
 30
0.0
 11
624.5761098141319
 21
1962.578680170767
 31
0.0
  0
LINE
  5
3AB3
330
18
100
AcDbEntity
  8
1
100
AcDbLine
 10
618.576109814132
 20
1973.828680170772
 30
0.0
 11
618.576109814132
 21
1962.57868017077
 31
0.0
  0
LINE
  5
3AB4
330
18
100
AcDbEntity
  8
1
100
AcDbLine
 10
606.576109814132
 20
1973.828680170772
 30
0.0
 11
606.576109814132
 21
1962.578680170775
 31
0.0
  0
LINE
  5
3AB5
330
18
100
AcDbEntity
  8
1
100
AcDbLine
 10
600.576109814132
 20
1973.828680170778
 30
0.0
 11
600.576109814132
 21
1962.578680170778
 31
0.0
  0
LINE
  5
3AB6
330
18
100
AcDbEntity
  8
1
  6
1-隠れ線
100
AcDbLine
 10
594.5761098140701
 20
1978.828680170772
 30
0.0
 11
634.5761098140701
 21
1978.828680170772
 31
0.0
  0
LINE
  5
3AB7
330
18
100
AcDbEntity
  8
1
100
AcDbLine
 10
677.5761098140119
 20
1978.828680170772
 30
0.0
 11
577.5761098140119
 21
1978.828680170772
 31
0.0
  0
LINE
  5
3AB8
330
18
100
AcDbEntity
  8
1
100
AcDbLine
 10
577.5761098140119
 20
1978.828680170772
 30
0.0
 11
677.5761098140119
 21
1978.828680170772
 31
0.0
  0
LINE
  5
3AB9
330
18
100
AcDbEntity
  8
1
100
AcDbLine
 10
677.5761098140119
 20
1978.828680170772
 30
0.0
 11
577.5761098140119
 21
1978.828680170772
 31
0.0
  0
LINE
  5
3ABA
330
18
100
AcDbEntity
  8
1
100
AcDbLine
 10
577.5761098140119
 20
1978.828680170772
 30
0.0
 11
677.5761098140119
 21
1978.828680170772
 31
0.0
  0
LINE
  5
3ABB
330
18
100
AcDbEntity
  8
1
  6
1-隠れ線
100
AcDbLine
 10
599.5761098140701
 20
1973.828680170772
 30
0.0
 11
634.5761098140701
 21
1973.828680170772
 31
0.0
  0
LINE
  5
3ABC
330
18
100
AcDbEntity
  8
1
100
AcDbLine
 10
600.576109814132
 20
1983.828680170779
 30
0.0
 11
624.5761098141319
 21
1983.828680170767
 31
0.0
  0
LINE
  5
3ABD
330
18
100
AcDbEntity
  8
1
100
AcDbLine
 10
624.5761098141319
 20
1985.328680170767
 30
0.0
 11
600.576109814132
 21
1985.328680170778
 31
0.0
  0
LINE
  5
3ABE
330
18
100
AcDbEntity
  8
1
100
AcDbLine
 10
624.5761098141319
 20
1973.828680170767
 30
0.0
 11
600.576109814132
 21
1973.828680170778
 31
0.0
  0
LINE
  5
3ABF
330
18
100
AcDbEntity
  8
1
100
AcDbLine
 10
624.5761098141319
 20
1962.578680170767
 30
0.0
 11
600.576109814132
 21
1962.578680170778
 31
0.0
  0
LINE
  5
3AC0
330
18
100
AcDbEntity
  8
1
100
AcDbLine
 10
677.5761098140119
 20
1978.828680170772
 30
0.0
 11
577.5761098140119
 21
1978.828680170772
 31
0.0
  0
LINE
  5
3AC1
330
18
100
AcDbEntity
  8
1
100
AcDbLine
 10
577.5761098140119
 20
1978.828680170772
 30
0.0
 11
677.5761098140119
 21
1978.828680170772
 31
0.0
  0
LINE
  5
3AC2
330
18
100
AcDbEntity
  8
1
100
AcDbLine
 10
600.576109814132
 20
1996.578680170778
 30
0.0
 11
600.576109814132
 21
1983.828680170779
 31
0.0
  0
LINE
  5
3AC3
330
18
100
AcDbEntity
  8
1
100
AcDbLine
 10
624.5761098141319
 20
1996.578680170767
 30
0.0
 11
624.5761098141319
 21
1983.828680170767
 31
0.0
  0
LINE
  5
3AC4
330
18
100
AcDbEntity
  8
1
100
AcDbLine
 10
618.576109814132
 20
2008.578680170785
 30
0.0
 11
618.576109814132
 21
1985.32868017077
 31
0.0
  0
LINE
  5
3AC5
330
18
100
AcDbEntity
  8
1
100
AcDbLine
 10
606.576109814132
 20
2008.578680170785
 30
0.0
 11
606.576109814132
 21
1985.328680170776
 31
0.0
  0
LINE
  5
3AC6
330
18
100
AcDbEntity
  8
1
100
AcDbLine
 10
677.5761098140119
 20
1978.828680170772
 30
0.0
 11
677.5761098140119
 21
2053.828680170772
 31
0.0
  0
TEXT
  5
3AC7
330
18
100
AcDbEntity
  8
2
  6
1-隠れ線
100
AcDbText
 10
2144.792415500489
 20
1754.099755348882
 30
0.0
 40
60.0
  1
緑　アース
  7
ＭＳ明朝
100
AcDbText
  0
TEXT
  5
3AC8
330
18
100
AcDbEntity
  8
2
  6
1-隠れ線
100
AcDbText
 10
2144.792415500489
 20
1954.785469634597
 30
0.0
 40
60.0
  1
白　Ｓ
  7
ＭＳ明朝
100
AcDbText
  0
TEXT
  5
3AC9
330
18
100
AcDbEntity
  8
2
  6
1-隠れ線
100
AcDbText
 10
2144.792415500489
 20
1853.071183920311
 30
0.0
 40
60.0
  1
赤　Ｔ
  7
ＭＳ明朝
100
AcDbText
  0
LINE
  5
3ACA
330
18
100
AcDbEntity
  8
1
100
AcDbLine
 10
2858.591328614488
 20
2003.828680170772
 30
0.0
 11
3614.591328614488
 21
2003.828680170772
 31
0.0
  0
LINE
  5
3ACB
330
18
100
AcDbEntity
  8
1
100
AcDbLine
 10
2814.091328614487
 20
2053.828680170772
 30
0.0
 11
2814.091328614487
 21
2048.828680170772
 31
0.0
  0
LINE
  5
3ACC
330
18
100
AcDbEntity
  8
1
100
AcDbLine
 10
2854.091328614487
 20
2053.828680170772
 30
0.0
 11
2814.091328614487
 21
2053.828680170772
 31
0.0
  0
LINE
  5
3ACD
330
18
100
AcDbEntity
  8
1
100
AcDbLine
 10
2814.091328614487
 20
2048.828680170772
 30
0.0
 11
2849.091328614488
 21
2048.828680170772
 31
0.0
  0
LINE
  5
3ACE
330
18
100
AcDbEntity
  8
1
100
AcDbLine
 10
2814.091328614487
 20
1983.828680170772
 30
0.0
 11
2814.091328614487
 21
1978.828680170772
 31
0.0
  0
LINE
  5
3ACF
330
18
100
AcDbEntity
  8
1
100
AcDbLine
 10
2814.091328614487
 20
1978.828680170772
 30
0.0
 11
2858.591328614488
 21
1978.828680170772
 31
0.0
  0
LINE
  5
3AD0
330
18
100
AcDbEntity
  8
1
100
AcDbLine
 10
2814.091328614487
 20
1978.828680170772
 30
0.0
 11
2858.591328614488
 21
1978.828680170772
 31
0.0
  0
LINE
  5
3AD1
330
18
100
AcDbEntity
  8
1
100
AcDbLine
 10
2849.091328614488
 20
1983.828680170772
 30
0.0
 11
2814.091328614487
 21
1983.828680170772
 31
0.0
  0
LINE
  5
3AD2
330
18
100
AcDbEntity
  8
1
100
AcDbLine
 10
2854.091328614487
 20
1978.828680170772
 30
0.0
 11
2854.091328614487
 21
2053.828680170772
 31
0.0
  0
LINE
  5
3AD3
330
18
100
AcDbEntity
  8
1
100
AcDbLine
 10
2849.091328614488
 20
2048.828680170772
 30
0.0
 11
2849.091328614488
 21
1983.828680170772
 31
0.0
  0
LINE
  5
3AD4
330
18
100
AcDbEntity
  8
1
100
AcDbLine
 10
3624.091328614488
 20
2048.828680170772
 30
0.0
 11
3624.091328614488
 21
1983.828680170772
 31
0.0
  0
LINE
  5
3AD5
330
18
100
AcDbEntity
  8
1
100
AcDbLine
 10
3619.091328614487
 20
1978.828680170772
 30
0.0
 11
3619.091328614487
 21
2053.828680170772
 31
0.0
  0
TEXT
  5
3AD6
330
18
100
AcDbEntity
  8
2
  6
1-隠れ線
100
AcDbText
 10
3796.703085999628
 20
1928.223611559482
 30
0.0
 40
60.0
  1
ふるい板
  7
ＭＳ明朝
100
AcDbText
  0
LINE
  5
3AD7
330
18
100
AcDbEntity
  8
1
100
AcDbLine
 10
3659.091328614487
 20
2053.828680170772
 30
0.0
 11
3659.091328614487
 21
2048.828680170772
 31
0.0
  0
LINE
  5
3AD8
330
18
100
AcDbEntity
  8
1
100
AcDbLine
 10
3659.091328614487
 20
1983.828680170772
 30
0.0
 11
3659.091328614487
 21
1978.828680170772
 31
0.0
  0
TEXT
  5
3AD9
330
18
100
AcDbEntity
  8
2
  6
1-隠れ線
100
AcDbText
 10
3224.986113444241
 20
3754.266947748471
 30
0.0
 40
60.0
  1
  2-飛散防止板
  7
ＭＳ明朝
100
AcDbText
  0
LINE
  5
3ADA
330
18
100
AcDbEntity
  8
1
100
AcDbLine
 10
3699.091328614488
 20
2828.828680170772
 30
0.0
 11
3619.091328614487
 21
2828.828680170772
 31
0.0
  0
LEADER
  5
3ADB
330
18
100
AcDbEntity
  8
2
100
AcDbLeader
  3
STANDARD
 76
     3
 10
3502.091328614488
 20
2288.828680170773
 30
0.0
 10
3800.425222700696
 20
2079.933038628152
 30
0.0
 10
4100.724823415237
 20
2079.933038628152
 30
0.0
1001
ACAD
1000
DSTYLE
1002
{
1070
    40
1040
1.0
1070
    77
1070
     0
1070
   147
1040
1.0
1002
}
  0
LINE
  5
3ADC
330
18
100
AcDbEntity
  8
1
100
AcDbLine
 10
3699.091328614488
 20
2098.828680170772
 30
0.0
 11
3619.091328614487
 21
2098.828680170773
 31
0.0
  0
LINE
  5
3ADD
330
18
100
AcDbEntity
  8
1
100
AcDbLine
 10
583.576109814041
 20
2724.788546962281
 30
0.0
 11
583.576109814041
 21
3135.088303972123
 31
0.0
  0
MTEXT
  5
3ADE
330
18
100
AcDbEntity
  8
2
100
AcDbMText
 10
2433.881688745148
 20
3011.610545306407
 30
0.0
 40
60.0
 41
0.0
 71
     5
 72
     1
  1
飛散防止板(1)を外した図
  7
ＭＳ明朝
 73
     1
 44
1.0
  0
LINE
  5
3ADF
330
18
100
AcDbEntity
  8
1
100
AcDbLine
 10
582.3761098140439
 20
2724.788546962281
 30
0.0
 11
582.3761098140439
 21
3058.912284287036
 31
0.0
  0
TEXT
  5
3AE0
330
18
100
AcDbEntity
  8
2
  6
1-隠れ線
100
AcDbText
 10
1932.818537422217
 20
2329.37667533901
 30
0.0
 40
60.0
  1
電源コード
  7
ＭＳ明朝
100
AcDbText
  0
LINE
  5
3AE1
330
18
100
AcDbEntity
  8
1
100
AcDbLine
 10
427.5761098140119
 20
2361.828680170773
 30
0.0
 11
427.5761098140119
 21
2648.828680170772
 31
0.0
  0
LWPOLYLINE
  5
3AE2
330
18
100
AcDbEntity
  8
1
370
    18
100
AcDbPolyline
 90
        4
 70
     1
 43
0.0
 10
400.0608910135943
 20
2274.13031153836
 10
480.0608910135943
 20
2274.13031153836
 10
480.0608910135943
 20
2298.13031153836
 10
400.0608910135943
 20
2298.13031153836
  0
LINE
  5
3AE3
330
18
100
AcDbEntity
  8
1
370
    18
100
AcDbLine
 10
406.5608910135942
 20
2283.63031153836
 30
0.0
 11
407.0452813415304
 21
2280.238293952788
 31
0.0
  0
LINE
  5
3AE4
330
18
100
AcDbEntity
  8
1
370
    18
100
AcDbLine
 10
407.0452813415304
 20
2280.238293952788
 30
0.0
 11
403.5608910135943
 21
2281.63031153836
 31
0.0
  0
ARC
  5
3AE5
330
18
100
AcDbEntity
  8
1
370
    18
100
AcDbCircle
 10
410.8177412223612
 20
2286.421478031054
 30
0.0
 40
7.2431497912317
100
AcDbArc
 50
302.1637721297868
 51
238.6119629757256
  0
CIRCLE
  5
3AE6
330
18
100
AcDbEntity
  8
1
100
AcDbCircle
 10
331.7434054070199
 20
2263.328680170772
 30
0.0
 40
8.0
  0
LINE
  5
3AE8
330
18
100
AcDbEntity
  8
1
100
AcDbLine
 10
491.0376482755509
 20
2758.828680170772
 30
0.0
 11
577.5761098140119
 21
2908.828680170772
 31
0.0
  0
LINE
  5
3AE9
330
18
100
AcDbEntity
  8
1
100
AcDbLine
 10
562.3761098140439
 20
2873.352639508638
 30
0.0
 11
562.3761098140439
 21
2750.428110370265
 31
0.0
  0
LINE
  5
3AEA
330
18
100
AcDbEntity
  8
1
100
AcDbLine
 10
566.8539886556191
 20
2750.965791321284
 30
0.0
 11
427.5761098140119
 21
2648.828680170772
 31
0.0
  0
CIRCLE
  5
3AEB
330
18
100
AcDbEntity
  8
1
100
AcDbCircle
 10
552.5761098140119
 20
2623.828680170772
 30
0.0
 40
10.0
  0
LINE
  5
3AEC
330
18
100
AcDbEntity
  8
1
100
AcDbLine
 10
562.3761098140439
 20
2750.428110370265
 30
0.0
 11
563.3761098140439
 21
2748.696059562697
 31
0.0
  0
LINE
  5
3AED
330
18
100
AcDbEntity
  8
1
100
AcDbLine
 10
582.3761098140439
 20
2763.254693694245
 30
0.0
 11
562.3761098140439
 21
2750.428110370265
 31
0.0
  0
LINE
  5
3AEE
330
18
100
AcDbEntity
  8
1
100
AcDbLine
 10
580.3761098140439
 20
2759.790592079107
 30
0.0
 11
563.3761098140439
 21
2748.696059562697
 31
0.0
  0
LINE
  5
3AEF
330
18
100
AcDbEntity
  8
1
100
AcDbLine
 10
583.576109814041
 20
2724.788546962281
 30
0.0
 11
582.3761098140439
 21
2724.788546962281
 31
0.0
  0
LINE
  5
3AF0
330
18
100
AcDbEntity
  8
1
100
AcDbLine
 10
580.3761098140439
 20
2729.964927864333
 30
0.0
 11
582.3761098140439
 21
2729.964927864333
 31
0.0
  0
LINE
  5
3AF1
330
18
100
AcDbEntity
  8
1
100
AcDbLine
 10
580.3761098140439
 20
2729.964927864333
 30
0.0
 11
580.3761098140439
 21
2759.790592079107
 31
0.0
  0
LINE
  5
3AF2
330
18
100
AcDbEntity
  8
1
100
AcDbLine
 10
577.5761098140119
 20
2882.128363600302
 30
0.0
 11
577.5761098140119
 21
2908.828680170772
 31
0.0
  0
CIRCLE
  5
3AF3
330
18
100
AcDbEntity
  8
1
100
AcDbCircle
 10
452.576109814041
 20
2894.528680170772
 30
0.0
 40
2.149999999999999
  0
CIRCLE
  5
3AF4
330
18
100
AcDbEntity
  8
1
100
AcDbCircle
 10
475.576109814041
 20
2894.528680170772
 30
0.0
 40
2.149999999999999
  0
CIRCLE
  5
3AF5
330
18
100
AcDbEntity
  8
1
100
AcDbCircle
 10
498.576109814041
 20
2894.528680170772
 30
0.0
 40
2.149999999999999
  0
CIRCLE
  5
3AF6
330
18
100
AcDbEntity
  8
1
100
AcDbCircle
 10
452.576109814041
 20
2864.528680170773
 30
0.0
 40
2.149999999999999
  0
CIRCLE
  5
3AF7
330
18
100
AcDbEntity
  8
1
100
AcDbCircle
 10
475.576109814041
 20
2864.528680170773
 30
0.0
 40
2.149999999999999
  0
LINE
  5
3AF8
330
18
100
AcDbEntity
  8
1
100
AcDbLine
 10
582.3761098140439
 20
2884.899644892431
 30
0.0
 11
562.3761098140439
 21
2873.352639508638
 31
0.0
  0
CIRCLE
  5
3AF9
330
18
100
AcDbEntity
  8
1
100
AcDbCircle
 10
498.576109814041
 20
2864.528680170773
 30
0.0
 40
2.149999999999999
  0
LINE
  5
3AFA
330
18
100
AcDbEntity
  8
1
  6
1-隠れ線
100
AcDbLine
 10
2854.091328614487
 20
2410.918941606689
 30
0.0
 11
2854.091328614487
 21
2566.918941606689
 31
0.0
  0
LINE
  5
3AFB
330
18
100
AcDbEntity
  8
1
100
AcDbLine
 10
2374.091328614488
 20
2618.828680170773
 30
0.0
 11
2854.091328614487
 21
2351.336420108853
 31
0.0
  0
LINE
  5
3AFC
330
18
100
AcDbEntity
  8
1
100
AcDbLine
 10
2854.091328614487
 20
2078.828680170772
 30
0.0
 11
2854.091328614487
 21
2618.828680170773
 31
0.0
  0
LINE
  5
3AFD
330
18
100
AcDbEntity
  8
1
  6
1-隠れ線
100
AcDbLine
 10
2793.591328614487
 20
2425.918941606689
 30
0.0
 11
2793.591328614487
 21
2551.918941606689
 31
0.0
  0
LINE
  5
3AFE
330
18
100
AcDbEntity
  8
1
100
AcDbLine
 10
2824.091328614487
 20
2089.231231164034
 30
0.0
 11
2796.061578056882
 21
2089.231231164034
 31
0.0
  0
LINE
  5
3AFF
330
18
100
AcDbEntity
  8
1
100
AcDbLine
 10
2824.091328614487
 20
2103.231231164034
 30
0.0
 11
2796.061578056882
 21
2103.231231164034
 31
0.0
  0
LINE
  5
3B00
330
18
100
AcDbEntity
  8
1
  6
1-隠れ線
100
AcDbLine
 10
2793.591328614487
 20
2425.918941606689
 30
0.0
 11
2854.091328614487
 21
2425.918941606689
 31
0.0
  0
TEXT
  5
3B01
330
18
100
AcDbEntity
  8
2
  6
1-隠れ線
100
AcDbText
 10
2022.871803548454
 20
2215.402581526587
 30
0.0
 40
60.0
  1
3.5sq*4芯　10m
  7
ＭＳ明朝
100
AcDbText
  0
LINE
  5
3B02
330
18
100
AcDbEntity
  8
1
100
AcDbLine
 10
2992.091328614487
 20
2292.828680170772
 30
0.0
 11
2992.091328614487
 21
2307.828680170772
 31
0.0
  0
LINE
  5
3B03
330
18
100
AcDbEntity
  8
1
100
AcDbLine
 10
2971.091328614487
 20
2292.828680170772
 30
0.0
 11
2971.091328614487
 21
2307.828680170772
 31
0.0
  0
LINE
  5
3B04
330
18
100
AcDbEntity
  8
1
100
AcDbLine
 10
2992.091328596807
 20
2238.828680170772
 30
0.0
 11
2992.091328596807
 21
2318.828680170772
 31
0.0
  0
LINE
  5
3B05
330
18
100
AcDbEntity
  8
1
100
AcDbLine
 10
2971.091328596807
 20
2238.828680170772
 30
0.0
 11
2971.091328596807
 21
2318.828680170772
 31
0.0
  0
LINE
  5
3B06
330
18
100
AcDbEntity
  8
1
100
AcDbLine
 10
2854.091328614487
 20
2288.828680170773
 30
0.0
 11
2854.091328614487
 21
2328.828680170772
 31
0.0
  0
LINE
  5
3B07
330
18
100
AcDbEntity
  8
1
100
AcDbLine
 10
2854.091328614487
 20
2288.828680170773
 30
0.0
 11
2854.091328614487
 21
2328.828680170772
 31
0.0
  0
LINE
  5
3B08
330
18
100
AcDbEntity
  8
1
100
AcDbLine
 10
2840.091328614487
 20
2337.621814581794
 30
0.0
 11
2840.091328614487
 21
2119.231231164034
 31
0.0
  0
LINE
  5
3B09
330
18
100
AcDbEntity
  8
1
100
AcDbLine
 10
3502.091328614488
 20
2238.828680170772
 30
0.0
 11
3502.091328614488
 21
2318.828680170772
 31
0.0
  0
LINE
  5
3B0A
330
18
100
AcDbEntity
  8
1
100
AcDbLine
 10
3481.091328614488
 20
2238.828680170772
 30
0.0
 11
3481.091328614488
 21
2318.828680170772
 31
0.0
  0
LINE
  5
3B0B
330
18
100
AcDbEntity
  8
1
100
AcDbLine
 10
3481.091328614488
 20
2238.828680170772
 30
0.0
 11
2992.091328614487
 21
2238.828680170772
 31
0.0
  0
LINE
  5
3B0C
330
18
100
AcDbEntity
  8
1
100
AcDbLine
 10
3481.091328614488
 20
2288.828680170773
 30
0.0
 11
2992.091328596807
 21
2288.828680170773
 31
0.0
  0
CIRCLE
  5
3B0D
330
18
100
AcDbEntity
  8
1
100
AcDbCircle
 10
2966.591328614487
 20
2182.328680170772
 30
0.0
 40
10.0
  0
CIRCLE
  5
3B0E
330
18
100
AcDbEntity
  8
1
100
AcDbCircle
 10
2930.591328614488
 20
2182.328680170772
 30
0.0
 40
10.0
  0
CIRCLE
  5
3B0F
330
18
100
AcDbEntity
  8
1
100
AcDbCircle
 10
3002.591328614487
 20
2182.328680170772
 30
0.0
 40
10.0
  0
LINE
  5
3B10
330
18
100
AcDbEntity
  8
1
100
AcDbLine
 10
2854.091328614487
 20
2078.828680170772
 30
0.0
 11
2854.091328614487
 21
2243.828680170773
 31
0.0
  0
LINE
  5
3B11
330
18
100
AcDbEntity
  8
1
100
AcDbLine
 10
2854.091328614487
 20
2288.828680170773
 30
0.0
 11
2854.091328614487
 21
2119.231231164034
 31
0.0
  0
CIRCLE
  5
3B12
330
18
100
AcDbEntity
  8
1
100
AcDbCircle
 10
2894.591328614488
 20
2182.328680170772
 30
0.0
 40
10.0
  0
CIRCLE
  5
3B13
330
18
100
AcDbEntity
  8
1
100
AcDbCircle
 10
2912.591328614487
 20
2164.328680170772
 30
0.0
 40
10.0
  0
CIRCLE
  5
3B14
330
18
100
AcDbEntity
  8
1
100
AcDbCircle
 10
2984.591328614488
 20
2164.328680170772
 30
0.0
 40
10.0
  0
CIRCLE
  5
3B15
330
18
100
AcDbEntity
  8
1
100
AcDbCircle
 10
2948.591328614488
 20
2164.328680170772
 30
0.0
 40
10.0
  0
ARC
  5
3B16
330
18
100
AcDbEntity
  8
1
100
AcDbCircle
 10
2824.091328614487
 20
2119.231231164034
 30
0.0
 40
30.0
100
AcDbArc
 50
270.0
 51
0.0
  0
ARC
  5
3B17
330
18
100
AcDbEntity
  8
1
100
AcDbCircle
 10
2824.091328614491
 20
2119.231231164033
 30
0.0
 40
16.0
100
AcDbArc
 50
270.0
 51
0.0
  0
CIRCLE
  5
3B18
330
18
100
AcDbEntity
  8
1
100
AcDbCircle
 10
3002.591328614487
 20
2218.328680170772
 30
0.0
 40
10.0
  0
CIRCLE
  5
3B19
330
18
100
AcDbEntity
  8
1
100
AcDbCircle
 10
2966.591328614487
 20
2218.328680170772
 30
0.0
 40
10.0
  0
CIRCLE
  5
3B1A
330
18
100
AcDbEntity
  8
1
100
AcDbCircle
 10
2984.591328614488
 20
2200.328680170772
 30
0.0
 40
10.0
  0
ARC
  5
3B1B
330
18
100
AcDbEntity
  8
1
100
AcDbCircle
 10
2984.591328614488
 20
2236.328680170772
 30
0.0
 40
10.0
100
AcDbArc
 50
165.5224878140894
 51
14.47751218591053
  0
LINE
  5
3B1C
330
18
100
AcDbEntity
  8
1
100
AcDbLine
 10
2971.091328596807
 20
2238.828680170772
 30
0.0
 11
2992.091328596807
 21
2238.828680170772
 31
0.0
  0
CIRCLE
  5
3B1D
330
18
100
AcDbEntity
  8
1
100
AcDbCircle
 10
2930.591328614488
 20
2218.328680170772
 30
0.0
 40
10.0
  0
ARC
  5
3B1E
330
18
100
AcDbEntity
  8
1
100
AcDbCircle
 10
2912.591328614487
 20
2236.328680170772
 30
0.0
 40
10.0
100
AcDbArc
 50
165.5224878140894
 51
14.47751218591053
  0
CIRCLE
  5
3B1F
330
18
100
AcDbEntity
  8
1
100
AcDbCircle
 10
2912.591328614487
 20
2200.328680170772
 30
0.0
 40
10.0
  0
CIRCLE
  5
3B20
330
18
100
AcDbEntity
  8
1
100
AcDbCircle
 10
2948.591328614488
 20
2200.328680170772
 30
0.0
 40
10.0
  0
ARC
  5
3B21
330
18
100
AcDbEntity
  8
1
100
AcDbCircle
 10
2948.591328614488
 20
2236.328680170772
 30
0.0
 40
10.0
100
AcDbArc
 50
165.5224878140894
 51
14.47751218591053
  0
LINE
  5
3B22
330
18
100
AcDbEntity
  8
1
100
AcDbLine
 10
2971.091328596807
 20
2288.828680170773
 30
0.0
 11
2868.591328614487
 21
2288.828680170773
 31
0.0
  0
LINE
  5
3B23
330
18
100
AcDbEntity
  8
1
100
AcDbLine
 10
2971.091328614491
 20
2238.828680170772
 30
0.0
 11
2868.591328614491
 21
2238.828680170772
 31
0.0
  0
CIRCLE
  5
3B24
330
18
100
AcDbEntity
  8
1
100
AcDbCircle
 10
2894.591328614488
 20
2218.328680170772
 30
0.0
 40
10.0
  0
ARC
  5
3B25
330
18
100
AcDbEntity
  8
1
100
AcDbCircle
 10
3056.591328614487
 20
2236.328680170772
 30
0.0
 40
10.0
100
AcDbArc
 50
165.5224878140894
 51
14.47751218591053
  0
CIRCLE
  5
3B26
330
18
100
AcDbEntity
  8
1
100
AcDbCircle
 10
3038.591328614487
 20
2218.328680170772
 30
0.0
 40
10.0
  0
CIRCLE
  5
3B27
330
18
100
AcDbEntity
  8
1
100
AcDbCircle
 10
3020.591328614488
 20
2200.328680170772
 30
0.0
 40
10.0
  0
ARC
  5
3B28
330
18
100
AcDbEntity
  8
1
100
AcDbCircle
 10
3020.591328614488
 20
2236.328680170772
 30
0.0
 40
10.0
100
AcDbArc
 50
165.5224878140894
 51
14.47751218591053
  0
CIRCLE
  5
3B29
330
18
100
AcDbEntity
  8
1
100
AcDbCircle
 10
3578.591328614487
 20
2182.328680170772
 30
0.0
 40
10.0
  0
CIRCLE
  5
3B2A
330
18
100
AcDbEntity
  8
1
100
AcDbCircle
 10
3542.591328614487
 20
2182.328680170772
 30
0.0
 40
10.0
  0
CIRCLE
  5
3B2B
330
18
100
AcDbEntity
  8
1
100
AcDbCircle
 10
3470.591328614487
 20
2182.328680170772
 30
0.0
 40
10.0
  0
CIRCLE
  5
3B2C
330
18
100
AcDbEntity
  8
1
100
AcDbCircle
 10
3506.591328614487
 20
2182.328680170772
 30
0.0
 40
10.0
  0
CIRCLE
  5
3B2D
330
18
100
AcDbEntity
  8
1
100
AcDbCircle
 10
3524.591328614487
 20
2164.328680170772
 30
0.0
 40
10.0
  0
CIRCLE
  5
3B2E
330
18
100
AcDbEntity
  8
1
100
AcDbCircle
 10
3560.591328614487
 20
2164.328680170772
 30
0.0
 40
10.0
  0
CIRCLE
  5
3B2F
330
18
100
AcDbEntity
  8
1
100
AcDbCircle
 10
3488.591328614488
 20
2164.328680170772
 30
0.0
 40
10.0
  0
CIRCLE
  5
3B30
330
18
100
AcDbEntity
  8
1
100
AcDbCircle
 10
3434.591328614487
 20
2218.328680170772
 30
0.0
 40
10.0
  0
ARC
  5
3B31
330
18
100
AcDbEntity
  8
1
100
AcDbCircle
 10
3416.591328614487
 20
2236.328680170772
 30
0.0
 40
10.0
100
AcDbArc
 50
165.5224878140894
 51
14.47751218591053
  0
LINE
  5
3B32
330
18
100
AcDbEntity
  8
1
100
AcDbLine
 10
3604.591328614488
 20
2288.828680170773
 30
0.0
 11
3502.091328614488
 21
2288.828680170773
 31
0.0
  0
CIRCLE
  5
3B33
330
18
100
AcDbEntity
  8
1
100
AcDbCircle
 10
3578.591328614487
 20
2218.328680170772
 30
0.0
 40
10.0
  0
CIRCLE
  5
3B34
330
18
100
AcDbEntity
  8
1
100
AcDbCircle
 10
3542.591328614487
 20
2218.328680170772
 30
0.0
 40
10.0
  0
CIRCLE
  5
3B35
330
18
100
AcDbEntity
  8
1
100
AcDbCircle
 10
3524.591328614487
 20
2200.328680170772
 30
0.0
 40
10.0
  0
ARC
  5
3B36
330
18
100
AcDbEntity
  8
1
100
AcDbCircle
 10
3524.591328614487
 20
2236.328680170772
 30
0.0
 40
10.0
100
AcDbArc
 50
165.5224878140894
 51
14.47751218591053
  0
LINE
  5
3B37
330
18
100
AcDbEntity
  8
1
100
AcDbLine
 10
3604.591328614488
 20
2238.828680170772
 30
0.0
 11
3502.091328614488
 21
2238.828680170772
 31
0.0
  0
CIRCLE
  5
3B38
330
18
100
AcDbEntity
  8
1
100
AcDbCircle
 10
3560.591328614487
 20
2200.328680170772
 30
0.0
 40
10.0
  0
ARC
  5
3B39
330
18
100
AcDbEntity
  8
1
100
AcDbCircle
 10
3560.591328614487
 20
2236.328680170772
 30
0.0
 40
10.0
100
AcDbArc
 50
165.5224878140894
 51
14.47751218591053
  0
CIRCLE
  5
3B3A
330
18
100
AcDbEntity
  8
1
100
AcDbCircle
 10
3470.591328614487
 20
2218.328680170772
 30
0.0
 40
10.0
  0
ARC
  5
3B3B
330
18
100
AcDbEntity
  8
1
100
AcDbCircle
 10
3452.591328614488
 20
2236.328680170772
 30
0.0
 40
10.0
100
AcDbArc
 50
165.5224878140894
 51
14.47751218591053
  0
CIRCLE
  5
3B3C
330
18
100
AcDbEntity
  8
1
100
AcDbCircle
 10
3452.591328614488
 20
2200.328680170772
 30
0.0
 40
10.0
  0
CIRCLE
  5
3B3D
330
18
100
AcDbEntity
  8
1
100
AcDbCircle
 10
3488.591328614488
 20
2200.328680170772
 30
0.0
 40
10.0
  0
ARC
  5
3B3E
330
18
100
AcDbEntity
  8
1
100
AcDbCircle
 10
3488.591328614488
 20
2236.328680170772
 30
0.0
 40
10.0
100
AcDbArc
 50
165.5224878140894
 51
14.47751218591053
  0
CIRCLE
  5
3B3F
330
18
100
AcDbEntity
  8
1
100
AcDbCircle
 10
3506.591328614487
 20
2218.328680170772
 30
0.0
 40
10.0
  0
LINE
  5
3B40
330
18
100
AcDbEntity
  8
1
100
AcDbLine
 10
3481.091328614488
 20
2238.828680170772
 30
0.0
 11
3502.091328614488
 21
2238.828680170772
 31
0.0
  0
LINE
  5
3B41
330
18
100
AcDbEntity
  8
1
100
AcDbLine
 10
3001.591328614487
 20
2328.828680170772
 30
0.0
 11
3221.591328614487
 21
2328.828680170772
 31
0.0
  0
LINE
  5
3B42
330
18
100
AcDbEntity
  8
1
100
AcDbLine
 10
2858.591328614488
 20
2328.328680170772
 30
0.0
 11
3614.591328614488
 21
2328.328680170772
 31
0.0
  0
LINE
  5
3B43
330
18
100
AcDbEntity
  8
1
100
AcDbLine
 10
3614.591328614488
 20
2323.828680170772
 30
0.0
 11
2858.591328614488
 21
2323.828680170772
 31
0.0
  0
LINE
  5
3B44
330
18
100
AcDbEntity
  8
1
  6
1-隠れ線
100
AcDbLine
 10
2813.591328614487
 20
2425.918941606689
 30
0.0
 11
2813.591328614487
 21
2410.918941606689
 31
0.0
  0
LINE
  5
3B45
330
18
100
AcDbEntity
  8
1
  6
1-隠れ線
100
AcDbLine
 10
2847.591328614488
 20
2425.918941606689
 30
0.0
 11
2847.591328614488
 21
2410.918941606689
 31
0.0
  0
LINE
  5
3B46
330
18
100
AcDbEntity
  8
1
100
AcDbLine
 10
2933.592203023419
 20
2343.836311336314
 30
0.0
 11
2934.592203023419
 21
2342.836311336314
 31
0.0
  0
LINE
  5
3B47
330
18
100
AcDbEntity
  8
1
100
AcDbLine
 10
2933.592203023419
 20
2343.836311336314
 30
0.0
 11
2929.592203023419
 21
2343.836311336314
 31
0.0
  0
LINE
  5
3B48
330
18
100
AcDbEntity
  8
1
100
AcDbLine
 10
2929.592203023419
 20
2343.836311336314
 30
0.0
 11
2928.59220302342
 21
2342.836311336314
 31
0.0
  0
LINE
  5
3B49
330
18
100
AcDbEntity
  8
1
100
AcDbLine
 10
2934.592203023419
 20
2342.836311336314
 30
0.0
 11
2928.59220302342
 21
2342.836311336314
 31
0.0
  0
LINE
  5
3B4A
330
18
100
AcDbEntity
  8
1
100
AcDbLine
 10
2971.091328596807
 20
2315.628680170774
 30
0.0
 11
2992.091328596807
 21
2315.628680170774
 31
0.0
  0
LINE
  5
3B4B
330
18
100
AcDbEntity
  8
1
100
AcDbLine
 10
2971.091328596807
 20
2318.828680170772
 30
0.0
 11
2992.091328596807
 21
2318.828680170772
 31
0.0
  0
LINE
  5
3B4C
330
18
100
AcDbEntity
  8
1
100
AcDbLine
 10
2971.591328614488
 20
2328.828680170772
 30
0.0
 11
3001.591328614487
 21
2328.828680170772
 31
0.0
  0
LINE
  5
3B4D
330
18
100
AcDbEntity
  8
1
100
AcDbLine
 10
2987.591328596807
 20
2315.628680170774
 30
0.0
 11
2987.591328596807
 21
2310.628680170773
 31
0.0
  0
LINE
  5
3B4E
330
18
100
AcDbEntity
  8
1
100
AcDbLine
 10
2984.591328596807
 20
2315.628668021751
 30
0.0
 11
2984.591328596807
 21
2310.628680170773
 31
0.0
  0
SPLINE
  5
3B4F
330
18
100
AcDbEntity
  8
1
100
AcDbSpline
210
0.0
220
0.0
230
1.0
 70
     8
 71
     3
 72
     9
 73
     5
 74
     3
 42
0.0000000001
 43
0.0000000001
 44
0.0000000001
 40
0.0
 40
0.0
 40
0.0
 40
0.0
 40
1.802775637731994
 40
3.605551275463989
 40
3.605551275463989
 40
3.605551275463989
 40
3.605551275463989
 10
2987.591328596807
 20
2310.628680170773
 30
0.0
 10
2987.091328596807
 20
2310.128680170774
 30
0.0
 10
2986.091328596807
 20
2309.128680170773
 30
0.0
 10
2985.091328596807
 20
2310.128680170774
 30
0.0
 10
2984.591328596807
 20
2310.628680170773
 30
0.0
 11
2987.591328596807
 21
2310.628680170773
 31
0.0
 11
2986.091328596807
 21
2309.628680170773
 31
0.0
 11
2984.591328596807
 21
2310.628680170773
 31
0.0
  0
LINE
  5
3B50
330
18
100
AcDbEntity
  8
1
100
AcDbLine
 10
2984.591339699202
 20
2323.828680170772
 30
0.0
 11
2984.591322351711
 21
2318.828680170772
 31
0.0
  0
LINE
  5
3B51
330
18
100
AcDbEntity
  8
1
100
AcDbLine
 10
2983.591339255106
 20
2323.828680170773
 30
0.0
 11
2983.591322601516
 21
2318.828680170772
 31
0.0
  0
SPLINE
  5
3B52
330
18
100
AcDbEntity
  8
1
100
AcDbSpline
210
0.0
220
0.0
230
1.0
 70
     8
 71
     3
 72
     9
 73
     5
 74
     3
 42
0.0000000001
 43
0.0000000001
 44
0.0000000001
 40
0.0
 40
0.0
 40
0.0
 40
0.0
 40
1.802775637731994
 40
3.605551275463989
 40
3.605551275463989
 40
3.605551275463989
 40
3.605551275463989
 10
2987.592080140263
 20
2333.828668838637
 30
0.0
 10
2987.092080140262
 20
2334.328668838638
 30
0.0
 10
2986.092080140261
 20
2335.328668838637
 30
0.0
 10
2985.092080140262
 20
2334.328668838637
 30
0.0
 10
2984.592080140263
 20
2333.828668838637
 30
0.0
 11
2987.592080140263
 21
2333.828668838637
 31
0.0
 11
2986.092080140263
 21
2334.828668838638
 31
0.0
 11
2984.592080140263
 21
2333.828668838637
 31
0.0
  0
LINE
  5
3B53
330
18
100
AcDbEntity
  8
1
100
AcDbLine
 10
2984.592080140263
 20
2328.828680987661
 30
0.0
 11
2984.592080140259
 21
2333.828668838637
 31
0.0
  0
LINE
  5
3B54
330
18
100
AcDbEntity
  8
1
100
AcDbLine
 10
2987.592080140263
 20
2328.828668838637
 30
0.0
 11
2987.592080140263
 21
2333.828668838637
 31
0.0
  0
LINE
  5
3B55
330
18
100
AcDbEntity
  8
1
100
AcDbLine
 10
2978.591328596807
 20
2315.628668021751
 30
0.0
 11
2978.591328596807
 21
2310.628680170773
 31
0.0
  0
LINE
  5
3B56
330
18
100
AcDbEntity
  8
1
100
AcDbLine
 10
2975.591328596807
 20
2315.628680170774
 30
0.0
 11
2975.591328596807
 21
2310.628680170773
 31
0.0
  0
SPLINE
  5
3B57
330
18
100
AcDbEntity
  8
1
100
AcDbSpline
210
0.0
220
0.0
230
1.0
 70
     8
 71
     3
 72
     9
 73
     5
 74
     3
 42
0.0000000001
 43
0.0000000001
 44
0.0000000001
 40
0.0
 40
0.0
 40
0.0
 40
0.0
 40
1.802775637731994
 40
3.605551275463989
 40
3.605551275463989
 40
3.605551275463989
 40
3.605551275463989
 10
2978.591328596807
 20
2310.628680170773
 30
0.0
 10
2978.091328596807
 20
2310.128680170774
 30
0.0
 10
2977.091328596807
 20
2309.128680170773
 30
0.0
 10
2976.091328596807
 20
2310.128680170774
 30
0.0
 10
2975.591328596807
 20
2310.628680170773
 30
0.0
 11
2978.591328596807
 21
2310.628680170773
 31
0.0
 11
2977.091328596807
 21
2309.628680170773
 31
0.0
 11
2975.591328596807
 21
2310.628680170773
 31
0.0
  0
LINE
  5
3B58
330
18
100
AcDbEntity
  8
1
100
AcDbLine
 10
2979.591339255106
 20
2323.828680170772
 30
0.0
 11
2979.591322601516
 21
2318.828680170772
 31
0.0
  0
LINE
  5
3B59
330
18
100
AcDbEntity
  8
1
100
AcDbLine
 10
2978.591339699198
 20
2323.828680170772
 30
0.0
 11
2978.591322351711
 21
2318.828680170772
 31
0.0
  0
SPLINE
  5
3B5A
330
18
100
AcDbEntity
  8
1
100
AcDbSpline
210
0.0
220
0.0
230
1.0
 70
     8
 71
     3
 72
     9
 73
     5
 74
     3
 42
0.0000000001
 43
0.0000000001
 44
0.0000000001
 40
0.0
 40
0.0
 40
0.0
 40
0.0
 40
1.802775637731994
 40
3.605551275463989
 40
3.605551275463989
 40
3.605551275463989
 40
3.605551275463989
 10
2978.592080140262
 20
2333.828668838637
 30
0.0
 10
2978.092080140262
 20
2334.328668838638
 30
0.0
 10
2977.092080140261
 20
2335.328668838637
 30
0.0
 10
2976.092080140263
 20
2334.328668838637
 30
0.0
 10
2975.592080140263
 20
2333.828668838637
 30
0.0
 11
2978.592080140262
 21
2333.828668838637
 31
0.0
 11
2977.092080140263
 21
2334.828668838638
 31
0.0
 11
2975.592080140263
 21
2333.828668838637
 31
0.0
  0
LINE
  5
3B5B
330
18
100
AcDbEntity
  8
1
100
AcDbLine
 10
2978.592080140262
 20
2328.828680987661
 30
0.0
 11
2978.592080140262
 21
2333.828668838637
 31
0.0
  0
LINE
  5
3B5C
330
18
100
AcDbEntity
  8
1
100
AcDbLine
 10
2975.592080140263
 20
2328.828668838637
 30
0.0
 11
2975.592080140263
 21
2333.828668838637
 31
0.0
  0
SPLINE
  5
3B5D
330
18
100
AcDbEntity
  8
1
100
AcDbSpline
210
0.0
220
0.0
230
1.0
 70
     8
 71
     3
 72
     9
 73
     5
 74
     3
 42
0.0000000001
 43
0.0000000001
 44
0.0000000001
 40
0.0
 40
0.0
 40
0.0
 40
0.0
 40
3.162277660168379
 40
6.324555320336759
 40
6.324555320336759
 40
6.324555320336759
 40
6.324555320336759
 10
2984.591328596807
 20
2310.628680170773
 30
0.0
 10
2983.591328596807
 20
2310.128680170774
 30
0.0
 10
2981.591328596807
 20
2309.128680170773
 30
0.0
 10
2979.591328596807
 20
2310.128680170774
 30
0.0
 10
2978.591328596807
 20
2310.628680170773
 30
0.0
 11
2984.591328596807
 21
2310.628680170773
 31
0.0
 11
2981.591328596807
 21
2309.628680170773
 31
0.0
 11
2978.591328596807
 21
2310.628680170773
 31
0.0
  0
LINE
  5
3B5E
330
18
100
AcDbEntity
  8
1
100
AcDbLine
 10
2987.591328596807
 20
2310.628680170773
 30
0.0
 11
2975.591328596807
 21
2310.628680170773
 31
0.0
  0
LINE
  5
3B5F
330
18
100
AcDbEntity
  8
1
100
AcDbLine
 10
2986.091328596807
 20
2309.628680170773
 30
0.0
 11
2977.091328596807
 21
2309.628680170773
 31
0.0
  0
LINE
  5
3B60
330
18
100
AcDbEntity
  8
1
100
AcDbLine
 10
2987.591328596807
 20
2315.628680170774
 30
0.0
 11
2975.591328596807
 21
2315.628680170774
 31
0.0
  0
LINE
  5
3B61
330
18
100
AcDbEntity
  8
1
100
AcDbLine
 10
2976.592080140262
 20
2328.828668838637
 30
0.0
 11
2986.592080140262
 21
2328.828668838637
 31
0.0
  0
SPLINE
  5
3B62
330
18
100
AcDbEntity
  8
1
100
AcDbSpline
210
0.0
220
0.0
230
1.0
 70
     8
 71
     3
 72
     9
 73
     5
 74
     3
 42
0.0000000001
 43
0.0000000001
 44
0.0000000001
 40
0.0
 40
0.0
 40
0.0
 40
0.0
 40
3.162277660168379
 40
6.324555320336759
 40
6.324555320336759
 40
6.324555320336759
 40
6.324555320336759
 10
2984.592080140263
 20
2333.828668838637
 30
0.0
 10
2983.592080140262
 20
2334.328668838638
 30
0.0
 10
2981.592080140261
 20
2335.328668838637
 30
0.0
 10
2979.592080140262
 20
2334.328668838637
 30
0.0
 10
2978.592080140262
 20
2333.828668838637
 30
0.0
 11
2984.592080140263
 21
2333.828668838637
 31
0.0
 11
2981.592080140262
 21
2334.828668838638
 31
0.0
 11
2978.592080140262
 21
2333.828668838637
 31
0.0
  0
LINE
  5
3B63
330
18
100
AcDbEntity
  8
1
100
AcDbLine
 10
2987.592080140263
 20
2333.828668838637
 30
0.0
 11
2975.592080140263
 21
2333.828668838637
 31
0.0
  0
LINE
  5
3B64
330
18
100
AcDbEntity
  8
1
100
AcDbLine
 10
2987.592080140263
 20
2328.828668838637
 30
0.0
 11
2975.592080140263
 21
2328.828668838637
 31
0.0
  0
LINE
  5
3B65
330
18
100
AcDbEntity
  8
1
100
AcDbLine
 10
2934.592203023419
 20
2323.836299187291
 30
0.0
 11
2934.592203023419
 21
2318.836311336315
 31
0.0
  0
SPLINE
  5
3B66
330
18
100
AcDbEntity
  8
1
100
AcDbSpline
210
0.0
220
0.0
230
1.0
 70
     8
 71
     3
 72
     9
 73
     5
 74
     3
 42
0.0000000001
 43
0.0000000001
 44
0.0000000001
 40
0.0
 40
0.0
 40
0.0
 40
0.0
 40
1.802775637731994
 40
3.605551275463989
 40
3.605551275463989
 40
3.605551275463989
 40
3.605551275463989
 10
2937.592203023419
 20
2318.836311336315
 30
0.0
 10
2937.09220302342
 20
2318.336311336314
 30
0.0
 10
2936.092203023419
 20
2317.336311336314
 30
0.0
 10
2935.09220302342
 20
2318.336311336315
 30
0.0
 10
2934.592203023419
 20
2318.836311336315
 30
0.0
 11
2937.592203023419
 21
2318.836311336315
 31
0.0
 11
2936.092203023419
 21
2317.836311336314
 31
0.0
 11
2934.592203023419
 21
2318.836311336315
 31
0.0
  0
LINE
  5
3B67
330
18
100
AcDbEntity
  8
1
100
AcDbLine
 10
2937.592203023419
 20
2323.836311336314
 30
0.0
 11
2937.592203023419
 21
2318.836311336315
 31
0.0
  0
LINE
  5
3B68
330
18
100
AcDbEntity
  8
1
100
AcDbLine
 10
2928.59220302342
 20
2323.836299187291
 30
0.0
 11
2928.59220302342
 21
2318.836311336315
 31
0.0
  0
SPLINE
  5
3B69
330
18
100
AcDbEntity
  8
1
100
AcDbSpline
210
0.0
220
0.0
230
1.0
 70
     8
 71
     3
 72
     9
 73
     5
 74
     3
 42
0.0000000001
 43
0.0000000001
 44
0.0000000001
 40
0.0
 40
0.0
 40
0.0
 40
0.0
 40
1.802775637731994
 40
3.605551275463989
 40
3.605551275463989
 40
3.605551275463989
 40
3.605551275463989
 10
2928.59220302342
 20
2318.836311336315
 30
0.0
 10
2928.092203023419
 20
2318.336311336314
 30
0.0
 10
2927.092203023418
 20
2317.336311336314
 30
0.0
 10
2926.09220302342
 20
2318.336311336315
 30
0.0
 10
2925.592203023419
 20
2318.836311336315
 30
0.0
 11
2928.59220302342
 21
2318.836311336315
 31
0.0
 11
2927.092203023419
 21
2317.836311336314
 31
0.0
 11
2925.592203023419
 21
2318.836311336315
 31
0.0
  0
LINE
  5
3B6A
330
18
100
AcDbEntity
  8
1
100
AcDbLine
 10
2925.592203023419
 20
2323.836311336314
 30
0.0
 11
2925.592203023419
 21
2318.836311336315
 31
0.0
  0
LINE
  5
3B6B
330
18
100
AcDbEntity
  8
1
100
AcDbLine
 10
2937.592203023419
 20
2318.836311336315
 30
0.0
 11
2925.592203023419
 21
2318.836311336315
 31
0.0
  0
SPLINE
  5
3B6C
330
18
100
AcDbEntity
  8
1
100
AcDbSpline
210
0.0
220
0.0
230
1.0
 70
     8
 71
     3
 72
     9
 73
     5
 74
     3
 42
0.0000000001
 43
0.0000000001
 44
0.0000000001
 40
0.0
 40
0.0
 40
0.0
 40
0.0
 40
3.162277660168379
 40
6.324555320336759
 40
6.324555320336759
 40
6.324555320336759
 40
6.324555320336759
 10
2934.592203023419
 20
2318.836311336315
 30
0.0
 10
2933.592203023419
 20
2318.336311336314
 30
0.0
 10
2931.592203023418
 20
2317.336311336315
 30
0.0
 10
2929.592203023419
 20
2318.336311336314
 30
0.0
 10
2928.59220302342
 20
2318.836311336315
 30
0.0
 11
2934.592203023419
 21
2318.836311336315
 31
0.0
 11
2931.59220302342
 21
2317.836311336314
 31
0.0
 11
2928.59220302342
 21
2318.836311336315
 31
0.0
  0
LINE
  5
3B6D
330
18
100
AcDbEntity
  8
1
100
AcDbLine
 10
2936.092203023419
 20
2317.836311336316
 30
0.0
 11
2927.092203023419
 21
2317.836311336316
 31
0.0
  0
LINE
  5
3B6E
330
18
100
AcDbEntity
  8
1
100
AcDbLine
 10
2937.592203023419
 20
2323.836311336314
 30
0.0
 11
2925.592203023419
 21
2323.836311336314
 31
0.0
  0
LINE
  5
3B6F
330
18
100
AcDbEntity
  8
1
100
AcDbLine
 10
2933.592203023419
 20
2343.836311336314
 30
0.0
 11
2933.592203023419
 21
2328.828680170772
 31
0.0
  0
LINE
  5
3B70
330
18
100
AcDbEntity
  8
1
100
AcDbLine
 10
2934.592203023419
 20
2342.836311336314
 30
0.0
 11
2934.592203023419
 21
2328.828680170772
 31
0.0
  0
LINE
  5
3B71
330
18
100
AcDbEntity
  8
1
100
AcDbLine
 10
2929.592203023419
 20
2343.836311336314
 30
0.0
 11
2929.592203023419
 21
2328.828680170772
 31
0.0
  0
LINE
  5
3B72
330
18
100
AcDbEntity
  8
1
100
AcDbLine
 10
2928.59220302342
 20
2342.836311336314
 30
0.0
 11
2928.59220302342
 21
2328.828680170772
 31
0.0
  0
LINE
  5
3B73
330
18
100
AcDbEntity
  8
1
  6
1-隠れ線
100
AcDbLine
 10
2846.091328614491
 20
2410.918941606689
 30
0.0
 11
2846.091328614491
 21
2406.918941606689
 31
0.0
  0
LINE
  5
3B74
330
18
100
AcDbEntity
  8
1
  6
1-隠れ線
100
AcDbLine
 10
2849.091328614491
 20
2406.918941606689
 30
0.0
 11
2849.091328614488
 21
2403.918941606689
 31
0.0
  0
LINE
  5
3B75
330
18
100
AcDbEntity
  8
1
  6
1-隠れ線
100
AcDbLine
 10
2812.091328614491
 20
2406.918941606689
 30
0.0
 11
2812.091328614488
 21
2403.918941606689
 31
0.0
  0
LINE
  5
3B76
330
18
100
AcDbEntity
  8
1
  6
1-隠れ線
100
AcDbLine
 10
2815.091328614487
 20
2410.918941606689
 30
0.0
 11
2815.091328614487
 21
2406.918941606689
 31
0.0
  0
LINE
  5
3B77
330
18
100
AcDbEntity
  8
1
  6
1-隠れ線
100
AcDbLine
 10
2823.591328614488
 20
2403.918941606689
 30
0.0
 11
2840.091328614487
 21
2337.621814581794
 31
0.0
  0
LINE
  5
3B78
330
18
100
AcDbEntity
  8
1
  6
1-隠れ線
100
AcDbLine
 10
2813.591328614487
 20
2410.918941606689
 30
0.0
 11
2854.091328614487
 21
2410.918941606689
 31
0.0
  0
LINE
  5
3B79
330
18
100
AcDbEntity
  8
1
  6
1-隠れ線
100
AcDbLine
 10
2812.091328614491
 20
2406.918941606689
 30
0.0
 11
2849.091328614488
 21
2406.918941606689
 31
0.0
  0
LINE
  5
3B7A
330
18
100
AcDbEntity
  8
1
  6
1-隠れ線
100
AcDbLine
 10
2812.091328614488
 20
2403.918941606689
 30
0.0
 11
2849.091328614488
 21
2403.918941606689
 31
0.0
  0
LINE
  5
3B7B
330
18
100
AcDbEntity
  8
1
  6
1-隠れ線
100
AcDbLine
 10
2813.591328614487
 20
2410.918941606689
 30
0.0
 11
2847.591328614488
 21
2410.918941606689
 31
0.0
  0
LINE
  5
3B7C
330
18
100
AcDbEntity
  8
1
  6
1-隠れ線
100
AcDbLine
 10
2837.591328614488
 20
2403.918941606689
 30
0.0
 11
2854.091328614487
 21
2328.828680170772
 31
0.0
  0
LINE
  5
3B7D
330
18
100
AcDbEntity
  8
1
100
AcDbLine
 10
2858.591328614488
 20
2328.828680170772
 30
0.0
 11
2971.591328614488
 21
2328.828680170772
 31
0.0
  0
LINE
  5
3B7E
330
18
100
AcDbEntity
  8
1
100
AcDbLine
 10
2984.591411864758
 20
2344.628680170426
 30
0.0
 11
2984.59137786364
 21
2334.828668838638
 31
0.0
  0
LINE
  5
3B7F
330
18
100
AcDbEntity
  8
1
100
AcDbLine
 10
2983.591411864757
 20
2345.628680170426
 30
0.0
 11
2983.591375892965
 21
2334.828668838638
 31
0.0
  0
LINE
  5
3B80
330
18
100
AcDbEntity
  8
1
100
AcDbLine
 10
2983.591411864757
 20
2345.628680170426
 30
0.0
 11
2984.591411864758
 21
2344.628680170427
 31
0.0
  0
LINE
  5
3B81
330
18
100
AcDbEntity
  8
1
100
AcDbLine
 10
2979.591411864758
 20
2345.628680170426
 30
0.0
 11
2979.591375892965
 21
2334.828668838638
 31
0.0
  0
LINE
  5
3B82
330
18
100
AcDbEntity
  8
1
100
AcDbLine
 10
2978.591411864758
 20
2344.628680170426
 30
0.0
 11
2978.59137786364
 21
2334.828668838638
 31
0.0
  0
LINE
  5
3B83
330
18
100
AcDbEntity
  8
1
100
AcDbLine
 10
2979.591411864758
 20
2345.628680170427
 30
0.0
 11
2978.591411864758
 21
2344.628680170427
 31
0.0
  0
LINE
  5
3B84
330
18
100
AcDbEntity
  8
1
100
AcDbLine
 10
2984.591411864758
 20
2344.628680170427
 30
0.0
 11
2978.591411864758
 21
2344.628680170427
 31
0.0
  0
LINE
  5
3B85
330
18
100
AcDbEntity
  8
1
100
AcDbLine
 10
2983.591411864757
 20
2345.628680170426
 30
0.0
 11
2979.591411864758
 21
2345.628680170427
 31
0.0
  0
LINE
  5
3B86
330
18
100
AcDbEntity
  8
1
100
AcDbLine
 10
2986.092080140263
 20
2334.828668838637
 30
0.0
 11
2977.092080140263
 21
2334.828668838637
 31
0.0
  0
LINE
  5
3B87
330
18
100
AcDbEntity
  8
1
  6
1-隠れ線
100
AcDbLine
 10
2854.091328614487
 20
2418.918941606689
 30
0.0
 11
2847.591328614488
 21
2418.918941606689
 31
0.0
  0
LINE
  5
3B88
330
18
100
AcDbEntity
  8
1
100
AcDbLine
 10
3251.591328614487
 20
2328.828680170772
 30
0.0
 11
3471.591328614477
 21
2328.828680170772
 31
0.0
  0
LINE
  5
3B89
330
18
100
AcDbEntity
  8
1
100
AcDbLine
 10
3238.592170526271
 20
2343.828692319795
 30
0.0
 11
3239.592170526271
 21
2342.828692319795
 31
0.0
  0
LINE
  5
3B8A
330
18
100
AcDbEntity
  8
1
100
AcDbLine
 10
3234.592170526271
 20
2343.828692319795
 30
0.0
 11
3233.592170526272
 21
2342.828692319795
 31
0.0
  0
LINE
  5
3B8B
330
18
100
AcDbEntity
  8
1
100
AcDbLine
 10
3238.592170526271
 20
2343.828692319795
 30
0.0
 11
3234.592170526271
 21
2343.828692319795
 31
0.0
  0
LINE
  5
3B8C
330
18
100
AcDbEntity
  8
1
100
AcDbLine
 10
3239.592170526271
 20
2342.828692319795
 30
0.0
 11
3233.592170526272
 21
2342.828692319795
 31
0.0
  0
LINE
  5
3B8D
330
18
100
AcDbEntity
  8
1
100
AcDbLine
 10
3242.592170526271
 20
2323.828692319795
 30
0.0
 11
3242.592170526271
 21
2318.828692319795
 31
0.0
  0
SPLINE
  5
3B8E
330
18
100
AcDbEntity
  8
1
100
AcDbSpline
210
0.0
220
0.0
230
1.0
 70
     8
 71
     3
 72
     9
 73
     5
 74
     3
 42
0.0000000001
 43
0.0000000001
 44
0.0000000001
 40
0.0
 40
0.0
 40
0.0
 40
0.0
 40
1.802775637731994
 40
3.605551275463989
 40
3.605551275463989
 40
3.605551275463989
 40
3.605551275463989
 10
3242.592170526271
 20
2318.828692319795
 30
0.0
 10
3242.092170526272
 20
2318.328692319795
 30
0.0
 10
3241.092170526271
 20
2317.328692319795
 30
0.0
 10
3240.092170526271
 20
2318.328692319796
 30
0.0
 10
3239.592170526271
 20
2318.828692319795
 30
0.0
 11
3242.592170526271
 21
2318.828692319795
 31
0.0
 11
3241.092170526271
 21
2317.828692319795
 31
0.0
 11
3239.592170526271
 21
2318.828692319795
 31
0.0
  0
LINE
  5
3B8F
330
18
100
AcDbEntity
  8
1
100
AcDbLine
 10
3239.592170526275
 20
2323.828680170772
 30
0.0
 11
3239.592170526271
 21
2318.828692319795
 31
0.0
  0
LINE
  5
3B90
330
18
100
AcDbEntity
  8
1
100
AcDbLine
 10
3230.592170526271
 20
2323.828692319795
 30
0.0
 11
3230.592170526271
 21
2318.828692319795
 31
0.0
  0
SPLINE
  5
3B91
330
18
100
AcDbEntity
  8
1
100
AcDbSpline
210
0.0
220
0.0
230
1.0
 70
     8
 71
     3
 72
     9
 73
     5
 74
     3
 42
0.0000000001
 43
0.0000000001
 44
0.0000000001
 40
0.0
 40
0.0
 40
0.0
 40
0.0
 40
1.802775637731994
 40
3.605551275463989
 40
3.605551275463989
 40
3.605551275463989
 40
3.605551275463989
 10
3233.592170526272
 20
2318.828692319795
 30
0.0
 10
3233.092170526272
 20
2318.328692319795
 30
0.0
 10
3232.092170526271
 20
2317.328692319795
 30
0.0
 10
3231.092170526271
 20
2318.328692319796
 30
0.0
 10
3230.592170526271
 20
2318.828692319795
 30
0.0
 11
3233.592170526272
 21
2318.828692319795
 31
0.0
 11
3232.092170526271
 21
2317.828692319795
 31
0.0
 11
3230.592170526271
 21
2318.828692319795
 31
0.0
  0
LINE
  5
3B92
330
18
100
AcDbEntity
  8
1
100
AcDbLine
 10
3233.592170526272
 20
2323.828680170772
 30
0.0
 11
3233.592170526272
 21
2318.828692319795
 31
0.0
  0
LINE
  5
3B93
330
18
100
AcDbEntity
  8
1
100
AcDbLine
 10
3242.592170526271
 20
2323.828692319795
 30
0.0
 11
3230.592170526271
 21
2323.828692319795
 31
0.0
  0
LINE
  5
3B94
330
18
100
AcDbEntity
  8
1
100
AcDbLine
 10
3241.092170526271
 20
2317.828692319795
 30
0.0
 11
3232.092170526271
 21
2317.828692319795
 31
0.0
  0
SPLINE
  5
3B95
330
18
100
AcDbEntity
  8
1
100
AcDbSpline
210
0.0
220
0.0
230
1.0
 70
     8
 71
     3
 72
     9
 73
     5
 74
     3
 42
0.0000000001
 43
0.0000000001
 44
0.0000000001
 40
0.0
 40
0.0
 40
0.0
 40
0.0
 40
3.162277660168379
 40
6.324555320336759
 40
6.324555320336759
 40
6.324555320336759
 40
6.324555320336759
 10
3239.592170526271
 20
2318.828692319795
 30
0.0
 10
3238.592170526272
 20
2318.328692319795
 30
0.0
 10
3236.592170526272
 20
2317.328692319795
 30
0.0
 10
3234.592170526271
 20
2318.328692319795
 30
0.0
 10
3233.592170526272
 20
2318.828692319795
 30
0.0
 11
3239.592170526271
 21
2318.828692319795
 31
0.0
 11
3236.592170526272
 21
2317.828692319795
 31
0.0
 11
3233.592170526272
 21
2318.828692319795
 31
0.0
  0
LINE
  5
3B96
330
18
100
AcDbEntity
  8
1
100
AcDbLine
 10
3242.592170526271
 20
2318.828692319795
 30
0.0
 11
3230.592170526271
 21
2318.828692319795
 31
0.0
  0
LINE
  5
3B97
330
18
100
AcDbEntity
  8
1
100
AcDbLine
 10
3221.591328614487
 20
2328.828680170772
 30
0.0
 11
3251.591328614487
 21
2328.828680170772
 31
0.0
  0
LINE
  5
3B98
330
18
100
AcDbEntity
  8
1
100
AcDbLine
 10
3238.592170526271
 20
2343.828692319795
 30
0.0
 11
3238.592170526271
 21
2328.828680170772
 31
0.0
  0
LINE
  5
3B99
330
18
100
AcDbEntity
  8
1
100
AcDbLine
 10
3239.592170526271
 20
2342.828692319795
 30
0.0
 11
3239.592170526275
 21
2328.828680170772
 31
0.0
  0
LINE
  5
3B9A
330
18
100
AcDbEntity
  8
1
100
AcDbLine
 10
3234.592170526271
 20
2343.828692319795
 30
0.0
 11
3234.592170526271
 21
2328.828680170772
 31
0.0
  0
LINE
  5
3B9B
330
18
100
AcDbEntity
  8
1
100
AcDbLine
 10
3233.592170526272
 20
2342.828692319795
 30
0.0
 11
3233.592170526272
 21
2328.828680170772
 31
0.0
  0
LINE
  5
3B9C
330
18
100
AcDbEntity
  8
1
100
AcDbLine
 10
3543.592203023103
 20
2343.828680170772
 30
0.0
 11
3544.592203023103
 21
2342.828680170772
 31
0.0
  0
LINE
  5
3B9D
330
18
100
AcDbEntity
  8
1
100
AcDbLine
 10
3539.592203023103
 20
2343.828680170772
 30
0.0
 11
3538.592203023103
 21
2342.828680170772
 31
0.0
  0
LINE
  5
3B9E
330
18
100
AcDbEntity
  8
1
100
AcDbLine
 10
3543.592203023103
 20
2343.828680170772
 30
0.0
 11
3539.592203023103
 21
2343.828680170772
 31
0.0
  0
LINE
  5
3B9F
330
18
100
AcDbEntity
  8
1
100
AcDbLine
 10
3544.592203023103
 20
2342.828680170772
 30
0.0
 11
3538.592203023103
 21
2342.828680170772
 31
0.0
  0
LINE
  5
3BA0
330
18
100
AcDbEntity
  8
1
100
AcDbLine
 10
3611.591328614488
 20
2323.828680170772
 30
0.0
 11
3614.591328614488
 21
2323.828680170772
 31
0.0
  0
LINE
  5
3BA1
330
18
100
AcDbEntity
  8
1
100
AcDbLine
 10
3544.592203023103
 20
2323.82866802175
 30
0.0
 11
3544.592203023099
 21
2318.828680170773
 31
0.0
  0
SPLINE
  5
3BA2
330
18
100
AcDbEntity
  8
1
100
AcDbSpline
210
0.0
220
0.0
230
1.0
 70
     8
 71
     3
 72
     9
 73
     5
 74
     3
 42
0.0000000001
 43
0.0000000001
 44
0.0000000001
 40
0.0
 40
0.0
 40
0.0
 40
0.0
 40
1.802775637731994
 40
3.605551275463989
 40
3.605551275463989
 40
3.605551275463989
 40
3.605551275463989
 10
3547.592203023103
 20
2318.828680170772
 30
0.0
 10
3547.092203023103
 20
2318.328680170772
 30
0.0
 10
3546.092203023102
 20
2317.328680170772
 30
0.0
 10
3545.092203023103
 20
2318.328680170772
 30
0.0
 10
3544.592203023103
 20
2318.828680170772
 30
0.0
 11
3547.592203023103
 21
2318.828680170772
 31
0.0
 11
3546.092203023103
 21
2317.828680170773
 31
0.0
 11
3544.592203023103
 21
2318.828680170772
 31
0.0
  0
LINE
  5
3BA3
330
18
100
AcDbEntity
  8
1
100
AcDbLine
 10
3547.592203023103
 20
2323.828680170772
 30
0.0
 11
3547.592203023103
 21
2318.828680170773
 31
0.0
  0
LINE
  5
3BA4
330
18
100
AcDbEntity
  8
1
100
AcDbLine
 10
3538.592203023103
 20
2323.82866802175
 30
0.0
 11
3538.592203023103
 21
2318.828680170773
 31
0.0
  0
SPLINE
  5
3BA5
330
18
100
AcDbEntity
  8
1
100
AcDbSpline
210
0.0
220
0.0
230
1.0
 70
     8
 71
     3
 72
     9
 73
     5
 74
     3
 42
0.0000000001
 43
0.0000000001
 44
0.0000000001
 40
0.0
 40
0.0
 40
0.0
 40
0.0
 40
3.162277660168379
 40
6.324555320336759
 40
6.324555320336759
 40
6.324555320336759
 40
6.324555320336759
 10
3544.592203023103
 20
2318.828680170772
 30
0.0
 10
3543.592203023103
 20
2318.328680170772
 30
0.0
 10
3541.592203023103
 20
2317.328680170772
 30
0.0
 10
3539.592203023103
 20
2318.328680170772
 30
0.0
 10
3538.592203023103
 20
2318.828680170772
 30
0.0
 11
3544.592203023103
 21
2318.828680170772
 31
0.0
 11
3541.592203023103
 21
2317.828680170773
 31
0.0
 11
3538.592203023103
 21
2318.828680170772
 31
0.0
  0
LINE
  5
3BA6
330
18
100
AcDbEntity
  8
1
100
AcDbLine
 10
3546.092203023103
 20
2317.828680170773
 30
0.0
 11
3537.092203023103
 21
2317.828680170773
 31
0.0
  0
LINE
  5
3BA7
330
18
100
AcDbEntity
  8
1
100
AcDbLine
 10
3535.592203023103
 20
2323.828680170772
 30
0.0
 11
3535.592203023103
 21
2318.828680170773
 31
0.0
  0
SPLINE
  5
3BA8
330
18
100
AcDbEntity
  8
1
100
AcDbSpline
210
0.0
220
0.0
230
1.0
 70
     8
 71
     3
 72
     9
 73
     5
 74
     3
 42
0.0000000001
 43
0.0000000001
 44
0.0000000001
 40
0.0
 40
0.0
 40
0.0
 40
0.0
 40
1.802775637731994
 40
3.605551275463989
 40
3.605551275463989
 40
3.605551275463989
 40
3.605551275463989
 10
3538.592203023103
 20
2318.828680170772
 30
0.0
 10
3538.092203023103
 20
2318.328680170772
 30
0.0
 10
3537.092203023103
 20
2317.328680170772
 30
0.0
 10
3536.092203023104
 20
2318.328680170772
 30
0.0
 10
3535.592203023103
 20
2318.828680170772
 30
0.0
 11
3538.592203023103
 21
2318.828680170772
 31
0.0
 11
3537.092203023103
 21
2317.828680170773
 31
0.0
 11
3535.592203023103
 21
2318.828680170772
 31
0.0
  0
LINE
  5
3BA9
330
18
100
AcDbEntity
  8
1
100
AcDbLine
 10
3547.592203023103
 20
2318.828680170772
 30
0.0
 11
3535.592203023103
 21
2318.828680170772
 31
0.0
  0
LINE
  5
3BAA
330
18
100
AcDbEntity
  8
1
100
AcDbLine
 10
3547.592203023103
 20
2323.828680170772
 30
0.0
 11
3535.592203023103
 21
2323.828680170772
 31
0.0
  0
LINE
  5
3BAB
330
18
100
AcDbEntity
  8
1
100
AcDbLine
 10
3501.591328614477
 20
2328.828680170772
 30
0.0
 11
3614.591328614488
 21
2328.828680170772
 31
0.0
  0
LINE
  5
3BAC
330
18
100
AcDbEntity
  8
1
100
AcDbLine
 10
3543.592203023103
 20
2343.828680170772
 30
0.0
 11
3543.592203023103
 21
2328.828680170772
 31
0.0
  0
LINE
  5
3BAD
330
18
100
AcDbEntity
  8
1
100
AcDbLine
 10
3544.592203023103
 20
2342.828680170772
 30
0.0
 11
3544.592203023103
 21
2328.828680170772
 31
0.0
  0
LINE
  5
3BAE
330
18
100
AcDbEntity
  8
1
100
AcDbLine
 10
3539.592203023103
 20
2343.828680170772
 30
0.0
 11
3539.592203023103
 21
2328.828680170772
 31
0.0
  0
LINE
  5
3BAF
330
18
100
AcDbEntity
  8
1
100
AcDbLine
 10
3538.592203023103
 20
2342.828680170772
 30
0.0
 11
3538.592203023099
 21
2328.828680170772
 31
0.0
  0
LINE
  5
3BB0
330
18
100
AcDbEntity
  8
1
100
AcDbLine
 10
3494.591411882438
 20
2344.628680170426
 30
0.0
 11
3494.591377881321
 21
2334.828668838638
 31
0.0
  0
LINE
  5
3BB1
330
18
100
AcDbEntity
  8
1
100
AcDbLine
 10
3493.591411882438
 20
2345.628680170426
 30
0.0
 11
3493.591375910646
 21
2334.828668838638
 31
0.0
  0
LINE
  5
3BB2
330
18
100
AcDbEntity
  8
1
100
AcDbLine
 10
3493.591411882438
 20
2345.628680170426
 30
0.0
 11
3494.591411882438
 21
2344.628680170427
 31
0.0
  0
LINE
  5
3BB3
330
18
100
AcDbEntity
  8
1
100
AcDbLine
 10
3489.591411882438
 20
2345.628680170426
 30
0.0
 11
3489.591375910646
 21
2334.828668838638
 31
0.0
  0
LINE
  5
3BB4
330
18
100
AcDbEntity
  8
1
100
AcDbLine
 10
3488.591411882438
 20
2344.628680170426
 30
0.0
 11
3488.591377881321
 21
2334.828668838638
 31
0.0
  0
LINE
  5
3BB5
330
18
100
AcDbEntity
  8
1
100
AcDbLine
 10
3489.591411882438
 20
2345.628680170427
 30
0.0
 11
3488.591411882438
 21
2344.628680170427
 31
0.0
  0
LINE
  5
3BB6
330
18
100
AcDbEntity
  8
1
100
AcDbLine
 10
3494.591411882438
 20
2344.628680170427
 30
0.0
 11
3488.591411882438
 21
2344.628680170427
 31
0.0
  0
LINE
  5
3BB7
330
18
100
AcDbEntity
  8
1
100
AcDbLine
 10
3493.591411882438
 20
2345.628680170426
 30
0.0
 11
3489.591411882438
 21
2345.628680170427
 31
0.0
  0
LINE
  5
3BB8
330
18
100
AcDbEntity
  8
1
100
AcDbLine
 10
3496.092080157943
 20
2334.828668838637
 30
0.0
 11
3487.092080157943
 21
2334.828668838637
 31
0.0
  0
LINE
  5
3BB9
330
18
100
AcDbEntity
  8
1
100
AcDbLine
 10
3497.591328614488
 20
2315.628680170774
 30
0.0
 11
3497.591328614488
 21
2310.628680170773
 31
0.0
  0
LINE
  5
3BBA
330
18
100
AcDbEntity
  8
1
100
AcDbLine
 10
3494.591328614488
 20
2315.628668021751
 30
0.0
 11
3494.591328614488
 21
2310.628680170773
 31
0.0
  0
LINE
  5
3BBB
330
18
100
AcDbEntity
  8
1
100
AcDbLine
 10
3488.591328614488
 20
2315.628668021751
 30
0.0
 11
3488.591328614488
 21
2310.628680170773
 31
0.0
  0
LINE
  5
3BBC
330
18
100
AcDbEntity
  8
1
100
AcDbLine
 10
3485.591328614487
 20
2315.628680170774
 30
0.0
 11
3485.591328614487
 21
2310.628680170773
 31
0.0
  0
SPLINE
  5
3BBD
330
18
100
AcDbEntity
  8
1
100
AcDbSpline
210
0.0
220
0.0
230
1.0
 70
     8
 71
     3
 72
     9
 73
     5
 74
     3
 42
0.0000000001
 43
0.0000000001
 44
0.0000000001
 40
0.0
 40
0.0
 40
0.0
 40
0.0
 40
1.802775637731994
 40
3.605551275463989
 40
3.605551275463989
 40
3.605551275463989
 40
3.605551275463989
 10
3497.591328614488
 20
2310.628680170773
 30
0.0
 10
3497.091328614487
 20
2310.128680170774
 30
0.0
 10
3496.091328614487
 20
2309.128680170773
 30
0.0
 10
3495.091328614488
 20
2310.128680170774
 30
0.0
 10
3494.591328614488
 20
2310.628680170773
 30
0.0
 11
3497.591328614488
 21
2310.628680170773
 31
0.0
 11
3496.091328614488
 21
2309.628680170773
 31
0.0
 11
3494.591328614488
 21
2310.628680170773
 31
0.0
  0
SPLINE
  5
3BBE
330
18
100
AcDbEntity
  8
1
100
AcDbSpline
210
0.0
220
0.0
230
1.0
 70
     8
 71
     3
 72
     9
 73
     5
 74
     3
 42
0.0000000001
 43
0.0000000001
 44
0.0000000001
 40
0.0
 40
0.0
 40
0.0
 40
0.0
 40
1.802775637731994
 40
3.605551275463989
 40
3.605551275463989
 40
3.605551275463989
 40
3.605551275463989
 10
3488.591328614488
 20
2310.628680170773
 30
0.0
 10
3488.091328614489
 20
2310.128680170774
 30
0.0
 10
3487.091328614488
 20
2309.128680170773
 30
0.0
 10
3486.091328614488
 20
2310.128680170774
 30
0.0
 10
3485.591328614487
 20
2310.628680170773
 30
0.0
 11
3488.591328614488
 21
2310.628680170773
 31
0.0
 11
3487.091328614488
 21
2309.628680170773
 31
0.0
 11
3485.591328614487
 21
2310.628680170773
 31
0.0
  0
SPLINE
  5
3BBF
330
18
100
AcDbEntity
  8
1
100
AcDbSpline
210
0.0
220
0.0
230
1.0
 70
     8
 71
     3
 72
     9
 73
     5
 74
     3
 42
0.0000000001
 43
0.0000000001
 44
0.0000000001
 40
0.0
 40
0.0
 40
0.0
 40
0.0
 40
3.162277660168379
 40
6.324555320336759
 40
6.324555320336759
 40
6.324555320336759
 40
6.324555320336759
 10
3494.591328614488
 20
2310.628680170773
 30
0.0
 10
3493.591328614488
 20
2310.128680170774
 30
0.0
 10
3491.591328614488
 20
2309.128680170773
 30
0.0
 10
3489.591328614488
 20
2310.128680170774
 30
0.0
 10
3488.591328614488
 20
2310.628680170773
 30
0.0
 11
3494.591328614488
 21
2310.628680170773
 31
0.0
 11
3491.591328614488
 21
2309.628680170773
 31
0.0
 11
3488.591328614488
 21
2310.628680170773
 31
0.0
  0
LINE
  5
3BC0
330
18
100
AcDbEntity
  8
1
100
AcDbLine
 10
3496.091328614488
 20
2309.628680170773
 30
0.0
 11
3487.091328614488
 21
2309.628680170773
 31
0.0
  0
LINE
  5
3BC1
330
18
100
AcDbEntity
  8
1
100
AcDbLine
 10
3497.591328614488
 20
2310.628680170773
 30
0.0
 11
3485.591328614487
 21
2310.628680170773
 31
0.0
  0
LINE
  5
3BC2
330
18
100
AcDbEntity
  8
1
100
AcDbLine
 10
3494.591339716882
 20
2323.828680170772
 30
0.0
 11
3494.591322369391
 21
2318.828680170772
 31
0.0
  0
LINE
  5
3BC3
330
18
100
AcDbEntity
  8
1
100
AcDbLine
 10
3493.591339272787
 20
2323.828680170773
 30
0.0
 11
3493.591322619193
 21
2318.828680170772
 31
0.0
  0
LINE
  5
3BC4
330
18
100
AcDbEntity
  8
1
100
AcDbLine
 10
3489.591339272787
 20
2323.828680170772
 30
0.0
 11
3489.591322619197
 21
2318.828680170772
 31
0.0
  0
LINE
  5
3BC5
330
18
100
AcDbEntity
  8
1
100
AcDbLine
 10
3488.591339716878
 20
2323.828680170772
 30
0.0
 11
3488.591322369392
 21
2318.828680170772
 31
0.0
  0
LINE
  5
3BC6
330
18
100
AcDbEntity
  8
1
100
AcDbLine
 10
3497.591328614488
 20
2315.628680170774
 30
0.0
 11
3485.591328614487
 21
2315.628680170774
 31
0.0
  0
LINE
  5
3BC7
330
18
100
AcDbEntity
  8
1
100
AcDbLine
 10
3486.592080157943
 20
2328.828668838637
 30
0.0
 11
3496.592080157943
 21
2328.828668838637
 31
0.0
  0
SPLINE
  5
3BC8
330
18
100
AcDbEntity
  8
1
100
AcDbSpline
210
0.0
220
0.0
230
1.0
 70
     8
 71
     3
 72
     9
 73
     5
 74
     3
 42
0.0000000001
 43
0.0000000001
 44
0.0000000001
 40
0.0
 40
0.0
 40
0.0
 40
0.0
 40
1.802775637731994
 40
3.605551275463989
 40
3.605551275463989
 40
3.605551275463989
 40
3.605551275463989
 10
3497.592080157943
 20
2333.828668838637
 30
0.0
 10
3497.092080157944
 20
2334.328668838638
 30
0.0
 10
3496.092080157943
 20
2335.328668838637
 30
0.0
 10
3495.092080157943
 20
2334.328668838637
 30
0.0
 10
3494.592080157943
 20
2333.828668838637
 30
0.0
 11
3497.592080157943
 21
2333.828668838637
 31
0.0
 11
3496.092080157943
 21
2334.828668838638
 31
0.0
 11
3494.592080157943
 21
2333.828668838637
 31
0.0
  0
SPLINE
  5
3BC9
330
18
100
AcDbEntity
  8
1
100
AcDbSpline
210
0.0
220
0.0
230
1.0
 70
     8
 71
     3
 72
     9
 73
     5
 74
     3
 42
0.0000000001
 43
0.0000000001
 44
0.0000000001
 40
0.0
 40
0.0
 40
0.0
 40
0.0
 40
1.802775637731994
 40
3.605551275463989
 40
3.605551275463989
 40
3.605551275463989
 40
3.605551275463989
 10
3488.592080157943
 20
2333.828668838637
 30
0.0
 10
3488.092080157943
 20
2334.328668838638
 30
0.0
 10
3487.092080157943
 20
2335.328668838637
 30
0.0
 10
3486.092080157943
 20
2334.328668838637
 30
0.0
 10
3485.592080157942
 20
2333.828668838637
 30
0.0
 11
3488.592080157943
 21
2333.828668838637
 31
0.0
 11
3487.092080157943
 21
2334.828668838638
 31
0.0
 11
3485.592080157942
 21
2333.828668838637
 31
0.0
  0
SPLINE
  5
3BCA
330
18
100
AcDbEntity
  8
1
100
AcDbSpline
210
0.0
220
0.0
230
1.0
 70
     8
 71
     3
 72
     9
 73
     5
 74
     3
 42
0.0000000001
 43
0.0000000001
 44
0.0000000001
 40
0.0
 40
0.0
 40
0.0
 40
0.0
 40
3.162277660168379
 40
6.324555320336759
 40
6.324555320336759
 40
6.324555320336759
 40
6.324555320336759
 10
3494.592080157943
 20
2333.828668838637
 30
0.0
 10
3493.592080157943
 20
2334.328668838638
 30
0.0
 10
3491.592080157942
 20
2335.328668838637
 30
0.0
 10
3489.592080157943
 20
2334.328668838637
 30
0.0
 10
3488.592080157943
 20
2333.828668838637
 30
0.0
 11
3494.592080157943
 21
2333.828668838637
 31
0.0
 11
3491.592080157943
 21
2334.828668838638
 31
0.0
 11
3488.592080157943
 21
2333.828668838637
 31
0.0
  0
LINE
  5
3BCB
330
18
100
AcDbEntity
  8
1
100
AcDbLine
 10
3494.592080157943
 20
2328.828680987661
 30
0.0
 11
3494.592080157939
 21
2333.828668838637
 31
0.0
  0
LINE
  5
3BCC
330
18
100
AcDbEntity
  8
1
100
AcDbLine
 10
3497.592080157943
 20
2328.828668838637
 30
0.0
 11
3497.592080157943
 21
2333.828668838637
 31
0.0
  0
LINE
  5
3BCD
330
18
100
AcDbEntity
  8
1
100
AcDbLine
 10
3488.592080157943
 20
2328.828680987661
 30
0.0
 11
3488.592080157943
 21
2333.828668838637
 31
0.0
  0
LINE
  5
3BCE
330
18
100
AcDbEntity
  8
1
100
AcDbLine
 10
3485.592080157942
 20
2328.828668838637
 30
0.0
 11
3485.592080157942
 21
2333.828668838637
 31
0.0
  0
LINE
  5
3BCF
330
18
100
AcDbEntity
  8
1
100
AcDbLine
 10
3497.592080157943
 20
2333.828668838637
 30
0.0
 11
3485.592080157942
 21
2333.828668838637
 31
0.0
  0
LINE
  5
3BD0
330
18
100
AcDbEntity
  8
1
100
AcDbLine
 10
3497.592080157943
 20
2328.828668838637
 30
0.0
 11
3485.592080157942
 21
2328.828668838637
 31
0.0
  0
LINE
  5
3BD1
330
18
100
AcDbEntity
  8
1
100
AcDbLine
 10
3471.591328614477
 20
2328.828680170772
 30
0.0
 11
3501.591328614477
 21
2328.828680170772
 31
0.0
  0
LINE
  5
3BD2
330
18
100
AcDbEntity
  8
1
100
AcDbLine
 10
3481.091328614488
 20
2318.828680170772
 30
0.0
 11
3502.091328614488
 21
2318.828680170772
 31
0.0
  0
LINE
  5
3BD3
330
18
100
AcDbEntity
  8
1
100
AcDbLine
 10
3481.091328614488
 20
2315.628680170774
 30
0.0
 11
3502.091328614488
 21
2315.628680170774
 31
0.0
  0
LINE
  5
3BD4
330
18
100
AcDbEntity
  8
1
  6
1-隠れ線
100
AcDbLine
 10
2793.591328614487
 20
2551.918941606689
 30
0.0
 11
2842.591328614488
 21
2551.918941606689
 31
0.0
  0
LINE
  5
3BD5
330
18
100
AcDbEntity
  8
1
100
AcDbLine
 10
2374.091328614488
 20
2618.828680170773
 30
0.0
 11
2858.591328614488
 21
2618.828680170773
 31
0.0
  0
LINE
  5
3BD6
330
18
100
AcDbEntity
  8
1
100
AcDbLine
 10
2854.091328614487
 20
2878.828680170773
 30
0.0
 11
2304.091328614487
 21
2728.828680170773
 31
0.0
  0
LINE
  5
3BD7
330
18
100
AcDbEntity
  8
1
100
AcDbLine
 10
2304.091328614487
 20
2728.828680170773
 30
0.0
 11
2858.591328614488
 21
2618.828680170773
 31
0.0
  0
LINE
  5
3BD8
330
18
100
AcDbEntity
  8
1
100
AcDbLine
 10
2304.091328614487
 20
2728.828680170773
 30
0.0
 11
2374.091328614488
 21
2618.828680170773
 31
0.0
  0
LINE
  5
3BD9
330
18
100
AcDbEntity
  8
1
100
AcDbLine
 10
2304.091328614487
 20
2728.828680170773
 30
0.0
 11
2374.091328614488
 21
2618.828680170773
 31
0.0
  0
LINE
  5
3BDA
330
18
100
AcDbEntity
  8
1
100
AcDbLine
 10
3613.237022617855
 20
2643.828680170773
 30
0.0
 11
3613.237022617855
 21
2849.828680170773
 31
0.0
  0
LINE
  5
3BDB
330
18
100
AcDbEntity
  8
1
100
AcDbLine
 10
3619.091328614491
 20
2608.828680170772
 30
0.0
 11
3619.091328614487
 21
2828.828680170772
 31
0.0
  0
LINE
  5
3BDC
330
18
100
AcDbEntity
  8
1
100
AcDbLine
 10
3266.591328614488
 20
2849.828680170773
 30
0.0
 11
3266.591328614488
 21
2652.285389969439
 31
0.0
  0
LINE
  5
3BDD
330
18
100
AcDbEntity
  8
1
100
AcDbLine
 10
3318.048631028244
 20
2682.629764299128
 30
0.0
 11
3318.048631028244
 21
2774.392107145267
 31
0.0
  0
LINE
  5
3BDE
330
18
100
AcDbEntity
  8
1
100
AcDbLine
 10
3332.048631028245
 20
2682.629764299128
 30
0.0
 11
3332.048631028245
 21
2774.392107145269
 31
0.0
  0
LINE
  5
3BDF
330
18
100
AcDbEntity
  8
1
100
AcDbLine
 10
2854.091328614487
 20
2608.828680170772
 30
0.0
 11
2854.091328614487
 21
2878.828680170773
 31
0.0
  0
LINE
  5
3BE0
330
18
100
AcDbEntity
  8
1
100
AcDbLine
 10
2858.591328614488
 20
2608.828680170772
 30
0.0
 11
3614.591328614488
 21
2608.828680170773
 31
0.0
  0
LINE
  5
3BE1
330
18
100
AcDbEntity
  8
1
  6
1-隠れ線
100
AcDbLine
 10
2842.591328614488
 20
2558.828941606689
 30
0.0
 11
2854.091328614487
 21
2558.828941606689
 31
0.0
  0
LINE
  5
3BE2
330
18
100
AcDbEntity
  8
1
  6
1-隠れ線
100
AcDbLine
 10
2846.091328614487
 20
2566.918941606689
 30
0.0
 11
2846.091328614487
 21
2570.918941606689
 31
0.0
  0
LINE
  5
3BE3
330
18
100
AcDbEntity
  8
1
  6
1-隠れ線
100
AcDbLine
 10
2849.091328614488
 20
2570.918941606689
 30
0.0
 11
2849.091328614488
 21
2573.918941606689
 31
0.0
  0
LINE
  5
3BE4
330
18
100
AcDbEntity
  8
1
  6
1-隠れ線
100
AcDbLine
 10
2842.591328614488
 20
2551.918941606689
 30
0.0
 11
2842.591328614488
 21
2566.918941606689
 31
0.0
  0
LINE
  5
3BE5
330
18
100
AcDbEntity
  8
1
  6
1-隠れ線
100
AcDbLine
 10
2813.591328614487
 20
2553.918941606689
 30
0.0
 11
2813.591328614487
 21
2566.918941606689
 31
0.0
  0
ARC
  5
3BE6
330
18
100
AcDbEntity
  8
1
  6
1-隠れ線
100
AcDbCircle
 10
2811.591328614488
 20
2553.918941606689
 30
0.0
 40
2.0
100
AcDbArc
 50
270.0
 51
0.0
  0
LINE
  5
3BE7
330
18
100
AcDbEntity
  8
1
  6
1-隠れ線
100
AcDbLine
 10
2815.091328614487
 20
2566.918941606689
 30
0.0
 11
2815.091328614487
 21
2570.918941606689
 31
0.0
  0
LINE
  5
3BE8
330
18
100
AcDbEntity
  8
1
  6
1-隠れ線
100
AcDbLine
 10
2812.091328614488
 20
2570.918941606689
 30
0.0
 11
2812.091328614488
 21
2573.918941606689
 31
0.0
  0
LINE
  5
3BE9
330
18
100
AcDbEntity
  8
1
  6
1-隠れ線
100
AcDbLine
 10
2854.091328614487
 20
2566.918941606689
 30
0.0
 11
2813.591328614487
 21
2566.918941606689
 31
0.0
  0
LINE
  5
3BEA
330
18
100
AcDbEntity
  8
1
  6
1-隠れ線
100
AcDbLine
 10
2812.091328614488
 20
2570.918941606689
 30
0.0
 11
2849.091328614488
 21
2570.918941606689
 31
0.0
  0
LINE
  5
3BEB
330
18
100
AcDbEntity
  8
1
  6
1-隠れ線
100
AcDbLine
 10
2812.091328614488
 20
2573.918941606689
 30
0.0
 11
2849.091328614488
 21
2573.918941606689
 31
0.0
  0
ARC
  5
3BEC
330
18
100
AcDbEntity
  8
1
100
AcDbCircle
 10
3288.048631028245
 20
2682.629764299128
 30
0.0
 40
44.0
100
AcDbArc
 50
270.0
 51
0.0
  0
ARC
  5
3BED
330
18
100
AcDbEntity
  8
1
100
AcDbCircle
 10
3288.048631028248
 20
2682.629764299128
 30
0.0
 40
30.0
100
AcDbArc
 50
270.0
 51
0.0
  0
ARC
  5
3BEE
330
18
100
AcDbEntity
  8
1
100
AcDbCircle
 10
3270.969269772571
 20
2624.629764299128
 30
0.0
 40
28.0
100
AcDbArc
 50
90.0
 51
180.0
  0
LINE
  5
3BEF
330
18
100
AcDbEntity
  8
1
100
AcDbLine
 10
3266.591328614488
 20
2633.828680170772
 30
0.0
 11
3611.591328614488
 21
2633.828680170772
 31
0.0
  0
LINE
  5
3BF0
330
18
100
AcDbEntity
  8
1
100
AcDbLine
 10
3308.796543464543
 20
2643.828680170773
 30
0.0
 11
3613.237022617855
 21
2643.828680170773
 31
0.0
  0
LINE
  5
3BF1
330
18
100
AcDbEntity
  8
1
100
AcDbLine
 10
3266.591328614488
 20
2608.828680170772
 30
0.0
 11
3266.591328614488
 21
2633.828680170772
 31
0.0
  0
LINE
  5
3BF2
330
18
100
AcDbEntity
  8
1
100
AcDbLine
 10
3256.969269772571
 20
2624.629764299128
 30
0.0
 11
3256.969269772571
 21
2608.828680170773
 31
0.0
  0
LINE
  5
3BF3
330
18
100
AcDbEntity
  8
1
100
AcDbLine
 10
3316.591328614487
 20
2643.828680170773
 30
0.0
 11
3316.591328614487
 21
2633.828680170772
 31
0.0
  0
LINE
  5
3BF4
330
18
100
AcDbEntity
  8
1
100
AcDbLine
 10
3288.048631028245
 20
2638.629764299128
 30
0.0
 11
3270.969269772571
 21
2638.629764299128
 31
0.0
  0
LINE
  5
3BF5
330
18
100
AcDbEntity
  8
1
100
AcDbLine
 10
3288.048631028245
 20
2652.629764299128
 30
0.0
 11
3270.969269772571
 21
2652.629764299128
 31
0.0
  0
LINE
  5
3BF6
330
18
100
AcDbEntity
  8
1
100
AcDbLine
 10
3242.969269772571
 20
2624.629764299128
 30
0.0
 11
3242.969269772571
 21
2608.828680170773
 31
0.0
  0
ARC
  5
3BF7
330
18
100
AcDbEntity
  8
1
100
AcDbCircle
 10
3270.969269772571
 20
2624.629764299128
 30
0.0
 40
14.0
100
AcDbArc
 50
90.0
 51
180.0
  0
LINE
  5
3BF8
330
18
100
AcDbEntity
  8
1
100
AcDbLine
 10
3611.591328614488
 20
2633.828680170772
 30
0.0
 11
3611.591328614491
 21
2608.828680170772
 31
0.0
  0
LINE
  5
3BF9
330
18
100
AcDbEntity
  8
1
100
AcDbLine
 10
3611.591328614488
 20
2608.828680170772
 30
0.0
 11
3614.591328614488
 21
2608.828680170772
 31
0.0
  0
LINE
  5
3BFA
330
18
100
AcDbEntity
  8
1
100
AcDbLine
 10
3616.591328614491
 20
2608.828680170772
 30
0.0
 11
3619.091328614487
 21
2608.828680170772
 31
0.0
  0
LINE
  5
3BFB
330
18
100
AcDbEntity
  8
1
100
AcDbLine
 10
3581.591328614488
 20
2643.828680170773
 30
0.0
 11
3581.591328614488
 21
2633.828680170772
 31
0.0
  0
LINE
  5
3BFC
330
18
100
AcDbEntity
  8
1
100
AcDbLine
 10
3619.091328614487
 20
2628.828680170772
 30
0.0
 11
3619.091328614487
 21
2622.779833405095
 31
0.0
  0
LINE
  5
3BFD
330
18
100
AcDbEntity
  8
1
100
AcDbLine
 10
3613.237022617855
 20
2705.828680170772
 30
0.0
 11
3618.737022617855
 21
2705.828680170772
 31
0.0
  0
LINE
  5
3BFE
330
18
100
AcDbEntity
  8
1
100
AcDbLine
 10
3613.237022617855
 20
2849.828680170773
 30
0.0
 11
3266.591328614488
 21
2849.828680170773
 31
0.0
  0
ARC
  5
3BFF
330
18
100
AcDbEntity
  8
1
100
AcDbCircle
 10
3325.048631028244
 20
2774.392107145267
 30
0.0
 40
7.0
100
AcDbArc
 50
0.0
 51
180.0
  0
LINE
  5
3C00
330
18
100
AcDbEntity
  8
1
100
AcDbLine
 10
3613.237022617855
 20
2805.828680170773
 30
0.0
 11
3618.737022617855
 21
2805.828680170773
 31
0.0
  0
LINE
  5
3C01
330
18
100
AcDbEntity
  8
1
100
AcDbLine
 10
583.576109814041
 20
3025.5263191086
 30
0.0
 11
582.3761098140439
 21
3025.5263191086
 31
0.0
  0
LINE
  5
3C02
330
18
100
AcDbEntity
  8
1
100
AcDbLine
 10
559.3761098140439
 20
3738.449568782616
 30
0.0
 11
559.3761098140439
 21
3641.363247894249
 31
0.0
  0
LINE
  5
3C03
330
18
100
AcDbEntity
  8
1
100
AcDbLine
 10
575.5761098140701
 20
3547.13031153836
 30
0.0
 11
523.3981305656361
 21
3738.449568782616
 31
0.0
  0
LINE
  5
3C04
330
18
100
AcDbEntity
  8
1
100
AcDbLine
 10
579.3761098140439
 20
3738.449568782616
 30
0.0
 11
579.3761098140439
 21
3613.540867622845
 31
0.0
  0
LINE
  5
3C05
330
18
100
AcDbEntity
  8
1
100
AcDbLine
 10
425.5761098140701
 20
3738.449568782616
 30
0.0
 11
425.5761098140701
 21
3617.13031153836
 31
0.0
  0
LINE
  5
3C06
330
18
100
AcDbEntity
  8
1
100
AcDbLine
 10
575.5761098140701
 20
3547.13031153836
 30
0.0
 11
575.5761098140701
 21
3641.363247894249
 31
0.0
  0
LINE
  5
3C07
330
18
100
AcDbEntity
  8
1
100
AcDbLine
 10
425.5761098140701
 20
3617.13031153836
 30
0.0
 11
575.5761098140701
 21
3547.13031153836
 31
0.0
  0
LINE
  5
3C08
330
18
100
AcDbEntity
  8
1
100
AcDbLine
 10
580.576109814041
 20
3677.515069267697
 30
0.0
 11
579.3761098140439
 21
3677.515069267697
 31
0.0
  0
LINE
  5
3C09
330
18
100
AcDbEntity
  8
1
100
AcDbLine
 10
559.3761098140439
 20
3641.363247894249
 30
0.0
 11
579.3761098140439
 21
3641.363247894249
 31
0.0
  0
LINE
  5
3C0A
330
18
100
AcDbEntity
  8
1
100
AcDbLine
 10
580.576109814041
 20
3613.540867622845
 30
0.0
 11
579.3761098140439
 21
3613.540867622845
 31
0.0
  0
LINE
  5
3C0B
330
18
100
AcDbEntity
  8
1
100
AcDbLine
 10
2433.062901038696
 20
3613.540867622847
 30
0.0
 11
2158.714713230025
 21
3613.540867622845
 31
0.0
  0
LINE
  5
3C0C
330
18
100
AcDbEntity
  8
1
100
AcDbLine
 10
2457.324430662427
 20
3547.13031153836
 30
0.0
 11
2438.93960893008
 21
3615.115526756497
 31
0.0
  0
LINE
  5
3C0D
330
18
100
AcDbEntity
  8
1
100
AcDbLine
 10
2457.324430662427
 20
3547.13031153836
 30
0.0
 11
2558.591328614488
 21
3619.484934625244
 31
0.0
  0
LINE
  5
3C0E
330
18
100
AcDbEntity
  8
1
100
AcDbLine
 10
2433.062901038696
 20
3613.540867622847
 30
0.0
 11
2452.381417564478
 21
3618.717248524898
 31
0.0
  0
ARC
  5
3C0F
330
18
100
AcDbEntity
  8
1
100
AcDbCircle
 10
2449.793227113454
 20
3628.376506787788
 30
0.0
 40
10.0
100
AcDbArc
 50
284.9999999999944
 51
15.00000000004815
  0
LINE
  5
3C10
330
18
100
AcDbEntity
  8
1
100
AcDbLine
 10
3699.091328614488
 20
2098.828680170772
 30
0.0
 11
3699.091328614488
 21
2828.828680170772
 31
0.0
  0
TEXT
  5
3C11
330
18
100
AcDbEntity
  8
2
  6
1-隠れ線
100
AcDbText
 10
3806.812961010118
 20
2096.467579679056
 30
0.0
 40
60.0
  1
止め金具
  7
ＭＳ明朝
100
AcDbText
  0
LINE
  5
3C12
330
18
100
AcDbEntity
  8
1
100
AcDbLine
 10
3699.091328614488
 20
2098.828680170772
 30
0.0
 11
3680.591328614488
 21
2098.828680170772
 31
0.0
  0
ARC
  5
3C13
330
18
100
AcDbEntity
  8
1
100
AcDbCircle
 10
265.1686544016793
 20
4509.130311538362
 30
0.0
 40
14.0
100
AcDbArc
 50
270.0
 51
0.0
  0
ARC
  5
3C14
330
18
100
AcDbEntity
  8
1
100
AcDbCircle
 10
265.1686544016793
 20
4542.587613952115
 30
0.0
 40
14.0
100
AcDbArc
 50
0.0
 51
90.0
  0
ARC
  5
3C15
330
18
100
AcDbEntity
  8
1
100
AcDbCircle
 10
265.1686544016793
 20
4542.587613952115
 30
0.0
 40
28.0
100
AcDbArc
 50
0.0
 51
90.0
  0
DIMENSION
  5
3C16
330
18
100
AcDbEntity
  8
2
100
AcDbDimension
  2
*D6
 10
610.576109814132
 20
5036.828680170772
 30
0.0
 11
285.576109814132
 21
5062.328680170772
 31
0.0
 70
    32
 71
     5
 42
650.0
  3
STANDARD
100
AcDbAlignedDimension
 13
-39.423890185868
 23
4932.130311538361
 33
0.0
 14
610.576109814132
 24
4932.130311538361
 34
0.0
100
AcDbRotatedDimension
1001
ACAD
1000
DSTYLE
1002
{
1070
    40
1040
1.0
1002
}
  0
DIMENSION
  5
3C17
330
18
100
AcDbEntity
  8
2
100
AcDbDimension
  2
*D7
 10
681.5761098140738
 20
5139.592097453718
 30
0.0
 11
139.5832905601055
 21
5169.377811739433
 31
0.0
 70
    32
 71
     5
 42
1083.985638507936
  3
STANDARD
100
AcDbAlignedDimension
 13
-402.4095286938627
 23
4863.892995498673
 33
0.0
 14
681.5761098140738
 24
4942.130311538361
 34
0.0
100
AcDbRotatedDimension
1001
ACAD
1000
DSTYLE
1002
{
1070
    40
1040
1.0
1002
}
  0
LINE
  5
3C18
330
18
100
AcDbEntity
  8
1
100
AcDbLine
 10
675.5761098140701
 20
4855.130311538362
 30
0.0
 11
35.57610981407015
 21
4855.130311538362
 31
0.0
  0
LINE
  5
3C19
330
18
100
AcDbEntity
  8
1
100
AcDbLine
 10
455.5761098140737
 20
4935.130311538363
 30
0.0
 11
95.57610981407378
 21
4935.130311538362
 31
0.0
  0
LINE
  5
3C1A
330
18
100
AcDbEntity
  8
1
100
AcDbLine
 10
633.5761098141319
 20
4097.13031153836
 30
0.0
 11
-66.42389018586801
 21
4097.130311538362
 31
0.0
  0
LINE
  5
3C1B
330
18
100
AcDbEntity
  8
1
100
AcDbLine
 10
635.5761098140702
 20
4097.13031153836
 30
0.0
 11
-64.42389018598806
 21
4097.130311538362
 31
0.0
  0
LINE
  5
3C1C
330
18
100
AcDbEntity
  8
1
100
AcDbLine
 10
-384.423890185868
 20
4097.13031153836
 30
0.0
 11
673.5761098141283
 21
4097.13031153836
 31
0.0
  0
LINE
  5
3C1D
330
18
100
AcDbEntity
  8
1
100
AcDbLine
 10
633.5761098141319
 20
4097.13031153836
 30
0.0
 11
-66.42389018586801
 21
4097.130311538362
 31
0.0
  0
LINE
  5
3C1E
330
18
100
AcDbEntity
  8
1
100
AcDbLine
 10
635.5761098140702
 20
4097.13031153836
 30
0.0
 11
-5.513890185988202
 21
4097.130311538362
 31
0.0
  0
LINE
  5
3C1F
330
18
100
AcDbEntity
  8
1
100
AcDbLine
 10
580.576109814041
 20
4027.916733815214
 30
0.0
 11
-9.423890185958953
 21
4027.916733815214
 31
0.0
  0
LINE
  5
3C20
330
18
100
AcDbEntity
  8
1
100
AcDbLine
 10
580.576109814041
 20
4097.130311538362
 30
0.0
 11
-9.423890185958953
 21
4097.130311538362
 31
0.0
  0
ARC
  5
3C21
330
18
100
AcDbEntity
  8
1
100
AcDbCircle
 10
265.1686544016793
 20
4509.130311538362
 30
0.0
 40
28.0
100
AcDbArc
 50
270.0
 51
0.0
  0
LINE
  5
3C22
330
18
100
AcDbEntity
  8
1
100
AcDbLine
 10
95.57610981407378
 20
4935.130311538362
 30
0.0
 11
95.57610981407014
 21
4862.130311538361
 31
0.0
  0
LINE
  5
3C23
330
18
100
AcDbEntity
  8
1
100
AcDbLine
 10
95.57610981407378
 20
4935.130311538362
 30
0.0
 11
95.57610981407014
 21
4855.130311538362
 31
0.0
  0
CIRCLE
  5
3C24
330
18
100
AcDbEntity
  8
1
100
AcDbCircle
 10
-264.423890185868
 20
4932.130309194959
 30
0.0
 40
5.0
  0
LINE
  5
3C25
330
18
100
AcDbEntity
  8
1
100
AcDbLine
 10
-244.423890185868
 20
4952.130313881763
 30
0.0
 11
-244.423890185868
 21
4902.13031153836
 31
0.0
  0
LINE
  5
3C26
330
18
100
AcDbEntity
  8
2
  6
4-中心線
100
AcDbLine
 10
-39.423890185868
 20
4932.130311538361
 30
0.0
 11
-39.423890185868
 21
4832.13031153836
 31
0.0
  0
LINE
  5
3C27
330
18
100
AcDbEntity
  8
2
  6
4-中心線
100
AcDbLine
 10
-39.423890185868
 20
4932.130311538361
 30
0.0
 11
-39.423890185868
 21
4832.13031153836
 31
0.0
  0
LINE
  5
3C28
330
18
100
AcDbEntity
  8
2
  6
4-中心線
100
AcDbLine
 10
-39.423890185868
 20
4932.130311538361
 30
0.0
 11
-39.423890185868
 21
4832.13031153836
 31
0.0
  0
LINE
  5
3C29
330
18
100
AcDbEntity
  8
2
  6
4-中心線
100
AcDbLine
 10
-39.423890185868
 20
4932.130311538361
 30
0.0
 11
-39.423890185868
 21
4832.13031153836
 31
0.0
  0
LINE
  5
3C2A
330
18
100
AcDbEntity
  8
2
  6
4-中心線
100
AcDbLine
 10
-39.423890185868
 20
4932.130311538361
 30
0.0
 11
-39.423890185868
 21
4832.13031153836
 31
0.0
  0
LINE
  5
3C2B
330
18
100
AcDbEntity
  8
2
  6
4-中心線
100
AcDbLine
 10
-39.423890185868
 20
4932.130311538361
 30
0.0
 11
-39.423890185868
 21
4832.13031153836
 31
0.0
  0
LINE
  5
3C2C
330
18
100
AcDbEntity
  8
2
  6
4-中心線
100
AcDbLine
 10
-39.423890185868
 20
4932.130311538361
 30
0.0
 11
-39.423890185868
 21
4832.13031153836
 31
0.0
  0
CIRCLE
  5
3C2D
330
18
100
AcDbEntity
  8
1
100
AcDbCircle
 10
-364.423890185868
 20
4932.130309194959
 30
0.0
 40
5.0
  0
LINE
  5
3C2E
330
18
100
AcDbEntity
  8
1
100
AcDbLine
 10
-384.423890185868
 20
4952.130313881763
 30
0.0
 11
-384.423890185868
 21
4864.13031153836
 31
0.0
  0
LINE
  5
3C30
330
18
100
AcDbEntity
  8
1
100
AcDbLine
 10
19.57610981407015
 20
4461.130311538362
 30
0.0
 11
19.57610981407015
 21
4226.130311538361
 31
0.0
  0
LINE
  5
3C31
330
18
100
AcDbEntity
  8
1
100
AcDbLine
 10
33.57610981407015
 20
4461.130311538362
 30
0.0
 11
33.57610981407015
 21
4226.130311538361
 31
0.0
  0
LINE
  5
3C32
330
18
100
AcDbEntity
  8
1
100
AcDbLine
 10
35.57610981407015
 20
4476.130311538361
 30
0.0
 11
35.57610981407015
 21
4097.13031153836
 31
0.0
  0
LINE
  5
3C33
330
18
100
AcDbEntity
  8
1
100
AcDbLine
 10
-4.423890185929849
 20
4662.130311538361
 30
0.0
 11
-4.423890185929849
 21
4136.414893295646
 31
0.0
  0
LEADER
  5
3C34
330
18
100
AcDbEntity
  8
2
100
AcDbLeader
  3
STANDARD
 76
     3
 10
118.5761098140119
 20
4671.328680170772
 30
0.0
 10
-215.923890185988
 20
4336.828680170772
 30
0.0
 10
-719.923890185988
 20
4336.828680170772
 30
0.0
1001
ACAD
1000
DSTYLE
1002
{
1070
    40
1040
1.0
1070
    77
1070
     1
1070
   147
1040
1.0
1002
}
  0
LINE
  5
3C35
330
18
100
AcDbEntity
  8
1
100
AcDbLine
 10
-19.423890185868
 20
4662.130311538361
 30
0.0
 11
-19.423890185868
 21
4097.13031153836
 31
0.0
  0
LINE
  5
3C36
330
18
100
AcDbEntity
  8
1
100
AcDbLine
 10
-59.423890185868
 20
4662.130311538361
 30
0.0
 11
-59.423890185868
 21
4097.13031153836
 31
0.0
  0
LINE
  5
3C37
330
18
100
AcDbEntity
  8
1
100
AcDbLine
 10
-69.423890185868
 20
4662.130311538361
 30
0.0
 11
-69.423890185868
 21
4097.13031153836
 31
0.0
  0
LINE
  5
3C38
330
18
100
AcDbEntity
  8
1
100
AcDbLine
 10
-9.423890185868003
 20
4662.130311538361
 30
0.0
 11
-9.423890185868003
 21
4133.530130321484
 31
0.0
  0
LINE
  5
3C39
330
18
100
AcDbEntity
  8
1
100
AcDbLine
 10
-4.423890185929849
 20
4655.130311538361
 30
0.0
 11
-4.423890185929849
 21
4136.414893295646
 31
0.0
  0
TEXT
  5
3C3A
330
18
100
AcDbEntity
  8
2
  6
1-隠れ線
100
AcDbText
 10
-658.9238901859298
 20
4371.885823027915
 30
0.0
 40
60.0
  1
駆動モータ
  7
ＭＳ明朝
100
AcDbText
  0
LINE
  5
3C3B
330
18
100
AcDbEntity
  8
1
100
AcDbLine
 10
18.57610981407015
 20
4226.130311538361
 30
0.0
 11
18.57610981407015
 21
4211.130311538362
 31
0.0
  0
ARC
  5
3C3C
330
18
100
AcDbEntity
  8
1
100
AcDbCircle
 10
15.57610981407015
 20
4218.630311538361
 30
0.0
 40
7.5
100
AcDbArc
 50
90.0
 51
270.0
  0
LINE
  5
3C3D
330
18
100
AcDbEntity
  8
1
100
AcDbLine
 10
-4.423890185929849
 20
4057.130311538361
 30
0.0
 11
-384.423890185868
 21
4057.130311538361
 31
0.0
  0
LINE
  5
3C3E
330
18
100
AcDbEntity
  8
1
100
AcDbLine
 10
-384.423890185868
 20
4147.130313881763
 30
0.0
 11
-384.423890185868
 21
4007.130309194958
 31
0.0
  0
LINE
  5
3C3F
330
18
100
AcDbEntity
  8
1
100
AcDbLine
 10
-384.4238901858643
 20
4007.130309194958
 30
0.0
 11
-244.423890185868
 21
4007.130309194958
 31
0.0
  0
CIRCLE
  5
3C40
330
18
100
AcDbEntity
  8
1
100
AcDbCircle
 10
-364.423890185868
 20
4027.130309194958
 30
0.0
 40
5.0
  0
LINE
  5
3C41
330
18
100
AcDbEntity
  8
1
100
AcDbLine
 10
-244.423890185868
 20
4057.130311538361
 30
0.0
 11
-244.423890185868
 21
4007.130309194958
 31
0.0
  0
CIRCLE
  5
3C42
330
18
100
AcDbEntity
  8
1
100
AcDbCircle
 10
-264.423890185868
 20
4027.130309194958
 30
0.0
 40
5.0
  0
LINE
  5
3C43
330
18
100
AcDbEntity
  8
1
100
AcDbLine
 10
-384.423890185868
 20
4147.130309194959
 30
0.0
 11
-244.423890185868
 21
4147.130309194959
 31
0.0
  0
CIRCLE
  5
3C44
330
18
100
AcDbEntity
  8
1
100
AcDbCircle
 10
-364.423890185868
 20
4127.130309194958
 30
0.0
 40
5.0
  0
CIRCLE
  5
3C45
330
18
100
AcDbEntity
  8
1
100
AcDbCircle
 10
-264.423890185868
 20
4127.130309194958
 30
0.0
 40
5.0
  0
LINE
  5
3C46
330
18
100
AcDbEntity
  8
1
100
AcDbLine
 10
-244.423890185868
 20
4147.130313881763
 30
0.0
 11
-244.423890185868
 21
4097.13031153836
 31
0.0
  0
LINE
  5
3C47
330
18
100
AcDbEntity
  8
1
  6
1-隠れ線
100
AcDbLine
 10
74.4861098140118
 20
4097.130311538362
 30
0.0
 11
74.4861098140118
 21
4036.630311538361
 31
0.0
  0
LINE
  5
3C48
330
18
100
AcDbEntity
  8
1
100
AcDbLine
 10
-19.5138901859882
 20
4113.462945665846
 30
0.0
 11
-19.5138901859882
 21
4080.63031153836
 31
0.0
  0
LINE
  5
3C49
330
18
100
AcDbEntity
  8
2
  6
4-中心線
100
AcDbLine
 10
-39.423890185868
 20
4127.130311538361
 30
0.0
 11
-39.423890185868
 21
4027.13031153836
 31
0.0
  0
LINE
  5
3C4A
330
18
100
AcDbEntity
  8
2
  6
4-中心線
100
AcDbLine
 10
-39.423890185868
 20
4127.130311538361
 30
0.0
 11
-39.423890185868
 21
4027.13031153836
 31
0.0
  0
LINE
  5
3C4B
330
18
100
AcDbEntity
  8
1
100
AcDbLine
 10
-5.513890185988202
 20
4110.462945665846
 30
0.0
 11
-5.513890185988202
 21
4036.630311538361
 31
0.0
  0
LINE
  5
3C4C
330
18
100
AcDbEntity
  8
1
100
AcDbLine
 10
-104.4238901859298
 20
4097.13031153836
 30
0.0
 11
-104.4238901859298
 21
4057.130311538361
 31
0.0
  0
LINE
  5
3C4D
330
18
100
AcDbEntity
  8
1
100
AcDbLine
 10
-104.4238901859298
 20
4097.13031153836
 30
0.0
 11
-104.4238901859298
 21
4057.130311538361
 31
0.0
  0
LINE
  5
3C4E
330
18
100
AcDbEntity
  8
1
  6
1-隠れ線
100
AcDbLine
 10
-5.513890185988202
 20
4036.630311538361
 30
0.0
 11
74.4861098140118
 21
4036.630311538361
 31
0.0
  0
CIRCLE
  5
3C4F
330
18
100
AcDbEntity
  8
1
  6
1-隠れ線
100
AcDbCircle
 10
-39.423890185868
 20
4077.13031153836
 30
0.0
 40
8.0
  0
ARC
  5
3C50
330
18
100
AcDbEntity
  8
1
100
AcDbCircle
 10
-5.513890185988202
 20
4080.63031153836
 30
0.0
 40
14.0
100
AcDbArc
 50
180.0
 51
270.0
  0
CIRCLE
  5
3C51
330
18
100
AcDbEntity
  8
1
  6
1-隠れ線
100
AcDbCircle
 10
34.48610981401179
 20
4073.63031153836
 30
0.0
 40
18.5
  0
LINE
  5
3C52
330
18
100
AcDbEntity
  8
2
  6
4-中心線
100
AcDbLine
 10
10.57610981413199
 20
4077.13031153836
 30
0.0
 11
-89.423890185868
 21
4077.13031153836
 31
0.0
  0
LINE
  5
3C53
330
18
100
AcDbEntity
  8
1
100
AcDbLine
 10
-104.4238901859298
 20
4057.130311538361
 30
0.0
 11
-6.423890185871641
 21
4057.130311538361
 31
0.0
  0
LINE
  5
3C54
330
18
100
AcDbEntity
  8
1
100
AcDbLine
 10
-102.423890185988
 20
4057.130311538361
 30
0.0
 11
-4.423890185929849
 21
4057.130311538361
 31
0.0
  0
LINE
  5
3C55
330
18
100
AcDbEntity
  8
1
100
AcDbLine
 10
-104.4238901859298
 20
4057.130311538361
 30
0.0
 11
-8.423890185809796
 21
4057.130311538361
 31
0.0
  0
LINE
  5
3C56
330
18
100
AcDbEntity
  8
2
  6
4-中心線
100
AcDbLine
 10
12.57610981413199
 20
4077.13031153836
 30
0.0
 11
-87.423890185868
 21
4077.13031153836
 31
0.0
  0
LINE
  5
3C57
330
18
100
AcDbEntity
  8
2
  6
4-中心線
100
AcDbLine
 10
10.57610981413199
 20
4077.13031153836
 30
0.0
 11
-89.423890185868
 21
4077.13031153836
 31
0.0
  0
LINE
  5
3C58
330
18
100
AcDbEntity
  8
2
  6
4-中心線
100
AcDbLine
 10
10.57610981413199
 20
4077.13031153836
 30
0.0
 11
-89.423890185868
 21
4077.13031153836
 31
0.0
  0
LINE
  5
3C59
330
18
100
AcDbEntity
  8
2
  6
4-中心線
100
AcDbLine
 10
12.57610981413199
 20
4077.13031153836
 30
0.0
 11
-87.423890185868
 21
4077.13031153836
 31
0.0
  0
LINE
  5
3C5A
330
18
100
AcDbEntity
  8
1
100
AcDbLine
 10
-104.4238901859298
 20
4057.130311538361
 30
0.0
 11
-5.513890185988202
 21
4057.130311538361
 31
0.0
  0
LINE
  5
3C5B
330
18
100
AcDbEntity
  8
2
  6
4-中心線
100
AcDbLine
 10
12.57610981407015
 20
4077.13031153836
 30
0.0
 11
-87.42389018592986
 21
4077.13031153836
 31
0.0
  0
LINE
  5
3C5C
330
18
100
AcDbEntity
  8
1
  6
1-隠れ線
100
AcDbLine
 10
74.4861098140118
 20
4097.130311538362
 30
0.0
 11
-5.513890185988202
 21
4097.13031153836
 31
0.0
  0
LINE
  5
3C5D
330
18
100
AcDbEntity
  8
1
100
AcDbLine
 10
128.076109814041
 20
4105.930311538361
 30
0.0
 11
63.07610981404105
 21
4105.930311538361
 31
0.0
  0
LINE
  5
3C5E
330
18
100
AcDbEntity
  8
1
100
AcDbLine
 10
63.07610981404105
 20
4099.130311538361
 30
0.0
 11
128.076109814041
 21
4099.130311538361
 31
0.0
  0
LINE
  5
3C5F
330
18
100
AcDbEntity
  8
1
100
AcDbLine
 10
128.076109814041
 20
4097.130311538362
 30
0.0
 11
63.07610981404105
 21
4097.130311538362
 31
0.0
  0
LINE
  5
3C60
330
18
100
AcDbEntity
  8
1
100
AcDbLine
 10
19.57610981407015
 20
4211.130311538362
 30
0.0
 11
19.57610981407015
 21
4152.462945665845
 31
0.0
  0
LINE
  5
3C61
330
18
100
AcDbEntity
  8
1
100
AcDbLine
 10
33.57610981407015
 20
4211.130311538362
 30
0.0
 11
33.57610981407015
 21
4149.462945665845
 31
0.0
  0
LINE
  5
3C62
330
18
100
AcDbEntity
  8
1
100
AcDbLine
 10
35.57610981407015
 20
4211.130311538362
 30
0.0
 11
15.57610981407015
 21
4211.130311538362
 31
0.0
  0
LINE
  5
3C63
330
18
100
AcDbEntity
  8
1
100
AcDbLine
 10
63.07610981404105
 20
4097.130311538362
 30
0.0
 11
63.07610981404105
 21
4099.130311538361
 31
0.0
  0
LINE
  5
3C64
330
18
100
AcDbEntity
  8
1
100
AcDbLine
 10
63.07610981404105
 20
4105.930311538361
 30
0.0
 11
63.07610981404105
 21
4099.130311538361
 31
0.0
  0
LINE
  5
3C65
330
18
100
AcDbEntity
  8
1
100
AcDbLine
 10
-6.423890185871641
 20
4097.13031153836
 30
0.0
 11
-16.423890185868
 21
4097.13031153836
 31
0.0
  0
LINE
  5
3C66
330
18
100
AcDbEntity
  8
1
100
AcDbLine
 10
-4.423890185929849
 20
4115.878838944106
 30
0.0
 11
-4.423890185929849
 21
4097.13031153836
 31
0.0
  0
ARC
  5
3C67
330
18
100
AcDbEntity
  8
1
100
AcDbCircle
 10
5.486109814011797
 20
4113.462945665845
 30
0.0
 40
25.0
100
AcDbArc
 50
90.0
 51
180.0
  0
ARC
  5
3C68
330
18
100
AcDbEntity
  8
1
100
AcDbCircle
 10
8.486109814011797
 20
4110.462945665846
 30
0.0
 40
14.0
100
AcDbArc
 50
90.0
 51
180.0
  0
LINE
  5
3C69
330
18
100
AcDbEntity
  8
1
  6
1-隠れ線
100
AcDbLine
 10
-4.423890185929849
 20
4097.13031153836
 30
0.0
 11
-5.513890185988202
 21
4097.13031153836
 31
0.0
  0
LINE
  5
3C6A
330
18
100
AcDbEntity
  8
1
100
AcDbLine
 10
8.486109814011797
 20
4124.462945665846
 30
0.0
 11
8.57610981407015
 21
4124.462945665846
 31
0.0
  0
LINE
  5
3C6B
330
18
100
AcDbEntity
  8
1
100
AcDbLine
 10
5.57610981407015
 20
4138.462945665845
 30
0.0
 11
5.486109814011797
 21
4138.462945665845
 31
0.0
  0
LINE
  5
3C6C
330
18
100
AcDbEntity
  8
1
100
AcDbLine
 10
-4.423890185929849
 20
4115.878838944107
 30
0.0
 11
-4.423890185929849
 21
4097.13031153836
 31
0.0
  0
LINE
  5
3C6D
330
18
100
AcDbEntity
  8
1
100
AcDbLine
 10
-9.423890185958953
 20
4101.53031153836
 30
0.0
 11
-8.223890185958225
 21
4101.53031153836
 31
0.0
  0
LINE
  5
3C6E
330
18
100
AcDbEntity
  8
1
100
AcDbLine
 10
-8.223890185958225
 20
4097.130311538362
 30
0.0
 11
-8.223890185958225
 21
4101.53031153836
 31
0.0
  0
LINE
  5
3C6F
330
18
100
AcDbEntity
  8
1
100
AcDbLine
 10
-64.42389018592985
 20
4097.13031153836
 30
0.0
 11
-104.4238901859298
 21
4097.13031153836
 31
0.0
  0
LINE
  5
3C70
330
18
100
AcDbEntity
  8
1
100
AcDbLine
 10
-64.42389018592985
 20
4097.13031153836
 30
0.0
 11
-104.4238901859298
 21
4097.13031153836
 31
0.0
  0
LINE
  5
3C71
330
18
100
AcDbEntity
  8
1
100
AcDbLine
 10
-19.5138901859882
 20
4097.130311538362
 30
0.0
 11
-64.42389018592985
 21
4097.130311538362
 31
0.0
  0
ARC
  5
3C72
330
18
100
AcDbEntity
  8
1
100
AcDbCircle
 10
8.57610981407015
 20
4149.462945665846
 30
0.0
 40
25.0
100
AcDbArc
 50
270.0
 51
0.0
  0
ARC
  5
3C73
330
18
100
AcDbEntity
  8
1
100
AcDbCircle
 10
5.57610981407015
 20
4152.462945665845
 30
0.0
 40
14.0
100
AcDbArc
 50
270.0
 51
0.0
  0
LINE
  5
3C74
330
18
100
AcDbEntity
  8
1
100
AcDbLine
 10
128.076109814041
 20
4099.130311538361
 30
0.0
 11
128.076109814041
 21
4097.130311538362
 31
0.0
  0
LINE
  5
3C75
330
18
100
AcDbEntity
  8
1
100
AcDbLine
 10
128.076109814041
 20
4099.130311538361
 30
0.0
 11
128.076109814041
 21
4097.130311538362
 31
0.0
  0
LINE
  5
3C76
330
18
100
AcDbEntity
  8
1
100
AcDbLine
 10
128.076109814041
 20
4099.130311538361
 30
0.0
 11
128.076109814041
 21
4105.930311538361
 31
0.0
  0
LINE
  5
3C77
330
18
100
AcDbEntity
  8
1
100
AcDbLine
 10
35.57610981407015
 20
4226.130311538361
 30
0.0
 11
15.57610981407015
 21
4226.130311538361
 31
0.0
  0
ARC
  5
3C78
330
18
100
AcDbEntity
  8
1
100
AcDbCircle
 10
15.57610981407015
 20
4218.630311538361
 30
0.0
 40
4.0
100
AcDbArc
 50
41.40962210927894
 51
318.590377890721
  0
LINE
  5
3C79
330
18
100
AcDbEntity
  8
1
100
AcDbLine
 10
255.5761098140701
 20
4855.130311538362
 30
0.0
 11
255.5761098140701
 21
4570.587613952116
 31
0.0
  0
LINE
  5
3C7A
330
18
100
AcDbEntity
  8
1
100
AcDbLine
 10
-244.7247164892633
 20
4864.13031153836
 30
0.0
 11
-244.7247164892633
 21
4660.13031153836
 31
0.0
  0
LINE
  5
3C7B
330
18
100
AcDbEntity
  8
1
100
AcDbLine
 10
-94.72471648928149
 20
4864.13031153836
 30
0.0
 11
-94.72471648928149
 21
4660.13031153836
 31
0.0
  0
LINE
  5
3C7C
330
18
100
AcDbEntity
  8
1
100
AcDbLine
 10
35.57610981407015
 20
4855.130311538362
 30
0.0
 11
35.57610981407015
 21
4492.428532819708
 31
0.0
  0
LINE
  5
3C7D
330
18
100
AcDbEntity
  8
1
100
AcDbLine
 10
-402.4095286938627
 20
4864.13031153836
 30
0.0
 11
-402.4095286938627
 21
4660.13031153836
 31
0.0
  0
LINE
  5
3C7E
330
18
100
AcDbEntity
  8
1
100
AcDbLine
 10
-94.72471648928149
 20
4660.13031153836
 30
0.0
 11
-402.4095286938627
 21
4660.13031153836
 31
0.0
  0
LINE
  5
3C7F
330
18
100
AcDbEntity
  8
1
100
AcDbLine
 10
35.57610981407015
 20
4495.130311538361
 30
0.0
 11
35.57610981407015
 21
4655.130311538361
 31
0.0
  0
LINE
  5
3C80
330
18
100
AcDbEntity
  8
1
100
AcDbLine
 10
265.1686544016793
 20
4495.130311538361
 30
0.0
 11
47.57610981407014
 21
4495.130311538361
 31
0.0
  0
LINE
  5
3C81
330
18
100
AcDbEntity
  8
1
100
AcDbLine
 10
255.5761098140701
 20
4495.130311538361
 30
0.0
 11
35.57610981407015
 21
4495.130311538361
 31
0.0
  0
LINE
  5
3C82
330
18
100
AcDbEntity
  8
1
100
AcDbLine
 10
47.57610981407014
 20
4481.130311538361
 30
0.0
 11
265.1686544016793
 21
4481.130311538361
 31
0.0
  0
ARC
  5
3C83
330
18
100
AcDbEntity
  8
1
100
AcDbCircle
 10
15.57610981407015
 20
4468.630311538361
 30
0.0
 40
4.0
100
AcDbArc
 50
35.57051598528308
 51
318.590377890721
  0
LINE
  5
3C84
330
18
100
AcDbEntity
  8
1
100
AcDbLine
 10
35.57610981407015
 20
4461.130311538362
 30
0.0
 11
15.57610981407015
 21
4461.130311538362
 31
0.0
  0
LINE
  5
3C85
330
18
100
AcDbEntity
  8
1
100
AcDbLine
 10
35.57610981407015
 20
4476.130311538361
 30
0.0
 11
15.57610981407015
 21
4476.130311538361
 31
0.0
  0
LINE
  5
3C86
330
18
100
AcDbEntity
  8
1
100
AcDbLine
 10
18.57610981407015
 20
4467.130311538361
 30
0.0
 11
18.57610981407015
 21
4461.130311538362
 31
0.0
  0
ARC
  5
3C87
330
18
100
AcDbEntity
  8
1
100
AcDbCircle
 10
47.57610981407014
 20
4467.130311538361
 30
0.0
 40
29.0
100
AcDbArc
 50
161.9199873755714
 51
180.0
  0
ARC
  5
3C88
330
18
100
AcDbEntity
  8
1
100
AcDbCircle
 10
251.6065930892491
 20
3974.557151677915
 30
0.0
 40
546.1179400060935
100
AcDbArc
 50
111.9379035380082
 51
113.3018263579824
  0
ARC
  5
3C89
330
18
100
AcDbEntity
  8
1
100
AcDbCircle
 10
15.57610981407015
 20
4468.630311538361
 30
0.0
 40
7.5
100
AcDbArc
 50
90.0
 51
270.0
  0
ARC
  5
3C8A
330
18
100
AcDbEntity
  8
1
100
AcDbCircle
 10
47.57610981407014
 20
4467.130311538361
 30
0.0
 40
28.0
100
AcDbArc
 50
90.0
 51
161.2506591529335
  0
LINE
  5
3C8B
330
18
100
AcDbEntity
  8
1
100
AcDbLine
 10
255.5761098140701
 20
4556.587613952116
 30
0.0
 11
255.5761098140701
 21
4495.130311538361
 31
0.0
  0
LINE
  5
3C8C
330
18
100
AcDbEntity
  8
1
100
AcDbLine
 10
279.1686544016793
 20
4542.587613952115
 30
0.0
 11
279.1686544016793
 21
4509.130311538362
 31
0.0
  0
LINE
  5
3C8D
330
18
100
AcDbEntity
  8
1
100
AcDbLine
 10
279.0985520913036
 20
4543.986881745142
 30
0.0
 11
255.5761098140701
 21
4543.986881745142
 31
0.0
  0
ARC
  5
3C8E
330
18
100
AcDbEntity
  8
1
100
AcDbCircle
 10
170.012682839575
 20
4563.587613952115
 30
0.0
 40
7.0
100
AcDbArc
 50
90.0
 51
270.0
  0
LINE
  5
3C8F
330
18
100
AcDbEntity
  8
1
100
AcDbLine
 10
265.1686544016793
 20
4570.587613952116
 30
0.0
 11
170.0126828395714
 21
4570.587613952116
 31
0.0
  0
LINE
  5
3C90
330
18
100
AcDbEntity
  8
1
100
AcDbLine
 10
265.1686544016793
 20
4556.587613952116
 30
0.0
 11
170.012682839575
 21
4556.587613952116
 31
0.0
  0
LINE
  5
3C91
330
18
100
AcDbEntity
  8
1
100
AcDbLine
 10
35.57610981407015
 20
4662.130311538361
 30
0.0
 11
-94.72471648928149
 21
4662.130311538361
 31
0.0
  0
LINE
  5
3C92
330
18
100
AcDbEntity
  8
1
100
AcDbLine
 10
-94.72471648928149
 20
4864.13031153836
 30
0.0
 11
-402.4095286938627
 21
4864.13031153836
 31
0.0
  0
LINE
  5
3C93
330
18
100
AcDbEntity
  8
1
100
AcDbLine
 10
-384.423890185868
 20
4902.13031153836
 30
0.0
 11
95.57610981407014
 21
4902.13031153836
 31
0.0
  0
LINE
  5
3C94
330
18
100
AcDbEntity
  8
1
100
AcDbLine
 10
145.5761098140701
 20
4795.130311538361
 30
0.0
 11
162.377883795687
 21
4804.991317156768
 31
0.0
  0
LINE
  5
3C95
330
18
100
AcDbEntity
  8
1
100
AcDbLine
 10
145.5761098140701
 20
4795.130311538361
 30
0.0
 11
162.377883795687
 21
4785.269305919956
 31
0.0
  0
LINE
  5
3C96
330
18
100
AcDbEntity
  8
1
100
AcDbLine
 10
75.57610981407015
 20
4795.130311538361
 30
0.0
 11
112.377883795687
 21
4785.269305919956
 31
0.0
  0
LINE
  5
3C97
330
18
100
AcDbEntity
  8
1
100
AcDbLine
 10
75.57610981407015
 20
4795.130311538361
 30
0.0
 11
112.377883795687
 21
4804.991317156768
 31
0.0
  0
LINE
  5
3C98
330
18
100
AcDbEntity
  8
1
100
AcDbLine
 10
75.57610981407015
 20
4795.130311538361
 30
0.0
 11
145.5761098140701
 21
4795.130311538361
 31
0.0
  0
LINE
  5
3C99
330
18
100
AcDbEntity
  8
1
100
AcDbLine
 10
162.377883795687
 20
4785.269305919956
 30
0.0
 11
202.377883795687
 21
4785.269305919956
 31
0.0
  0
LINE
  5
3C9A
330
18
100
AcDbEntity
  8
1
100
AcDbLine
 10
162.377883795687
 20
4804.991317156768
 30
0.0
 11
202.377883795687
 21
4804.991317156768
 31
0.0
  0
LINE
  5
3C9B
330
18
100
AcDbEntity
  8
1
100
AcDbLine
 10
185.5761098140701
 20
4795.130311538361
 30
0.0
 11
202.377883795687
 21
4785.269305919956
 31
0.0
  0
LINE
  5
3C9C
330
18
100
AcDbEntity
  8
1
100
AcDbLine
 10
185.5761098140701
 20
4795.130311538361
 30
0.0
 11
202.377883795687
 21
4804.991317156768
 31
0.0
  0
LINE
  5
3C9D
330
18
100
AcDbEntity
  8
1
100
AcDbLine
 10
95.57610981407014
 20
4862.130311538361
 30
0.0
 11
35.57610981407015
 21
4862.130311538361
 31
0.0
  0
LINE
  5
3C9E
330
18
100
AcDbEntity
  8
1
100
AcDbLine
 10
95.57610981407014
 20
4902.13031153836
 30
0.0
 11
-104.4238901859298
 21
4902.13031153836
 31
0.0
  0
LINE
  5
3C9F
330
18
100
AcDbEntity
  8
1
100
AcDbLine
 10
-66.42389018592985
 20
4862.130311538352
 30
0.0
 11
95.57610981407014
 21
4862.130311538352
 31
0.0
  0
LINE
  5
3CA0
330
18
100
AcDbEntity
  8
1
100
AcDbLine
 10
93.576109814132
 20
4902.13031153836
 30
0.0
 11
-106.4238901858679
 21
4902.13031153836
 31
0.0
  0
LINE
  5
3CA1
330
18
100
AcDbEntity
  8
1
100
AcDbLine
 10
95.57610981407378
 20
4902.13031153836
 30
0.0
 11
-104.4238901859262
 21
4902.13031153836
 31
0.0
  0
LINE
  5
3CA2
330
18
100
AcDbEntity
  8
1
100
AcDbLine
 10
35.57610981407015
 20
4855.130311538362
 30
0.0
 11
255.5761098140701
 21
4855.130311538362
 31
0.0
  0
CIRCLE
  5
3CA3
330
18
100
AcDbEntity
  8
1
  6
1-隠れ線
100
AcDbCircle
 10
-39.423890185868
 20
4882.130311538361
 30
0.0
 40
8.0
  0
LINE
  5
3CA4
330
18
100
AcDbEntity
  8
1
100
AcDbLine
 10
-104.4238901859298
 20
4895.130311538362
 30
0.0
 11
-104.4238901859298
 21
4864.13031153836
 31
0.0
  0
LINE
  5
3CA5
330
18
100
AcDbEntity
  8
1
100
AcDbLine
 10
-104.4238901859298
 20
4902.13031153836
 30
0.0
 11
-104.4238901859298
 21
4864.13031153836
 31
0.0
  0
LINE
  5
3CA6
330
18
100
AcDbEntity
  8
1
100
AcDbLine
 10
-104.4238901859298
 20
4895.130311538362
 30
0.0
 11
-104.4238901859262
 21
4864.13031153836
 31
0.0
  0
LINE
  5
3CA7
330
18
100
AcDbEntity
  8
1
100
AcDbLine
 10
35.57610981407015
 20
4862.130311538361
 30
0.0
 11
-94.72471648928149
 21
4862.130311538361
 31
0.0
  0
LINE
  5
3CA8
330
18
100
AcDbEntity
  8
2
  6
4-中心線
100
AcDbLine
 10
-89.423890185868
 20
4882.130311538361
 30
0.0
 11
10.57610981413199
 21
4882.130311538361
 31
0.0
  0
LINE
  5
3CA9
330
18
100
AcDbEntity
  8
1
100
AcDbLine
 10
33.57610981413199
 20
4862.130311538361
 30
0.0
 11
-66.42389018592985
 21
4862.130311538361
 31
0.0
  0
LINE
  5
3CAA
330
18
100
AcDbEntity
  8
2
  6
4-中心線
100
AcDbLine
 10
10.57610981413199
 20
4882.130311538361
 30
0.0
 11
-89.423890185868
 21
4882.130311538361
 31
0.0
  0
LINE
  5
3CAB
330
18
100
AcDbEntity
  8
2
  6
4-中心線
100
AcDbLine
 10
10.57610981413199
 20
4882.130311538361
 30
0.0
 11
-89.423890185868
 21
4882.130311538361
 31
0.0
  0
LINE
  5
3CAC
330
18
100
AcDbEntity
  8
2
  6
4-中心線
100
AcDbLine
 10
-87.42389018592986
 20
4882.130311538361
 30
0.0
 11
12.57610981407015
 21
4882.130311538361
 31
0.0
  0
LINE
  5
3CAD
330
18
100
AcDbEntity
  8
1
100
AcDbLine
 10
35.57610981407015
 20
4855.130311538362
 30
0.0
 11
-94.72471648928149
 21
4855.130311538362
 31
0.0
  0
TEXT
  5
3CAE
330
18
100
AcDbEntity
  8
2
  6
1-隠れ線
100
AcDbText
 10
-591.6109137498333
 20
5240.55888260508
 30
0.0
 40
60.0
  1
回転方向
  7
ＭＳ明朝
100
AcDbText
  0
LINE
  5
3CAF
330
18
100
AcDbEntity
  8
1
100
AcDbLine
 10
-384.423890185868
 20
4952.130309194958
 30
0.0
 11
-244.423890185868
 21
4952.130309194958
 31
0.0
  0
LINE
  5
3CB0
330
18
100
AcDbEntity
  8
1
100
AcDbLine
 10
3283.591328614491
 20
4902.13031153836
 30
0.0
 11
4078.591328614484
 21
4902.13031153836
 31
0.0
  0
LINE
  5
3CB1
330
18
100
AcDbEntity
  8
1
100
AcDbLine
 10
4078.591328614484
 20
4862.130311538361
 30
0.0
 11
3283.591328614491
 21
4862.130311538361
 31
0.0
  0
LINE
  5
3CB2
330
18
100
AcDbEntity
  8
1
100
AcDbLine
 10
3283.591328614487
 20
4057.130311538361
 30
0.0
 11
4078.591328614484
 21
4057.130311538361
 31
0.0
  0
LINE
  5
3CB3
330
18
100
AcDbEntity
  8
1
100
AcDbLine
 10
3283.591328614487
 20
4097.13031153836
 30
0.0
 11
4078.591328614484
 21
4097.13031153836
 31
0.0
  0
LEADER
  5
3CB4
330
18
100
AcDbEntity
  8
2
100
AcDbLeader
  3
STANDARD
 76
     3
 10
610.576109814132
 20
4882.130311538361
 30
0.0
 10
841.0761098140701
 20
5162.130311538302
 30
0.0
 10
1482.07610981407
 20
5162.130311538302
 30
0.0
1001
ACAD
1000
DSTYLE
1002
{
1070
    40
1040
1.0
1070
    77
1070
     0
1070
   147
1040
1.0
1002
}
  0
CIRCLE
  5
3CB5
330
18
100
AcDbEntity
  8
1
100
AcDbCircle
 10
655.576109814132
 20
4932.130309194959
 30
0.0
 40
5.0
  0
CIRCLE
  5
3CB6
330
18
100
AcDbEntity
  8
1
100
AcDbCircle
 10
555.576109814132
 20
4932.130309194959
 30
0.0
 40
5.0
  0
LINE
  5
3CB7
330
18
100
AcDbEntity
  8
1
100
AcDbLine
 10
455.5761098140737
 20
4935.130311538363
 30
0.0
 11
455.5761098140701
 21
4862.130311538361
 31
0.0
  0
LINE
  5
3CB8
330
18
100
AcDbEntity
  8
1
100
AcDbLine
 10
535.576109814132
 20
4952.130313881763
 30
0.0
 11
535.576109814132
 21
4902.13031153836
 31
0.0
  0
LINE
  5
3CB9
330
18
100
AcDbEntity
  8
1
100
AcDbLine
 10
455.5761098140737
 20
4935.130311538363
 30
0.0
 11
455.5761098140701
 21
4855.130311538362
 31
0.0
  0
LINE
  5
3CBA
330
18
100
AcDbEntity
  8
2
  6
4-中心線
100
AcDbLine
 10
610.576109814132
 20
4932.130311538361
 30
0.0
 11
610.576109814132
 21
4832.13031153836
 31
0.0
  0
LINE
  5
3CBB
330
18
100
AcDbEntity
  8
2
  6
4-中心線
100
AcDbLine
 10
610.576109814132
 20
4932.130311538361
 30
0.0
 11
610.576109814132
 21
4832.13031153836
 31
0.0
  0
LINE
  5
3CBC
330
18
100
AcDbEntity
  8
2
  6
4-中心線
100
AcDbLine
 10
610.576109814132
 20
4932.130311538361
 30
0.0
 11
610.576109814132
 21
4832.13031153836
 31
0.0
  0
LINE
  5
3CBD
330
18
100
AcDbEntity
  8
1
100
AcDbLine
 10
675.576109814132
 20
4952.130309194958
 30
0.0
 11
675.576109814132
 21
4811.955331867906
 31
0.0
  0
LINE
  5
3CBE
330
18
100
AcDbEntity
  8
2
  6
4-中心線
100
AcDbLine
 10
610.576109814132
 20
4932.130311538361
 30
0.0
 11
610.576109814132
 21
4832.13031153836
 31
0.0
  0
LINE
  5
3CBF
330
18
100
AcDbEntity
  8
2
  6
4-中心線
100
AcDbLine
 10
610.576109814132
 20
4932.130311538361
 30
0.0
 11
610.576109814132
 21
4832.13031153836
 31
0.0
  0
DIMENSION
  5
3CC0
330
18
100
AcDbEntity
  8
2
100
AcDbDimension
  2
*D8
 10
919.5761098140701
 20
4942.130311538361
 30
0.0
 11
894.0761098140693
 21
5026.058882966932
 31
0.0
 70
    32
 71
     5
 42
40.0
  3
STANDARD
100
AcDbAlignedDimension
 13
675.5761098140701
 23
4902.13031153836
 33
0.0
 14
681.5761098140738
 24
4942.130311538361
 34
0.0
 50
90.0
100
AcDbRotatedDimension
1001
ACAD
1000
DSTYLE
1002
{
1070
    40
1040
1.0
1002
}
  0
LINE
  5
3CC1
330
18
100
AcDbEntity
  8
1
100
AcDbLine
 10
3088.591328614487
 20
4935.130311538362
 30
0.0
 11
3088.591328614491
 21
4855.130311538363
 31
0.0
  0
LINE
  5
3CC2
330
18
100
AcDbEntity
  8
1
100
AcDbLine
 10
2368.591328614487
 20
4855.130311538362
 30
0.0
 11
2368.591328614487
 21
4935.130311538361
 31
0.0
  0
LINE
  5
3CC3
330
18
100
AcDbEntity
  8
1
100
AcDbLine
 10
535.5761098140702
 20
4157.129814561182
 30
0.0
 11
535.5761098140738
 21
4541.183531894382
 31
0.0
  0
DIMENSION
  5
3CC4
330
18
100
AcDbEntity
  8
2
100
AcDbDimension
  2
*D9
 10
837.07610981407
 20
4077.13031153836
 30
0.0
 11
811.5761098140694
 21
4479.63031153836
 31
0.0
 70
    32
 71
     5
 42
805.0
  3
STANDARD
100
AcDbAlignedDimension
 13
660.576109814132
 23
4882.130311538361
 33
0.0
 14
660.576109814132
 24
4077.13031153836
 34
0.0
 50
90.0
100
AcDbRotatedDimension
1001
ACAD
1000
DSTYLE
1002
{
1070
    40
1040
1.0
1002
}
  0
DIMENSION
  5
3CC5
330
18
100
AcDbEntity
  8
2
100
AcDbDimension
  2
*D10
 10
919.5761098140701
 20
4057.130311538361
 30
0.0
 11
894.0761098140695
 21
4479.63031153836
 31
0.0
 70
    32
 71
     5
 42
845.0
  3
STANDARD
100
AcDbAlignedDimension
 13
675.5761098140701
 23
4902.13031153836
 33
0.0
 14
673.5761098141283
 24
4057.130311538361
 34
0.0
 50
90.0
100
AcDbRotatedDimension
1001
ACAD
1000
DSTYLE
1002
{
1070
    40
1040
1.0
1002
}
  0
LINE
  5
3CC6
330
18
100
AcDbEntity
  8
1
100
AcDbLine
 10
535.5761098140702
 20
4157.129814561183
 30
0.0
 11
535.5761098140702
 21
4541.183531894382
 31
0.0
  0
LINE
  5
3CC7
330
18
100
AcDbEntity
  8
1
100
AcDbLine
 10
592.5761098141356
 20
4862.130311538361
 30
0.0
 11
592.576109814132
 21
4097.13031153836
 31
0.0
  0
LINE
  5
3CC8
330
18
100
AcDbEntity
  8
1
100
AcDbLine
 10
632.5761098141356
 20
4862.130311538361
 30
0.0
 11
632.5761098141319
 21
4097.13031153836
 31
0.0
  0
LINE
  5
3CC9
330
18
100
AcDbEntity
  8
1
100
AcDbLine
 10
592.5761098140737
 20
4855.130311538362
 30
0.0
 11
592.5761098140701
 21
4097.13031153836
 31
0.0
  0
LINE
  5
3CCA
330
18
100
AcDbEntity
  8
1
100
AcDbLine
 10
535.5761098140738
 20
4097.13031153836
 30
0.0
 11
535.5761098140702
 21
4855.130311538362
 31
0.0
  0
LINE
  5
3CCB
330
18
100
AcDbEntity
  8
1
100
AcDbLine
 10
575.5761098140701
 20
4097.13031153836
 30
0.0
 11
575.5761098140701
 21
4855.130311538362
 31
0.0
  0
LINE
  5
3CCC
330
18
100
AcDbEntity
  8
2
  6
4-中心線
100
AcDbLine
 10
610.576109814132
 20
4127.130311538361
 30
0.0
 11
610.576109814132
 21
4027.13031153836
 31
0.0
  0
LINE
  5
3CCD
330
18
100
AcDbEntity
  8
1
100
AcDbLine
 10
675.5761098140701
 20
4057.130311538361
 30
0.0
 11
675.5761098140701
 21
4097.13031153836
 31
0.0
  0
LINE
  5
3CCE
330
18
100
AcDbEntity
  8
1
100
AcDbLine
 10
675.5761098140701
 20
4057.130311538361
 30
0.0
 11
675.5761098140701
 21
4097.13031153836
 31
0.0
  0
LINE
  5
3CCF
330
18
100
AcDbEntity
  8
1
100
AcDbLine
 10
675.5761098140701
 20
4057.130311538361
 30
0.0
 11
675.5761098140701
 21
4097.13031153836
 31
0.0
  0
LINE
  5
3CD0
330
18
100
AcDbEntity
  8
2
  6
4-中心線
100
AcDbLine
 10
610.576109814132
 20
4127.130311538361
 30
0.0
 11
610.576109814132
 21
4027.13031153836
 31
0.0
  0
LINE
  5
3CD1
330
18
100
AcDbEntity
  8
1
100
AcDbLine
 10
675.5761098141284
 20
4057.130311538361
 30
0.0
 11
675.5761098141284
 21
4097.13031153836
 31
0.0
  0
LINE
  5
3CD2
330
18
100
AcDbEntity
  8
1
100
AcDbLine
 10
675.5761098141284
 20
4057.130311538361
 30
0.0
 11
675.5761098141284
 21
4097.13031153836
 31
0.0
  0
LINE
  5
3CD3
330
18
100
AcDbEntity
  8
1
100
AcDbLine
 10
675.5761098141284
 20
4057.130311538361
 30
0.0
 11
675.5761098141284
 21
4097.13031153836
 31
0.0
  0
LINE
  5
3CD4
330
18
100
AcDbEntity
  8
1
100
AcDbLine
 10
675.5761098140701
 20
4057.130311538361
 30
0.0
 11
675.5761098140701
 21
4097.13031153836
 31
0.0
  0
LINE
  5
3CD5
330
18
100
AcDbEntity
  8
1
100
AcDbLine
 10
675.576109814132
 20
4147.130313881763
 30
0.0
 11
675.576109814132
 21
4007.130309194958
 31
0.0
  0
CIRCLE
  5
3CD6
330
18
100
AcDbEntity
  8
1
  6
1-隠れ線
100
AcDbCircle
 10
610.576109814132
 20
4077.13031153836
 30
0.0
 40
8.0
  0
LINE
  5
3CD7
330
18
100
AcDbEntity
  8
2
  6
4-中心線
100
AcDbLine
 10
562.5761098141319
 20
4077.13031153836
 30
0.0
 11
662.5761098141319
 21
4077.13031153836
 31
0.0
  0
LINE
  5
3CD8
330
18
100
AcDbEntity
  8
2
  6
4-中心線
100
AcDbLine
 10
562.5761098141319
 20
4077.13031153836
 30
0.0
 11
662.5761098141319
 21
4077.13031153836
 31
0.0
  0
LINE
  5
3CD9
330
18
100
AcDbEntity
  8
2
  6
4-中心線
100
AcDbLine
 10
562.5761098141319
 20
4077.13031153836
 30
0.0
 11
662.5761098141319
 21
4077.13031153836
 31
0.0
  0
LINE
  5
3CDA
330
18
100
AcDbEntity
  8
2
  6
4-中心線
100
AcDbLine
 10
562.5761098140701
 20
4077.13031153836
 30
0.0
 11
662.5761098140701
 21
4077.13031153836
 31
0.0
  0
CIRCLE
  5
3CDB
330
18
100
AcDbEntity
  8
1
100
AcDbCircle
 10
655.576109814132
 20
4027.130309194958
 30
0.0
 40
5.0
  0
LINE
  5
3CDC
330
18
100
AcDbEntity
  8
2
100
AcDbLine
 10
575.5761098140701
 20
4057.130311538361
 30
0.0
 11
673.5761098141283
 21
4057.130311538361
 31
0.0
  0
LINE
  5
3CDD
330
18
100
AcDbEntity
  8
2
100
AcDbLine
 10
600.5761098140701
 20
4057.130311538361
 30
0.0
 11
675.5761098140701
 21
4057.130311538361
 31
0.0
  0
LINE
  5
3CDE
330
18
100
AcDbEntity
  8
2
100
AcDbLine
 10
575.5761098140701
 20
4057.130311538361
 30
0.0
 11
675.5761098140701
 21
4057.130311538361
 31
0.0
  0
LINE
  5
3CDF
330
18
100
AcDbEntity
  8
2
100
AcDbLine
 10
673.576109814132
 20
4057.130311538361
 30
0.0
 11
575.5761098140701
 21
4057.130311538361
 31
0.0
  0
LINE
  5
3CE0
330
18
100
AcDbEntity
  8
1
100
AcDbLine
 10
575.5761098140701
 20
4007.130309194957
 30
0.0
 11
675.5761098141284
 21
4007.130309194958
 31
0.0
  0
LINE
  5
3CE1
330
18
100
AcDbEntity
  8
2
100
AcDbLine
 10
575.5761098141284
 20
4057.130311538361
 30
0.0
 11
675.5761098141284
 21
4057.130311538361
 31
0.0
  0
LINE
  5
3CE2
330
18
100
AcDbEntity
  8
2
100
AcDbLine
 10
575.5761098140701
 20
4057.130311538361
 30
0.0
 11
675.5761098140701
 21
4057.130311538361
 31
0.0
  0
LINE
  5
3CE3
330
18
100
AcDbEntity
  8
2
  6
4-中心線
100
AcDbLine
 10
560.576109814132
 20
4077.13031153836
 30
0.0
 11
660.576109814132
 21
4077.13031153836
 31
0.0
  0
LINE
  5
3CE4
330
18
100
AcDbEntity
  8
2
  6
4-中心線
100
AcDbLine
 10
560.576109814132
 20
4077.13031153836
 30
0.0
 11
660.576109814132
 21
4077.13031153836
 31
0.0
  0
LINE
  5
3CE5
330
18
100
AcDbEntity
  8
1
100
AcDbLine
 10
508.076109814041
 20
4097.130311538362
 30
0.0
 11
443.076109814041
 21
4097.130311538362
 31
0.0
  0
LINE
  5
3CE6
330
18
100
AcDbEntity
  8
1
100
AcDbLine
 10
443.076109814041
 20
4099.130311538361
 30
0.0
 11
508.076109814041
 21
4099.130311538361
 31
0.0
  0
LINE
  5
3CE7
330
18
100
AcDbEntity
  8
1
100
AcDbLine
 10
508.076109814041
 20
4105.930311538361
 30
0.0
 11
443.076109814041
 21
4105.930311538361
 31
0.0
  0
LINE
  5
3CE8
330
18
100
AcDbEntity
  8
1
100
AcDbLine
 10
443.076109814041
 20
4097.130311538362
 30
0.0
 11
443.076109814041
 21
4099.130311538361
 31
0.0
  0
LINE
  5
3CE9
330
18
100
AcDbEntity
  8
1
100
AcDbLine
 10
443.076109814041
 20
4105.930311538361
 30
0.0
 11
443.076109814041
 21
4099.130311538361
 31
0.0
  0
LINE
  5
3CEA
330
18
100
AcDbEntity
  8
1
100
AcDbLine
 10
675.576109814132
 20
4147.130313881763
 30
0.0
 11
632.5761098141319
 21
4147.130309194959
 31
0.0
  0
LINE
  5
3CEB
330
18
100
AcDbEntity
  8
1
100
AcDbLine
 10
575.5761098140701
 20
4147.130313881763
 30
0.0
 11
592.576109814132
 21
4147.130313881763
 31
0.0
  0
LINE
  5
3CEC
330
18
100
AcDbEntity
  8
1
100
AcDbLine
 10
675.5761098140701
 20
4097.13031153836
 30
0.0
 11
635.5761098140702
 21
4097.13031153836
 31
0.0
  0
LINE
  5
3CED
330
18
100
AcDbEntity
  8
1
100
AcDbLine
 10
637.5761098140701
 20
4097.13031153836
 30
0.0
 11
633.5761098141283
 21
4097.13031153836
 31
0.0
  0
LINE
  5
3CEE
330
18
100
AcDbEntity
  8
1
100
AcDbLine
 10
637.5761098140701
 20
4097.13031153836
 30
0.0
 11
631.5761098141901
 21
4097.13031153836
 31
0.0
  0
LINE
  5
3CEF
330
18
100
AcDbEntity
  8
1
100
AcDbLine
 10
673.5761098141901
 20
4097.13031153836
 30
0.0
 11
633.5761098141902
 21
4097.13031153836
 31
0.0
  0
LINE
  5
3CF0
330
18
100
AcDbEntity
  8
1
100
AcDbLine
 10
675.5761098141284
 20
4097.13031153836
 30
0.0
 11
635.5761098141283
 21
4097.13031153836
 31
0.0
  0
CIRCLE
  5
3CF1
330
18
100
AcDbEntity
  8
1
100
AcDbCircle
 10
655.576109814132
 20
4127.130309194958
 30
0.0
 40
5.0
  0
LINE
  5
3CF2
330
18
100
AcDbEntity
  8
1
100
AcDbLine
 10
675.5761098140701
 20
4097.13031153836
 30
0.0
 11
635.5761098140702
 21
4097.13031153836
 31
0.0
  0
LINE
  5
3CF3
330
18
100
AcDbEntity
  8
1
100
AcDbLine
 10
568.5761038331166
 20
4097.930483820845
 30
0.0
 11
572.5761298111083
 21
4097.930483820845
 31
0.0
  0
LINE
  5
3CF4
330
18
100
AcDbEntity
  8
1
100
AcDbLine
 10
568.5761098255516
 20
4097.130483820867
 30
0.0
 11
572.5761098243038
 21
4097.130383899328
 31
0.0
  0
LINE
  5
3CF5
330
18
100
AcDbEntity
  8
1
100
AcDbLine
 10
572.5761098243038
 20
4097.130383899328
 30
0.0
 11
572.5761298111083
 21
4097.930483820845
 31
0.0
  0
LINE
  5
3CF6
330
18
100
AcDbEntity
  8
1
100
AcDbLine
 10
585.5761098140702
 20
4097.130311538362
 30
0.0
 11
575.5761098140701
 21
4097.13031153836
 31
0.0
  0
LINE
  5
3CF7
330
18
100
AcDbEntity
  8
1
100
AcDbLine
 10
579.3761098140439
 20
4101.53031153836
 30
0.0
 11
580.576109814041
 21
4101.53031153836
 31
0.0
  0
LINE
  5
3CF8
330
18
100
AcDbEntity
  8
1
100
AcDbLine
 10
579.3761098140403
 20
4097.130311538362
 30
0.0
 11
579.3761098140439
 21
4101.53031153836
 31
0.0
  0
LINE
  5
3CF9
330
18
100
AcDbEntity
  8
1
100
AcDbLine
 10
508.076109814041
 20
4099.130311538361
 30
0.0
 11
508.076109814041
 21
4097.130311538362
 31
0.0
  0
LINE
  5
3CFA
330
18
100
AcDbEntity
  8
1
100
AcDbLine
 10
508.076109814041
 20
4099.130311538361
 30
0.0
 11
508.076109814041
 21
4097.130311538362
 31
0.0
  0
LINE
  5
3CFB
330
18
100
AcDbEntity
  8
1
100
AcDbLine
 10
508.076109814041
 20
4099.130311538361
 30
0.0
 11
508.076109814041
 21
4105.930311538361
 31
0.0
  0
LINE
  5
3CFC
330
18
100
AcDbEntity
  8
1
100
AcDbLine
 10
535.5761098140738
 20
4577.516139768554
 30
0.0
 11
535.5761098140702
 21
4862.130311538352
 31
0.0
  0
LINE
  5
3CFD
330
18
100
AcDbEntity
  8
1
100
AcDbLine
 10
300.5761098140701
 20
4543.986881745142
 30
0.0
 11
300.5761098140701
 21
4855.130311538361
 31
0.0
  0
LINE
  5
3CFE
330
18
100
AcDbEntity
  8
1
100
AcDbLine
 10
293.13366914588
 20
4543.986881745142
 30
0.0
 11
300.5761098140701
 21
4543.986881745142
 31
0.0
  0
LINE
  5
3CFF
330
18
100
AcDbEntity
  8
1
100
AcDbLine
 10
293.1686544016793
 20
4509.130311538362
 30
0.0
 11
293.1686544016793
 21
4542.587613952115
 31
0.0
  0
LINE
  5
3D00
330
18
100
AcDbEntity
  8
1
100
AcDbLine
 10
635.5761098140702
 20
4862.130311538361
 30
0.0
 11
455.5761098140701
 21
4862.130311538361
 31
0.0
  0
LINE
  5
3D01
330
18
100
AcDbEntity
  8
1
100
AcDbLine
 10
675.5761098140701
 20
4902.13031153836
 30
0.0
 11
455.5761098140701
 21
4902.13031153836
 31
0.0
  0
LINE
  5
3D02
330
18
100
AcDbEntity
  8
1
100
AcDbLine
 10
455.5761098140701
 20
4862.130311538352
 30
0.0
 11
637.5761098140701
 21
4862.130311538352
 31
0.0
  0
LINE
  5
3D03
330
18
100
AcDbEntity
  8
1
100
AcDbLine
 10
455.5761098140701
 20
4902.13031153836
 30
0.0
 11
675.576109814132
 21
4902.13031153836
 31
0.0
  0
LINE
  5
3D04
330
18
100
AcDbEntity
  8
1
100
AcDbLine
 10
675.5761098140701
 20
4902.13031153836
 30
0.0
 11
455.5761098140737
 21
4902.13031153836
 31
0.0
  0
LINE
  5
3D05
330
18
100
AcDbEntity
  8
1
100
AcDbLine
 10
675.5761098140701
 20
4862.130311538361
 30
0.0
 11
675.5761098140701
 21
4902.13031153836
 31
0.0
  0
LINE
  5
3D06
330
18
100
AcDbEntity
  8
1
100
AcDbLine
 10
635.5761098140702
 20
4862.130311538361
 30
0.0
 11
675.5761098140701
 21
4862.130311538361
 31
0.0
  0
LINE
  5
3D07
330
18
100
AcDbEntity
  8
1
100
AcDbLine
 10
675.5761098140701
 20
4862.130311538361
 30
0.0
 11
675.5761098140701
 21
4902.13031153836
 31
0.0
  0
LINE
  5
3D08
330
18
100
AcDbEntity
  8
1
100
AcDbLine
 10
675.5761098140701
 20
4862.130311538361
 30
0.0
 11
675.5761098140701
 21
4902.13031153836
 31
0.0
  0
LINE
  5
3D09
330
18
100
AcDbEntity
  8
1
100
AcDbLine
 10
633.5761098141319
 20
4862.130311538361
 30
0.0
 11
637.5761098140701
 21
4862.130311538361
 31
0.0
  0
LINE
  5
3D0A
330
18
100
AcDbEntity
  8
1
100
AcDbLine
 10
635.576109814132
 20
4862.130311538361
 30
0.0
 11
675.576109814132
 21
4862.130311538361
 31
0.0
  0
LINE
  5
3D0B
330
18
100
AcDbEntity
  8
1
100
AcDbLine
 10
675.576109814132
 20
4862.130311538368
 30
0.0
 11
675.576109814132
 21
4902.130311538368
 31
0.0
  0
LINE
  5
3D0C
330
18
100
AcDbEntity
  8
1
100
AcDbLine
 10
675.576109814132
 20
4862.130311538368
 30
0.0
 11
675.576109814132
 21
4902.130311538368
 31
0.0
  0
LINE
  5
3D0D
330
18
100
AcDbEntity
  8
1
100
AcDbLine
 10
675.5761098140701
 20
4855.130311538362
 30
0.0
 11
675.5761098140701
 21
4895.130311538362
 31
0.0
  0
CIRCLE
  5
3D0E
330
18
100
AcDbEntity
  8
1
  6
1-隠れ線
100
AcDbCircle
 10
610.576109814132
 20
4882.130311538361
 30
0.0
 40
8.0
  0
LINE
  5
3D0F
330
18
100
AcDbEntity
  8
2
  6
4-中心線
100
AcDbLine
 10
662.5761098140701
 20
4882.130311538361
 30
0.0
 11
562.5761098140701
 21
4882.130311538361
 31
0.0
  0
LINE
  5
3D10
330
18
100
AcDbEntity
  8
2
  6
4-中心線
100
AcDbLine
 10
660.576109814132
 20
4882.130311538361
 30
0.0
 11
560.576109814132
 21
4882.130311538361
 31
0.0
  0
LINE
  5
3D11
330
18
100
AcDbEntity
  8
2
  6
4-中心線
100
AcDbLine
 10
660.576109814132
 20
4882.130311538361
 30
0.0
 11
560.576109814132
 21
4882.130311538361
 31
0.0
  0
LINE
  5
3D12
330
18
100
AcDbEntity
  8
2
  6
4-中心線
100
AcDbLine
 10
660.576109814132
 20
4882.130311538361
 30
0.0
 11
560.576109814132
 21
4882.130311538361
 31
0.0
  0
LINE
  5
3D13
330
18
100
AcDbEntity
  8
1
100
AcDbLine
 10
535.5761098140702
 20
4855.130311538362
 30
0.0
 11
585.5761098140702
 21
4855.130311538362
 31
0.0
  0
LINE
  5
3D14
330
18
100
AcDbEntity
  8
1
100
AcDbLine
 10
675.576109814132
 20
4812.130309194958
 30
0.0
 11
632.5761098141319
 21
4812.130309194958
 31
0.0
  0
LINE
  5
3D15
330
18
100
AcDbEntity
  8
1
100
AcDbLine
 10
575.5761098140701
 20
4812.130309194959
 30
0.0
 11
592.5761098141356
 21
4812.130309194959
 31
0.0
  0
LINE
  5
3D16
330
18
100
AcDbEntity
  8
1
100
AcDbLine
 10
535.5761098141283
 20
4812.130309194959
 30
0.0
 11
535.5761098141283
 21
4862.130311538361
 31
0.0
  0
CIRCLE
  5
3D17
330
18
100
AcDbEntity
  8
1
100
AcDbCircle
 10
655.576109814132
 20
4832.130313881762
 30
0.0
 40
5.0
  0
LINE
  5
3D18
330
18
100
AcDbEntity
  8
1
100
AcDbLine
 10
3188.591328614487
 20
4855.130311538362
 30
0.0
 11
3188.591328614487
 21
4097.13031153836
 31
0.0
  0
LINE
  5
3D19
330
18
100
AcDbEntity
  8
1
100
AcDbLine
 10
3208.591328614491
 20
4902.13031153836
 30
0.0
 11
3208.591328614484
 21
4057.130311538361
 31
0.0
  0
LINE
  5
3D1A
330
18
100
AcDbEntity
  8
1
100
AcDbLine
 10
3213.591328614491
 20
4862.13031153836
 30
0.0
 11
3213.591328614487
 21
4097.13031153836
 31
0.0
  0
LINE
  5
3D1B
330
18
100
AcDbEntity
  8
1
100
AcDbLine
 10
3283.591328614487
 20
4057.130311538361
 30
0.0
 11
3283.591328614487
 21
4902.13031153836
 31
0.0
  0
LINE
  5
3D1C
330
18
100
AcDbEntity
  8
1
100
AcDbLine
 10
3208.591328614488
 20
4895.130311538362
 30
0.0
 11
3208.591328614488
 21
4057.130311538361
 31
0.0
  0
LINE
  5
3D1D
330
18
100
AcDbEntity
  8
1
100
AcDbLine
 10
3278.591328614487
 20
4097.13031153836
 30
0.0
 11
3278.591328614492
 21
4862.13031153836
 31
0.0
  0
LINE
  5
3D1E
330
18
100
AcDbEntity
  8
1
100
AcDbLine
 10
3188.591328614491
 20
4855.130311538362
 30
0.0
 11
3188.591328614487
 21
4097.13031153836
 31
0.0
  0
LINE
  5
3D1F
330
18
100
AcDbEntity
  8
1
100
AcDbLine
 10
2858.591328614488
 20
4240.130311538361
 30
0.0
 11
2858.591328614488
 21
4460.13031153836
 31
0.0
  0
LINE
  5
3D20
330
18
100
AcDbEntity
  8
1
100
AcDbLine
 10
2578.591328614487
 20
4097.13031153836
 30
0.0
 11
2578.591328614491
 21
4855.130311538363
 31
0.0
  0
LINE
  5
3D21
330
18
100
AcDbEntity
  8
1
  6
1-隠れ線
100
AcDbLine
 10
2783.501067178573
 20
4066.63031153836
 30
0.0
 11
2849.798194203465
 21
4083.130311538361
 31
0.0
  0
LINE
  5
3D22
330
18
100
AcDbEntity
  8
1
  6
1-隠れ線
100
AcDbLine
 10
2783.501067178573
 20
4080.63031153836
 30
0.0
 11
2858.591328614488
 21
4097.13031153836
 31
0.0
  0
LINE
  5
3D23
330
18
100
AcDbEntity
  8
1
100
AcDbLine
 10
2858.591328614488
 20
4097.13031153836
 30
0.0
 11
2334.156244405448
 21
4097.13031153836
 31
0.0
  0
LINE
  5
3D24
330
18
100
AcDbEntity
  8
1
100
AcDbLine
 10
2282.403010309075
 20
4090.809761775125
 30
0.0
 11
2305.991623157237
 21
4097.13031153836
 31
0.0
  0
LINE
  5
3D25
330
18
100
AcDbEntity
  8
1
100
AcDbLine
 10
2291.855213335888
 20
4094.170692887181
 30
0.0
 11
2294.23634855083
 21
4085.284175285322
 31
0.0
  0
LINE
  5
3D26
330
18
100
AcDbEntity
  8
1
100
AcDbLine
 10
2281.88537221887
 20
4092.741613427704
 30
0.0
 11
2282.403010309075
 21
4090.809761775125
 31
0.0
  0
LINE
  5
3D27
330
18
100
AcDbEntity
  8
1
100
AcDbLine
 10
2047.683034520834
 20
4027.916733815213
 30
0.0
 11
2322.971895013217
 21
4101.680161669432
 31
0.0
  0
LINE
  5
3D28
330
18
100
AcDbEntity
  8
1
100
AcDbLine
 10
2313.455724772373
 20
4099.13031153836
 30
0.0
 11
2305.412352167854
 21
4099.13031153836
 31
0.0
  0
LINE
  5
3D29
330
18
100
AcDbEntity
  8
1
100
AcDbLine
 10
2309.10016995077
 20
4099.13031153836
 30
0.0
 11
2307.363587427573
 21
4100.132927925598
 31
0.0
  0
CIRCLE
  5
3D2A
330
18
100
AcDbEntity
  8
1
100
AcDbCircle
 10
2305.412352167854
 20
4101.53031153836
 30
0.0
 40
2.25
  0
CIRCLE
  5
3D2B
330
18
100
AcDbEntity
  8
1
100
AcDbCircle
 10
2305.412352167854
 20
4101.53031153836
 30
0.0
 40
2.400000000000005
  0
ARC
  5
3D2C
330
18
100
AcDbEntity
  8
1
100
AcDbCircle
 10
2305.412352167854
 20
4101.53031153836
 30
0.0
 40
4.400000000000005
100
AcDbArc
 50
326.9442688491819
 51
270.0
  0
LINE
  5
3D2D
330
18
100
AcDbEntity
  8
1
100
AcDbLine
 10
2305.257060740788
 20
4102.109867034134
 30
0.0
 11
2307.638195955735
 21
4093.223349432274
 31
0.0
  0
LINE
  5
3D2E
330
18
100
AcDbEntity
  8
1
100
AcDbLine
 10
2302.471359436929
 20
4098.257612078179
 30
0.0
 11
2281.88537221887
 21
4092.741613427704
 31
0.0
  0
ARC
  5
3D2F
330
18
100
AcDbEntity
  8
1
100
AcDbCircle
 10
2325.560085464245
 20
4092.020903406541
 30
0.0
 40
10.0
100
AcDbArc
 50
15.00000000004815
 51
104.9999999999944
  0
LINE
  5
3D30
330
18
100
AcDbEntity
  8
1
  6
1-隠れ線
100
AcDbLine
 10
2768.501067178573
 20
4097.13031153836
 30
0.0
 11
2768.501067178573
 21
4090.630311538361
 31
0.0
  0
LINE
  5
3D31
330
18
100
AcDbEntity
  8
1
  6
1-隠れ線
100
AcDbLine
 10
2776.501067178573
 20
4056.630311538361
 30
0.0
 11
2776.501067178573
 21
4097.13031153836
 31
0.0
  0
LINE
  5
3D32
330
18
100
AcDbEntity
  8
1
  6
1-隠れ線
100
AcDbLine
 10
2761.501067178573
 20
4036.630311538361
 30
0.0
 11
2761.501067178573
 21
4097.13031153836
 31
0.0
  0
LINE
  5
3D33
330
18
100
AcDbEntity
  8
1
  6
1-隠れ線
100
AcDbLine
 10
2628.591067178573
 20
4085.630311538361
 30
0.0
 11
2628.591067178573
 21
4097.13031153836
 31
0.0
  0
LINE
  5
3D34
330
18
100
AcDbEntity
  8
1
  6
1-隠れ線
100
AcDbLine
 10
2620.501067178573
 20
4097.13031153836
 30
0.0
 11
2620.501067178573
 21
4056.630311538358
 31
0.0
  0
LINE
  5
3D35
330
18
100
AcDbEntity
  8
1
  6
1-隠れ線
100
AcDbLine
 10
2780.501067178573
 20
4092.130311538361
 30
0.0
 11
2783.501067178573
 21
4092.130311538361
 31
0.0
  0
LINE
  5
3D36
330
18
100
AcDbEntity
  8
1
  6
1-隠れ線
100
AcDbLine
 10
2776.501067178573
 20
4058.13031153836
 30
0.0
 11
2780.501067178573
 21
4058.13031153836
 31
0.0
  0
LINE
  5
3D37
330
18
100
AcDbEntity
  8
1
  6
1-隠れ線
100
AcDbLine
 10
2776.501067178573
 20
4089.130311538363
 30
0.0
 11
2780.501067178573
 21
4089.130311538361
 31
0.0
  0
LINE
  5
3D38
330
18
100
AcDbEntity
  8
1
  6
1-隠れ線
100
AcDbLine
 10
2780.501067178573
 20
4055.130311538362
 30
0.0
 11
2783.501067178573
 21
4055.130311538361
 31
0.0
  0
LINE
  5
3D39
330
18
100
AcDbEntity
  8
1
  6
1-隠れ線
100
AcDbLine
 10
2780.501067178573
 20
4055.130311538362
 30
0.0
 11
2780.501067178573
 21
4092.130311538361
 31
0.0
  0
LINE
  5
3D3A
330
18
100
AcDbEntity
  8
1
  6
1-隠れ線
100
AcDbLine
 10
2783.501067178573
 20
4055.130311538361
 30
0.0
 11
2783.501067178573
 21
4092.130311538361
 31
0.0
  0
LINE
  5
3D3B
330
18
100
AcDbEntity
  8
1
  6
1-隠れ線
100
AcDbLine
 10
2776.501067178573
 20
4056.630311538361
 30
0.0
 11
2776.501067178573
 21
4090.630311538361
 31
0.0
  0
LINE
  5
3D3C
330
18
100
AcDbEntity
  8
1
  6
1-隠れ線
100
AcDbLine
 10
2761.501067178573
 20
4056.630311538361
 30
0.0
 11
2776.501067178573
 21
4056.630311538361
 31
0.0
  0
LINE
  5
3D3D
330
18
100
AcDbEntity
  8
1
  6
1-隠れ線
100
AcDbLine
 10
2761.501067178573
 20
4090.630311538361
 30
0.0
 11
2776.501067178573
 21
4090.630311538361
 31
0.0
  0
LINE
  5
3D3E
330
18
100
AcDbEntity
  8
1
  6
1-隠れ線
100
AcDbLine
 10
2620.501067178573
 20
4058.13031153836
 30
0.0
 11
2616.501067178573
 21
4058.13031153836
 31
0.0
  0
LINE
  5
3D3F
330
18
100
AcDbEntity
  8
1
  6
1-隠れ線
100
AcDbLine
 10
2635.501067178573
 20
4085.630311538361
 30
0.0
 11
2620.501067178573
 21
4085.630311538361
 31
0.0
  0
LINE
  5
3D40
330
18
100
AcDbEntity
  8
1
  6
1-隠れ線
100
AcDbLine
 10
2620.501067178573
 20
4089.130311538361
 30
0.0
 11
2616.501067178573
 21
4089.130311538361
 31
0.0
  0
LINE
  5
3D41
330
18
100
AcDbEntity
  8
1
  6
1-隠れ線
100
AcDbLine
 10
2616.501067178573
 20
4092.130311538361
 30
0.0
 11
2613.501067178573
 21
4092.130311538361
 31
0.0
  0
LINE
  5
3D42
330
18
100
AcDbEntity
  8
1
  6
1-隠れ線
100
AcDbLine
 10
2633.501067178573
 20
4056.630311538358
 30
0.0
 11
2620.501067178573
 21
4056.630311538359
 31
0.0
  0
ARC
  5
3D43
330
18
100
AcDbEntity
  8
1
  6
1-隠れ線
100
AcDbCircle
 10
2633.501067178573
 20
4054.630311538359
 30
0.0
 40
2.0
100
AcDbArc
 50
0.0
 51
90.0
  0
LINE
  5
3D44
330
18
100
AcDbEntity
  8
1
  6
1-隠れ線
100
AcDbLine
 10
2616.501067178573
 20
4055.130311538361
 30
0.0
 11
2613.501067178573
 21
4055.130311538361
 31
0.0
  0
LINE
  5
3D45
330
18
100
AcDbEntity
  8
1
  6
1-隠れ線
100
AcDbLine
 10
2616.501067178573
 20
4055.130311538361
 30
0.0
 11
2616.501067178573
 21
4092.130311538361
 31
0.0
  0
LINE
  5
3D46
330
18
100
AcDbEntity
  8
1
  6
1-隠れ線
100
AcDbLine
 10
2613.501067178573
 20
4055.130311538361
 30
0.0
 11
2613.501067178573
 21
4092.13031153836
 31
0.0
  0
LINE
  5
3D47
330
18
100
AcDbEntity
  8
1
  6
1-隠れ線
100
AcDbLine
 10
2635.501067178573
 20
4036.630311538361
 30
0.0
 11
2635.501067178573
 21
4085.630311538361
 31
0.0
  0
LINE
  5
3D48
330
18
100
AcDbEntity
  8
1
  6
1-隠れ線
100
AcDbLine
 10
2761.501067178573
 20
4036.630311538361
 30
0.0
 11
2635.501067178573
 21
4036.630311538361
 31
0.0
  0
LINE
  5
3D49
330
18
100
AcDbEntity
  8
1
  6
1-隠れ線
100
AcDbLine
 10
2776.501067178573
 20
4097.13031153836
 30
0.0
 11
2620.501067178573
 21
4097.13031153836
 31
0.0
  0
LINE
  5
3D4A
330
18
100
AcDbEntity
  8
1
100
AcDbLine
 10
2846.491339946625
 20
4211.131063064136
 30
0.0
 11
2846.491339946625
 21
4229.131063064136
 31
0.0
  0
LINE
  5
3D4B
330
18
100
AcDbEntity
  8
1
100
AcDbLine
 10
2847.068690215814
 20
4230.131063064137
 30
0.0
 11
2847.068690215814
 21
4210.131063064136
 31
0.0
  0
LINE
  5
3D4C
330
18
100
AcDbEntity
  8
1
100
AcDbLine
 10
2854.491339946626
 20
4210.131063064136
 30
0.0
 11
2854.491339946626
 21
4230.131063064137
 31
0.0
  0
LINE
  5
3D4D
330
18
100
AcDbEntity
  8
1
100
AcDbLine
 10
2856.991339946626
 20
4209.131063064137
 30
0.0
 11
2856.991339946626
 21
4231.131063064136
 31
0.0
  0
LINE
  5
3D4E
330
18
100
AcDbEntity
  8
1
100
AcDbLine
 10
2858.591339946624
 20
4231.131063064136
 30
0.0
 11
2858.591339946624
 21
4209.131063064137
 31
0.0
  0
LINE
  5
3D4F
330
18
100
AcDbEntity
  8
1
100
AcDbLine
 10
2858.591328614488
 20
4210.13031153836
 30
0.0
 11
2858.591328614488
 21
4240.130311538361
 31
0.0
  0
LINE
  5
3D50
330
18
100
AcDbEntity
  8
1
100
AcDbLine
 10
3213.591328614494
 20
4089.130311538361
 30
0.0
 11
3224.841328614491
 21
4089.130311538361
 31
0.0
  0
LINE
  5
3D51
330
18
100
AcDbEntity
  8
1
100
AcDbLine
 10
3213.591328614487
 20
4083.130311538361
 30
0.0
 11
3224.841328614491
 21
4083.130311538361
 31
0.0
  0
LINE
  5
3D52
330
18
100
AcDbEntity
  8
1
100
AcDbLine
 10
3213.591328614487
 20
4071.13031153836
 30
0.0
 11
3224.841328614484
 21
4071.13031153836
 31
0.0
  0
LINE
  5
3D53
330
18
100
AcDbEntity
  8
1
100
AcDbLine
 10
3213.591328614484
 20
4065.13031153836
 30
0.0
 11
3224.841328614484
 21
4065.13031153836
 31
0.0
  0
LINE
  5
3D54
330
18
100
AcDbEntity
  8
1
100
AcDbLine
 10
3208.591328614484
 20
4097.13031153836
 30
0.0
 11
3283.591328614487
 21
4097.13031153836
 31
0.0
  0
LINE
  5
3D55
330
18
100
AcDbEntity
  8
1
100
AcDbLine
 10
3213.591328614487
 20
4092.130311538361
 30
0.0
 11
3278.591328614487
 21
4092.130311538361
 31
0.0
  0
LINE
  5
3D56
330
18
100
AcDbEntity
  8
1
100
AcDbLine
 10
3208.591328614488
 20
4057.130311538361
 30
0.0
 11
3208.591328614488
 21
4097.13031153836
 31
0.0
  0
LINE
  5
3D57
330
18
100
AcDbEntity
  8
1
  6
1-隠れ線
100
AcDbLine
 10
3208.591328614488
 20
4097.13031153836
 30
0.0
 11
3208.591328614488
 21
4057.130311538361
 31
0.0
  0
LINE
  5
3D58
330
18
100
AcDbEntity
  8
1
100
AcDbLine
 10
3208.591328614488
 20
4057.130311538361
 30
0.0
 11
3208.591328614488
 21
4097.13031153836
 31
0.0
  0
LINE
  5
3D59
330
18
100
AcDbEntity
  8
1
100
AcDbLine
 10
3208.591328614549
 20
4097.13031153836
 30
0.0
 11
3208.591328614549
 21
4057.130311538361
 31
0.0
  0
LINE
  5
3D5A
330
18
100
AcDbEntity
  8
1
100
AcDbLine
 10
3208.591328614488
 20
4057.130311538361
 30
0.0
 11
3208.591328614488
 21
4097.13031153836
 31
0.0
  0
ARC
  5
3D5B
330
18
100
AcDbEntity
  8
1
100
AcDbCircle
 10
3068.188777621226
 20
4067.130311538361
 30
0.0
 40
30.0
100
AcDbArc
 50
0.0
 51
90.0
  0
LINE
  5
3D5C
330
18
100
AcDbEntity
  8
1
100
AcDbLine
 10
3133.591328614488
 20
4097.13031153836
 30
0.0
 11
3133.591328614488
 21
4057.130311538361
 31
0.0
  0
LINE
  5
3D5D
330
18
100
AcDbEntity
  8
1
100
AcDbLine
 10
2849.798194203465
 20
4083.130311538361
 30
0.0
 11
3068.188777621226
 21
4083.130311538361
 31
0.0
  0
LINE
  5
3D5E
330
18
100
AcDbEntity
  8
1
100
AcDbLine
 10
3203.591328614542
 20
4065.13031153836
 30
0.0
 11
3203.591328614553
 21
4089.130311538361
 31
0.0
  0
LINE
  5
3D5F
330
18
100
AcDbEntity
  8
1
100
AcDbLine
 10
3202.091328614553
 20
4089.130311538361
 30
0.0
 11
3202.091328614542
 21
4065.13031153836
 31
0.0
  0
LINE
  5
3D60
330
18
100
AcDbEntity
  8
1
100
AcDbLine
 10
3213.591328614491
 20
4089.130311538361
 30
0.0
 11
3213.591328614484
 21
4065.13031153836
 31
0.0
  0
LINE
  5
3D61
330
18
100
AcDbEntity
  8
1
100
AcDbLine
 10
3178.841328614535
 20
4083.130311538361
 30
0.0
 11
3178.841328614535
 21
4071.13031153836
 31
0.0
  0
LINE
  5
3D62
330
18
100
AcDbEntity
  8
1
100
AcDbLine
 10
3178.841328614535
 20
4071.13031153836
 30
0.0
 11
3178.091328614535
 21
4071.88031153836
 31
0.0
  0
LINE
  5
3D63
330
18
100
AcDbEntity
  8
1
100
AcDbLine
 10
3178.091328614535
 20
4082.380311538361
 30
0.0
 11
3178.841328614535
 21
4083.130311538361
 31
0.0
  0
LINE
  5
3D64
330
18
100
AcDbEntity
  8
1
100
AcDbLine
 10
3178.091328614535
 20
4082.380311538361
 30
0.0
 11
3178.091328614535
 21
4071.88031153836
 31
0.0
  0
LINE
  5
3D65
330
18
100
AcDbEntity
  8
1
100
AcDbLine
 10
3190.841328614553
 20
4089.130311538361
 30
0.0
 11
3190.841328614542
 21
4065.13031153836
 31
0.0
  0
LINE
  5
3D66
330
18
100
AcDbEntity
  8
1
100
AcDbLine
 10
3178.091328614535
 20
4071.88031153836
 30
0.0
 11
3190.841328614546
 21
4071.88031153836
 31
0.0
  0
LINE
  5
3D67
330
18
100
AcDbEntity
  8
1
100
AcDbLine
 10
3178.091328614535
 20
4082.380311538361
 30
0.0
 11
3190.841328614549
 21
4082.380311538361
 31
0.0
  0
LINE
  5
3D68
330
18
100
AcDbEntity
  8
1
100
AcDbLine
 10
3190.841328614542
 20
4065.13031153836
 30
0.0
 11
3203.591328614542
 21
4065.13031153836
 31
0.0
  0
LINE
  5
3D69
330
18
100
AcDbEntity
  8
1
100
AcDbLine
 10
3190.841328614553
 20
4089.130311538361
 30
0.0
 11
3203.591328614553
 21
4089.130311538361
 31
0.0
  0
LINE
  5
3D6A
330
18
100
AcDbEntity
  8
1
100
AcDbLine
 10
3178.841328614535
 20
4083.130311538361
 30
0.0
 11
3202.09132861455
 21
4083.130311538361
 31
0.0
  0
LINE
  5
3D6B
330
18
100
AcDbEntity
  8
1
100
AcDbLine
 10
3178.841328614535
 20
4071.13031153836
 30
0.0
 11
3202.091328614542
 21
4071.13031153836
 31
0.0
  0
LINE
  5
3D6C
330
18
100
AcDbEntity
  8
1
100
AcDbLine
 10
3138.591328614487
 20
4092.130311538361
 30
0.0
 11
3203.591328614487
 21
4092.130311538361
 31
0.0
  0
LINE
  5
3D6D
330
18
100
AcDbEntity
  8
1
100
AcDbLine
 10
3203.591328614487
 20
4057.130311538361
 30
0.0
 11
3208.591328614488
 21
4057.130311538361
 31
0.0
  0
LINE
  5
3D6E
330
18
100
AcDbEntity
  8
1
100
AcDbLine
 10
3208.591328614488
 20
4057.130311538361
 30
0.0
 11
3213.591328614487
 21
4057.130311538361
 31
0.0
  0
LINE
  5
3D6F
330
18
100
AcDbEntity
  8
1
100
AcDbLine
 10
3203.591328614549
 20
4057.130311538361
 30
0.0
 11
3208.591328614549
 21
4057.130311538361
 31
0.0
  0
LINE
  5
3D70
330
18
100
AcDbEntity
  8
1
100
AcDbLine
 10
3203.591328614487
 20
4057.130311538361
 30
0.0
 11
3208.591328614488
 21
4057.130311538361
 31
0.0
  0
LINE
  5
3D71
330
18
100
AcDbEntity
  8
1
100
AcDbLine
 10
3203.591328614487
 20
4092.130311538361
 30
0.0
 11
3203.591328614487
 21
4057.130311538361
 31
0.0
  0
LINE
  5
3D72
330
18
100
AcDbEntity
  8
1
100
AcDbLine
 10
3213.591328614487
 20
4057.130311538361
 30
0.0
 11
3213.591328614487
 21
4092.130311538361
 31
0.0
  0
LINE
  5
3D73
330
18
100
AcDbEntity
  8
1
100
AcDbLine
 10
3203.591328614549
 20
4092.130311538361
 30
0.0
 11
3203.591328614549
 21
4057.130311538361
 31
0.0
  0
LINE
  5
3D74
330
18
100
AcDbEntity
  8
1
100
AcDbLine
 10
3138.591328614487
 20
4057.130311538361
 30
0.0
 11
3138.591328614487
 21
4092.130311538361
 31
0.0
  0
LINE
  5
3D75
330
18
100
AcDbEntity
  8
1
100
AcDbLine
 10
3203.591328614487
 20
4092.130311538361
 30
0.0
 11
3203.591328614487
 21
4057.130311538361
 31
0.0
  0
ARC
  5
3D76
330
18
100
AcDbEntity
  8
1
100
AcDbCircle
 10
3068.18877762123
 20
4067.130311538361
 30
0.0
 40
16.0
100
AcDbArc
 50
0.0
 51
90.0
  0
LINE
  5
3D77
330
18
100
AcDbEntity
  8
1
100
AcDbLine
 10
3098.188777621226
 20
4067.130311538361
 30
0.0
 11
3098.188777621226
 21
4039.100560980754
 31
0.0
  0
LINE
  5
3D78
330
18
100
AcDbEntity
  8
1
100
AcDbLine
 10
3084.188777621226
 20
4067.130311538361
 30
0.0
 11
3084.188777621226
 21
4039.100560980754
 31
0.0
  0
LINE
  5
3D79
330
18
100
AcDbEntity
  8
1
100
AcDbLine
 10
3133.591328614488
 20
4057.130311538361
 30
0.0
 11
3138.591328614487
 21
4057.130311538361
 31
0.0
  0
LINE
  5
3D7A
330
18
100
AcDbEntity
  8
1
100
AcDbLine
 10
2898.591328614488
 20
4097.13031153836
 30
0.0
 11
3068.188777621226
 21
4097.13031153836
 31
0.0
  0
LINE
  5
3D7B
330
18
100
AcDbEntity
  8
1
100
AcDbLine
 10
3108.591328614488
 20
4097.13031153836
 30
0.0
 11
2943.591328614488
 21
4097.13031153836
 31
0.0
  0
LINE
  5
3D7C
330
18
100
AcDbEntity
  8
1
100
AcDbLine
 10
2895.391328614487
 20
4155.131185945212
 30
0.0
 11
2895.391328614487
 21
4185.131185949372
 31
0.0
  0
LINE
  5
3D7D
330
18
100
AcDbEntity
  8
1
100
AcDbLine
 10
2858.591328614488
 20
4185.131749780362
 30
0.0
 11
2858.591328614488
 21
4210.13031153836
 31
0.0
  0
LINE
  5
3D7E
330
18
100
AcDbEntity
  8
1
100
AcDbLine
 10
2855.391578416283
 20
4165.132175282519
 30
0.0
 11
2849.989654627638
 21
4155.632175282518
 31
0.0
  0
LINE
  5
3D7F
330
18
100
AcDbEntity
  8
1
100
AcDbLine
 10
2855.391578416283
 20
4165.132175282519
 30
0.0
 11
2849.391578416284
 21
4166.132175282519
 31
0.0
  0
LINE
  5
3D80
330
18
100
AcDbEntity
  8
1
100
AcDbLine
 10
2855.391578416283
 20
4175.132175282517
 30
0.0
 11
2849.989654627638
 21
4184.632175282518
 31
0.0
  0
LINE
  5
3D81
330
18
100
AcDbEntity
  8
1
100
AcDbLine
 10
2855.391578416283
 20
4175.132175282519
 30
0.0
 11
2849.391578416284
 21
4174.132175282518
 31
0.0
  0
LINE
  5
3D82
330
18
100
AcDbEntity
  8
1
100
AcDbLine
 10
2849.391578416284
 20
4174.132175282518
 30
0.0
 11
2849.391578416284
 21
4166.132175282519
 31
0.0
  0
LINE
  5
3D83
330
18
100
AcDbEntity
  8
1
100
AcDbLine
 10
2849.391578416284
 20
4166.132175282519
 30
0.0
 11
2844.834511279072
 21
4158.69982090896
 31
0.0
  0
LINE
  5
3D84
330
18
100
AcDbEntity
  8
1
100
AcDbLine
 10
2849.391578416284
 20
4174.132175282518
 30
0.0
 11
2844.834511279072
 21
4181.564529656076
 31
0.0
  0
LINE
  5
3D85
330
18
100
AcDbEntity
  8
1
100
AcDbLine
 10
2843.591328614488
 20
4172.132298407102
 30
0.0
 11
2844.591328614487
 21
4173.132298407103
 31
0.0
  0
LINE
  5
3D86
330
18
100
AcDbEntity
  8
1
100
AcDbLine
 10
2843.591328614488
 20
4172.132298407102
 30
0.0
 11
2843.591328614488
 21
4168.132298407103
 31
0.0
  0
LINE
  5
3D87
330
18
100
AcDbEntity
  8
1
100
AcDbLine
 10
2843.591328614488
 20
4168.132298407103
 30
0.0
 11
2844.591328614487
 21
4167.132298407103
 31
0.0
  0
LINE
  5
3D88
330
18
100
AcDbEntity
  8
1
100
AcDbLine
 10
2844.591328614487
 20
4173.132298407103
 30
0.0
 11
2844.591328614487
 21
4167.132298407103
 31
0.0
  0
LINE
  5
3D89
330
18
100
AcDbEntity
  8
1
100
AcDbLine
 10
2844.591328614487
 20
4167.132298407103
 30
0.0
 11
2849.391578416284
 21
4167.132298407103
 31
0.0
  0
LINE
  5
3D8A
330
18
100
AcDbEntity
  8
1
100
AcDbLine
 10
2843.591328614488
 20
4168.132298407103
 30
0.0
 11
2849.391578416284
 21
4168.132298407104
 31
0.0
  0
LINE
  5
3D8B
330
18
100
AcDbEntity
  8
1
100
AcDbLine
 10
2843.591328614488
 20
4172.132298407102
 30
0.0
 11
2849.391578416284
 21
4172.132298407102
 31
0.0
  0
LINE
  5
3D8C
330
18
100
AcDbEntity
  8
1
100
AcDbLine
 10
2844.591328614487
 20
4173.132298407103
 30
0.0
 11
2849.391578416284
 21
4173.132298407104
 31
0.0
  0
ARC
  5
3D8D
330
18
100
AcDbEntity
  8
1
100
AcDbCircle
 10
2847.391578416283
 20
4157.132175282519
 30
0.0
 40
3.0
100
AcDbArc
 50
180.0
 51
330.0000000000665
  0
ARC
  5
3D8E
330
18
100
AcDbEntity
  8
1
100
AcDbCircle
 10
2847.391578416283
 20
4157.132175282519
 30
0.0
 40
3.0
100
AcDbArc
 50
147.2939013505391
 51
239.9999999999994
  0
ARC
  5
3D8F
330
18
100
AcDbEntity
  8
1
100
AcDbCircle
 10
2847.391578416283
 20
4183.132175282519
 30
0.0
 40
2.999999999999772
100
AcDbArc
 50
90.0
 51
180.0
  0
ARC
  5
3D90
330
18
100
AcDbEntity
  8
1
100
AcDbCircle
 10
2847.391578416283
 20
4183.132175282518
 30
0.0
 40
3.0
100
AcDbArc
 50
29.99999999993349
 51
180.0
  0
ARC
  5
3D91
330
18
100
AcDbEntity
  8
1
100
AcDbCircle
 10
2847.391578416283
 20
4183.132175282518
 30
0.0
 40
3.0
100
AcDbArc
 50
120.0000000000005
 51
212.7060986494608
  0
LINE
  5
3D92
330
18
100
AcDbEntity
  8
1
100
AcDbLine
 10
2855.391578416283
 20
4165.132175282519
 30
0.0
 11
2855.391578416283
 21
4175.132175282517
 31
0.0
  0
LINE
  5
3D93
330
18
100
AcDbEntity
  8
1
100
AcDbLine
 10
2855.391578416283
 20
4170.131675674828
 30
0.0
 11
2855.391578416283
 21
4170.131675674825
 31
0.0
  0
LINE
  5
3D94
330
18
100
AcDbEntity
  8
1
100
AcDbLine
 10
2855.391578416283
 20
4170.131675674825
 30
0.0
 11
2855.391578416283
 21
4170.131675674825
 31
0.0
  0
LINE
  5
3D95
330
18
100
AcDbEntity
  8
1
100
AcDbLine
 10
2855.39182822218
 20
4185.131798801489
 30
0.0
 11
2855.391328614487
 21
4155.131798805649
 31
0.0
  0
LINE
  5
3D96
330
18
100
AcDbEntity
  8
1
100
AcDbLine
 10
2847.068690215814
 20
4210.131063064136
 30
0.0
 11
2854.491339946626
 21
4210.131063064136
 31
0.0
  0
LINE
  5
3D97
330
18
100
AcDbEntity
  8
1
100
AcDbLine
 10
2847.068690215814
 20
4210.131063064135
 30
0.0
 11
2846.491339946625
 21
4211.131063064136
 31
0.0
  0
LINE
  5
3D98
330
18
100
AcDbEntity
  8
1
100
AcDbLine
 10
2856.991339946626
 20
4209.131063064137
 30
0.0
 11
2858.591339946624
 21
4209.131063064137
 31
0.0
  0
LINE
  5
3D99
330
18
100
AcDbEntity
  8
1
100
AcDbLine
 10
2854.491339946626
 20
4211.131063064136
 30
0.0
 11
2856.991339946626
 21
4211.131063064136
 31
0.0
  0
LINE
  5
3D9A
330
18
100
AcDbEntity
  8
1
100
AcDbLine
 10
2895.391328614487
 20
4155.131185945212
 30
0.0
 11
2855.391328614487
 21
4155.131798805649
 31
0.0
  0
LINE
  5
3D9B
330
18
100
AcDbEntity
  8
1
100
AcDbLine
 10
2855.39182822218
 20
4185.131798801489
 30
0.0
 11
2895.391328614487
 21
4185.131185949372
 31
0.0
  0
LINE
  5
3D9C
330
18
100
AcDbEntity
  8
1
100
AcDbLine
 10
2898.591328614488
 20
4097.13031153836
 30
0.0
 11
2858.591328614488
 21
4097.13031153836
 31
0.0
  0
LINE
  5
3D9D
330
18
100
AcDbEntity
  8
1
100
AcDbLine
 10
2898.591328614488
 20
4097.13031153836
 30
0.0
 11
2858.591328614488
 21
4097.13031153836
 31
0.0
  0
LINE
  5
3D9E
330
18
100
AcDbEntity
  8
1
100
AcDbLine
 10
2858.591328614488
 20
4097.13031153836
 30
0.0
 11
2858.591328614488
 21
4155.131749776813
 31
0.0
  0
LINE
  5
3D9F
330
18
100
AcDbEntity
  8
1
100
AcDbLine
 10
3208.591328614488
 20
4097.13031153836
 30
0.0
 11
3108.591328614488
 21
4097.13031153836
 31
0.0
  0
LINE
  5
3DA0
330
18
100
AcDbEntity
  8
1
100
AcDbLine
 10
3108.591328614488
 20
4097.13031153836
 30
0.0
 11
3158.591328614487
 21
4097.13031153836
 31
0.0
  0
LINE
  5
3DA1
330
18
100
AcDbEntity
  8
1
100
AcDbLine
 10
3283.591328614487
 20
4057.130311538361
 30
0.0
 11
3278.591328614487
 21
4057.130311538361
 31
0.0
  0
LINE
  5
3DA2
330
18
100
AcDbEntity
  8
1
100
AcDbLine
 10
3278.591328614487
 20
4092.130311538361
 30
0.0
 11
3278.591328614487
 21
4057.130311538361
 31
0.0
  0
LINE
  5
3DA3
330
18
100
AcDbEntity
  8
1
100
AcDbLine
 10
3224.841328614491
 20
4089.130311538361
 30
0.0
 11
3224.841328614484
 21
4065.13031153836
 31
0.0
  0
LINE
  5
3DA4
330
18
100
AcDbEntity
  8
1
100
AcDbLine
 10
2856.991339946626
 20
4231.131063064136
 30
0.0
 11
2858.591339946624
 21
4231.131063064136
 31
0.0
  0
LINE
  5
3DA5
330
18
100
AcDbEntity
  8
1
100
AcDbLine
 10
2847.068690215814
 20
4230.131063064137
 30
0.0
 11
2854.491339946626
 21
4230.131063064137
 31
0.0
  0
LINE
  5
3DA6
330
18
100
AcDbEntity
  8
1
100
AcDbLine
 10
2854.491339946626
 20
4225.131063064136
 30
0.0
 11
2847.068690215814
 21
4225.131063064136
 31
0.0
  0
LINE
  5
3DA7
330
18
100
AcDbEntity
  8
1
100
AcDbLine
 10
2854.491339946626
 20
4215.131063064137
 30
0.0
 11
2847.068690215814
 21
4215.131063064137
 31
0.0
  0
LINE
  5
3DA8
330
18
100
AcDbEntity
  8
1
100
AcDbLine
 10
2847.068690215814
 20
4230.131063064137
 30
0.0
 11
2846.491339946625
 21
4229.131063064135
 31
0.0
  0
LINE
  5
3DA9
330
18
100
AcDbEntity
  8
1
100
AcDbLine
 10
2847.068690215814
 20
4225.131063064136
 30
0.0
 11
2846.491339946625
 21
4226.131063064136
 31
0.0
  0
LINE
  5
3DAA
330
18
100
AcDbEntity
  8
1
100
AcDbLine
 10
2847.068690215814
 20
4225.131063064136
 30
0.0
 11
2846.491339946625
 21
4224.131063064134
 31
0.0
  0
LINE
  5
3DAB
330
18
100
AcDbEntity
  8
1
100
AcDbLine
 10
2847.068690215814
 20
4215.131063064137
 30
0.0
 11
2846.491339946625
 21
4216.131063064136
 31
0.0
  0
LINE
  5
3DAC
330
18
100
AcDbEntity
  8
1
100
AcDbLine
 10
2847.068690215814
 20
4215.131063064137
 30
0.0
 11
2846.491339946625
 21
4214.131063064136
 31
0.0
  0
LINE
  5
3DAD
330
18
100
AcDbEntity
  8
1
100
AcDbLine
 10
2842.791339946971
 20
4225.131063064136
 30
0.0
 11
2842.791339946971
 21
4215.131063064137
 31
0.0
  0
LINE
  5
3DAE
330
18
100
AcDbEntity
  8
1
100
AcDbLine
 10
2841.79133994697
 20
4224.131063064136
 30
0.0
 11
2841.79133994697
 21
4216.131063064136
 31
0.0
  0
LINE
  5
3DAF
330
18
100
AcDbEntity
  8
1
100
AcDbLine
 10
2841.79133994697
 20
4224.131063064136
 30
0.0
 11
2842.791339946971
 21
4225.131063064136
 31
0.0
  0
LINE
  5
3DB0
330
18
100
AcDbEntity
  8
1
100
AcDbLine
 10
2841.79133994697
 20
4216.131063064136
 30
0.0
 11
2842.791339946971
 21
4215.131063064137
 31
0.0
  0
LINE
  5
3DB1
330
18
100
AcDbEntity
  8
1
100
AcDbLine
 10
2841.79133994697
 20
4224.131063064136
 30
0.0
 11
2846.491339946625
 21
4224.131063064136
 31
0.0
  0
LINE
  5
3DB2
330
18
100
AcDbEntity
  8
1
100
AcDbLine
 10
2841.79133994697
 20
4216.131063064136
 30
0.0
 11
2846.491339946625
 21
4216.131063064136
 31
0.0
  0
LINE
  5
3DB3
330
18
100
AcDbEntity
  8
1
100
AcDbLine
 10
2842.791339946971
 20
4225.131063064136
 30
0.0
 11
2846.491339946625
 21
4225.131063064136
 31
0.0
  0
LINE
  5
3DB4
330
18
100
AcDbEntity
  8
1
100
AcDbLine
 10
2842.791339946971
 20
4215.131063064137
 30
0.0
 11
2846.491339946625
 21
4215.131063064137
 31
0.0
  0
LINE
  5
3DB5
330
18
100
AcDbEntity
  8
1
100
AcDbLine
 10
2854.491339946626
 20
4229.131063064136
 30
0.0
 11
2856.991339946626
 21
4229.131063064136
 31
0.0
  0
LINE
  5
3DB6
330
18
100
AcDbEntity
  8
1
100
AcDbLine
 10
2856.991328614489
 20
4419.130311538362
 30
0.0
 11
2856.991328614489
 21
4441.130311538361
 31
0.0
  0
LINE
  5
3DB7
330
18
100
AcDbEntity
  8
1
100
AcDbLine
 10
2854.491328614489
 20
4420.130311538361
 30
0.0
 11
2854.491328614489
 21
4440.130311538362
 31
0.0
  0
LINE
  5
3DB8
330
18
100
AcDbEntity
  8
1
100
AcDbLine
 10
2846.491328614489
 20
4421.130311538362
 30
0.0
 11
2846.491328614489
 21
4439.130311538361
 31
0.0
  0
LINE
  5
3DB9
330
18
100
AcDbEntity
  8
1
100
AcDbLine
 10
2847.068678883677
 20
4440.130311538362
 30
0.0
 11
2847.068678883677
 21
4420.130311538361
 31
0.0
  0
LINE
  5
3DBA
330
18
100
AcDbEntity
  8
1
100
AcDbLine
 10
2858.591328614488
 20
4441.130311538361
 30
0.0
 11
2858.591328614488
 21
4419.130311538362
 31
0.0
  0
LINE
  5
3DBB
330
18
100
AcDbEntity
  8
1
100
AcDbLine
 10
2842.791328614834
 20
4435.130311538361
 30
0.0
 11
2842.791328614834
 21
4425.130311538361
 31
0.0
  0
LINE
  5
3DBC
330
18
100
AcDbEntity
  8
1
100
AcDbLine
 10
2841.791328614834
 20
4434.130311538361
 30
0.0
 11
2841.791328614834
 21
4426.130311538361
 31
0.0
  0
LINE
  5
3DBD
330
18
100
AcDbEntity
  8
1
100
AcDbLine
 10
2854.491328614489
 20
4425.130311538361
 30
0.0
 11
2847.068678883677
 21
4425.130311538361
 31
0.0
  0
LINE
  5
3DBE
330
18
100
AcDbEntity
  8
1
100
AcDbLine
 10
2847.068678883677
 20
4420.130311538361
 30
0.0
 11
2854.491328614489
 21
4420.130311538361
 31
0.0
  0
LINE
  5
3DBF
330
18
100
AcDbEntity
  8
1
100
AcDbLine
 10
2847.068678883677
 20
4425.130311538361
 30
0.0
 11
2846.491328614489
 21
4426.130311538362
 31
0.0
  0
LINE
  5
3DC0
330
18
100
AcDbEntity
  8
1
100
AcDbLine
 10
2847.068678883677
 20
4425.130311538361
 30
0.0
 11
2846.491328614489
 21
4424.130311538361
 31
0.0
  0
LINE
  5
3DC1
330
18
100
AcDbEntity
  8
1
100
AcDbLine
 10
2847.068678883677
 20
4420.130311538361
 30
0.0
 11
2846.491328614489
 21
4421.130311538362
 31
0.0
  0
LINE
  5
3DC2
330
18
100
AcDbEntity
  8
1
100
AcDbLine
 10
2841.791328614834
 20
4426.130311538361
 30
0.0
 11
2842.791328614834
 21
4425.130311538361
 31
0.0
  0
LINE
  5
3DC3
330
18
100
AcDbEntity
  8
1
100
AcDbLine
 10
2841.791328614834
 20
4426.130311538361
 30
0.0
 11
2846.491328614489
 21
4426.130311538361
 31
0.0
  0
LINE
  5
3DC4
330
18
100
AcDbEntity
  8
1
100
AcDbLine
 10
2842.791328614834
 20
4425.130311538361
 30
0.0
 11
2846.491328614489
 21
4425.130311538361
 31
0.0
  0
LINE
  5
3DC5
330
18
100
AcDbEntity
  8
1
100
AcDbLine
 10
2856.991328614489
 20
4419.130311538362
 30
0.0
 11
2858.591328614488
 21
4419.130311538362
 31
0.0
  0
LINE
  5
3DC6
330
18
100
AcDbEntity
  8
1
100
AcDbLine
 10
2854.491328614489
 20
4421.130311538362
 30
0.0
 11
2856.991328614489
 21
4421.130311538362
 31
0.0
  0
LINE
  5
3DC7
330
18
100
AcDbEntity
  8
1
100
AcDbLine
 10
2847.068678883677
 20
4440.130311538362
 30
0.0
 11
2854.491328614489
 21
4440.130311538362
 31
0.0
  0
LINE
  5
3DC8
330
18
100
AcDbEntity
  8
1
100
AcDbLine
 10
2854.491328614489
 20
4435.130311538361
 30
0.0
 11
2847.068678883677
 21
4435.130311538361
 31
0.0
  0
LINE
  5
3DC9
330
18
100
AcDbEntity
  8
1
100
AcDbLine
 10
2847.068678883677
 20
4440.130311538362
 30
0.0
 11
2846.491328614489
 21
4439.130311538361
 31
0.0
  0
LINE
  5
3DCA
330
18
100
AcDbEntity
  8
1
100
AcDbLine
 10
2847.068678883677
 20
4435.130311538361
 30
0.0
 11
2846.491328614489
 21
4436.130311538362
 31
0.0
  0
LINE
  5
3DCB
330
18
100
AcDbEntity
  8
1
100
AcDbLine
 10
2847.068678883677
 20
4435.130311538361
 30
0.0
 11
2846.491328614489
 21
4434.130311538361
 31
0.0
  0
LINE
  5
3DCC
330
18
100
AcDbEntity
  8
1
100
AcDbLine
 10
2841.791328614834
 20
4434.130311538361
 30
0.0
 11
2842.791328614834
 21
4435.130311538361
 31
0.0
  0
LINE
  5
3DCD
330
18
100
AcDbEntity
  8
1
100
AcDbLine
 10
2841.791328614834
 20
4434.130311538361
 30
0.0
 11
2846.491328614489
 21
4434.130311538361
 31
0.0
  0
LINE
  5
3DCE
330
18
100
AcDbEntity
  8
1
100
AcDbLine
 10
2842.791328614834
 20
4435.130311538361
 30
0.0
 11
2846.491328614489
 21
4435.130311538361
 31
0.0
  0
LINE
  5
3DCF
330
18
100
AcDbEntity
  8
1
100
AcDbLine
 10
2856.991328614489
 20
4441.130311538361
 30
0.0
 11
2858.591328614488
 21
4441.130311538361
 31
0.0
  0
LINE
  5
3DD0
330
18
100
AcDbEntity
  8
1
100
AcDbLine
 10
2854.491328614489
 20
4439.130311538361
 30
0.0
 11
2856.991328614489
 21
4439.130311538361
 31
0.0
  0
LINE
  5
3DD1
330
18
100
AcDbEntity
  8
1
100
AcDbLine
 10
3133.591328614488
 20
4855.130311538363
 30
0.0
 11
2578.591328614487
 21
4855.130311538363
 31
0.0
  0
LINE
  5
3DD2
330
18
100
AcDbEntity
  8
1
100
AcDbLine
 10
2553.591328614488
 20
4503.454582870907
 30
0.0
 11
2553.591328614488
 21
4855.130311538362
 31
0.0
  0
LINE
  5
3DD3
330
18
100
AcDbEntity
  8
1
100
AcDbLine
 10
2543.591328614487
 20
4551.835526388416
 30
0.0
 11
2543.591328614487
 21
4855.130311538362
 31
0.0
  0
LINE
  5
3DD4
330
18
100
AcDbEntity
  8
1
100
AcDbLine
 10
2323.591328614488
 20
4855.130311538362
 30
0.0
 11
2323.591328614488
 21
4495.130311538361
 31
0.0
  0
LINE
  5
3DD5
330
18
100
AcDbEntity
  8
1
100
AcDbLine
 10
2323.591328614488
 20
4495.130311538361
 30
0.0
 11
2543.591328614487
 21
4495.130311538361
 31
0.0
  0
ARC
  5
3DD6
330
18
100
AcDbEntity
  8
1
100
AcDbCircle
 10
2413.027901639992
 20
4568.087613952118
 30
0.0
 40
7.0
100
AcDbArc
 50
90.0
 51
270.0
  0
ARC
  5
3DD7
330
18
100
AcDbEntity
  8
1
100
AcDbCircle
 10
2504.790244486134
 20
4531.087613952119
 30
0.0
 40
44.0
100
AcDbArc
 50
0.0
 51
90.0
  0
LINE
  5
3DD8
330
18
100
AcDbEntity
  8
1
100
AcDbLine
 10
2553.591328614488
 20
4503.454582870907
 30
0.0
 11
2553.591328614488
 21
4556.587613952117
 31
0.0
  0
ARC
  5
3DD9
330
18
100
AcDbEntity
  8
1
100
AcDbCircle
 10
2562.790244486134
 20
4514.008252696441
 30
0.0
 40
14.0
100
AcDbArc
 50
179.9999999999739
 51
270.0
  0
LINE
  5
3DDA
330
18
100
AcDbEntity
  8
1
100
AcDbLine
 10
2562.790244486134
 20
4500.008252696442
 30
0.0
 11
2578.591328614487
 21
4500.008252696442
 31
0.0
  0
LINE
  5
3DDB
330
18
100
AcDbEntity
  8
1
100
AcDbLine
 10
2548.790244486133
 20
4531.087613952117
 30
0.0
 11
2548.790244486133
 21
4514.008252696442
 31
0.0
  0
LINE
  5
3DDC
330
18
100
AcDbEntity
  8
1
100
AcDbLine
 10
2534.790244486134
 20
4531.087613952117
 30
0.0
 11
2534.790244486134
 21
4514.008252696442
 31
0.0
  0
LINE
  5
3DDD
330
18
100
AcDbEntity
  8
1
100
AcDbLine
 10
2543.591328614487
 20
4545.130311538361
 30
0.0
 11
2553.591328614488
 21
4545.130311538361
 31
0.0
  0
LINE
  5
3DDE
330
18
100
AcDbEntity
  8
1
100
AcDbLine
 10
2504.790244486134
 20
4561.087613952118
 30
0.0
 11
2413.027901639992
 21
4561.087613952118
 31
0.0
  0
ARC
  5
3DDF
330
18
100
AcDbEntity
  8
1
100
AcDbCircle
 10
2504.790244486134
 20
4531.087613952119
 30
0.0
 40
30.0
100
AcDbArc
 50
0.0
 51
90.0
  0
LINE
  5
3DE0
330
18
100
AcDbEntity
  8
1
100
AcDbLine
 10
2562.790244486134
 20
4486.008252696442
 30
0.0
 11
2578.591328614487
 21
4486.008252696442
 31
0.0
  0
ARC
  5
3DE1
330
18
100
AcDbEntity
  8
1
100
AcDbCircle
 10
2562.790244486134
 20
4514.008252696443
 30
0.0
 40
28.0
100
AcDbArc
 50
180.0
 51
270.0
  0
LINE
  5
3DE2
330
18
100
AcDbEntity
  8
1
100
AcDbLine
 10
2504.790244486134
 20
4575.087613952118
 30
0.0
 11
2413.027901639992
 21
4575.087613952118
 31
0.0
  0
LINE
  5
3DE3
330
18
100
AcDbEntity
  8
1
100
AcDbLine
 10
2578.591328614491
 20
4855.130311538363
 30
0.0
 11
2323.591328614488
 21
4855.130311538362
 31
0.0
  0
LINE
  5
3DE4
330
18
100
AcDbEntity
  8
1
100
AcDbLine
 10
2543.591328614487
 20
4810.130311538362
 30
0.0
 11
2553.591328614488
 21
4810.130311538362
 31
0.0
  0
LWPOLYLINE
  5
3DE5
330
18
100
AcDbEntity
  8
1
370
    18
100
AcDbPolyline
 90
        4
 70
     1
 43
0.0
 10
2944.076109814012
 20
4679.63031153836
 10
2944.076109814012
 20
4809.63031153836
 10
2920.076109814011
 20
4809.63031153836
 10
2920.076109814011
 20
4679.63031153836
  0
LINE
  5
3DE7
330
18
100
AcDbEntity
  8
1
100
AcDbLine
 10
2858.591328614488
 20
4490.130311538361
 30
0.0
 11
2858.591328614488
 21
4710.130311538351
 31
0.0
  0
LINE
  5
3DE8
330
18
100
AcDbEntity
  8
1
100
AcDbLine
 10
2855.391828222184
 20
4490.130924392558
 30
0.0
 11
2895.39132861449
 21
4490.130311540442
 31
0.0
  0
LINE
  5
3DE9
330
18
100
AcDbEntity
  8
1
100
AcDbLine
 10
2855.391578416283
 20
4470.131300873588
 30
0.0
 11
2849.391578416284
 21
4471.131300873588
 31
0.0
  0
LINE
  5
3DEA
330
18
100
AcDbEntity
  8
1
100
AcDbLine
 10
2855.391578416283
 20
4470.131300873588
 30
0.0
 11
2849.989654627638
 21
4460.631300873589
 31
0.0
  0
LINE
  5
3DEB
330
18
100
AcDbEntity
  8
1
100
AcDbLine
 10
2855.391578416283
 20
4480.131300873589
 30
0.0
 11
2849.391578416287
 21
4479.131300873588
 31
0.0
  0
LINE
  5
3DEC
330
18
100
AcDbEntity
  8
1
100
AcDbLine
 10
2849.391578416284
 20
4471.131300873588
 30
0.0
 11
2844.834511279072
 21
4463.69894650003
 31
0.0
  0
LINE
  5
3DED
330
18
100
AcDbEntity
  8
1
100
AcDbLine
 10
2849.391578416284
 20
4479.131300873588
 30
0.0
 11
2849.391578416284
 21
4471.131300873588
 31
0.0
  0
LINE
  5
3DEE
330
18
100
AcDbEntity
  8
1
100
AcDbLine
 10
2849.391578416287
 20
4479.131300873588
 30
0.0
 11
2844.834511279072
 21
4486.563655247146
 31
0.0
  0
LINE
  5
3DEF
330
18
100
AcDbEntity
  8
1
100
AcDbLine
 10
2843.591328614488
 20
4477.131423998172
 30
0.0
 11
2844.591328614487
 21
4478.131423998173
 31
0.0
  0
LINE
  5
3DF0
330
18
100
AcDbEntity
  8
1
100
AcDbLine
 10
2843.591328614488
 20
4477.131423998172
 30
0.0
 11
2843.591328614488
 21
4473.131423998172
 31
0.0
  0
LINE
  5
3DF1
330
18
100
AcDbEntity
  8
1
100
AcDbLine
 10
2843.591328614488
 20
4473.131423998172
 30
0.0
 11
2844.591328614487
 21
4472.131423998173
 31
0.0
  0
LINE
  5
3DF2
330
18
100
AcDbEntity
  8
1
100
AcDbLine
 10
2844.591328614487
 20
4478.131423998173
 30
0.0
 11
2844.591328614487
 21
4472.131423998173
 31
0.0
  0
ARC
  5
3DF3
330
18
100
AcDbEntity
  8
1
100
AcDbCircle
 10
2847.391578416283
 20
4462.131300873589
 30
0.0
 40
3.0
100
AcDbArc
 50
180.0
 51
330.0000000000665
  0
ARC
  5
3DF4
330
18
100
AcDbEntity
  8
1
100
AcDbCircle
 10
2847.391578416283
 20
4462.131300873589
 30
0.0
 40
3.0
100
AcDbArc
 50
147.2939013505391
 51
239.9999999999994
  0
LINE
  5
3DF5
330
18
100
AcDbEntity
  8
1
100
AcDbLine
 10
2844.591328614487
 20
4472.131423998173
 30
0.0
 11
2849.391578416287
 21
4472.131423998173
 31
0.0
  0
LINE
  5
3DF6
330
18
100
AcDbEntity
  8
1
100
AcDbLine
 10
2843.591328614488
 20
4473.131423998172
 30
0.0
 11
2849.391578416284
 21
4473.131423998174
 31
0.0
  0
LINE
  5
3DF7
330
18
100
AcDbEntity
  8
1
100
AcDbLine
 10
2843.591328614488
 20
4477.131423998172
 30
0.0
 11
2849.391578416284
 21
4477.131423998172
 31
0.0
  0
LINE
  5
3DF8
330
18
100
AcDbEntity
  8
1
100
AcDbLine
 10
2844.591328614487
 20
4478.131423998173
 30
0.0
 11
2849.391578416287
 21
4478.131423998173
 31
0.0
  0
LINE
  5
3DF9
330
18
100
AcDbEntity
  8
1
100
AcDbLine
 10
2855.391578416283
 20
4470.131300873588
 30
0.0
 11
2855.391578416287
 21
4480.131300873588
 31
0.0
  0
LINE
  5
3DFA
330
18
100
AcDbEntity
  8
1
100
AcDbLine
 10
2855.391578416287
 20
4475.130801265898
 30
0.0
 11
2855.391578416287
 21
4475.130801265894
 31
0.0
  0
LINE
  5
3DFB
330
18
100
AcDbEntity
  8
1
100
AcDbLine
 10
2855.391578416287
 20
4475.130801265894
 30
0.0
 11
2855.391578416287
 21
4475.130801265894
 31
0.0
  0
LINE
  5
3DFC
330
18
100
AcDbEntity
  8
1
100
AcDbLine
 10
2895.39132861449
 20
4460.130311536281
 30
0.0
 11
2855.391328614491
 21
4460.130924396718
 31
0.0
  0
LINE
  5
3DFD
330
18
100
AcDbEntity
  8
1
100
AcDbLine
 10
2855.391578416287
 20
4480.131300873588
 30
0.0
 11
2849.989654627638
 21
4489.631300873588
 31
0.0
  0
ARC
  5
3DFE
330
18
100
AcDbEntity
  8
1
100
AcDbCircle
 10
2847.391578416283
 20
4488.131300873589
 30
0.0
 40
2.999999999999772
100
AcDbArc
 50
90.0
 51
180.0
  0
ARC
  5
3DFF
330
18
100
AcDbEntity
  8
1
100
AcDbCircle
 10
2847.391578416283
 20
4488.131300873589
 30
0.0
 40
3.0
100
AcDbArc
 50
29.99999999993349
 51
180.0
  0
ARC
  5
3E00
330
18
100
AcDbEntity
  8
1
100
AcDbCircle
 10
2847.391578416283
 20
4488.131300873589
 30
0.0
 40
3.0
100
AcDbArc
 50
120.0000000000005
 51
212.7060986494608
  0
LINE
  5
3E01
330
18
100
AcDbEntity
  8
1
100
AcDbLine
 10
2895.39132861449
 20
4460.130311536281
 30
0.0
 11
2895.39132861449
 21
4490.130311540442
 31
0.0
  0
LINE
  5
3E02
330
18
100
AcDbEntity
  8
1
100
AcDbLine
 10
2855.391828222184
 20
4490.130924392558
 30
0.0
 11
2855.391328614491
 21
4460.130924396718
 31
0.0
  0
LINE
  5
3E03
330
18
100
AcDbEntity
  8
1
100
AcDbLine
 10
3213.591328614491
 20
4888.130311538361
 30
0.0
 11
3224.841328614491
 21
4888.130311538361
 31
0.0
  0
LINE
  5
3E04
330
18
100
AcDbEntity
  8
1
100
AcDbLine
 10
3213.591328614491
 20
4876.130311538361
 30
0.0
 11
3224.841328614488
 21
4876.130311538361
 31
0.0
  0
LINE
  5
3E05
330
18
100
AcDbEntity
  8
1
100
AcDbLine
 10
3213.591328614494
 20
4894.130311538361
 30
0.0
 11
3224.841328614495
 21
4894.130311538361
 31
0.0
  0
LINE
  5
3E06
330
18
100
AcDbEntity
  8
1
100
AcDbLine
 10
3213.591328614484
 20
4870.13031153836
 30
0.0
 11
3224.841328614484
 21
4870.13031153836
 31
0.0
  0
LINE
  5
3E07
330
18
100
AcDbEntity
  8
1
100
AcDbLine
 10
3208.591328614491
 20
4862.130311538361
 30
0.0
 11
3283.591328614491
 21
4862.130311538361
 31
0.0
  0
LINE
  5
3E08
330
18
100
AcDbEntity
  8
1
100
AcDbLine
 10
3213.591328614491
 20
4867.13031153836
 30
0.0
 11
3278.591328614492
 21
4867.13031153836
 31
0.0
  0
LINE
  5
3E09
330
18
100
AcDbEntity
  8
1
100
AcDbLine
 10
2858.591328614488
 20
4795.13068634136
 30
0.0
 11
2858.591328614488
 21
4855.130311538363
 31
0.0
  0
LINE
  5
3E0A
330
18
100
AcDbEntity
  8
1
100
AcDbLine
 10
2895.39132861449
 20
4765.130073485082
 30
0.0
 11
2895.39132861449
 21
4795.130073489242
 31
0.0
  0
LINE
  5
3E0B
330
18
100
AcDbEntity
  8
1
100
AcDbLine
 10
2855.391578416283
 20
4775.131062822389
 30
0.0
 11
2849.989654627638
 21
4765.631062822389
 31
0.0
  0
LINE
  5
3E0C
330
18
100
AcDbEntity
  8
1
100
AcDbLine
 10
2855.391578416283
 20
4775.131062822389
 30
0.0
 11
2849.391578416284
 21
4776.13106282239
 31
0.0
  0
LINE
  5
3E0D
330
18
100
AcDbEntity
  8
1
100
AcDbLine
 10
2855.391578416287
 20
4785.131062822389
 30
0.0
 11
2849.989654627638
 21
4794.631062822388
 31
0.0
  0
LINE
  5
3E0E
330
18
100
AcDbEntity
  8
1
100
AcDbLine
 10
2855.391578416283
 20
4785.131062822389
 30
0.0
 11
2849.391578416287
 21
4784.13106282239
 31
0.0
  0
LINE
  5
3E0F
330
18
100
AcDbEntity
  8
1
100
AcDbLine
 10
2849.391578416284
 20
4784.131062822389
 30
0.0
 11
2849.391578416284
 21
4776.13106282239
 31
0.0
  0
LINE
  5
3E10
330
18
100
AcDbEntity
  8
1
100
AcDbLine
 10
2849.391578416284
 20
4776.13106282239
 30
0.0
 11
2844.834511279072
 21
4768.698708448832
 31
0.0
  0
LINE
  5
3E11
330
18
100
AcDbEntity
  8
1
100
AcDbLine
 10
2849.391578416287
 20
4784.131062822389
 30
0.0
 11
2844.834511279072
 21
4791.563417195948
 31
0.0
  0
LINE
  5
3E12
330
18
100
AcDbEntity
  8
1
100
AcDbLine
 10
2844.591328614487
 20
4783.131185946974
 30
0.0
 11
2844.591328614487
 21
4777.131185946974
 31
0.0
  0
LINE
  5
3E13
330
18
100
AcDbEntity
  8
1
100
AcDbLine
 10
2843.591328614488
 20
4778.131185946974
 30
0.0
 11
2844.591328614487
 21
4777.131185946974
 31
0.0
  0
LINE
  5
3E14
330
18
100
AcDbEntity
  8
1
100
AcDbLine
 10
2843.591328614488
 20
4782.131185946974
 30
0.0
 11
2843.591328614488
 21
4778.131185946974
 31
0.0
  0
LINE
  5
3E15
330
18
100
AcDbEntity
  8
1
100
AcDbLine
 10
2843.591328614488
 20
4782.131185946974
 30
0.0
 11
2844.591328614487
 21
4783.131185946974
 31
0.0
  0
LINE
  5
3E16
330
18
100
AcDbEntity
  8
1
100
AcDbLine
 10
2843.591328614488
 20
4778.131185946974
 30
0.0
 11
2849.391578416284
 21
4778.131185946975
 31
0.0
  0
LINE
  5
3E17
330
18
100
AcDbEntity
  8
1
100
AcDbLine
 10
2844.591328614487
 20
4777.131185946974
 30
0.0
 11
2849.391578416287
 21
4777.131185946975
 31
0.0
  0
LINE
  5
3E18
330
18
100
AcDbEntity
  8
1
100
AcDbLine
 10
2844.591328614487
 20
4783.131185946974
 30
0.0
 11
2849.391578416287
 21
4783.131185946975
 31
0.0
  0
LINE
  5
3E19
330
18
100
AcDbEntity
  8
1
100
AcDbLine
 10
2843.591328614488
 20
4782.131185946974
 30
0.0
 11
2849.391578416284
 21
4782.131185946974
 31
0.0
  0
ARC
  5
3E1A
330
18
100
AcDbEntity
  8
1
100
AcDbCircle
 10
2847.391578416283
 20
4767.131062822391
 30
0.0
 40
3.0
100
AcDbArc
 50
180.0
 51
330.0000000000665
  0
ARC
  5
3E1B
330
18
100
AcDbEntity
  8
1
100
AcDbCircle
 10
2847.391578416283
 20
4767.131062822391
 30
0.0
 40
3.0
100
AcDbArc
 50
147.2939013505391
 51
239.9999999999994
  0
ARC
  5
3E1C
330
18
100
AcDbEntity
  8
1
100
AcDbCircle
 10
2847.391578416283
 20
4793.131062822391
 30
0.0
 40
2.999999999999772
100
AcDbArc
 50
90.0
 51
180.0
  0
ARC
  5
3E1D
330
18
100
AcDbEntity
  8
1
100
AcDbCircle
 10
2847.391578416283
 20
4793.13106282239
 30
0.0
 40
3.0
100
AcDbArc
 50
29.99999999993349
 51
180.0
  0
ARC
  5
3E1E
330
18
100
AcDbEntity
  8
1
100
AcDbCircle
 10
2847.391578416283
 20
4793.13106282239
 30
0.0
 40
3.0
100
AcDbArc
 50
120.0000000000005
 51
212.7060986494608
  0
LINE
  5
3E1F
330
18
100
AcDbEntity
  8
1
100
AcDbLine
 10
2855.391578416283
 20
4775.131062822389
 30
0.0
 11
2855.391578416287
 21
4785.131062822389
 31
0.0
  0
LINE
  5
3E20
330
18
100
AcDbEntity
  8
1
100
AcDbLine
 10
2855.391578416287
 20
4780.1305632147
 30
0.0
 11
2855.391578416287
 21
4780.130563214696
 31
0.0
  0
LINE
  5
3E21
330
18
100
AcDbEntity
  8
1
100
AcDbLine
 10
2855.391578416287
 20
4780.130563214696
 30
0.0
 11
2855.391578416287
 21
4780.130563214696
 31
0.0
  0
LINE
  5
3E22
330
18
100
AcDbEntity
  8
1
100
AcDbLine
 10
2855.391828222184
 20
4795.13068634136
 30
0.0
 11
2855.391328614491
 21
4765.13068634552
 31
0.0
  0
LINE
  5
3E23
330
18
100
AcDbEntity
  8
1
100
AcDbLine
 10
2854.491328614489
 20
4735.131063081817
 30
0.0
 11
2847.068678883677
 21
4735.131063081817
 31
0.0
  0
LINE
  5
3E24
330
18
100
AcDbEntity
  8
1
100
AcDbLine
 10
2847.068678883677
 20
4740.131063081817
 30
0.0
 11
2854.491328614489
 21
4740.131063081817
 31
0.0
  0
LINE
  5
3E25
330
18
100
AcDbEntity
  8
1
100
AcDbLine
 10
2854.491328614489
 20
4725.131063081817
 30
0.0
 11
2847.068678883677
 21
4725.131063081817
 31
0.0
  0
LINE
  5
3E26
330
18
100
AcDbEntity
  8
1
100
AcDbLine
 10
2847.068678883677
 20
4720.131063081817
 30
0.0
 11
2854.491328614489
 21
4720.131063081817
 31
0.0
  0
LINE
  5
3E27
330
18
100
AcDbEntity
  8
1
100
AcDbLine
 10
2847.068678883677
 20
4735.131063081817
 30
0.0
 11
2846.491328614489
 21
4734.131063081814
 31
0.0
  0
LINE
  5
3E28
330
18
100
AcDbEntity
  8
1
100
AcDbLine
 10
2847.068678883677
 20
4735.131063081817
 30
0.0
 11
2846.491328614489
 21
4736.131063081817
 31
0.0
  0
LINE
  5
3E29
330
18
100
AcDbEntity
  8
1
100
AcDbLine
 10
2847.068678883677
 20
4740.131063081817
 30
0.0
 11
2846.491328614489
 21
4739.131063081816
 31
0.0
  0
LINE
  5
3E2A
330
18
100
AcDbEntity
  8
1
100
AcDbLine
 10
2847.068678883677
 20
4725.131063081817
 30
0.0
 11
2846.491328614489
 21
4724.131063081816
 31
0.0
  0
LINE
  5
3E2B
330
18
100
AcDbEntity
  8
1
100
AcDbLine
 10
2847.068678883677
 20
4725.131063081817
 30
0.0
 11
2846.491328614489
 21
4726.131063081817
 31
0.0
  0
LINE
  5
3E2C
330
18
100
AcDbEntity
  8
1
100
AcDbLine
 10
2847.068678883677
 20
4720.131063081816
 30
0.0
 11
2846.491328614489
 21
4721.131063081815
 31
0.0
  0
LINE
  5
3E2D
330
18
100
AcDbEntity
  8
1
100
AcDbLine
 10
2847.068678883677
 20
4740.131063081817
 30
0.0
 11
2847.068678883677
 21
4720.131063081817
 31
0.0
  0
LINE
  5
3E2E
330
18
100
AcDbEntity
  8
1
100
AcDbLine
 10
2846.491328614489
 20
4721.131063081816
 30
0.0
 11
2846.491328614489
 21
4739.131063081816
 31
0.0
  0
LINE
  5
3E2F
330
18
100
AcDbEntity
  8
1
100
AcDbLine
 10
2841.791328614834
 20
4734.131063081817
 30
0.0
 11
2842.791328614834
 21
4735.131063081817
 31
0.0
  0
LINE
  5
3E30
330
18
100
AcDbEntity
  8
1
100
AcDbLine
 10
2841.791328614834
 20
4726.131063081817
 30
0.0
 11
2842.791328614834
 21
4725.131063081817
 31
0.0
  0
LINE
  5
3E31
330
18
100
AcDbEntity
  8
1
100
AcDbLine
 10
2841.791328614834
 20
4734.131063081817
 30
0.0
 11
2841.791328614834
 21
4726.131063081817
 31
0.0
  0
LINE
  5
3E32
330
18
100
AcDbEntity
  8
1
100
AcDbLine
 10
2842.791328614834
 20
4735.131063081817
 30
0.0
 11
2842.791328614834
 21
4725.131063081817
 31
0.0
  0
LINE
  5
3E33
330
18
100
AcDbEntity
  8
1
100
AcDbLine
 10
2841.791328614834
 20
4726.131063081817
 30
0.0
 11
2846.491328614489
 21
4726.131063081817
 31
0.0
  0
LINE
  5
3E34
330
18
100
AcDbEntity
  8
1
100
AcDbLine
 10
2841.791328614834
 20
4734.131063081817
 30
0.0
 11
2846.491328614489
 21
4734.131063081817
 31
0.0
  0
LINE
  5
3E35
330
18
100
AcDbEntity
  8
1
100
AcDbLine
 10
2842.791328614834
 20
4725.131063081817
 30
0.0
 11
2846.491328614489
 21
4725.131063081817
 31
0.0
  0
LINE
  5
3E36
330
18
100
AcDbEntity
  8
1
100
AcDbLine
 10
2842.791328614834
 20
4735.131063081817
 30
0.0
 11
2846.491328614489
 21
4735.131063081817
 31
0.0
  0
LINE
  5
3E37
330
18
100
AcDbEntity
  8
1
100
AcDbLine
 10
2854.491328614489
 20
4739.131063081816
 30
0.0
 11
2856.991328614489
 21
4739.131063081816
 31
0.0
  0
LINE
  5
3E38
330
18
100
AcDbEntity
  8
1
100
AcDbLine
 10
2856.991328614489
 20
4741.131063081817
 30
0.0
 11
2858.591328614488
 21
4741.131063081817
 31
0.0
  0
LINE
  5
3E39
330
18
100
AcDbEntity
  8
1
100
AcDbLine
 10
2854.491328614489
 20
4721.131063081816
 30
0.0
 11
2856.991328614489
 21
4721.131063081816
 31
0.0
  0
LINE
  5
3E3A
330
18
100
AcDbEntity
  8
1
100
AcDbLine
 10
2856.991328614489
 20
4719.131063081817
 30
0.0
 11
2858.591328614488
 21
4719.131063081817
 31
0.0
  0
LINE
  5
3E3B
330
18
100
AcDbEntity
  8
1
100
AcDbLine
 10
2858.591328614488
 20
4741.131063081817
 30
0.0
 11
2858.591328614488
 21
4719.131063081817
 31
0.0
  0
LINE
  5
3E3C
330
18
100
AcDbEntity
  8
1
100
AcDbLine
 10
2854.491328614489
 20
4720.131063081817
 30
0.0
 11
2854.491328614489
 21
4740.131063081817
 31
0.0
  0
LINE
  5
3E3D
330
18
100
AcDbEntity
  8
1
100
AcDbLine
 10
2856.991328614489
 20
4719.131063081817
 30
0.0
 11
2856.991328614489
 21
4741.131063081817
 31
0.0
  0
LINE
  5
3E3E
330
18
100
AcDbEntity
  8
1
100
AcDbLine
 10
2858.591328614488
 20
4710.130311538351
 30
0.0
 11
2858.591328614488
 21
4740.13031153835
 31
0.0
  0
LINE
  5
3E3F
330
18
100
AcDbEntity
  8
1
100
AcDbLine
 10
2858.591328614488
 20
4740.13031153835
 30
0.0
 11
2858.591328614488
 21
4765.1306863372
 31
0.0
  0
LINE
  5
3E40
330
18
100
AcDbEntity
  8
1
100
AcDbLine
 10
2855.391828222184
 20
4795.13068634136
 30
0.0
 11
2895.39132861449
 21
4795.130073489242
 31
0.0
  0
LINE
  5
3E41
330
18
100
AcDbEntity
  8
1
100
AcDbLine
 10
2895.39132861449
 20
4765.130073485082
 30
0.0
 11
2855.391328614491
 21
4765.13068634552
 31
0.0
  0
LINE
  5
3E42
330
18
100
AcDbEntity
  8
1
100
AcDbLine
 10
3203.591328614487
 20
4867.13031153836
 30
0.0
 11
3203.591328614487
 21
4902.13031153836
 31
0.0
  0
LINE
  5
3E43
330
18
100
AcDbEntity
  8
1
100
AcDbLine
 10
3208.591328614488
 20
4855.130311538361
 30
0.0
 11
3208.591328614488
 21
4895.130311538361
 31
0.0
  0
LINE
  5
3E44
330
18
100
AcDbEntity
  8
1
100
AcDbLine
 10
3203.591328614487
 20
4902.13031153836
 30
0.0
 11
3208.591328614488
 21
4902.13031153836
 31
0.0
  0
LINE
  5
3E45
330
18
100
AcDbEntity
  8
1
  6
1-隠れ線
100
AcDbLine
 10
3208.591328614491
 20
4902.130311538359
 30
0.0
 11
3208.591328614491
 21
4862.13031153836
 31
0.0
  0
LINE
  5
3E46
330
18
100
AcDbEntity
  8
1
100
AcDbLine
 10
3208.591328614491
 20
4902.13031153836
 30
0.0
 11
3213.591328614491
 21
4902.13031153836
 31
0.0
  0
LINE
  5
3E47
330
18
100
AcDbEntity
  8
1
100
AcDbLine
 10
3208.591328614488
 20
4870.630311538359
 30
0.0
 11
3208.591328614488
 21
4902.13031153836
 31
0.0
  0
LINE
  5
3E48
330
18
100
AcDbEntity
  8
1
100
AcDbLine
 10
3208.591328614491
 20
4862.13031153836
 30
0.0
 11
3208.591328614491
 21
4902.13031153836
 31
0.0
  0
LINE
  5
3E49
330
18
100
AcDbEntity
  8
1
100
AcDbLine
 10
3213.591328614491
 20
4902.13031153836
 30
0.0
 11
3213.591328614491
 21
4867.13031153836
 31
0.0
  0
LINE
  5
3E4A
330
18
100
AcDbEntity
  8
1
100
AcDbLine
 10
3208.591328614549
 20
4902.130311538359
 30
0.0
 11
3208.591328614549
 21
4862.13031153836
 31
0.0
  0
LINE
  5
3E4B
330
18
100
AcDbEntity
  8
1
  6
1-隠れ線
100
AcDbLine
 10
3213.591328614549
 20
4897.130311538359
 30
0.0
 11
3213.591328614549
 21
4862.130311538359
 31
0.0
  0
LINE
  5
3E4C
330
18
100
AcDbEntity
  8
1
100
AcDbLine
 10
3203.591328614549
 20
4867.13031153836
 30
0.0
 11
3203.591328614549
 21
4902.13031153836
 31
0.0
  0
LINE
  5
3E4D
330
18
100
AcDbEntity
  8
1
100
AcDbLine
 10
3203.591328614542
 20
4870.13031153836
 30
0.0
 11
3203.591328614553
 21
4894.130311538361
 31
0.0
  0
LINE
  5
3E4E
330
18
100
AcDbEntity
  8
1
100
AcDbLine
 10
3202.091328614553
 20
4894.130311538361
 30
0.0
 11
3202.091328614542
 21
4870.13031153836
 31
0.0
  0
LINE
  5
3E4F
330
18
100
AcDbEntity
  8
1
  6
1-隠れ線
100
AcDbLine
 10
3213.591328614549
 20
4862.13031153836
 30
0.0
 11
3208.591328614549
 21
4862.13031153836
 31
0.0
  0
LINE
  5
3E50
330
18
100
AcDbEntity
  8
1
100
AcDbLine
 10
3203.591328614549
 20
4902.13031153836
 30
0.0
 11
3208.591328614549
 21
4902.13031153836
 31
0.0
  0
LINE
  5
3E51
330
18
100
AcDbEntity
  8
1
100
AcDbLine
 10
3213.591328614494
 20
4894.130311538361
 30
0.0
 11
3213.591328614484
 21
4870.13031153836
 31
0.0
  0
LINE
  5
3E52
330
18
100
AcDbEntity
  8
1
100
AcDbLine
 10
3203.591328614487
 20
4902.13031153836
 30
0.0
 11
3208.591328614488
 21
4902.13031153836
 31
0.0
  0
LINE
  5
3E53
330
18
100
AcDbEntity
  8
1
100
AcDbLine
 10
3208.591328614491
 20
4855.130311538361
 30
0.0
 11
3208.591328614491
 21
4902.13031153836
 31
0.0
  0
LINE
  5
3E54
330
18
100
AcDbEntity
  8
1
100
AcDbLine
 10
3203.591328614487
 20
4860.130311538362
 30
0.0
 11
3203.591328614487
 21
4902.13031153836
 31
0.0
  0
LINE
  5
3E55
330
18
100
AcDbEntity
  8
1
100
AcDbLine
 10
3178.841328614535
 20
4888.130311538361
 30
0.0
 11
3178.841328614535
 21
4876.130311538361
 31
0.0
  0
LINE
  5
3E56
330
18
100
AcDbEntity
  8
1
100
AcDbLine
 10
3178.841328614535
 20
4876.130311538361
 30
0.0
 11
3178.091328614535
 21
4876.880311538361
 31
0.0
  0
LINE
  5
3E57
330
18
100
AcDbEntity
  8
1
100
AcDbLine
 10
3178.091328614535
 20
4887.380311538361
 30
0.0
 11
3178.841328614535
 21
4888.130311538361
 31
0.0
  0
LINE
  5
3E58
330
18
100
AcDbEntity
  8
1
100
AcDbLine
 10
3178.091328614535
 20
4887.380311538361
 30
0.0
 11
3178.091328614535
 21
4876.880311538361
 31
0.0
  0
LINE
  5
3E59
330
18
100
AcDbEntity
  8
1
100
AcDbLine
 10
3178.091328614535
 20
4876.880311538361
 30
0.0
 11
3190.841328614546
 21
4876.880311538361
 31
0.0
  0
LINE
  5
3E5A
330
18
100
AcDbEntity
  8
1
100
AcDbLine
 10
3178.091328614535
 20
4887.380311538361
 30
0.0
 11
3190.841328614549
 21
4887.380311538361
 31
0.0
  0
LINE
  5
3E5B
330
18
100
AcDbEntity
  8
1
100
AcDbLine
 10
3190.841328614553
 20
4894.130311538361
 30
0.0
 11
3190.841328614542
 21
4870.13031153836
 31
0.0
  0
LINE
  5
3E5C
330
18
100
AcDbEntity
  8
1
100
AcDbLine
 10
3138.591328614491
 20
4902.13031153836
 30
0.0
 11
3138.591328614491
 21
4860.130311538361
 31
0.0
  0
LINE
  5
3E5D
330
18
100
AcDbEntity
  8
1
100
AcDbLine
 10
3190.841328614553
 20
4894.130311538361
 30
0.0
 11
3203.591328614553
 21
4894.130311538361
 31
0.0
  0
LINE
  5
3E5E
330
18
100
AcDbEntity
  8
1
100
AcDbLine
 10
3190.841328614542
 20
4870.13031153836
 30
0.0
 11
3203.591328614542
 21
4870.13031153836
 31
0.0
  0
LINE
  5
3E5F
330
18
100
AcDbEntity
  8
1
100
AcDbLine
 10
3178.841328614535
 20
4888.130311538361
 30
0.0
 11
3202.09132861455
 21
4888.130311538361
 31
0.0
  0
LINE
  5
3E60
330
18
100
AcDbEntity
  8
1
100
AcDbLine
 10
3178.841328614535
 20
4876.130311538361
 30
0.0
 11
3202.091328614542
 21
4876.130311538361
 31
0.0
  0
LINE
  5
3E61
330
18
100
AcDbEntity
  8
1
100
AcDbLine
 10
3138.591328614491
 20
4860.130311538361
 30
0.0
 11
3203.591328614487
 21
4860.130311538362
 31
0.0
  0
LINE
  5
3E62
330
18
100
AcDbEntity
  8
1
100
AcDbLine
 10
3133.591328614491
 20
4855.130311538361
 30
0.0
 11
3133.591328614491
 21
4902.13031153836
 31
0.0
  0
LINE
  5
3E63
330
18
100
AcDbEntity
  8
1
100
AcDbLine
 10
3208.591328614488
 20
4855.130311538362
 30
0.0
 11
3133.591328614491
 21
4855.130311538361
 31
0.0
  0
LINE
  5
3E64
330
18
100
AcDbEntity
  8
1
100
AcDbLine
 10
3133.591328614491
 20
4902.13031153836
 30
0.0
 11
3138.591328614491
 21
4902.13031153836
 31
0.0
  0
LINE
  5
3E65
330
18
100
AcDbEntity
  8
1
100
AcDbLine
 10
3278.591328614492
 20
4902.13031153836
 30
0.0
 11
3283.591328614491
 21
4902.13031153836
 31
0.0
  0
LINE
  5
3E66
330
18
100
AcDbEntity
  8
1
100
AcDbLine
 10
3278.591328614492
 20
4867.13031153836
 30
0.0
 11
3278.591328614492
 21
4902.13031153836
 31
0.0
  0
LINE
  5
3E67
330
18
100
AcDbEntity
  8
1
100
AcDbLine
 10
3224.841328614495
 20
4894.130311538361
 30
0.0
 11
3224.841328614484
 21
4870.13031153836
 31
0.0
  0
TEXT
  5
3E68
330
18
100
AcDbEntity
  8
2
  6
1-隠れ線
100
AcDbText
 10
1095.361824099783
 20
5078.400108742201
 30
0.0
 40
50.0
  1
(下面）
  7
ＭＳ明朝
100
AcDbText
  0
TEXT
  5
3E69
330
18
100
AcDbEntity
  8
2
  6
1-隠れ線
100
AcDbText
 10
839.500701972187
 20
5176.43194290583
 30
0.0
 40
50.0
  1
４－φ16穴 設置用 
  7
ＭＳ明朝
100
AcDbText
  0
LINE
  5
3E6A
330
18
100
AcDbEntity
  8
1
100
AcDbLine
 10
535.576109814132
 20
4952.130309194958
 30
0.0
 11
675.576109814132
 21
4952.130309194958
 31
0.0
  0
LINE
  5
3E6B
330
18
100
AcDbEntity
  8
1
100
AcDbLine
 10
3088.591328614487
 20
4935.130311538362
 30
0.0
 11
2368.591328614487
 21
4935.130311538362
 31
0.0
  0
ARC
  5
3E6C
330
18
100
AcDbEntity
  8
1
100
AcDbCircle
 10
4208.419002003016
 20
4924.630309194959
 30
0.0
 40
35.0
100
AcDbArc
 50
154.849904579006
 51
265.1500954209796
  0
CIRCLE
  5
3E6D
330
18
100
AcDbEntity
  8
1
100
AcDbCircle
 10
4208.419002003016
 20
4924.630309194959
 30
0.0
 40
15.0
  0
ARC
  5
3E6E
330
18
100
AcDbEntity
  8
1
100
AcDbCircle
 10
4208.419002003016
 20
4924.630309194959
 30
0.0
 40
35.0
100
AcDbArc
 50
300.0000000000005
 51
120.0000000000005
  0
ARC
  5
3E6F
330
18
100
AcDbEntity
  8
1
100
AcDbCircle
 10
4208.419002003016
 20
4924.630309194959
 30
0.0
 40
35.0
100
AcDbArc
 50
300.0000000000005
 51
90.0
  0
LINE
  5
3E70
330
18
100
AcDbEntity
  8
1
100
AcDbLine
 10
4283.591328614487
 20
4924.630309194959
 30
0.0
 11
4283.591328614487
 21
5011.877228471348
 31
0.0
  0
ARC
  5
3E71
330
18
100
AcDbEntity
  8
1
100
AcDbCircle
 10
4208.419002003016
 20
4924.630309194959
 30
0.0
 40
74.33034373659253
100
AcDbArc
 50
300.0000000000005
 51
120.0000000000005
  0
LINE
  5
3E72
330
18
100
AcDbEntity
  8
1
100
AcDbLine
 10
4045.591328614469
 20
4940.130309194959
 30
0.0
 11
4045.591328614469
 21
4924.130309194959
 31
0.0
  0
LINE
  5
3E73
330
18
100
AcDbEntity
  8
1
100
AcDbLine
 10
4044.591328614469
 20
4939.130309194958
 30
0.0
 11
4044.591328614469
 21
4925.130309194958
 31
0.0
  0
LINE
  5
3E74
330
18
100
AcDbEntity
  8
1
100
AcDbLine
 10
4113.41900200302
 20
4854.630309194957
 30
0.0
 11
4113.41900200302
 21
4959.630309194958
 31
0.0
  0
LINE
  5
3E75
330
18
100
AcDbEntity
  8
1
100
AcDbLine
 10
4093.419002003023
 20
4948.130309194958
 30
0.0
 11
4093.419002003009
 21
4916.130309194958
 31
0.0
  0
LINE
  5
3E76
330
18
100
AcDbEntity
  8
1
100
AcDbLine
 10
4108.419002003024
 20
4948.130309194958
 30
0.0
 11
4108.419002003009
 21
4916.130309194958
 31
0.0
  0
LINE
  5
3E77
330
18
100
AcDbEntity
  8
1
100
AcDbLine
 10
4078.59132861448
 20
4916.130309194958
 30
0.0
 11
4078.591328614495
 21
4948.130309194958
 31
0.0
  0
LINE
  5
3E78
330
18
100
AcDbEntity
  8
1
100
AcDbLine
 10
4061.591328614495
 20
4948.130309194958
 30
0.0
 11
4061.59132861448
 21
4916.130309194958
 31
0.0
  0
LINE
  5
3E79
330
18
100
AcDbEntity
  8
1
100
AcDbLine
 10
4076.591328614495
 20
4948.130309194958
 30
0.0
 11
4076.591328614477
 21
4916.130309194958
 31
0.0
  0
LINE
  5
3E7A
330
18
100
AcDbEntity
  8
1
100
AcDbLine
 10
4084.591328614488
 20
4952.130309194958
 30
0.0
 11
4084.591328614488
 21
4802.130309194958
 31
0.0
  0
LINE
  5
3E7B
330
18
100
AcDbEntity
  8
1
100
AcDbLine
 10
4078.591328614484
 20
4802.130309194958
 30
0.0
 11
4078.591328614484
 21
4952.130309194958
 31
0.0
  0
LINE
  5
3E7C
330
18
100
AcDbEntity
  8
1
100
AcDbLine
 10
4084.591328614488
 20
4802.130309194958
 30
0.0
 11
4084.591328614484
 21
4952.130309194958
 31
0.0
  0
LINE
  5
3E7D
330
18
100
AcDbEntity
  8
1
100
AcDbLine
 10
4084.591328614488
 20
4952.130309194958
 30
0.0
 11
4084.591328614488
 21
4802.130309194957
 31
0.0
  0
LINE
  5
3E7E
330
18
100
AcDbEntity
  8
1
100
AcDbLine
 10
4093.419002003019
 20
4802.130309194957
 30
0.0
 11
4093.419002003019
 21
4952.130309194958
 31
0.0
  0
LINE
  5
3E7F
330
18
100
AcDbEntity
  8
1
100
AcDbLine
 10
4078.591328614487
 20
4802.130309194957
 30
0.0
 11
4078.591328614487
 21
4952.130309194958
 31
0.0
  0
LINE
  5
3E80
330
18
100
AcDbEntity
  8
1
100
AcDbLine
 10
4084.591328614488
 20
4802.130309194957
 30
0.0
 11
4084.591328614488
 21
4952.130309194958
 31
0.0
  0
LINE
  5
3E81
330
18
100
AcDbEntity
  8
1
100
AcDbLine
 10
4078.591328614484
 20
4097.13031153836
 30
0.0
 11
4078.591328614484
 21
4855.130311538362
 31
0.0
  0
LINE
  5
3E82
330
18
100
AcDbEntity
  8
1
100
AcDbLine
 10
4078.591328614484
 20
4097.13031153836
 30
0.0
 11
4078.591328614487
 21
4855.130311538362
 31
0.0
  0
LINE
  5
3E83
330
18
100
AcDbEntity
  8
1
100
AcDbLine
 10
4048.591328614484
 20
4135.130309194958
 30
0.0
 11
4048.591328614484
 21
4824.130313881763
 31
0.0
  0
LINE
  5
3E84
330
18
100
AcDbEntity
  8
1
100
AcDbLine
 10
4044.591328614469
 20
4120.130309194958
 30
0.0
 11
4061.59132861448
 21
4120.130309194958
 31
0.0
  0
LINE
  5
3E85
330
18
100
AcDbEntity
  8
1
100
AcDbLine
 10
4045.591328614469
 20
4119.130309194958
 30
0.0
 11
4076.591328614481
 21
4119.130309194958
 31
0.0
  0
LINE
  5
3E86
330
18
100
AcDbEntity
  8
1
100
AcDbLine
 10
4044.591328614469
 20
4134.130309194958
 30
0.0
 11
4061.591328614488
 21
4134.130309194958
 31
0.0
  0
LINE
  5
3E87
330
18
100
AcDbEntity
  8
1
100
AcDbLine
 10
4045.591328614469
 20
4135.130309194958
 30
0.0
 11
4076.591328614488
 21
4135.130309194958
 31
0.0
  0
LINE
  5
3E88
330
18
100
AcDbEntity
  8
1
100
AcDbLine
 10
4044.591328614469
 20
4020.130309194958
 30
0.0
 11
4061.591328614484
 21
4020.130309194958
 31
0.0
  0
LINE
  5
3E89
330
18
100
AcDbEntity
  8
1
100
AcDbLine
 10
4045.591328614469
 20
4019.130309194959
 30
0.0
 11
4076.591328614484
 21
4019.130309194959
 31
0.0
  0
LINE
  5
3E8A
330
18
100
AcDbEntity
  8
1
100
AcDbLine
 10
4044.591328614469
 20
4034.130309194958
 30
0.0
 11
4061.591328614492
 21
4034.130309194958
 31
0.0
  0
LINE
  5
3E8B
330
18
100
AcDbEntity
  8
1
100
AcDbLine
 10
4045.591328614469
 20
4035.130309194959
 30
0.0
 11
4076.591328614491
 21
4035.130309194959
 31
0.0
  0
LINE
  5
3E8C
330
18
100
AcDbEntity
  8
1
100
AcDbLine
 10
4045.591328614469
 20
4035.130309194959
 30
0.0
 11
4045.591328614469
 21
4019.130309194959
 31
0.0
  0
LINE
  5
3E8D
330
18
100
AcDbEntity
  8
1
100
AcDbLine
 10
4044.591328614469
 20
4034.130309194958
 30
0.0
 11
4044.591328614469
 21
4020.130309194958
 31
0.0
  0
LINE
  5
3E8E
330
18
100
AcDbEntity
  8
1
100
AcDbLine
 10
4045.591328614469
 20
4019.130309194959
 30
0.0
 11
4044.591328614469
 21
4020.130309194958
 31
0.0
  0
LINE
  5
3E8F
330
18
100
AcDbEntity
  8
1
100
AcDbLine
 10
4044.591328614469
 20
4034.130309194958
 30
0.0
 11
4045.591328614469
 21
4035.130309194959
 31
0.0
  0
LINE
  5
3E90
330
18
100
AcDbEntity
  8
1
100
AcDbLine
 10
4048.591328614484
 20
4097.13031153836
 30
0.0
 11
4048.591328614484
 21
4119.130309194958
 31
0.0
  0
LINE
  5
3E91
330
18
100
AcDbEntity
  8
1
100
AcDbLine
 10
4045.591328614469
 20
4135.130309194958
 30
0.0
 11
4045.591328614469
 21
4119.130309194958
 31
0.0
  0
LINE
  5
3E92
330
18
100
AcDbEntity
  8
1
100
AcDbLine
 10
4044.591328614469
 20
4134.130309194958
 30
0.0
 11
4044.591328614469
 21
4120.130309194958
 31
0.0
  0
LINE
  5
3E93
330
18
100
AcDbEntity
  8
1
100
AcDbLine
 10
4045.591328614469
 20
4119.130309194958
 30
0.0
 11
4044.591328614469
 21
4120.130309194958
 31
0.0
  0
LINE
  5
3E94
330
18
100
AcDbEntity
  8
1
100
AcDbLine
 10
4044.591328614469
 20
4134.130309194958
 30
0.0
 11
4045.591328614469
 21
4135.130309194958
 31
0.0
  0
LINE
  5
3E95
330
18
100
AcDbEntity
  8
1
100
AcDbLine
 10
4209.260984877897
 20
4069.630309194958
 30
0.0
 11
4114.310476153679
 21
4114.630309194958
 31
0.0
  0
LINE
  5
3E96
330
18
100
AcDbEntity
  8
1
100
AcDbLine
 10
4114.260984877897
 20
4104.630309194958
 30
0.0
 11
4114.260984877897
 21
3999.630309194958
 31
0.0
  0
LINE
  5
3E97
330
18
100
AcDbEntity
  8
1
100
AcDbLine
 10
4114.260984877897
 20
4114.630309194958
 30
0.0
 11
4114.260984877897
 21
4049.630309194959
 31
0.0
  0
LINE
  5
3E98
330
18
100
AcDbEntity
  8
1
100
AcDbLine
 10
4093.419002003016
 20
4044.630309194959
 30
0.0
 11
4093.419002003016
 21
4119.630309194959
 31
0.0
  0
LINE
  5
3E99
330
18
100
AcDbEntity
  8
1
100
AcDbLine
 10
4101.419002003016
 20
4044.630309194959
 30
0.0
 11
4101.419002003016
 21
4111.130309194958
 31
0.0
  0
LINE
  5
3E9A
330
18
100
AcDbEntity
  8
1
100
AcDbLine
 10
4101.419002003016
 20
4049.630309194959
 30
0.0
 11
4101.419002003016
 21
4111.130309194958
 31
0.0
  0
LINE
  5
3E9B
330
18
100
AcDbEntity
  8
1
100
AcDbLine
 10
4101.419002003012
 20
4049.630309194959
 30
0.0
 11
4101.419002003012
 21
4111.130309194958
 31
0.0
  0
LINE
  5
3E9C
330
18
100
AcDbEntity
  8
1
100
AcDbLine
 10
4101.419002003016
 20
4111.130309194958
 30
0.0
 11
4101.419002003016
 21
4049.630309194959
 31
0.0
  0
LINE
  5
3E9D
330
18
100
AcDbEntity
  8
1
100
AcDbLine
 10
4084.591328614488
 20
4007.130309194958
 30
0.0
 11
4084.591328614488
 21
4157.130309194958
 31
0.0
  0
LINE
  5
3E9E
330
18
100
AcDbEntity
  8
1
100
AcDbLine
 10
4078.591328614484
 20
4157.130309194958
 30
0.0
 11
4078.591328614484
 21
4007.130309194958
 31
0.0
  0
LINE
  5
3E9F
330
18
100
AcDbEntity
  8
1
100
AcDbLine
 10
4084.591328614488
 20
4157.130309194958
 30
0.0
 11
4084.591328614484
 21
4007.130309194958
 31
0.0
  0
LINE
  5
3EA0
330
18
100
AcDbEntity
  8
1
100
AcDbLine
 10
4084.591328614488
 20
4007.130309194958
 30
0.0
 11
4084.591328614488
 21
4157.130309194958
 31
0.0
  0
LINE
  5
3EA1
330
18
100
AcDbEntity
  8
1
100
AcDbLine
 10
4093.419002003019
 20
4157.130309194958
 30
0.0
 11
4093.419002003016
 21
4007.130309194958
 31
0.0
  0
LINE
  5
3EA2
330
18
100
AcDbEntity
  8
1
100
AcDbLine
 10
4078.591328614484
 20
4157.130309194958
 30
0.0
 11
4078.591328614484
 21
4007.130309194958
 31
0.0
  0
LINE
  5
3EA3
330
18
100
AcDbEntity
  8
1
100
AcDbLine
 10
4084.591328614488
 20
4157.130309194958
 30
0.0
 11
4084.591328614484
 21
4007.130309194958
 31
0.0
  0
CIRCLE
  5
3EA4
330
18
100
AcDbEntity
  8
1
100
AcDbCircle
 10
4209.260984877894
 20
4034.630309194959
 30
0.0
 40
15.0
  0
LINE
  5
3EA5
330
18
100
AcDbEntity
  8
1
100
AcDbLine
 10
4114.260984877897
 20
3999.630309194958
 30
0.0
 11
4209.260984877897
 21
3999.630309194958
 31
0.0
  0
ARC
  5
3EA6
330
18
100
AcDbEntity
  8
1
100
AcDbCircle
 10
4209.260984877894
 20
4034.630309194959
 30
0.0
 40
35.0
100
AcDbArc
 50
270.0
 51
90.0
  0
LINE
  5
3EA7
330
18
100
AcDbEntity
  8
1
100
AcDbLine
 10
4084.591328614484
 20
4007.130309194958
 30
0.0
 11
4078.591328614484
 21
4007.130309194958
 31
0.0
  0
LINE
  5
3EA8
330
18
100
AcDbEntity
  8
1
100
AcDbLine
 10
4101.419002003016
 20
4044.630309194959
 30
0.0
 11
4093.419002003016
 21
4044.630309194959
 31
0.0
  0
LINE
  5
3EA9
330
18
100
AcDbEntity
  8
1
100
AcDbLine
 10
4093.419002003016
 20
4007.130309194958
 30
0.0
 11
4084.591328614488
 21
4007.130309194958
 31
0.0
  0
LINE
  5
3EAA
330
18
100
AcDbEntity
  8
1
100
AcDbLine
 10
4084.591328614484
 20
4007.130309194958
 30
0.0
 11
4078.591328614484
 21
4007.130309194958
 31
0.0
  0
LINE
  5
3EAB
330
18
100
AcDbEntity
  8
1
100
AcDbLine
 10
4093.419002003023
 20
4043.130309194959
 30
0.0
 11
4093.419002003009
 21
4011.130309194959
 31
0.0
  0
LINE
  5
3EAC
330
18
100
AcDbEntity
  8
1
100
AcDbLine
 10
4108.419002003024
 20
4043.130309194959
 30
0.0
 11
4108.419002003009
 21
4011.130309194959
 31
0.0
  0
LINE
  5
3EAD
330
18
100
AcDbEntity
  8
1
100
AcDbLine
 10
4078.591328614477
 20
4011.130309194959
 30
0.0
 11
4078.591328614492
 21
4043.130309194959
 31
0.0
  0
LINE
  5
3EAE
330
18
100
AcDbEntity
  8
1
100
AcDbLine
 10
4061.591328614492
 20
4043.130309194959
 30
0.0
 11
4061.591328614476
 21
4011.130309194959
 31
0.0
  0
LINE
  5
3EAF
330
18
100
AcDbEntity
  8
1
100
AcDbLine
 10
4076.591328614491
 20
4043.130309194959
 30
0.0
 11
4076.591328614477
 21
4011.130309194959
 31
0.0
  0
LINE
  5
3EB0
330
18
100
AcDbEntity
  8
1
100
AcDbLine
 10
4093.419002003009
 20
4011.130309194959
 30
0.0
 11
4108.419002003009
 21
4011.130309194959
 31
0.0
  0
LINE
  5
3EB1
330
18
100
AcDbEntity
  8
1
100
AcDbLine
 10
4093.419002003012
 20
4019.130309194959
 30
0.0
 11
4108.419002003013
 21
4019.130309194959
 31
0.0
  0
LINE
  5
3EB2
330
18
100
AcDbEntity
  8
1
100
AcDbLine
 10
4061.591328614476
 20
4011.130309194959
 30
0.0
 11
4078.591328614477
 21
4011.130309194959
 31
0.0
  0
LINE
  5
3EB3
330
18
100
AcDbEntity
  8
1
100
AcDbLine
 10
4093.419002003023
 20
4043.130309194959
 30
0.0
 11
4108.419002003024
 21
4043.130309194959
 31
0.0
  0
LINE
  5
3EB4
330
18
100
AcDbEntity
  8
1
100
AcDbLine
 10
4093.419002003019
 20
4035.130309194959
 30
0.0
 11
4108.41900200302
 21
4035.130309194959
 31
0.0
  0
LINE
  5
3EB5
330
18
100
AcDbEntity
  8
1
100
AcDbLine
 10
4061.591328614492
 20
4043.130309194959
 30
0.0
 11
4078.591328614492
 21
4043.130309194959
 31
0.0
  0
LINE
  5
3EB6
330
18
100
AcDbEntity
  8
1
100
AcDbLine
 10
4114.260984877897
 20
4049.630309194959
 30
0.0
 11
4101.419002003016
 21
4049.630309194959
 31
0.0
  0
LINE
  5
3EB7
330
18
100
AcDbEntity
  8
1
100
AcDbLine
 10
4084.591328614484
 20
4157.130309194958
 30
0.0
 11
4078.591328614484
 21
4157.130309194958
 31
0.0
  0
LINE
  5
3EB8
330
18
100
AcDbEntity
  8
1
100
AcDbLine
 10
4093.419002003016
 20
4157.130309194958
 30
0.0
 11
4084.591328614488
 21
4157.130309194958
 31
0.0
  0
LINE
  5
3EB9
330
18
100
AcDbEntity
  8
1
100
AcDbLine
 10
4084.591328614484
 20
4157.130309194958
 30
0.0
 11
4078.591328614484
 21
4157.130309194958
 31
0.0
  0
LINE
  5
3EBA
330
18
100
AcDbEntity
  8
1
100
AcDbLine
 10
4093.419002003023
 20
4143.130309194958
 30
0.0
 11
4093.419002003009
 21
4111.130309194958
 31
0.0
  0
LINE
  5
3EBB
330
18
100
AcDbEntity
  8
1
100
AcDbLine
 10
4108.419002003024
 20
4143.130309194958
 30
0.0
 11
4108.419002003006
 21
4111.130309194958
 31
0.0
  0
LINE
  5
3EBC
330
18
100
AcDbEntity
  8
1
100
AcDbLine
 10
4078.591328614477
 20
4111.130309194958
 30
0.0
 11
4078.591328614492
 21
4143.130309194958
 31
0.0
  0
LINE
  5
3EBD
330
18
100
AcDbEntity
  8
1
100
AcDbLine
 10
4061.591328614492
 20
4143.130309194958
 30
0.0
 11
4061.591328614476
 21
4111.130309194958
 31
0.0
  0
LINE
  5
3EBE
330
18
100
AcDbEntity
  8
1
100
AcDbLine
 10
4076.591328614491
 20
4143.130309194958
 30
0.0
 11
4076.591328614477
 21
4111.130309194958
 31
0.0
  0
LINE
  5
3EBF
330
18
100
AcDbEntity
  8
1
100
AcDbLine
 10
4093.419002003009
 20
4111.130309194958
 30
0.0
 11
4108.419002003006
 21
4111.130309194958
 31
0.0
  0
LINE
  5
3EC0
330
18
100
AcDbEntity
  8
1
100
AcDbLine
 10
4093.419002003012
 20
4119.130309194958
 30
0.0
 11
4108.419002003013
 21
4119.130309194958
 31
0.0
  0
LINE
  5
3EC1
330
18
100
AcDbEntity
  8
1
100
AcDbLine
 10
4061.591328614476
 20
4111.130309194958
 30
0.0
 11
4078.591328614477
 21
4111.130309194958
 31
0.0
  0
LINE
  5
3EC2
330
18
100
AcDbEntity
  8
1
100
AcDbLine
 10
4093.419002003023
 20
4143.130309194958
 30
0.0
 11
4108.419002003024
 21
4143.130309194958
 31
0.0
  0
LINE
  5
3EC3
330
18
100
AcDbEntity
  8
1
100
AcDbLine
 10
4093.419002003019
 20
4135.130309194958
 30
0.0
 11
4108.41900200302
 21
4135.130309194958
 31
0.0
  0
LINE
  5
3EC4
330
18
100
AcDbEntity
  8
1
100
AcDbLine
 10
4061.591328614492
 20
4143.130309194958
 30
0.0
 11
4078.591328614492
 21
4143.130309194958
 31
0.0
  0
LINE
  5
3EC5
330
18
100
AcDbEntity
  8
1
100
AcDbLine
 10
4108.419002003009
 20
4114.630309194958
 30
0.0
 11
4114.260984877897
 21
4114.630309194958
 31
0.0
  0
LINE
  5
3EC6
330
18
100
AcDbEntity
  8
1
100
AcDbLine
 10
4044.591328614469
 20
4925.130309194958
 30
0.0
 11
4061.591328614484
 21
4925.130309194958
 31
0.0
  0
LINE
  5
3EC7
330
18
100
AcDbEntity
  8
1
100
AcDbLine
 10
4045.591328614469
 20
4924.130309194959
 30
0.0
 11
4076.591328614484
 21
4924.130309194959
 31
0.0
  0
LINE
  5
3EC8
330
18
100
AcDbEntity
  8
1
100
AcDbLine
 10
4044.591328614469
 20
4839.130313881764
 30
0.0
 11
4061.591328614492
 21
4839.130313881764
 31
0.0
  0
LINE
  5
3EC9
330
18
100
AcDbEntity
  8
1
100
AcDbLine
 10
4045.591328614469
 20
4840.130313881763
 30
0.0
 11
4076.591328614491
 21
4840.130313881763
 31
0.0
  0
LINE
  5
3ECA
330
18
100
AcDbEntity
  8
1
100
AcDbLine
 10
4044.591328614469
 20
4825.130313881763
 30
0.0
 11
4061.591328614484
 21
4825.130313881763
 31
0.0
  0
LINE
  5
3ECB
330
18
100
AcDbEntity
  8
1
100
AcDbLine
 10
4045.591328614469
 20
4824.130313881763
 30
0.0
 11
4076.591328614484
 21
4824.130313881763
 31
0.0
  0
LINE
  5
3ECC
330
18
100
AcDbEntity
  8
1
100
AcDbLine
 10
4045.591328614469
 20
4924.130309194959
 30
0.0
 11
4044.591328614469
 21
4925.130309194958
 31
0.0
  0
LINE
  5
3ECD
330
18
100
AcDbEntity
  8
1
100
AcDbLine
 10
4044.591328614469
 20
4839.130313881764
 30
0.0
 11
4045.591328614469
 21
4840.130313881763
 31
0.0
  0
LINE
  5
3ECE
330
18
100
AcDbEntity
  8
1
100
AcDbLine
 10
4048.591328614484
 20
4840.130313881763
 30
0.0
 11
4048.591328614484
 21
4862.130311538361
 31
0.0
  0
LINE
  5
3ECF
330
18
100
AcDbEntity
  8
1
100
AcDbLine
 10
4045.591328614469
 20
4824.130313881763
 30
0.0
 11
4044.591328614469
 21
4825.130313881763
 31
0.0
  0
LINE
  5
3ED0
330
18
100
AcDbEntity
  8
1
100
AcDbLine
 10
4045.591328614469
 20
4840.130313881763
 30
0.0
 11
4045.591328614469
 21
4824.130313881763
 31
0.0
  0
LINE
  5
3ED1
330
18
100
AcDbEntity
  8
1
100
AcDbLine
 10
4044.591328614469
 20
4839.130313881764
 30
0.0
 11
4044.591328614469
 21
4825.130313881763
 31
0.0
  0
LINE
  5
3ED2
330
18
100
AcDbEntity
  8
1
100
AcDbLine
 10
4084.591328614484
 20
4802.130309194958
 30
0.0
 11
4078.591328614484
 21
4802.130309194958
 31
0.0
  0
LINE
  5
3ED3
330
18
100
AcDbEntity
  8
1
100
AcDbLine
 10
4093.419002003019
 20
4802.130309194957
 30
0.0
 11
4084.591328614488
 21
4802.130309194957
 31
0.0
  0
LINE
  5
3ED4
330
18
100
AcDbEntity
  8
1
100
AcDbLine
 10
4084.591328614488
 20
4802.130309194957
 30
0.0
 11
4078.591328614487
 21
4802.130309194957
 31
0.0
  0
LINE
  5
3ED5
330
18
100
AcDbEntity
  8
1
100
AcDbLine
 10
4251.619002003031
 20
4849.805714307991
 30
0.0
 11
4239.35466300255
 21
4851.04817257807
 31
0.0
  0
LINE
  5
3ED6
330
18
100
AcDbEntity
  8
1
100
AcDbLine
 10
4205.919002003024
 20
4888.960436213881
 30
0.0
 11
4233.125152133771
 21
4841.838001909096
 31
0.0
  0
ARC
  5
3ED7
330
18
100
AcDbEntity
  8
1
100
AcDbCircle
 10
4208.419002003016
 20
4924.630309194959
 30
0.0
 40
74.33034373659253
100
AcDbArc
 50
230.3367388375648
 51
284.3911185583813
  0
LINE
  5
3ED8
330
18
100
AcDbEntity
  8
1
100
AcDbLine
 10
4233.125152133771
 20
4841.838001909096
 30
0.0
 11
4245.584173871326
 21
4860.258343247045
 31
0.0
  0
LINE
  5
3ED9
330
18
100
AcDbEntity
  8
1
100
AcDbLine
 10
4245.584173871326
 20
4860.258343247045
 30
0.0
 11
4225.919002003023
 21
4894.319420062505
 31
0.0
  0
ARC
  5
3EDA
330
18
100
AcDbEntity
  8
1
100
AcDbCircle
 10
4208.419002003016
 20
4924.630309194959
 30
0.0
 40
86.39999999999956
100
AcDbArc
 50
226.7027265024014
 51
300.0000000000005
  0
LINE
  5
3EDB
330
18
100
AcDbEntity
  8
1
100
AcDbLine
 10
4093.419002003012
 20
4924.130309194959
 30
0.0
 11
4108.419002003013
 21
4924.130309194959
 31
0.0
  0
LINE
  5
3EDC
330
18
100
AcDbEntity
  8
1
100
AcDbLine
 10
4101.419002003019
 20
4914.630309194958
 30
0.0
 11
4093.419002003019
 21
4914.630309194958
 31
0.0
  0
LINE
  5
3EDD
330
18
100
AcDbEntity
  8
1
100
AcDbLine
 10
4113.41900200302
 20
4909.630309194958
 30
0.0
 11
4101.419002003019
 21
4909.630309194958
 31
0.0
  0
LINE
  5
3EDE
330
18
100
AcDbEntity
  8
1
100
AcDbLine
 10
4108.41900200302
 20
4844.630309194958
 30
0.0
 11
4113.41900200302
 21
4844.630309194958
 31
0.0
  0
LINE
  5
3EDF
330
18
100
AcDbEntity
  8
1
100
AcDbLine
 10
4093.419002003019
 20
4914.630309194958
 30
0.0
 11
4093.419002003019
 21
4839.630309194958
 31
0.0
  0
LINE
  5
3EE0
330
18
100
AcDbEntity
  8
1
100
AcDbLine
 10
4101.419002003019
 20
4914.630309194958
 30
0.0
 11
4101.419002003019
 21
4848.130313881762
 31
0.0
  0
LINE
  5
3EE1
330
18
100
AcDbEntity
  8
1
100
AcDbLine
 10
4113.41900200302
 20
4844.630309194958
 30
0.0
 11
4113.41900200302
 21
4909.630309194958
 31
0.0
  0
LINE
  5
3EE2
330
18
100
AcDbEntity
  8
1
100
AcDbLine
 10
4101.419002003019
 20
4909.630309194958
 30
0.0
 11
4101.419002003016
 21
4848.130313881762
 31
0.0
  0
LINE
  5
3EE3
330
18
100
AcDbEntity
  8
1
100
AcDbLine
 10
4093.419002003009
 20
4916.130309194958
 30
0.0
 11
4108.419002003009
 21
4916.130309194958
 31
0.0
  0
LINE
  5
3EE4
330
18
100
AcDbEntity
  8
1
100
AcDbLine
 10
4061.59132861448
 20
4916.130309194958
 30
0.0
 11
4078.59132861448
 21
4916.130309194958
 31
0.0
  0
LINE
  5
3EE5
330
18
100
AcDbEntity
  8
1
100
AcDbLine
 10
4093.419002003023
 20
4848.130313881762
 30
0.0
 11
4108.419002003024
 21
4848.130313881762
 31
0.0
  0
LINE
  5
3EE6
330
18
100
AcDbEntity
  8
1
100
AcDbLine
 10
4093.419002003019
 20
4840.130313881762
 30
0.0
 11
4108.41900200302
 21
4840.130313881762
 31
0.0
  0
LINE
  5
3EE7
330
18
100
AcDbEntity
  8
1
100
AcDbLine
 10
4061.591328614492
 20
4848.130313881763
 30
0.0
 11
4078.591328614492
 21
4848.130313881763
 31
0.0
  0
LINE
  5
3EE8
330
18
100
AcDbEntity
  8
1
100
AcDbLine
 10
4093.419002003009
 20
4816.130313881762
 30
0.0
 11
4108.419002003009
 21
4816.130313881762
 31
0.0
  0
LINE
  5
3EE9
330
18
100
AcDbEntity
  8
1
100
AcDbLine
 10
4093.419002003012
 20
4824.130313881762
 30
0.0
 11
4108.419002003013
 21
4824.130313881762
 31
0.0
  0
LINE
  5
3EEA
330
18
100
AcDbEntity
  8
1
100
AcDbLine
 10
4061.591328614476
 20
4816.130313881763
 30
0.0
 11
4078.591328614477
 21
4816.130313881762
 31
0.0
  0
LINE
  5
3EEB
330
18
100
AcDbEntity
  8
1
100
AcDbLine
 10
4093.419002003023
 20
4848.130313881762
 30
0.0
 11
4093.419002003009
 21
4816.130313881762
 31
0.0
  0
LINE
  5
3EEC
330
18
100
AcDbEntity
  8
1
100
AcDbLine
 10
4108.419002003024
 20
4848.130313881762
 30
0.0
 11
4108.419002003009
 21
4816.130313881762
 31
0.0
  0
LINE
  5
3EED
330
18
100
AcDbEntity
  8
1
100
AcDbLine
 10
4078.591328614477
 20
4816.130313881762
 30
0.0
 11
4078.591328614492
 21
4848.130313881763
 31
0.0
  0
LINE
  5
3EEE
330
18
100
AcDbEntity
  8
1
100
AcDbLine
 10
4061.591328614492
 20
4848.130313881763
 30
0.0
 11
4061.591328614476
 21
4816.130313881763
 31
0.0
  0
LINE
  5
3EEF
330
18
100
AcDbEntity
  8
1
100
AcDbLine
 10
4076.591328614491
 20
4848.130313881763
 30
0.0
 11
4076.591328614477
 21
4816.130313881762
 31
0.0
  0
LINE
  5
3EF0
330
18
100
AcDbEntity
  8
1
100
AcDbLine
 10
4205.91900200302
 20
4888.960436213881
 30
0.0
 11
4113.468493278802
 21
4844.630309194958
 31
0.0
  0
LINE
  5
3EF1
330
18
100
AcDbEntity
  8
1
100
AcDbLine
 10
4044.591328614469
 20
4939.130309194958
 30
0.0
 11
4061.591328614492
 21
4939.130309194958
 31
0.0
  0
LINE
  5
3EF2
330
18
100
AcDbEntity
  8
1
100
AcDbLine
 10
4045.591328614469
 20
4940.130309194959
 30
0.0
 11
4076.591328614491
 21
4940.130309194959
 31
0.0
  0
LINE
  5
3EF3
330
18
100
AcDbEntity
  8
1
100
AcDbLine
 10
4044.591328614469
 20
4939.130309194958
 30
0.0
 11
4045.591328614469
 21
4940.130309194959
 31
0.0
  0
LINE
  5
3EF4
330
18
100
AcDbEntity
  8
1
100
AcDbLine
 10
4188.211742581372
 20
4959.630309194958
 30
0.0
 11
4208.41900200302
 21
4959.630309194958
 31
0.0
  0
LINE
  5
3EF5
330
18
100
AcDbEntity
  8
1
100
AcDbLine
 10
4165.219002003005
 20
4999.454904081924
 30
0.0
 11
4160.162832927801
 21
4988.212445811842
 31
0.0
  0
LINE
  5
3EF6
330
18
100
AcDbEntity
  8
1
100
AcDbLine
 10
4149.071835720888
 20
4987.422616480811
 30
0.0
 11
4171.25383013471
 21
4989.002275142869
 31
0.0
  0
ARC
  5
3EF7
330
18
100
AcDbEntity
  8
1
100
AcDbCircle
 10
4208.419002003016
 20
4924.630309194959
 30
0.0
 40
86.39999999999949
100
AcDbArc
 50
120.0000000000005
 51
156.1030704015449
  0
ARC
  5
3EF8
330
18
100
AcDbEntity
  8
1
100
AcDbCircle
 10
4208.419002003016
 20
4924.630309194959
 30
0.0
 40
74.33034373659253
100
AcDbArc
 50
135.6088814417359
 51
150.0000000000665
  0
LINE
  5
3EF9
330
18
100
AcDbEntity
  8
1
100
AcDbLine
 10
4171.25383013471
 20
4989.002275142869
 30
0.0
 11
4190.919002003012
 21
4954.94119832741
 31
0.0
  0
LINE
  5
3EFA
330
18
100
AcDbEntity
  8
1
100
AcDbLine
 10
4149.071835720888
 20
4987.422616480811
 30
0.0
 11
4176.737087310981
 21
4939.504995122618
 31
0.0
  0
LINE
  5
3EFB
330
18
100
AcDbEntity
  8
1
100
AcDbLine
 10
4084.591328614484
 20
4952.130309194958
 30
0.0
 11
4078.591328614484
 21
4952.130309194958
 31
0.0
  0
LINE
  5
3EFC
330
18
100
AcDbEntity
  8
1
100
AcDbLine
 10
4093.419002003019
 20
4952.130309194958
 30
0.0
 11
4084.591328614488
 21
4952.130309194958
 31
0.0
  0
LINE
  5
3EFD
330
18
100
AcDbEntity
  8
1
100
AcDbLine
 10
4084.591328614488
 20
4952.130309194958
 30
0.0
 11
4078.591328614487
 21
4952.130309194958
 31
0.0
  0
LINE
  5
3EFE
330
18
100
AcDbEntity
  8
1
100
AcDbLine
 10
4093.419002003026
 20
4948.130309194958
 30
0.0
 11
4108.419002003024
 21
4948.130309194958
 31
0.0
  0
LINE
  5
3EFF
330
18
100
AcDbEntity
  8
1
100
AcDbLine
 10
4093.419002003019
 20
4940.130309194959
 30
0.0
 11
4108.41900200302
 21
4940.130309194959
 31
0.0
  0
LINE
  5
3F00
330
18
100
AcDbEntity
  8
1
100
AcDbLine
 10
4061.591328614495
 20
4948.130309194958
 30
0.0
 11
4078.591328614495
 21
4948.130309194958
 31
0.0
  0
LINE
  5
3F01
330
18
100
AcDbEntity
  8
1
100
AcDbLine
 10
4113.41900200302
 20
4959.630309194958
 30
0.0
 11
4165.117731813783
 21
4959.630309194958
 31
0.0
  0
LEADER
  5
4072
330
18
100
AcDbEntity
  8
2
100
AcDbLeader
  3
STANDARD
 76
     3
 10
2984.974146248234
 20
4121.717993369273
 30
0.0
 10
3199.486113444241
 20
3745.532973152256
 30
0.0
 10
3919.614684872813
 20
3745.532973152256
 30
0.0
1001
ACAD
1000
DSTYLE
1002
{
1070
    40
1040
1.0
1070
    77
1070
     0
1070
   147
1040
1.0
1002
}
  0
LEADER
  5
4083
330
18
100
AcDbEntity
  8
2
100
AcDbLeader
  3
STANDARD
 76
     3
 10
133.2113831883994
 20
4800.426235879473
 30
0.0
 10
-223.4394851784036
 20
5224.130311176509
 30
0.0
 10
-591.6109137498322
 20
5224.130311176509
 30
0.0
211
-0.9930494591387851
221
-0.1176977982129057
231
0.0
210
0.0
220
0.0
230
-1.0
1001
ACAD
1000
DSTYLE
1002
{
1070
    40
1040
1.0
1070
    77
1070
     0
1070
   147
1040
1.0
1002
}
  0
LEADER
  5
4084
330
18
100
AcDbEntity
  8
2
100
AcDbLeader
  3
STANDARD
 76
     3
 10
255.1102957983193
 20
3944.631581081456
 30
0.0
 10
-159.8452001441273
 20
3679.38087841437
 30
0.0
 10
-444.2023430012702
 20
3679.38087841437
 30
0.0
1001
ACAD
1000
DSTYLE
1002
{
1070
    40
1040
1.0
1070
    77
1070
     1
1070
   147
1040
1.0
1002
}
  0
LEADER
  5
4085
330
18
100
AcDbEntity
  8
2
100
AcDbLeader
  3
STANDARD
 76
     3
 10
-190.1130622357231
 20
1766.44158610751
 30
0.0
 10
-604.7463791168429
 20
1841.120826811877
 30
0.0
 10
-954.4320934025572
 20
1841.120826811877
 30
0.0
1001
ACAD
1000
DSTYLE
1002
{
1070
    40
1040
1.0
1070
    77
1070
     0
1070
   147
1040
1.0
1002
}
  0
TEXT
  5
4086
330
18
100
AcDbEntity
  8
1
100
AcDbText
 10
79.00868808460609
 20
2277.33255799981
 30
0.0
 40
14.0
  1
異物投入禁止
  7
MSｺﾞｼｯｸ
 72
     4
 11
133.5873682876517
 21
2283.906162060724
 31
0.0
100
AcDbText
  0
TEXT
  5
4089
330
18
100
AcDbEntity
  8
1
100
AcDbText
 10
79.72148073114556
 20
2342.794426672023
 30
0.0
 40
6.0
  1
スイッチを入れる前に、もう一度
  7
MSｺﾞｼｯｸ
 72
     4
 11
138.1986380915516
 21
2345.596457128876
 31
0.0
100
AcDbText
  0
TEXT
  5
408B
330
18
100
AcDbEntity
  8
1
100
AcDbText
 10
79.79077098212272
 20
2333.693469386474
 30
0.0
 40
6.0
  1
周囲の安全を確認しましょう。
  7
MSｺﾞｼｯｸ
 72
     4
 11
134.3694511851684
 21
2336.541185122515
 31
0.0
100
AcDbText
  0
TEXT
  5
408C
330
18
100
AcDbEntity
  8
1
100
AcDbText
 10
425.0330567541938
 20
2281.609213009661
 30
0.0
 40
10.0
  1
回転方向
  7
MSｺﾞｼｯｸ
 72
     4
 11
451.0229044699299
 21
2286.330025192403
 31
0.0
100
AcDbText
  0
TEXT
  5
408D
330
18
100
AcDbEntity
  8
1
100
AcDbText
 10
203.4258401036313
 20
2860.624538006728
 30
0.0
 40
11.25
  1
危険　　手を入れるな
  7
ＭＳ明朝
 11
203.4258401036313
 21
2871.874538006728
 31
0.0
100
AcDbText
 73
     3
  0
TEXT
  5
408E
330
18
100
AcDbEntity
  8
1
100
AcDbText
 10
2936.732123680566
 20
4686.907794752295
 30
0.0
 40
10.0
  1
運転中は閉じること
 50
90.0
  7
ＭＳゴシック
 72
     4
 11
2932.011311497825
 21
4745.384952112701
 31
0.0
100
AcDbText
  0
VIEWPORT
  5
699
330
692
100
AcDbEntity
 67
     1
  8
0
100
AcDbViewport
 10
233.1119737112253
 20
87.58979936043237
 30
0.0
 40
403.6694320629749
 41
258.5143280677271
 68
     1
 69
     1
 12
233.1119737112253
 22
87.58979936043237
 13
0.0
 23
0.0
 14
1.0
 24
1.0
 15
10.0
 25
10.0
 16
0.0
 26
0.0
 36
1.0
 17
0.0
 27
0.0
 37
0.0
 42
50.0
 43
0.0
 44
0.0
 45
258.5143280677271
 50
0.0
 51
0.0
 72
   100
 90
    33056
  1

281
     0
 71
     1
 74
     0
110
0.0
120
0.0
130
0.0
111
1.0
121
0.0
131
0.0
112
0.0
122
1.0
132
0.0
 79
     0
146
0.0
  0
VIEWPORT
  5
69B
330
692
100
AcDbEntity
 67
     1
  8
X ﾋﾞｭｰ
100
AcDbViewport
 10
142.5
 20
99.0
 30
0.0
 40
285.0
 41
198.0
 68
     2
 69
     2
 12
1795.464200176715
 22
3163.774728710307
 13
0.0
 23
0.0
 14
1.0
 24
1.0
 15
10.0
 25
10.0
 16
0.0
 26
0.0
 36
1.0
 17
0.0
 27
0.0
 37
0.0
 42
50.0
 43
0.0
 44
0.0
 45
4957.649614271907
 50
0.0
 51
0.0
 72
   100
 90
    33056
  1

281
     0
 71
     1
 74
     0
110
0.0
120
0.0
130
0.0
111
1.0
121
0.0
131
0.0
112
0.0
122
1.0
132
0.0
 79
     0
146
0.0
  0
ENDSEC
  0
SECTION
  2
OBJECTS
  0
DICTIONARY
  5
C
330
0
100
AcDbDictionary
281
     1
  3
ACAD_GROUP
350
D
  3
ACAD_LAYOUT
350
5E1
  3
ACAD_MLINESTYLE
350
1B
  3
ACAD_PLOTSETTINGS
350
5E2
  3
ACAD_PLOTSTYLENAME
350
5DF
  3
CONTENTDICTIONARY
350
20
  0
DICTIONARY
  5
D
102
{ACAD_REACTORS
330
C
102
}
330
C
100
AcDbDictionary
281
     1
  0
DICTIONARY
  5
5E1
102
{ACAD_REACTORS
330
C
102
}
330
C
100
AcDbDictionary
281
     1
  3
Model
350
5E3
  3
ﾚｲｱｳﾄ1
350
693
  0
DICTIONARY
  5
1B
102
{ACAD_REACTORS
330
C
102
}
330
C
100
AcDbDictionary
281
     1
  3
STANDARD
350
1C
  0
DICTIONARY
  5
5E2
102
{ACAD_REACTORS
330
C
102
}
330
C
100
AcDbDictionary
281
     1
  0
ACDBDICTIONARYWDFLT
  5
5DF
102
{ACAD_REACTORS
330
C
102
}
330
C
100
AcDbDictionary
281
     1
  3
Normal
350
5E0
100
AcDbDictionaryWithDefault
340
5E0
  0
DICTIONARY
  5
20
102
{ACAD_REACTORS
330
C
102
}
330
C
100
AcDbDictionary
281
     1
1001
CONTENTTABDATA
1070
     6
1000
ビス.dwg
1000
C:\Program Files\AutoCAD LT 97\SYMBOLS\ビス.dwg
1070
     0
1070
     0
1070
     1
1000
ｺﾈｸﾀ.dwg
1000
C:\Program Files\AutoCAD LT 97\SYMBOLS\ｺﾈｸﾀ.dwg
1070
     0
1070
     0
1070
     1
1000
表示器.dwg
1000
C:\Program Files\AutoCAD LT 97\SYMBOLS\表示器.dwg
1070
     0
1070
     0
1070
     1
1000
ﾄﾗﾝｽ.dwg
1000
C:\Program Files\AutoCAD LT 97\SYMBOLS\ﾄﾗﾝｽ.dwg
1070
     0
1070
     0
1070
     1
1000
ﾘﾚｰ.dwg
1000
C:\Program Files\AutoCAD LT 97\SYMBOLS\ﾘﾚｰ.dwg
1070
     0
1070
     0
1070
     1
1000
汎用.dwg
1000
C:\Program Files\AutoCAD LT 97\SYMBOLS\汎用.dwg
1070
     0
1070
     0
1070
     1
1001
CONTENTCURRENTTAB
1070
     2
  0
LAYOUT
  5
5E3
102
{ACAD_REACTORS
330
5E1
102
}
330
5E1
100
AcDbPlotSettings
  1

  2
RICOH imagio MP C3000 RPCS.pc3
  4
A3
  6

 40
5.873749732971191
 41
5.873747825622558
 42
5.873748779296875
 43
5.873748779296875
 44
419.9466552734374
 45
296.9259948730469
 46
0.0
 47
0.0
 48
0.0
 49
0.0
140
0.0
141
0.0
142
1.0
143
1.286122978510651
 70
 11952
 72
     1
 73
     0
 74
     0
  7
monochrome.ctb
 75
     0
147
0.7775306224277355
148
0.0
149
0.0
100
AcDbLayout
  1
Model
 70
     1
 71
     0
 10
0.0
 20
0.0
 11
12.0
 21
9.0
 12
0.0
 22
0.0
 32
0.0
 14
0.0
 24
0.0
 34
0.0
 15
0.0
 25
0.0
 35
0.0
146
0.0
 13
0.0
 23
0.0
 33
0.0
 16
1.0
 26
0.0
 36
0.0
 17
0.0
 27
1.0
 37
0.0
 76
     0
330
18
  0
LAYOUT
  5
693
102
{ACAD_REACTORS
330
5E1
102
}
330
5E1
100
AcDbPlotSettings
  1

  2
RICOH imagio MP C3000 RPCS
  4
A4
  6

 40
5.873749732971191
 41
5.873747825622558
 42
5.873748779296875
 43
5.873748779296875
 44
209.9733276367187
 45
296.9259948730469
 46
0.0
 47
0.0
 48
0.0
 49
0.0
140
0.0
141
0.0
142
1.0
143
1.0
 70
   688
 72
     1
 73
     1
 74
     5
  7
monochrome.ctb
 75
    16
147
1.0
148
0.0
149
0.0
100
AcDbLayout
  1
ﾚｲｱｳﾄ1
 70
     1
 71
     1
 10
-5.873748779296875
 20
-5.873749732971191
 11
291.05224609375
 21
204.0995779037475
 12
0.0
 22
0.0
 32
0.0
 14
0.0
 24
0.0
 34
0.0
 15
285.0
 25
198.0
 35
0.0
146
0.0
 13
0.0
 23
0.0
 33
0.0
 16
1.0
 26
0.0
 36
0.0
 17
0.0
 27
1.0
 37
0.0
 76
     0
330
692
331
699
  0
MLINESTYLE
  5
1C
102
{ACAD_REACTORS
330
1B
102
}
330
1B
100
AcDbMlineStyle
  2
STANDARD
 70
     0
  3

 62
   256
 51
90.0
 52
90.0
 71
     2
 49
0.5
 62
   256
  6
BYLAYER
 49
-0.5
 62
   256
  6
BYLAYER
  0
ACDBPLACEHOLDER
  5
5E0
102
{ACAD_REACTORS
330
5DF
102
}
330
5DF
  0
ENDSEC
  0
EOF
