  0
SECTION
  2
HEADER
  9
$ACADVER
  1
AC1015
  9
$ACADMAINTVER
 70
    11
  9
$DWGCODEPAGE
  3
ANSI_932
  9
$INSBASE
 10
0.0
 20
0.0
 30
0.0
  9
$EXTMIN
 10
76.87169097354388
 20
41.10560669405052
 30
0.0
  9
$EXTMAX
 10
404.3716909735438
 20
212.7335521509355
 30
0.0
  9
$LIMMIN
 10
0.0
 20
0.0
  9
$LIMMAX
 10
420.0
 20
297.0
  9
$ORTHOMODE
 70
     0
  9
$REGENMODE
 70
     1
  9
$FILLMODE
 70
     1
  9
$QTEXTMODE
 70
     0
  9
$MIRRTEXT
 70
     1
  9
$LTSCALE
 40
1.0
  9
$ATTMODE
 70
     1
  9
$TEXTSIZE
 40
2.5
  9
$TRACEWID
 40
1.0
  9
$TEXTSTYLE
  7
ＭＳ明朝
  9
$CLAYER
  8
0
  9
$CELTYPE
  6
BYLAYER
  9
$CECOLOR
 62
   256
  9
$CELTSCALE
 40
1.0
  9
$DISPSILH
 70
     0
  9
$DIMSCALE
 40
0.0
  9
$DIMASZ
 40
2.5
  9
$DIMEXO
 40
1.5
  9
$DIMDLI
 40
5.0
  9
$DIMRND
 40
0.0
  9
$DIMDLE
 40
0.0
  9
$DIMEXE
 40
1.25
  9
$DIMTP
 40
0.0
  9
$DIMTM
 40
0.0
  9
$DIMTXT
 40
2.5
  9
$DIMCEN
 40
-5.0
  9
$DIMTSZ
 40
0.0
  9
$DIMTOL
 70
     0
  9
$DIMLIM
 70
     0
  9
$DIMTIH
 70
     0
  9
$DIMTOH
 70
     0
  9
$DIMSE1
 70
     0
  9
$DIMSE2
 70
     0
  9
$DIMTAD
 70
     1
  9
$DIMZIN
 70
     8
  9
$DIMBLK
  1

  9
$DIMASO
 70
     1
  9
$DIMSHO
 70
     1
  9
$DIMPOST
  1

  9
$DIMAPOST
  1

  9
$DIMALT
 70
     0
  9
$DIMALTD
 70
     4
  9
$DIMALTF
 40
0.0394
  9
$DIMLFAC
 40
1.0
  9
$DIMTOFL
 70
     1
  9
$DIMTVP
 40
0.0
  9
$DIMTIX
 70
     0
  9
$DIMSOXD
 70
     0
  9
$DIMSAH
 70
     0
  9
$DIMBLK1
  1

  9
$DIMBLK2
  1

  9
$DIMSTYLE
  2
STANDARD
  9
$DIMCLRD
 70
     0
  9
$DIMCLRE
 70
     0
  9
$DIMCLRT
 70
     0
  9
$DIMTFAC
 40
1.0
  9
$DIMGAP
 40
0.5
  9
$DIMJUST
 70
     0
  9
$DIMSD1
 70
     0
  9
$DIMSD2
 70
     0
  9
$DIMTOLJ
 70
     1
  9
$DIMTZIN
 70
     0
  9
$DIMALTZ
 70
     0
  9
$DIMALTTZ
 70
     0
  9
$DIMUPT
 70
     0
  9
$DIMDEC
 70
     3
  9
$DIMTDEC
 70
     3
  9
$DIMALTU
 70
     8
  9
$DIMALTTD
 70
     4
  9
$DIMTXSTY
  7
ＭＳ明朝
  9
$DIMAUNIT
 70
     0
  9
$DIMADEC
 70
     0
  9
$DIMALTRND
 40
0.0
  9
$DIMAZIN
 70
     0
  9
$DIMDSEP
 70
    46
  9
$DIMATFIT
 70
     3
  9
$DIMFRAC
 70
     0
  9
$DIMLDRBLK
  1

  9
$DIMLUNIT
 70
     6
  9
$DIMLWD
 70
    -2
  9
$DIMLWE
 70
    -2
  9
$DIMTMOVE
 70
     0
  9
$LUNITS
 70
     2
  9
$LUPREC
 70
     2
  9
$SKETCHINC
 40
1.0
  9
$FILLETRAD
 40
2.0
  9
$AUNITS
 70
     0
  9
$AUPREC
 70
     0
  9
$MENU
  1
acad
  9
$ELEVATION
 40
0.0
  9
$PELEVATION
 40
0.0
  9
$THICKNESS
 40
0.0
  9
$LIMCHECK
 70
     0
  9
$CHAMFERA
 40
10.0
  9
$CHAMFERB
 40
10.0
  9
$CHAMFERC
 40
20.0
  9
$CHAMFERD
 40
0.0
  9
$SKPOLY
 70
     0
  9
$TDCREATE
 40
2455957.594655949
  9
$TDUCREATE
 40
2455957.219655949
  9
$TDUPDATE
 40
2456029.634236597
  9
$TDUUPDATE
 40
2456029.259236597
  9
$TDINDWG
 40
0.0385889815
  9
$TDUSRTIMER
 40
0.0385889815
  9
$USRTIMER
 70
     1
  9
$ANGBASE
 50
0.0
  9
$ANGDIR
 70
     0
  9
$PDMODE
 70
     0
  9
$PDSIZE
 40
0.0
  9
$PLINEWID
 40
0.0
  9
$SPLFRAME
 70
     0
  9
$SPLINETYPE
 70
     6
  9
$SPLINESEGS
 70
     8
  9
$HANDSEED
  5
112D
  9
$SURFTAB1
 70
     6
  9
$SURFTAB2
 70
     6
  9
$SURFTYPE
 70
     6
  9
$SURFU
 70
     6
  9
$SURFV
 70
     6
  9
$UCSBASE
  2

  9
$UCSNAME
  2

  9
$UCSORG
 10
0.0
 20
0.0
 30
0.0
  9
$UCSXDIR
 10
1.0
 20
0.0
 30
0.0
  9
$UCSYDIR
 10
0.0
 20
1.0
 30
0.0
  9
$UCSORTHOREF
  2

  9
$UCSORTHOVIEW
 70
     0
  9
$UCSORGTOP
 10
0.0
 20
0.0
 30
0.0
  9
$UCSORGBOTTOM
 10
0.0
 20
0.0
 30
0.0
  9
$UCSORGLEFT
 10
0.0
 20
0.0
 30
0.0
  9
$UCSORGRIGHT
 10
0.0
 20
0.0
 30
0.0
  9
$UCSORGFRONT
 10
0.0
 20
0.0
 30
0.0
  9
$UCSORGBACK
 10
0.0
 20
0.0
 30
0.0
  9
$PUCSBASE
  2

  9
$PUCSNAME
  2

  9
$PUCSORG
 10
0.0
 20
0.0
 30
0.0
  9
$PUCSXDIR
 10
1.0
 20
0.0
 30
0.0
  9
$PUCSYDIR
 10
0.0
 20
1.0
 30
0.0
  9
$PUCSORTHOREF
  2

  9
$PUCSORTHOVIEW
 70
     0
  9
$PUCSORGTOP
 10
0.0
 20
0.0
 30
0.0
  9
$PUCSORGBOTTOM
 10
0.0
 20
0.0
 30
0.0
  9
$PUCSORGLEFT
 10
0.0
 20
0.0
 30
0.0
  9
$PUCSORGRIGHT
 10
0.0
 20
0.0
 30
0.0
  9
$PUCSORGFRONT
 10
0.0
 20
0.0
 30
0.0
  9
$PUCSORGBACK
 10
0.0
 20
0.0
 30
0.0
  9
$USERI1
 70
     0
  9
$USERI2
 70
     0
  9
$USERI3
 70
     0
  9
$USERI4
 70
     0
  9
$USERI5
 70
     0
  9
$USERR1
 40
0.0
  9
$USERR2
 40
0.0
  9
$USERR3
 40
0.0
  9
$USERR4
 40
0.0
  9
$USERR5
 40
0.0
  9
$WORLDVIEW
 70
     1
  9
$SHADEDGE
 70
     3
  9
$SHADEDIF
 70
    70
  9
$TILEMODE
 70
     0
  9
$MAXACTVP
 70
    48
  9
$PINSBASE
 10
0.0
 20
0.0
 30
0.0
  9
$PLIMCHECK
 70
     0
  9
$PEXTMIN
 10
0.0
 20
0.0
 30
0.0
  9
$PEXTMAX
 10
285.0
 20
198.0
 30
0.0
  9
$PLIMMIN
 10
-5.873748779296875
 20
-5.873749732971191
  9
$PLIMMAX
 10
291.05224609375
 20
204.0995779037475
  9
$UNITMODE
 70
     0
  9
$VISRETAIN
 70
     1
  9
$PLINEGEN
 70
     0
  9
$PSLTSCALE
 70
     1
  9
$TREEDEPTH
 70
  3020
  9
$CMLSTYLE
  2
STANDARD
  9
$CMLJUST
 70
     0
  9
$CMLSCALE
 40
20.0
  9
$PROXYGRAPHICS
 70
     1
  9
$MEASUREMENT
 70
     1
  9
$CELWEIGHT
370
    -1
  9
$ENDCAPS
280
     0
  9
$JOINSTYLE
280
     0
  9
$LWDISPLAY
290
     0
  9
$INSUNITS
 70
     0
  9
$HYPERLINKBASE
  1

  9
$STYLESHEET
  1

  9
$XEDIT
290
     1
  9
$CEPSNTYPE
380
     0
  9
$PSTYLEMODE
290
     1
  9
$FINGERPRINTGUID
  2
{778B7AA4-961B-11D4-A809-0000F45A11F6}
  9
$VERSIONGUID
  2
{F6B77FEC-FD1F-446C-B3A7-F09AD6B6E433}
  9
$EXTNAMES
290
     1
  9
$PSVPSCALE
 40
0.0
  9
$OLESTARTUP
290
     0
  0
ENDSEC
  0
SECTION
  2
CLASSES
  0
CLASS
  1
LWPOLYLINE
  2
AcDbPolyline
  3
AutoCAD 2000
 90
    32768
280
     0
281
     1
  0
CLASS
  1
ACDBDICTIONARYWDFLT
  2
AcDbDictionaryWithDefault
  3
AutoCAD 2000
 90
        0
280
     0
281
     0
  0
CLASS
  1
ACDBPLACEHOLDER
  2
AcDbPlaceHolder
  3
AutoCAD 2000
 90
        0
280
     0
281
     0
  0
CLASS
  1
LAYOUT
  2
AcDbLayout
  3
AutoCAD 2000
 90
        0
280
     0
281
     0
  0
ENDSEC
  0
SECTION
  2
TABLES
  0
TABLE
  2
VPORT
  5
8
330
0
100
AcDbSymbolTable
 70
     1
  0
VPORT
  5
1126
330
8
100
AcDbSymbolTableRecord
100
AcDbViewportTableRecord
  2
*Active
 70
     0
 10
0.0
 20
0.0
 11
1.0
 21
1.0
 12
247.3556198684744
 22
146.0941778539575
 13
0.0
 23
0.0
 14
1.0
 24
1.0
 15
10.0
 25
10.0
 16
0.0
 26
0.0
 36
1.0
 17
0.0
 27
0.0
 37
0.0
 40
317.3284902108892
 41
1.540127388535031
 42
50.0
 43
0.0
 44
0.0
 50
0.0
 51
0.0
 71
     0
 72
   100
 73
     1
 74
     1
 75
     1
 76
     1
 77
     0
 78
     0
281
     0
 65
     1
110
0.0
120
0.0
130
0.0
111
1.0
121
0.0
131
0.0
112
0.0
122
1.0
132
0.0
 79
     0
146
0.0
  0
ENDTAB
  0
TABLE
  2
LTYPE
  5
5
330
0
100
AcDbSymbolTable
 70
     2
  0
LTYPE
  5
12
330
5
100
AcDbSymbolTableRecord
100
AcDbLinetypeTableRecord
  2
BYBLOCK
 70
     0
  3

 72
    65
 73
     0
 40
0.0
  0
LTYPE
  5
13
330
5
100
AcDbSymbolTableRecord
100
AcDbLinetypeTableRecord
  2
BYLAYER
 70
     0
  3

 72
    65
 73
     0
 40
0.0
  0
LTYPE
  5
14
330
5
100
AcDbSymbolTableRecord
100
AcDbLinetypeTableRecord
  2
CONTINUOUS
 70
     0
  3
Solid line
 72
    65
 73
     0
 40
0.0
  0
LTYPE
  5
CCC
330
5
100
AcDbSymbolTableRecord
100
AcDbLinetypeTableRecord
  2
4-中心線
 70
     0
  3
Center (.5x) ___ _ ___ _ ___ _ ___ _ ___ _ ___
 72
    65
 73
     4
 40
28.57499999999999
 49
19.05
 74
     0
 49
-3.174999999999999
 74
     0
 49
3.174999999999999
 74
     0
 49
-3.174999999999999
 74
     0
  0
ENDTAB
  0
TABLE
  2
LAYER
  5
2
330
0
100
AcDbSymbolTable
 70
     5
  0
LAYER
  5
E
330
2
100
AcDbSymbolTableRecord
100
AcDbLayerTableRecord
  2
0
 70
     0
 62
     4
  6
CONTINUOUS
370
    -3
390
5E0
  0
LAYER
  5
21F
330
2
100
AcDbSymbolTableRecord
100
AcDbLayerTableRecord
  2
DEFPOINTS
 70
     0
 62
     9
  6
CONTINUOUS
290
     0
370
    -3
390
5E0
  0
LAYER
  5
508
330
2
100
AcDbSymbolTableRecord
100
AcDbLayerTableRecord
  2
X ﾋﾞｭｰ
 70
     0
 62
     2
  6
CONTINUOUS
290
     0
370
    35
390
5E0
  0
LAYER
  5
CCD
330
2
100
AcDbSymbolTableRecord
100
AcDbLayerTableRecord
  2
1
 70
     0
 62
     5
  6
CONTINUOUS
370
    30
390
5E0
  0
LAYER
  5
CCE
330
2
100
AcDbSymbolTableRecord
100
AcDbLayerTableRecord
  2
2
 70
     0
 62
     6
  6
CONTINUOUS
370
     9
390
5E0
  0
ENDTAB
  0
TABLE
  2
STYLE
  5
3
330
0
100
AcDbSymbolTable
 70
     4
  0
STYLE
  5
F
330
3
100
AcDbSymbolTableRecord
100
AcDbTextStyleTableRecord
  2
STANDARD
 70
     0
 40
0.0
 41
1.0
 50
0.0
 71
     0
 42
2.5
  3
txt.shx
  4
bigfont.shx
  0
STYLE
  5
4B4
330
3
100
AcDbSymbolTableRecord
100
AcDbTextStyleTableRecord
  2
ＭＳ明朝
 70
     0
 40
0.0
 41
1.0
 50
0.0
 71
     0
 42
2.5
  3
MS Mincho.ttf
  4

1001
ACAD
1000
MS Mincho
1071
    32785
  0
STYLE
  5
66E
330
3
100
AcDbSymbolTableRecord
100
AcDbTextStyleTableRecord
  2
MSｺﾞｼｯｸ
 70
     0
 40
0.0
 41
1.0
 50
0.0
 71
     0
 42
2.5
  3
MS Gothic.ttf
  4

1001
ACAD
1000
MS Gothic
1071
    32817
  0
STYLE
  5
CCF
330
3
100
AcDbSymbolTableRecord
100
AcDbTextStyleTableRecord
  2
ＭＳゴシック
 70
     0
 40
0.0
 41
1.0
 50
0.0
 71
     0
 42
2.5
  3
MS Gothic.ttf
  4

1001
ACAD
1000
MS Gothic
1071
    32817
  0
ENDTAB
  0
TABLE
  2
VIEW
  5
6
330
0
100
AcDbSymbolTable
 70
     0
  0
ENDTAB
  0
TABLE
  2
UCS
  5
7
330
0
100
AcDbSymbolTable
 70
     0
  0
ENDTAB
  0
TABLE
  2
APPID
  5
9
330
0
100
AcDbSymbolTable
 70
     5
  0
APPID
  5
10
330
9
100
AcDbSymbolTableRecord
100
AcDbRegAppTableRecord
  2
ACAD
 70
     0
  0
APPID
  5
21
330
9
100
AcDbSymbolTableRecord
100
AcDbRegAppTableRecord
  2
CONTENTTABDATA
 70
     0
  0
APPID
  5
22
330
9
100
AcDbSymbolTableRecord
100
AcDbRegAppTableRecord
  2
CONTENTCURRENTTAB
 70
     0
  0
APPID
  5
137
330
9
100
AcDbSymbolTableRecord
100
AcDbRegAppTableRecord
  2
CONTENTBLOCKDESCRIPTION
 70
     0
  0
APPID
  5
186
330
9
100
AcDbSymbolTableRecord
100
AcDbRegAppTableRecord
  2
CONTENTBLOCKICON
 70
     0
  0
ENDTAB
  0
TABLE
  2
DIMSTYLE
  5
A
330
0
100
AcDbSymbolTable
 70
     1
100
AcDbDimStyleTable
 71
     1
340
1D
  0
DIMSTYLE
105
1D
102
{ACAD_REACTORS
330
E60
330
E6C
330
E8E
330
F3E
330
F41
330
F57
330
F6F
102
}
330
A
100
AcDbSymbolTableRecord
100
AcDbDimStyleTableRecord
  2
STANDARD
 70
     0
 40
0.0
 41
2.5
 42
1.5
 43
5.0
 44
1.25
 73
     0
 74
     0
 77
     1
 78
     8
140
2.5
141
-5.0
143
0.0394
147
0.5
171
     4
172
     1
271
     3
272
     3
273
     8
274
     4
277
     6
340
4B4
  0
ENDTAB
  0
TABLE
  2
BLOCK_RECORD
  5
1
330
0
100
AcDbSymbolTable
 70
     7
  0
BLOCK_RECORD
  5
18
330
1
100
AcDbSymbolTableRecord
100
AcDbBlockTableRecord
  2
*MODEL_SPACE
340
5E3
  0
BLOCK_RECORD
  5
692
330
1
100
AcDbSymbolTableRecord
100
AcDbBlockTableRecord
  2
*Paper_Space
340
693
  0
BLOCK_RECORD
  5
FEC
330
1
100
AcDbSymbolTableRecord
100
AcDbBlockTableRecord
  2
*D0
340
0
  0
BLOCK_RECORD
  5
FF8
330
1
100
AcDbSymbolTableRecord
100
AcDbBlockTableRecord
  2
*D1
340
0
  0
BLOCK_RECORD
  5
1004
330
1
100
AcDbSymbolTableRecord
100
AcDbBlockTableRecord
  2
*D2
340
0
  0
BLOCK_RECORD
  5
1010
330
1
100
AcDbSymbolTableRecord
100
AcDbBlockTableRecord
  2
*D3
340
0
  0
BLOCK_RECORD
  5
101C
330
1
100
AcDbSymbolTableRecord
100
AcDbBlockTableRecord
  2
*D4
340
0
  0
BLOCK_RECORD
  5
102A
330
1
100
AcDbSymbolTableRecord
100
AcDbBlockTableRecord
  2
*D5
340
0
  0
BLOCK_RECORD
  5
1038
330
1
100
AcDbSymbolTableRecord
100
AcDbBlockTableRecord
  2
*D6
340
0
  0
ENDTAB
  0
ENDSEC
  0
SECTION
  2
BLOCKS
  0
BLOCK
  5
19
330
18
100
AcDbEntity
  8
0
100
AcDbBlockBegin
  2
*MODEL_SPACE
 70
     0
 10
0.0
 20
0.0
 30
0.0
  3
*MODEL_SPACE
  1

  0
ENDBLK
  5
1A
330
18
100
AcDbEntity
  8
0
100
AcDbBlockEnd
  0
BLOCK
  5
694
330
692
100
AcDbEntity
 67
     1
  8
0
100
AcDbBlockBegin
  2
*Paper_Space
 70
     0
 10
0.0
 20
0.0
 30
0.0
  3
*Paper_Space
  1

  0
ENDBLK
  5
695
330
692
100
AcDbEntity
 67
     1
  8
0
100
AcDbBlockEnd
  0
BLOCK
  5
FF6
330
FEC
100
AcDbEntity
  8
0
100
AcDbBlockBegin
  2
*D0
 70
     1
 10
0.0
 20
0.0
 30
0.0
  3
*D0
  1

  0
LINE
  5
111B
330
FEC
100
AcDbEntity
  8
2
 62
     0
370
    -2
100
AcDbLine
 10
267.1216909735438
 20
166.6056066940505
 30
0.0
 11
267.1216909735438
 21
176.3556066940505
 31
0.0
  0
LINE
  5
111C
330
FEC
100
AcDbEntity
  8
2
 62
     0
370
    -2
100
AcDbLine
 10
335.1216909735438
 20
166.6056066940505
 30
0.0
 11
335.1216909735438
 21
176.3556066940505
 31
0.0
  0
LINE
  5
111D
330
FEC
100
AcDbEntity
  8
2
 62
     0
370
    -2
100
AcDbLine
 10
269.6216909735438
 20
175.1056066940505
 30
0.0
 11
332.6216909735439
 21
175.1056066940505
 31
0.0
  0
MTEXT
  5
111E
330
FEC
100
AcDbEntity
  8
2
 62
     0
100
AcDbMText
 10
295.7948807022558
 20
177.5047514588002
 30
0.0
 40
2.5
 41
0.0
 71
     5
 72
     1
  1
\A1;68
  7
ＭＳ明朝
 73
     1
 44
1.0
  0
SOLID
  5
111F
330
FEC
100
AcDbEntity
  8
2
 62
     0
100
AcDbTrace
 10
269.6216909735438
 20
175.5222733607171
 30
0.0
 11
269.6216909735438
 21
174.6889400273838
 31
0.0
 12
267.1216909735438
 22
175.1056066940505
 32
0.0
 13
267.1216909735438
 23
175.1056066940505
 33
0.0
  0
SOLID
  5
1120
330
FEC
100
AcDbEntity
  8
2
 62
     0
100
AcDbTrace
 10
332.6216909735439
 20
175.5222733607171
 30
0.0
 11
332.6216909735439
 21
174.6889400273838
 31
0.0
 12
335.1216909735438
 22
175.1056066940505
 32
0.0
 13
335.1216909735438
 23
175.1056066940505
 33
0.0
  0
POINT
  5
1121
330
FEC
100
AcDbEntity
  8
DEFPOINTS
 62
     0
100
AcDbPoint
 10
267.1216909735438
 20
165.1056066940505
 30
0.0
  0
POINT
  5
1122
330
FEC
100
AcDbEntity
  8
DEFPOINTS
 62
     0
100
AcDbPoint
 10
335.1216909735438
 20
165.1056066940505
 30
0.0
  0
POINT
  5
1123
330
FEC
100
AcDbEntity
  8
DEFPOINTS
 62
     0
100
AcDbPoint
 10
335.1216909735438
 20
175.1056066940505
 30
0.0
  0
ENDBLK
  5
FF7
330
FEC
100
AcDbEntity
  8
0
100
AcDbBlockEnd
  0
BLOCK
  5
1002
330
FF8
100
AcDbEntity
  8
0
100
AcDbBlockBegin
  2
*D1
 70
     1
 10
0.0
 20
0.0
 30
0.0
  3
*D1
  1

  0
LINE
  5
104D
330
FF8
100
AcDbEntity
  8
2
 62
     0
370
    -2
100
AcDbLine
 10
81.87169097354388
 20
82.60560669405052
 30
0.0
 11
81.87169097354388
 21
93.35560669405053
 31
0.0
  0
LINE
  5
104E
330
FF8
100
AcDbEntity
  8
2
 62
     0
370
    -2
100
AcDbLine
 10
153.8716909735438
 20
82.60560669405052
 30
0.0
 11
153.8716909735438
 21
93.35560669405053
 31
0.0
  0
LINE
  5
104F
330
FF8
100
AcDbEntity
  8
2
 62
     0
370
    -2
100
AcDbLine
 10
84.37169097354388
 20
92.10560669405053
 30
0.0
 11
151.3716909735438
 21
92.10560669405053
 31
0.0
  0
SOLID
  5
1050
330
FF8
100
AcDbEntity
  8
2
 62
     0
100
AcDbTrace
 10
84.37169097354388
 20
92.52227336071719
 30
0.0
 11
84.37169097354388
 21
91.68894002738385
 31
0.0
 12
81.87169097354388
 22
92.10560669405053
 32
0.0
 13
81.87169097354388
 23
92.10560669405053
 33
0.0
  0
SOLID
  5
1051
330
FF8
100
AcDbEntity
  8
2
 62
     0
100
AcDbTrace
 10
151.3716909735438
 20
92.52227336071719
 30
0.0
 11
151.3716909735438
 21
91.68894002738385
 31
0.0
 12
153.8716909735438
 22
92.10560669405053
 32
0.0
 13
153.8716909735438
 23
92.10560669405053
 33
0.0
  0
MTEXT
  5
1052
330
FF8
100
AcDbEntity
  8
2
 62
     0
100
AcDbMText
 10
117.8716909735438
 20
93.85560669405052
 30
0.0
 40
2.5
 41
0.0
 71
     5
 72
     1
  1
\A1;72
  7
ＭＳ明朝
 73
     1
 44
1.0
  0
POINT
  5
1053
330
FF8
100
AcDbEntity
  8
DEFPOINTS
 62
     0
100
AcDbPoint
 10
81.87169097354388
 20
81.10560669405051
 30
0.0
  0
POINT
  5
1054
330
FF8
100
AcDbEntity
  8
DEFPOINTS
 62
     0
100
AcDbPoint
 10
153.8716909735438
 20
81.10560669405051
 30
0.0
  0
POINT
  5
1055
330
FF8
100
AcDbEntity
  8
DEFPOINTS
 62
     0
100
AcDbPoint
 10
153.8716909735438
 20
92.10560669405053
 30
0.0
  0
ENDBLK
  5
1003
330
FF8
100
AcDbEntity
  8
0
100
AcDbBlockEnd
  0
BLOCK
  5
100E
330
1004
100
AcDbEntity
  8
0
100
AcDbBlockBegin
  2
*D2
 70
     1
 10
0.0
 20
0.0
 30
0.0
  3
*D2
  1

  0
LINE
  5
1056
330
1004
100
AcDbEntity
  8
2
 62
     0
370
    -2
100
AcDbLine
 10
154.3716909735438
 20
46.10560669405052
 30
0.0
 11
165.1216909735438
 21
46.10560669405052
 31
0.0
  0
LINE
  5
1057
330
1004
100
AcDbEntity
  8
2
 62
     0
370
    -2
100
AcDbLine
 10
154.3716909735438
 20
82.10560669405053
 30
0.0
 11
165.1216909735438
 21
82.10560669405051
 31
0.0
  0
LINE
  5
1058
330
1004
100
AcDbEntity
  8
2
 62
     0
370
    -2
100
AcDbLine
 10
163.8716909735438
 20
48.60560669405052
 30
0.0
 11
163.8716909735438
 21
79.60560669405051
 31
0.0
  0
SOLID
  5
1059
330
1004
100
AcDbEntity
  8
2
 62
     0
100
AcDbTrace
 10
163.4550243068771
 20
48.60560669405052
 30
0.0
 11
164.2883576402105
 21
48.60560669405052
 31
0.0
 12
163.8716909735438
 22
46.10560669405052
 32
0.0
 13
163.8716909735438
 23
46.10560669405052
 33
0.0
  0
SOLID
  5
105A
330
1004
100
AcDbEntity
  8
2
 62
     0
100
AcDbTrace
 10
163.4550243068772
 20
79.60560669405051
 30
0.0
 11
164.2883576402105
 21
79.60560669405051
 31
0.0
 12
163.8716909735438
 22
82.10560669405051
 32
0.0
 13
163.8716909735438
 23
82.10560669405051
 33
0.0
  0
MTEXT
  5
105B
330
1004
100
AcDbEntity
  8
2
 62
     0
100
AcDbMText
 10
162.1216909735438
 20
64.10560669405054
 30
0.0
 40
2.5
 41
0.0
 71
     5
 72
     1
  1
\A1;36
  7
ＭＳ明朝
 11
0.0000000000000001
 21
1.0
 31
0.0
 73
     1
 44
1.0
  0
POINT
  5
105C
330
1004
100
AcDbEntity
  8
DEFPOINTS
 62
     0
100
AcDbPoint
 10
152.8716909735438
 20
46.10560669405052
 30
0.0
  0
POINT
  5
105D
330
1004
100
AcDbEntity
  8
DEFPOINTS
 62
     0
100
AcDbPoint
 10
152.8716909735438
 20
82.10560669405053
 30
0.0
  0
POINT
  5
105E
330
1004
100
AcDbEntity
  8
DEFPOINTS
 62
     0
100
AcDbPoint
 10
163.8716909735438
 20
82.10560669405051
 30
0.0
  0
ENDBLK
  5
100F
330
1004
100
AcDbEntity
  8
0
100
AcDbBlockEnd
  0
BLOCK
  5
101A
330
1010
100
AcDbEntity
  8
0
100
AcDbBlockBegin
  2
*D3
 70
     1
 10
0.0
 20
0.0
 30
0.0
  3
*D3
  1

  0
LINE
  5
105F
330
1010
100
AcDbEntity
  8
2
 62
     0
370
    -2
100
AcDbLine
 10
206.3716909735438
 20
83.60560669405051
 30
0.0
 11
206.3716909735438
 21
93.35560669405053
 31
0.0
  0
LINE
  5
1060
330
1010
100
AcDbEntity
  8
2
 62
     0
370
    -2
100
AcDbLine
 10
271.3716909735438
 20
81.10560669405051
 30
0.0
 11
271.3716909735438
 21
93.35560669405053
 31
0.0
  0
LINE
  5
1061
330
1010
100
AcDbEntity
  8
2
 62
     0
370
    -2
100
AcDbLine
 10
208.8716909735438
 20
92.10560669405053
 30
0.0
 11
268.8716909735438
 21
92.10560669405053
 31
0.0
  0
SOLID
  5
1062
330
1010
100
AcDbEntity
  8
2
 62
     0
100
AcDbTrace
 10
208.8716909735438
 20
92.52227336071719
 30
0.0
 11
208.8716909735438
 21
91.68894002738385
 31
0.0
 12
206.3716909735438
 22
92.10560669405053
 32
0.0
 13
206.3716909735438
 23
92.10560669405053
 33
0.0
  0
SOLID
  5
1063
330
1010
100
AcDbEntity
  8
2
 62
     0
100
AcDbTrace
 10
268.8716909735438
 20
92.52227336071719
 30
0.0
 11
268.8716909735438
 21
91.68894002738385
 31
0.0
 12
271.3716909735438
 22
92.10560669405053
 32
0.0
 13
271.3716909735438
 23
92.10560669405053
 33
0.0
  0
MTEXT
  5
1064
330
1010
100
AcDbEntity
  8
2
 62
     0
100
AcDbMText
 10
238.8716909735439
 20
93.85560669405052
 30
0.0
 40
2.5
 41
0.0
 71
     5
 72
     1
  1
\A1;65
  7
ＭＳ明朝
 73
     1
 44
1.0
  0
POINT
  5
1065
330
1010
100
AcDbEntity
  8
DEFPOINTS
 62
     0
100
AcDbPoint
 10
206.3716909735438
 20
82.10560669405053
 30
0.0
  0
POINT
  5
1066
330
1010
100
AcDbEntity
  8
DEFPOINTS
 62
     0
100
AcDbPoint
 10
271.3716909735438
 20
79.60560669405052
 30
0.0
  0
POINT
  5
1067
330
1010
100
AcDbEntity
  8
DEFPOINTS
 62
     0
100
AcDbPoint
 10
271.3716909735438
 20
92.10560669405053
 30
0.0
  0
ENDBLK
  5
101B
330
1010
100
AcDbEntity
  8
0
100
AcDbBlockEnd
  0
BLOCK
  5
1028
330
101C
100
AcDbEntity
  8
0
100
AcDbBlockBegin
  2
*D4
 70
     1
 10
0.0
 20
0.0
 30
0.0
  3
*D4
  1

  0
LINE
  5
1068
330
101C
100
AcDbEntity
  8
2
 62
     0
370
    -2
100
AcDbLine
 10
203.8716909735438
 20
83.10560669405052
 30
0.0
 11
203.8716909735438
 21
93.35560669405053
 31
0.0
  0
LINE
  5
1069
330
101C
100
AcDbEntity
  8
2
 62
     0
370
    -2
100
AcDbLine
 10
206.3716909735438
 20
83.60560669405051
 30
0.0
 11
206.3716909735438
 21
93.35560669405053
 31
0.0
  0
LINE
  5
106A
330
101C
100
AcDbEntity
  8
2
 62
     0
370
    -2
100
AcDbLine
 10
201.3716909735438
 20
92.10560669405053
 30
0.0
 11
198.8716909735438
 21
92.10560669405053
 31
0.0
  0
LINE
  5
106B
330
101C
100
AcDbEntity
  8
2
 62
     0
370
    -2
100
AcDbLine
 10
208.8716909735438
 20
92.10560669405053
 30
0.0
 11
211.3716909735438
 21
92.10560669405053
 31
0.0
  0
LINE
  5
106C
330
101C
100
AcDbEntity
  8
2
 62
     0
370
    -2
100
AcDbLine
 10
203.8716909735438
 20
92.10560669405053
 30
0.0
 11
206.3716909735438
 21
92.10560669405053
 31
0.0
  0
SOLID
  5
106D
330
101C
100
AcDbEntity
  8
2
 62
     0
100
AcDbTrace
 10
201.3716909735438
 20
92.52227336071719
 30
0.0
 11
201.3716909735438
 21
91.68894002738385
 31
0.0
 12
203.8716909735438
 22
92.10560669405053
 32
0.0
 13
203.8716909735438
 23
92.10560669405053
 33
0.0
  0
SOLID
  5
106E
330
101C
100
AcDbEntity
  8
2
 62
     0
100
AcDbTrace
 10
208.8716909735438
 20
92.52227336071719
 30
0.0
 11
208.8716909735438
 21
91.68894002738385
 31
0.0
 12
206.3716909735438
 22
92.10560669405053
 32
0.0
 13
206.3716909735438
 23
92.10560669405053
 33
0.0
  0
MTEXT
  5
106F
330
101C
100
AcDbEntity
  8
2
 62
     0
100
AcDbMText
 10
205.1216909735438
 20
93.85560669405052
 30
0.0
 40
2.5
 41
0.0
 71
     5
 72
     1
  1
\A1;2.5
  7
ＭＳ明朝
 73
     1
 44
1.0
  0
POINT
  5
1070
330
101C
100
AcDbEntity
  8
DEFPOINTS
 62
     0
100
AcDbPoint
 10
203.8716909735438
 20
81.60560669405052
 30
0.0
  0
POINT
  5
1071
330
101C
100
AcDbEntity
  8
DEFPOINTS
 62
     0
100
AcDbPoint
 10
206.3716909735438
 20
82.10560669405053
 30
0.0
  0
POINT
  5
1072
330
101C
100
AcDbEntity
  8
DEFPOINTS
 62
     0
100
AcDbPoint
 10
206.3716909735438
 20
92.10560669405053
 30
0.0
  0
ENDBLK
  5
1029
330
101C
100
AcDbEntity
  8
0
100
AcDbBlockEnd
  0
BLOCK
  5
1036
330
102A
100
AcDbEntity
  8
0
100
AcDbBlockBegin
  2
*D5
 70
     1
 10
0.0
 20
0.0
 30
0.0
  3
*D5
  1

  0
LINE
  5
1073
330
102A
100
AcDbEntity
  8
2
 62
     0
370
    -2
100
AcDbLine
 10
271.3716909735438
 20
81.10560669405051
 30
0.0
 11
271.3716909735438
 21
93.35560669405053
 31
0.0
  0
LINE
  5
1074
330
102A
100
AcDbEntity
  8
2
 62
     0
370
    -2
100
AcDbLine
 10
277.3716909735438
 20
80.60560669405052
 30
0.0
 11
277.3716909735438
 21
93.35560669405053
 31
0.0
  0
LINE
  5
1075
330
102A
100
AcDbEntity
  8
2
 62
     0
370
    -2
100
AcDbLine
 10
268.8716909735438
 20
92.10560669405053
 30
0.0
 11
266.3716909735438
 21
92.10560669405053
 31
0.0
  0
LINE
  5
1076
330
102A
100
AcDbEntity
  8
2
 62
     0
370
    -2
100
AcDbLine
 10
279.8716909735438
 20
92.10560669405053
 30
0.0
 11
282.3716909735438
 21
92.10560669405053
 31
0.0
  0
LINE
  5
1077
330
102A
100
AcDbEntity
  8
2
 62
     0
370
    -2
100
AcDbLine
 10
271.3716909735438
 20
92.10560669405053
 30
0.0
 11
277.3716909735438
 21
92.10560669405053
 31
0.0
  0
SOLID
  5
1078
330
102A
100
AcDbEntity
  8
2
 62
     0
100
AcDbTrace
 10
268.8716909735438
 20
92.52227336071719
 30
0.0
 11
268.8716909735438
 21
91.68894002738385
 31
0.0
 12
271.3716909735438
 22
92.10560669405053
 32
0.0
 13
271.3716909735438
 23
92.10560669405053
 33
0.0
  0
SOLID
  5
1079
330
102A
100
AcDbEntity
  8
2
 62
     0
100
AcDbTrace
 10
279.8716909735438
 20
92.52227336071719
 30
0.0
 11
279.8716909735438
 21
91.68894002738385
 31
0.0
 12
277.3716909735438
 22
92.10560669405053
 32
0.0
 13
277.3716909735438
 23
92.10560669405053
 33
0.0
  0
MTEXT
  5
107A
330
102A
100
AcDbEntity
  8
2
 62
     0
100
AcDbMText
 10
274.3716909735439
 20
93.85560669405052
 30
0.0
 40
2.5
 41
0.0
 71
     5
 72
     1
  1
\A1;6
  7
ＭＳ明朝
 73
     1
 44
1.0
  0
POINT
  5
107B
330
102A
100
AcDbEntity
  8
DEFPOINTS
 62
     0
100
AcDbPoint
 10
271.3716909735438
 20
79.60560669405052
 30
0.0
  0
POINT
  5
107C
330
102A
100
AcDbEntity
  8
DEFPOINTS
 62
     0
100
AcDbPoint
 10
277.3716909735438
 20
79.10560669405052
 30
0.0
  0
POINT
  5
107D
330
102A
100
AcDbEntity
  8
DEFPOINTS
 62
     0
100
AcDbPoint
 10
277.3716909735438
 20
92.10560669405053
 30
0.0
  0
ENDBLK
  5
1037
330
102A
100
AcDbEntity
  8
0
100
AcDbBlockEnd
  0
BLOCK
  5
1042
330
1038
100
AcDbEntity
  8
0
100
AcDbBlockBegin
  2
*D6
 70
     1
 10
0.0
 20
0.0
 30
0.0
  3
*D6
  1

  0
LINE
  5
10FF
330
1038
100
AcDbEntity
  8
2
 62
     0
370
    -2
100
AcDbLine
 10
336.6216909735438
 20
132.1056066940505
 30
0.0
 11
356.3716909735438
 21
132.1056066940505
 31
0.0
  0
LINE
  5
1100
330
1038
100
AcDbEntity
  8
2
 62
     0
370
    -2
100
AcDbLine
 10
336.6216909735438
 20
165.1056066940505
 30
0.0
 11
356.3716909735438
 21
165.1056066940505
 31
0.0
  0
LINE
  5
1101
330
1038
100
AcDbEntity
  8
2
 62
     0
370
    -2
100
AcDbLine
 10
355.1216909735438
 20
134.6056066940505
 30
0.0
 11
355.1216909735438
 21
162.6056066940505
 31
0.0
  0
MTEXT
  5
1102
330
1038
100
AcDbEntity
  8
2
 62
     0
100
AcDbMText
 10
352.1345511780269
 20
146.3238244293313
 30
0.0
 40
2.5
 41
0.0
 71
     5
 72
     1
  1
\A1;33
  7
ＭＳ明朝
 11
0.0000000000000001
 21
1.0
 31
0.0
 73
     1
 44
1.0
  0
SOLID
  5
1103
330
1038
100
AcDbEntity
  8
2
 62
     0
100
AcDbTrace
 10
354.7050243068771
 20
134.6056066940505
 30
0.0
 11
355.5383576402105
 21
134.6056066940505
 31
0.0
 12
355.1216909735438
 22
132.1056066940505
 32
0.0
 13
355.1216909735438
 23
132.1056066940505
 33
0.0
  0
SOLID
  5
1104
330
1038
100
AcDbEntity
  8
2
 62
     0
100
AcDbTrace
 10
354.7050243068771
 20
162.6056066940505
 30
0.0
 11
355.5383576402105
 21
162.6056066940505
 31
0.0
 12
355.1216909735438
 22
165.1056066940505
 32
0.0
 13
355.1216909735438
 23
165.1056066940505
 33
0.0
  0
POINT
  5
1105
330
1038
100
AcDbEntity
  8
DEFPOINTS
 62
     0
100
AcDbPoint
 10
335.1216909735438
 20
132.1056066940505
 30
0.0
  0
POINT
  5
1106
330
1038
100
AcDbEntity
  8
DEFPOINTS
 62
     0
100
AcDbPoint
 10
335.1216909735438
 20
165.1056066940505
 30
0.0
  0
POINT
  5
1107
330
1038
100
AcDbEntity
  8
DEFPOINTS
 62
     0
100
AcDbPoint
 10
355.1216909735438
 20
165.1056066940505
 30
0.0
  0
ENDBLK
  5
1043
330
1038
100
AcDbEntity
  8
0
100
AcDbBlockEnd
  0
ENDSEC
  0
SECTION
  2
ENTITIES
  0
DIMENSION
  5
E60
330
18
100
AcDbEntity
  8
2
100
AcDbDimension
  2
*D0
 10
335.1216909735438
 20
175.1056066940505
 30
0.0
 11
295.7948807022558
 21
177.5047514588002
 31
0.0
 70
   160
 71
     5
 42
68.0
  3
STANDARD
100
AcDbAlignedDimension
 13
267.1216909735438
 23
165.1056066940505
 33
0.0
 14
335.1216909735438
 24
165.1056066940505
 34
0.0
100
AcDbRotatedDimension
1001
ACAD
1000
DSTYLE
1002
{
1070
    40
1040
1.0
1070
    47
1040
0.7
1070
    48
1040
0.000000001
1070
   147
1040
1.0
1070
   279
1070
     2
1002
}
  0
LINE
  5
E61
330
18
100
AcDbEntity
  8
2
  6
4-中心線
100
AcDbLine
 10
262.1216909735438
 20
148.6056066940505
 30
0.0
 11
340.1216909735438
 21
148.6056066940505
 31
0.0
  0
LINE
  5
E62
330
18
100
AcDbEntity
  8
2
  6
4-中心線
100
AcDbLine
 10
163.8716909735438
 20
64.10560669405052
 30
0.0
 11
404.3716909735438
 21
64.10560669405052
 31
0.0
  0
LWPOLYLINE
  5
E63
330
18
100
AcDbEntity
  8
1
100
AcDbPolyline
 90
        4
 70
     1
 43
0.0
 10
267.1216909735438
 20
132.1056066940505
 10
335.1216909735438
 20
132.1056066940505
 10
335.1216909735438
 20
165.1056066940505
 10
267.1216909735438
 20
165.1056066940505
  0
LINE
  5
E64
330
18
100
AcDbEntity
  8
2
  6
4-中心線
100
AcDbLine
 10
117.8716909735438
 20
97.10560669405053
 30
0.0
 11
117.8716909735438
 21
210.6056066940505
 31
0.0
  0
LINE
  5
E65
330
18
100
AcDbEntity
  8
1
100
AcDbLine
 10
147.8716909735438
 20
196.6056066940505
 30
0.0
 11
147.8716909735438
 21
146.6056066940505
 31
0.0
  0
LINE
  5
E66
330
18
100
AcDbEntity
  8
1
100
AcDbLine
 10
151.8716909735438
 20
134.6056066940505
 30
0.0
 11
150.8716909735438
 21
199.6056066940505
 31
0.0
  0
LINE
  5
E67
330
18
100
AcDbEntity
  8
1
100
AcDbLine
 10
87.87169097354388
 20
146.6056066940505
 30
0.0
 11
87.87169097354388
 21
196.6056066940505
 31
0.0
  0
LINE
  5
E68
330
18
100
AcDbEntity
  8
1
100
AcDbLine
 10
83.87169097354387
 20
134.6056066940505
 30
0.0
 11
84.87169097354387
 21
199.6056066940505
 31
0.0
  0
LWPOLYLINE
  5
E69
330
18
100
AcDbEntity
  8
1
100
AcDbPolyline
 90
        4
 70
     1
 43
0.0
 10
145.8716909735438
 20
194.6056066940505
 10
89.87169097354387
 20
194.6056066940505
 10
89.87169097354387
 20
148.6056066940505
 10
145.8716909735438
 20
148.6056066940505
  0
MTEXT
  5
E6A
330
18
100
AcDbEntity
  8
1
100
AcDbMText
 10
117.8716909735438
 20
151.6056066940505
 30
0.0
 40
3.0
 41
0.0
 71
     2
 72
     5
  1
\fＭＳ ゴシック|b0|i0|c128|p49;PCM125100　　 -50～50\U+2103
  7
ＭＳ明朝
 11
-1.0
 21
0.0000000000000001
 31
0.0
 73
     1
 44
1.0
1001
ACAD
1000
MTEXTBEGIN
1070
    73
1070
     1
1070
    44
1040
1.0
1070
    74
1070
     0
1000
MTEXTEND
1000
MTEXTBEGIN
1070
    73
1070
     1
1070
    44
1040
1.0
1070
    74
1070
     0
1000
MTEXTEND
  0
LINE
  5
E6B
330
18
100
AcDbEntity
  8
2
  6
4-中心線
100
AcDbLine
 10
76.87169097354388
 20
64.10560669405052
 30
0.0
 11
158.8716909735438
 21
64.10560669405052
 31
0.0
  0
DIMENSION
  5
E6C
330
18
100
AcDbEntity
  8
2
100
AcDbDimension
  2
*D1
 10
153.8716909735438
 20
92.10560669405053
 30
0.0
 11
117.8716909735438
 21
93.85560669405052
 31
0.0
 70
    32
 71
     5
 42
72.0
  3
STANDARD
100
AcDbAlignedDimension
 13
81.87169097354388
 23
81.10560669405051
 33
0.0
 14
153.8716909735438
 24
81.10560669405051
 34
0.0
100
AcDbRotatedDimension
1001
ACAD
1000
DSTYLE
1002
{
1070
    40
1040
1.0
1002
}
  0
HATCH
  5
E6D
330
18
100
AcDbEntity
  8
1
100
AcDbHatch
 10
0.0
 20
0.0
 30
0.0
210
0.0
220
0.0
230
1.0
  2
SOLID
 70
     1
 71
     0
 91
       12
 92
        7
 72
     0
 73
     1
 93
        6
 10
108.4600075825021
 20
65.10765242278736
 10
108.0404577669134
 20
65.60765242278737
 10
104.8255390286001
 20
65.60765242278733
 10
104.229662232303
 20
65.1076524227874
 10
104.6492120478916
 20
64.60765242278743
 10
107.8641307862048
 20
64.60765242278739
 97
        0
 92
        7
 72
     0
 73
     1
 93
        6
 10
120.1874147237938
 20
70.03993125983552
 10
120.0634619504439
 20
70.18765242278735
 10
115.4176899883591
 20
70.18765242278732
 10
115.2416427617091
 20
70.03993125983552
 10
115.9567896195365
 20
69.18765242278738
 10
119.1717083578496
 20
69.18765242278741
 97
        0
 92
        7
 72
     0
 73
     1
 93
        6
 10
120.4766378616104
 20
69.69524854628133
 10
120.3526850882605
 20
69.84296970923313
 10
119.3369787223162
 20
68.99069087218496
 10
118.7751874024468
 20
65.80461397338982
 10
119.1947372180354
 20
65.30461397338979
 10
119.7906140143325
 20
65.80461397338976
 97
        0
 92
        7
 72
     0
 73
     1
 93
        6
 10
118.9600075825021
 20
65.1076524227874
 10
118.5404577669133
 20
65.6076524227874
 10
115.3255390286001
 20
65.60765242278737
 10
114.729662232303
 20
65.1076524227874
 10
115.1492120478916
 20
64.60765242278736
 10
118.3641307862048
 20
64.60765242278736
 97
        0
 92
        7
 72
     0
 73
     1
 93
        6
 10
114.9144824123583
 20
64.41069087218494
 10
114.4949325967695
 20
64.91069087218488
 10
113.8990558004725
 20
64.41069087218491
 10
113.2130319531945
 20
60.52005629929346
 10
113.3369847265445
 20
60.3723351363416
 10
114.3526910924887
 20
61.22461397338984
 97
        0
 92
        7
 72
     0
 73
     1
 93
        6
 10
117.7328801952686
 20
61.02765242278735
 10
114.5179614569553
 20
61.02765242278739
 10
113.5022550910111
 20
60.17537358573918
 10
113.6262078643611
 20
60.02765242278735
 10
118.2719798264458
 20
60.02765242278735
 10
118.4480270530959
 20
60.17537358573918
 97
        0
 92
        7
 72
     0
 73
     1
 93
        6
 10
130.6874147237938
 20
70.03993125983547
 10
130.5634619504438
 20
70.18765242278732
 10
125.9176899883591
 20
70.18765242278735
 10
125.7416427617091
 20
70.03993125983555
 10
126.4567896195363
 20
69.18765242278738
 10
129.6717083578496
 20
69.18765242278738
 97
        0
 92
        7
 72
     0
 73
     1
 93
        6
 10
126.222059984003
 20
68.9906908721849
 10
125.5069131261757
 20
69.84296970923307
 10
125.3308658995256
 20
69.69524854628125
 10
124.6448420522477
 20
65.80461397338973
 10
125.0643918678364
 20
65.30461397338979
 10
125.6602686641334
 20
65.80461397338976
 97
        0
 92
        7
 72
     0
 73
     1
 93
        6
 10
129.0404577669133
 20
65.60765242278737
 10
125.8255390286001
 20
65.60765242278737
 10
125.2296622323029
 20
65.1076524227874
 10
125.6492120478916
 20
64.60765242278743
 10
128.8641307862048
 20
64.60765242278731
 10
129.460007582502
 20
65.10765242278736
 97
        0
 92
        7
 72
     0
 73
     1
 93
        6
 10
130.0448277625572
 20
64.41069087218494
 10
129.6252779469687
 20
64.91069087218495
 10
129.0294011506715
 20
64.41069087218491
 10
128.4676098308019
 20
61.22461397338975
 10
129.1827566886294
 20
60.37233513634163
 10
129.3588039152794
 20
60.52005629929348
 97
        0
 92
        7
 72
     0
 73
     1
 93
        6
 10
128.2328801952685
 20
61.02765242278739
 10
125.0179614569552
 20
61.02765242278735
 10
124.0022550910111
 20
60.17537358573918
 10
124.1262078643611
 20
60.02765242278735
 10
128.7719798264458
 20
60.02765242278735
 10
128.9480270530959
 20
60.17537358573915
 97
        0
 92
        7
 72
     1
 73
     1
 93
        2
 10
130.3448349074025
 20
60.43385596538698
 42
1.0
 10
131.3448349074025
 20
60.43385596538698
 42
1.0
 97
        0
 75
     0
 76
     1
 47
0.0499495792684104
 98
       12
 10
105.82557199106
 20
65.00490068497666
 10
116.9228017270253
 20
69.60026184138806
 10
119.5221531959406
 20
67.60227894570935
 10
117.2227268965156
 20
65.05485022352658
 10
114.0235258562063
 20
62.65727056822109
 10
115.8730636338095
 20
60.50943860566505
 10
128.3199566324809
 20
69.75011090826533
 10
125.3706932334134
 20
67.65222848425921
 10
127.4201811240102
 20
65.20469883917624
 10
129.3696947256967
 20
62.95696779952047
 10
126.8203307850297
 20
60.55938814421498
 10
130.8193330448993
 20
60.40953907733771
  0
LWPOLYLINE
  5
E6E
330
18
100
AcDbEntity
  8
1
100
AcDbPolyline
 90
        8
 70
     1
 43
0.0
 10
82.87169097354388
 20
46.10560669405052
 10
152.8716909735438
 20
46.10560669405052
 42
0.4142135623730951
 10
153.8716909735438
 20
47.10560669405052
 10
153.8716909735438
 20
81.10560669405051
 42
0.4142135623730951
 10
152.8716909735438
 20
82.10560669405053
 10
82.87169097354388
 20
82.10560669405053
 42
0.4142135623730951
 10
81.87169097354388
 20
81.10560669405051
 10
81.87169097354388
 20
47.10560669405052
 42
0.4142135623730951
  0
LWPOLYLINE
  5
E6F
330
18
100
AcDbEntity
  8
1
100
AcDbPolyline
 90
        8
 70
     1
 43
0.0
 10
82.87169097354388
 20
46.60560669405052
 10
152.8716909735438
 20
46.60560669405052
 42
0.4142135623730951
 10
153.3716909735438
 20
47.10560669405052
 10
153.3716909735438
 20
81.10560669405051
 42
0.4142135623730951
 10
152.8716909735438
 20
81.60560669405052
 10
82.87169097354388
 20
81.60560669405052
 42
0.4142135623730951
 10
82.37169097354387
 20
81.10560669405051
 10
82.37169097354387
 20
47.10560669405052
 42
0.4142135623730951
  0
LWPOLYLINE
  5
E70
330
18
100
AcDbEntity
  8
1
100
AcDbPolyline
 90
        4
 70
     1
 43
0.0
 10
82.87169097354388
 20
47.10560669405052
 10
152.8716909735438
 20
47.10560669405052
 10
152.8716909735438
 20
81.10560669405051
 10
82.87169097354388
 20
81.10560669405051
  0
LWPOLYLINE
  5
E71
330
18
100
AcDbEntity
  8
1
100
AcDbPolyline
 90
        4
 70
     1
 43
0.0
 10
102.8716909735438
 20
58.10560669405052
 10
132.8716909735438
 20
58.10560669405052
 10
132.8716909735438
 20
72.10560669405052
 10
102.8716909735438
 20
72.10560669405052
  0
TEXT
  5
E72
330
18
100
AcDbEntity
  8
1
100
AcDbText
 10
84.37169097354388
 20
76.10560669405052
 30
0.0
 40
2.5
  1
TEMPERATURE CONTROLLER
 41
1.3
  7
ＭＳゴシック
100
AcDbText
  0
LINE
  5
E73
330
18
100
AcDbEntity
  8
1
100
AcDbLine
 10
82.37169097354387
 20
132.1056066940505
 30
0.0
 11
153.3716909735438
 21
132.1056066940505
 31
0.0
  0
LINE
  5
E74
330
18
100
AcDbEntity
  8
1
100
AcDbLine
 10
81.87169097354388
 20
134.6056066940505
 30
0.0
 11
153.8716909735438
 21
134.6056066940505
 31
0.0
  0
LINE
  5
E75
330
18
100
AcDbEntity
  8
1
100
AcDbLine
 10
81.87169097354388
 20
132.6056066940505
 30
0.0
 11
153.8716909735438
 21
132.6056066940505
 31
0.0
  0
LINE
  5
E76
330
18
100
AcDbEntity
  8
1
100
AcDbLine
 10
147.8716909735438
 20
146.6056066940505
 30
0.0
 11
87.87169097354388
 21
146.6056066940505
 31
0.0
  0
LINE
  5
E77
330
18
100
AcDbEntity
  8
2
  6
4-中心線
100
AcDbLine
 10
117.8716909735438
 20
41.10560669405052
 30
0.0
 11
117.8716909735438
 21
92.10560669405053
 31
0.0
  0
HATCH
  5
E78
330
18
100
AcDbEntity
  8
1
100
AcDbHatch
 10
0.0
 20
0.0
 30
0.0
210
0.0
220
0.0
230
1.0
  2
SOLID
 70
     1
 71
     0
 91
        3
 92
        7
 72
     1
 73
     1
 93
        6
 10
96.37169097354387
 20
56.0056066940505
 42
0.0
 10
93.37169097354388
 20
56.0056066940505
 42
-0.4142135623730966
 10
90.77169097354385
 20
58.60560669405052
 42
-0.4142135623730951
 10
93.37169097354388
 20
61.20560669405051
 42
0.0
 10
96.37169097354387
 20
61.20560669405051
 42
-0.4142135623730951
 10
98.97169097354391
 20
58.60560669405052
 42
-0.4142135623730968
 97
        0
 92
       22
 72
     1
 73
     1
 93
        6
 10
93.37169097354388
 20
56.60560669405052
 42
0.0
 10
96.37169097354387
 20
56.60560669405052
 42
0.4142135623730958
 10
98.37169097354388
 20
58.60560669405052
 42
0.4142135623730958
 10
96.37169097354387
 20
60.60560669405052
 42
0.0
 10
93.37169097354388
 20
60.60560669405052
 42
0.4142135623730958
 10
91.37169097354387
 20
58.60560669405052
 42
0.4142135623730958
 97
        0
 92
        6
 72
     0
 73
     1
 93
        3
 10
94.87169097354387
 20
57.10560669405052
 10
96.37169097354387
 20
60.10560669405052
 10
93.37169097354388
 20
60.10560669405052
 97
        0
 75
     0
 76
     1
 47
0.0821720108407508
 98
        3
 10
91.158946540447
 20
58.31548511299306
 10
91.158946540447
 20
58.31548511299306
 10
91.158946540447
 20
58.31548511299306
  0
HATCH
  5
E79
330
18
100
AcDbEntity
  8
1
100
AcDbHatch
 10
0.0
 20
0.0
 30
0.0
210
0.0
220
0.0
230
1.0
  2
SOLID
 70
     1
 71
     0
 91
        3
 92
        7
 72
     1
 73
     1
 93
        6
 10
96.37169097354387
 20
72.20560669405054
 42
0.0
 10
93.37169097354388
 20
72.20560669405054
 42
0.4142135623730966
 10
90.77169097354385
 20
69.60560669405052
 42
0.4142135623730951
 10
93.37169097354388
 20
67.00560669405053
 42
0.0
 10
96.37169097354387
 20
67.00560669405053
 42
0.4142135623730951
 10
98.97169097354391
 20
69.60560669405052
 42
0.4142135623730968
 97
        0
 92
       22
 72
     1
 73
     1
 93
        6
 10
93.37169097354388
 20
71.60560669405052
 42
0.0
 10
96.37169097354387
 20
71.60560669405052
 42
-0.4142135623730958
 10
98.37169097354388
 20
69.60560669405052
 42
-0.4142135623730958
 10
96.37169097354387
 20
67.60560669405052
 42
0.0
 10
93.37169097354388
 20
67.60560669405052
 42
-0.4142135623730958
 10
91.37169097354387
 20
69.60560669405052
 42
-0.4142135623730958
 97
        0
 92
        6
 72
     0
 73
     1
 93
        3
 10
94.87169097354387
 20
71.10560669405052
 10
96.37169097354387
 20
68.10560669405052
 10
93.37169097354388
 20
68.10560669405052
 97
        0
 75
     0
 76
     1
 47
0.0821720108407508
 98
        3
 10
91.158946540447
 20
69.89572827510798
 10
91.158946540447
 20
69.89572827510798
 10
91.158946540447
 20
69.89572827510798
  0
LINE
  5
E7A
330
18
100
AcDbEntity
  8
1
100
AcDbLine
 10
82.62169097354387
 20
136.6056066940505
 30
0.0
 11
82.90220847556378
 21
137.3556066940505
 31
0.0
  0
LINE
  5
E7B
330
18
100
AcDbEntity
  8
1
100
AcDbLine
 10
81.87169097354388
 20
132.6056066940505
 30
0.0
 11
81.87169097354388
 21
134.6056066940505
 31
0.0
  0
LINE
  5
E7C
330
18
100
AcDbEntity
  8
1
100
AcDbLine
 10
82.37169097354387
 20
132.1056066940505
 30
0.0
 11
81.87169097354388
 21
132.6056066940505
 31
0.0
  0
LINE
  5
E7D
330
18
100
AcDbEntity
  8
1
100
AcDbLine
 10
82.74669097354388
 20
135.8556066940505
 30
0.0
 11
83.15220847556378
 21
135.8556066940505
 31
0.0
  0
LINE
  5
E7E
330
18
100
AcDbEntity
  8
1
100
AcDbLine
 10
82.87169097354388
 20
135.1056066940505
 30
0.0
 11
83.15220847556378
 21
135.8556066940505
 31
0.0
  0
LINE
  5
E7F
330
18
100
AcDbEntity
  8
1
100
AcDbLine
 10
82.62169097354387
 20
136.6056066940505
 30
0.0
 11
83.02720847556377
 21
136.6056066940505
 31
0.0
  0
LINE
  5
E80
330
18
100
AcDbEntity
  8
1
100
AcDbLine
 10
82.74669097354388
 20
135.8556066940505
 30
0.0
 11
83.02720847556377
 21
136.6056066940505
 31
0.0
  0
LINE
  5
E81
330
18
100
AcDbEntity
  8
1
100
AcDbLine
 10
83.87938328123619
 20
135.1056066940505
 30
0.0
 11
82.87169097354388
 21
135.1056066940505
 31
0.0
  0
LINE
  5
E82
330
18
100
AcDbEntity
  8
1
100
AcDbLine
 10
81.87169097354388
 20
141.1056066940505
 30
0.0
 11
84.04245095049942
 21
145.7050051961589
 31
0.0
  0
LINE
  5
E83
330
18
100
AcDbEntity
  8
1
100
AcDbLine
 10
82.24669097354388
 20
138.8556066940505
 30
0.0
 11
82.65220847556378
 21
138.8556066940505
 31
0.0
  0
LINE
  5
E84
330
18
100
AcDbEntity
  8
1
100
AcDbLine
 10
82.12169097354388
 20
139.6056066940505
 30
0.0
 11
82.52720847556378
 21
139.6056066940505
 31
0.0
  0
LINE
  5
E85
330
18
100
AcDbEntity
  8
1
100
AcDbLine
 10
82.24669097354388
 20
138.8556066940505
 30
0.0
 11
82.52720847556378
 21
139.6056066940505
 31
0.0
  0
LINE
  5
E86
330
18
100
AcDbEntity
  8
1
100
AcDbLine
 10
81.99669097354387
 20
140.3556066940505
 30
0.0
 11
82.40220847556377
 21
140.3556066940505
 31
0.0
  0
LINE
  5
E87
330
18
100
AcDbEntity
  8
1
100
AcDbLine
 10
82.12169097354388
 20
139.6056066940505
 30
0.0
 11
82.40220847556377
 21
140.3556066940505
 31
0.0
  0
LINE
  5
E88
330
18
100
AcDbEntity
  8
1
100
AcDbLine
 10
81.99669097354387
 20
140.3556066940505
 30
0.0
 11
82.27720847556378
 21
141.1056066940505
 31
0.0
  0
LINE
  5
E89
330
18
100
AcDbEntity
  8
1
100
AcDbLine
 10
81.87169097354388
 20
141.1056066940505
 30
0.0
 11
82.27720847556378
 21
141.1056066940505
 31
0.0
  0
LINE
  5
E8A
330
18
100
AcDbEntity
  8
1
100
AcDbLine
 10
82.49669097354388
 20
137.3556066940505
 30
0.0
 11
82.90220847556378
 21
137.3556066940505
 31
0.0
  0
LINE
  5
E8B
330
18
100
AcDbEntity
  8
1
100
AcDbLine
 10
82.37169097354387
 20
138.1056066940505
 30
0.0
 11
82.77720847556379
 21
138.1056066940505
 31
0.0
  0
LINE
  5
E8C
330
18
100
AcDbEntity
  8
1
100
AcDbLine
 10
82.49669097354388
 20
137.3556066940505
 30
0.0
 11
82.77720847556379
 21
138.1056066940505
 31
0.0
  0
LINE
  5
E8D
330
18
100
AcDbEntity
  8
1
100
AcDbLine
 10
82.37169097354387
 20
138.1056066940505
 30
0.0
 11
82.65220847556378
 21
138.8556066940505
 31
0.0
  0
DIMENSION
  5
E8E
330
18
100
AcDbEntity
  8
2
100
AcDbDimension
  2
*D2
 10
163.8716909735438
 20
82.10560669405051
 30
0.0
 11
162.1216909735438
 21
64.10560669405054
 31
0.0
 70
    32
 71
     5
 42
35.99999999999999
  3
STANDARD
100
AcDbAlignedDimension
 13
152.8716909735438
 23
46.10560669405052
 33
0.0
 14
152.8716909735438
 24
82.10560669405053
 34
0.0
 50
90.0
100
AcDbRotatedDimension
1001
ACAD
1000
DSTYLE
1002
{
1070
    40
1040
1.0
1002
}
  0
TEXT
  5
E8F
330
18
100
AcDbEntity
  8
1
100
AcDbText
 10
138.9224523948636
 20
57.61575897831451
 30
0.0
 40
2.0
  1
SET
  7
ＭＳゴシック
 72
     4
 11
140.8716909735438
 21
58.60560669405055
 31
0.0
100
AcDbText
  0
LWPOLYLINE
  5
E90
330
18
100
AcDbEntity
  8
1
100
AcDbPolyline
 90
        8
 70
     1
 43
0.0
 10
139.2716909735438
 20
56.00560669405055
 10
142.4716909735439
 20
56.00560669405052
 42
0.4142135623730951
 10
145.0716909735438
 20
58.60560669405052
 10
145.0716909735438
 20
58.60560669405055
 42
0.4142135623730936
 10
142.4716909735439
 20
61.20560669405055
 10
139.2716909735438
 20
61.20560669405055
 42
0.4142135623730951
 10
136.6716909735438
 20
58.60560669405055
 10
136.6716909735438
 20
58.60560669405055
 42
0.4142135623730951
  0
LWPOLYLINE
  5
E91
330
18
100
AcDbEntity
  8
1
100
AcDbPolyline
 90
        6
 70
     1
 43
0.0
 10
139.2716909735438
 20
56.70560669405054
 10
142.4716909735439
 20
56.70560669405052
 42
0.4142135623730986
 10
144.3716909735438
 20
58.60560669405055
 42
0.4142135623730964
 10
142.4716909735439
 20
60.50560669405055
 10
139.2716909735438
 20
60.50560669405055
 42
0.4142135623730964
 10
137.3716909735438
 20
58.60560669405055
 42
0.4142135623730942
  0
TEXT
  5
E92
330
18
100
AcDbEntity
  8
1
100
AcDbText
 10
133.4808280293814
 20
49.10560669405052
 30
0.0
 40
2.5
  1
COMPACT
 41
1.3
  7
ＭＳゴシック
 72
     1
 11
140.8716909735438
 21
49.10560669405052
 31
0.0
100
AcDbText
  0
TEXT
  5
E93
330
18
100
AcDbEntity
  8
1
100
AcDbText
 10
129.572198587757
 20
55.61575897831448
 30
0.0
 40
2.0
  1
ON
  7
ＭＳゴシック
 72
     4
 11
130.8716909735438
 21
56.60560669405052
 31
0.0
100
AcDbText
  0
LINE
  5
E94
330
18
100
AcDbEntity
  8
1
100
AcDbLine
 10
151.3716909735438
 20
77.10560669405052
 30
0.0
 11
132.3716909735438
 21
77.10560669405052
 31
0.0
  0
TEXT
  5
E95
330
18
100
AcDbEntity
  8
1
100
AcDbText
 10
134.3716909735438
 20
65.10560669405052
 30
0.0
 40
6.0
  1
℃
 41
0.8
  7
ＭＳゴシック
100
AcDbText
  0
LINE
  5
E96
330
18
100
AcDbEntity
  8
1
100
AcDbLine
 10
151.3716909735438
 20
76.10560669405052
 30
0.0
 11
132.3716909735438
 21
76.10560669405052
 31
0.0
  0
LINE
  5
E97
330
18
100
AcDbEntity
  8
1
100
AcDbLine
 10
153.1216909735438
 20
136.6056066940505
 30
0.0
 11
152.841173471524
 21
137.3556066940505
 31
0.0
  0
LINE
  5
E98
330
18
100
AcDbEntity
  8
1
100
AcDbLine
 10
153.8716909735438
 20
132.6056066940505
 30
0.0
 11
153.8716909735438
 21
134.6056066940505
 31
0.0
  0
LINE
  5
E99
330
18
100
AcDbEntity
  8
1
100
AcDbLine
 10
153.3716909735438
 20
132.1056066940505
 30
0.0
 11
153.8716909735438
 21
132.6056066940505
 31
0.0
  0
LINE
  5
E9A
330
18
100
AcDbEntity
  8
1
100
AcDbLine
 10
151.8639986658515
 20
135.1056066940505
 30
0.0
 11
152.8716909735438
 21
135.1056066940505
 31
0.0
  0
LINE
  5
E9B
330
18
100
AcDbEntity
  8
1
100
AcDbLine
 10
152.9966909735438
 20
135.8556066940505
 30
0.0
 11
152.716173471524
 21
136.6056066940505
 31
0.0
  0
LINE
  5
E9C
330
18
100
AcDbEntity
  8
1
100
AcDbLine
 10
153.1216909735438
 20
136.6056066940505
 30
0.0
 11
152.716173471524
 21
136.6056066940505
 31
0.0
  0
LINE
  5
E9D
330
18
100
AcDbEntity
  8
1
100
AcDbLine
 10
152.8716909735438
 20
135.1056066940505
 30
0.0
 11
152.591173471524
 21
135.8556066940505
 31
0.0
  0
LINE
  5
E9E
330
18
100
AcDbEntity
  8
1
100
AcDbLine
 10
152.9966909735438
 20
135.8556066940505
 30
0.0
 11
152.591173471524
 21
135.8556066940505
 31
0.0
  0
LINE
  5
E9F
330
18
100
AcDbEntity
  8
1
100
AcDbLine
 10
153.8716909735438
 20
141.1056066940505
 30
0.0
 11
151.7009309965883
 21
145.7050051961589
 31
0.0
  0
LINE
  5
EA0
330
18
100
AcDbEntity
  8
1
100
AcDbLine
 10
153.8716909735438
 20
141.1056066940505
 30
0.0
 11
153.466173471524
 21
141.1056066940505
 31
0.0
  0
LINE
  5
EA1
330
18
100
AcDbEntity
  8
1
100
AcDbLine
 10
153.7466909735438
 20
140.3556066940505
 30
0.0
 11
153.466173471524
 21
141.1056066940505
 31
0.0
  0
LINE
  5
EA2
330
18
100
AcDbEntity
  8
1
100
AcDbLine
 10
153.6216909735438
 20
139.6056066940505
 30
0.0
 11
153.341173471524
 21
140.3556066940505
 31
0.0
  0
LINE
  5
EA3
330
18
100
AcDbEntity
  8
1
100
AcDbLine
 10
153.7466909735438
 20
140.3556066940505
 30
0.0
 11
153.341173471524
 21
140.3556066940505
 31
0.0
  0
LINE
  5
EA4
330
18
100
AcDbEntity
  8
1
100
AcDbLine
 10
153.4966909735438
 20
138.8556066940505
 30
0.0
 11
153.216173471524
 21
139.6056066940505
 31
0.0
  0
LINE
  5
EA5
330
18
100
AcDbEntity
  8
1
100
AcDbLine
 10
153.6216909735438
 20
139.6056066940505
 30
0.0
 11
153.216173471524
 21
139.6056066940505
 31
0.0
  0
LINE
  5
EA6
330
18
100
AcDbEntity
  8
1
100
AcDbLine
 10
153.4966909735438
 20
138.8556066940505
 30
0.0
 11
153.091173471524
 21
138.8556066940505
 31
0.0
  0
LINE
  5
EA7
330
18
100
AcDbEntity
  8
1
100
AcDbLine
 10
153.2466909735438
 20
137.3556066940505
 30
0.0
 11
152.966173471524
 21
138.1056066940505
 31
0.0
  0
LINE
  5
EA8
330
18
100
AcDbEntity
  8
1
100
AcDbLine
 10
153.3716909735438
 20
138.1056066940505
 30
0.0
 11
152.966173471524
 21
138.1056066940505
 31
0.0
  0
LINE
  5
EA9
330
18
100
AcDbEntity
  8
1
100
AcDbLine
 10
153.2466909735438
 20
137.3556066940505
 30
0.0
 11
152.841173471524
 21
137.3556066940505
 31
0.0
  0
LINE
  5
EAA
330
18
100
AcDbEntity
  8
1
100
AcDbLine
 10
153.3716909735438
 20
138.1056066940505
 30
0.0
 11
153.091173471524
 21
138.8556066940505
 31
0.0
  0
LINE
  5
EAB
330
18
100
AcDbEntity
  8
1
100
AcDbLine
 10
123.3716909735438
 20
178.6056066940505
 30
0.0
 11
119.3716909735438
 21
178.6056066940505
 31
0.0
  0
LINE
  5
EAC
330
18
100
AcDbEntity
  8
1
100
AcDbLine
 10
123.3716909735438
 20
178.8556066940505
 30
0.0
 11
119.3716909735438
 21
178.8556066940505
 31
0.0
  0
LINE
  5
EAE
330
18
100
AcDbEntity
  8
1
100
AcDbLine
 10
121.8716909735438
 20
170.1056066940505
 30
0.0
 11
126.8716909735438
 21
170.1056066940505
 31
0.0
  0
LINE
  5
EAF
330
18
100
AcDbEntity
  8
1
100
AcDbLine
 10
121.8716909735438
 20
175.1056066940505
 30
0.0
 11
126.8716909735438
 21
175.1056066940505
 31
0.0
  0
LINE
  5
EB1
330
18
100
AcDbEntity
  8
1
100
AcDbLine
 10
119.3716909735438
 20
158.6056066940505
 30
0.0
 11
123.3716909735438
 21
158.6056066940505
 31
0.0
  0
LINE
  5
EB2
330
18
100
AcDbEntity
  8
1
100
AcDbLine
 10
119.3716909735438
 20
161.6056066940505
 30
0.0
 11
123.3716909735438
 21
161.6056066940505
 31
0.0
  0
LINE
  5
EB4
330
18
100
AcDbEntity
  8
1
100
AcDbLine
 10
84.87169097354387
 20
199.6056066940505
 30
0.0
 11
150.8716909735438
 21
199.6056066940505
 31
0.0
  0
LINE
  5
EB5
330
18
100
AcDbEntity
  8
1
100
AcDbLine
 10
113.9716909735438
 20
200.1056066940505
 30
0.0
 11
144.3716909735438
 21
200.1056066940505
 31
0.0
  0
LINE
  5
EB6
330
18
100
AcDbEntity
  8
1
100
AcDbLine
 10
87.87169097354388
 20
196.6056066940505
 30
0.0
 11
147.8716909735438
 21
196.6056066940505
 31
0.0
  0
LINE
  5
EB7
330
18
100
AcDbEntity
  8
1
100
AcDbLine
 10
142.8716909735438
 20
188.6056066940505
 30
0.0
 11
104.8716909735438
 21
188.6056066940505
 31
0.0
  0
LINE
  5
EB8
330
18
100
AcDbEntity
  8
1
100
AcDbLine
 10
87.87169097354388
 20
203.6056066940505
 30
0.0
 11
89.37169097354388
 21
203.6056066940505
 31
0.0
  0
LINE
  5
EB9
330
18
100
AcDbEntity
  8
1
100
AcDbLine
 10
87.87169097354388
 20
200.6056066940505
 30
0.0
 11
89.37169097354388
 21
200.6056066940505
 31
0.0
  0
LINE
  5
EBA
330
18
100
AcDbEntity
  8
1
100
AcDbLine
 10
85.87169097354388
 20
205.6056066940505
 30
0.0
 11
91.37169097354387
 21
205.6056066940505
 31
0.0
  0
LINE
  5
EBB
330
18
100
AcDbEntity
  8
1
100
AcDbLine
 10
87.87169097354388
 20
200.6056066940505
 30
0.0
 11
87.87169097354388
 21
203.6056066940505
 31
0.0
  0
LINE
  5
EBC
330
18
100
AcDbEntity
  8
1
100
AcDbLine
 10
85.87169097354388
 20
199.6056066940505
 30
0.0
 11
85.87169097354388
 21
205.6056066940505
 31
0.0
  0
LINE
  5
EBD
330
18
100
AcDbEntity
  8
1
100
AcDbLine
 10
92.87169097354388
 20
188.6056066940505
 30
0.0
 11
92.87169097354388
 21
172.6056066940505
 31
0.0
  0
LINE
  5
EBE
330
18
100
AcDbEntity
  8
1
100
AcDbLine
 10
108.3716909735438
 20
177.1056066940505
 30
0.0
 11
100.3716909735438
 21
177.1056066940505
 31
0.0
  0
LINE
  5
EBF
330
18
100
AcDbEntity
  8
1
100
AcDbLine
 10
104.8716909735438
 20
170.6056066940505
 30
0.0
 11
111.8716909735438
 21
170.6056066940505
 31
0.0
  0
LINE
  5
EC0
330
18
100
AcDbEntity
  8
1
100
AcDbLine
 10
104.8716909735438
 20
175.1056066940505
 30
0.0
 11
111.8716909735438
 21
175.1056066940505
 31
0.0
  0
LINE
  5
EC2
330
18
100
AcDbEntity
  8
1
100
AcDbLine
 10
108.3716909735438
 20
168.6056066940505
 30
0.0
 11
100.3716909735438
 21
168.6056066940505
 31
0.0
  0
LINE
  5
EC4
330
18
100
AcDbEntity
  8
1
100
AcDbLine
 10
96.87169097354388
 20
170.6056066940505
 30
0.0
 11
103.8716909735438
 21
170.6056066940505
 31
0.0
  0
LINE
  5
EC5
330
18
100
AcDbEntity
  8
1
100
AcDbLine
 10
96.87169097354388
 20
175.1056066940505
 30
0.0
 11
103.8716909735438
 21
175.1056066940505
 31
0.0
  0
LINE
  5
EC6
330
18
100
AcDbEntity
  8
1
100
AcDbLine
 10
92.87169097354388
 20
172.6056066940505
 30
0.0
 11
96.87169097354388
 21
172.6056066940505
 31
0.0
  0
LINE
  5
EC7
330
18
100
AcDbEntity
  8
1
100
AcDbLine
 10
96.87169097354388
 20
170.6056066940505
 30
0.0
 11
96.87169097354388
 21
175.1056066940505
 31
0.0
  0
LINE
  5
EC8
330
18
100
AcDbEntity
  8
1
100
AcDbLine
 10
100.3716909735438
 20
177.1056066940505
 30
0.0
 11
100.3716909735438
 21
175.1056066940505
 31
0.0
  0
LINE
  5
ECA
330
18
100
AcDbEntity
  8
1
100
AcDbLine
 10
100.3716909735438
 20
168.6056066940505
 30
0.0
 11
100.3716909735438
 21
169.6056066940505
 31
0.0
  0
LINE
  5
ECB
330
18
100
AcDbEntity
  8
1
100
AcDbLine
 10
103.8716909735438
 20
172.6056066940505
 30
0.0
 11
104.8716909735438
 21
172.6056066940505
 31
0.0
  0
LINE
  5
ECC
330
18
100
AcDbEntity
  8
1
100
AcDbLine
 10
104.8716909735438
 20
170.6056066940505
 30
0.0
 11
104.8716909735438
 21
175.1056066940505
 31
0.0
  0
LINE
  5
ECD
330
18
100
AcDbEntity
  8
1
100
AcDbLine
 10
103.8716909735438
 20
170.6056066940505
 30
0.0
 11
103.8716909735438
 21
175.1056066940505
 31
0.0
  0
LINE
  5
ECE
330
18
100
AcDbEntity
  8
1
100
AcDbLine
 10
104.3716909735438
 20
179.1056066940505
 30
0.0
 11
104.3716909735438
 21
177.1056066940505
 31
0.0
  0
HATCH
  5
ECF
330
18
100
AcDbEntity
  8
1
100
AcDbHatch
 10
0.0
 20
0.0
 30
0.0
210
0.0
220
0.0
230
1.0
  2
SOLID
 70
     1
 71
     0
 91
        1
 92
        7
 72
     1
 73
     1
 93
        2
 10
103.8716909735438
 20
177.1056066940505
 42
1.0
 10
104.8716909735438
 20
177.1056066940505
 42
1.0
 97
        0
 75
     0
 76
     1
 47
0.0325278810408922
 98
        1
 10
104.3716909735438
 20
177.1056066940505
  0
LINE
  5
ED0
330
18
100
AcDbEntity
  8
1
100
AcDbLine
 10
118.3716909735438
 20
170.1056066940505
 30
0.0
 11
118.3716909735438
 21
160.1056066940505
 31
0.0
  0
LINE
  5
ED1
330
18
100
AcDbEntity
  8
1
100
AcDbLine
 10
119.3716909735438
 20
161.6056066940505
 30
0.0
 11
119.3716909735438
 21
158.6056066940505
 31
0.0
  0
LINE
  5
ED2
330
18
100
AcDbEntity
  8
1
100
AcDbLine
 10
118.3716909735438
 20
160.1056066940505
 30
0.0
 11
119.3716909735438
 21
160.1056066940505
 31
0.0
  0
LINE
  5
ED3
330
18
100
AcDbEntity
  8
1
100
AcDbLine
 10
111.8716909735438
 20
172.6056066940505
 30
0.0
 11
115.8716909735438
 21
172.6056066940505
 31
0.0
  0
LINE
  5
ED4
330
18
100
AcDbEntity
  8
1
100
AcDbLine
 10
108.3716909735438
 20
177.1056066940505
 30
0.0
 11
108.3716909735438
 21
175.1056066940505
 31
0.0
  0
LINE
  5
ED6
330
18
100
AcDbEntity
  8
1
100
AcDbLine
 10
108.3716909735438
 20
168.6056066940505
 30
0.0
 11
108.3716909735438
 21
169.6056066940505
 31
0.0
  0
LINE
  5
ED7
330
18
100
AcDbEntity
  8
1
100
AcDbLine
 10
111.8716909735438
 20
170.6056066940505
 30
0.0
 11
111.8716909735438
 21
175.1056066940505
 31
0.0
  0
LINE
  5
ED8
330
18
100
AcDbEntity
  8
1
100
AcDbLine
 10
118.3716909735438
 20
175.1056066940505
 30
0.0
 11
118.3716909735438
 21
180.1056066940505
 31
0.0
  0
LINE
  5
ED9
330
18
100
AcDbEntity
  8
1
100
AcDbLine
 10
115.8716909735438
 20
170.1056066940505
 30
0.0
 11
120.8716909735438
 21
170.1056066940505
 31
0.0
  0
LINE
  5
EDA
330
18
100
AcDbEntity
  8
1
100
AcDbLine
 10
115.8716909735438
 20
175.1056066940505
 30
0.0
 11
120.8716909735438
 21
175.1056066940505
 31
0.0
  0
LINE
  5
EDC
330
18
100
AcDbEntity
  8
1
100
AcDbLine
 10
115.8716909735438
 20
170.1056066940505
 30
0.0
 11
115.8716909735438
 21
175.1056066940505
 31
0.0
  0
LINE
  5
EDD
330
18
100
AcDbEntity
  8
1
100
AcDbLine
 10
120.8716909735438
 20
172.6056066940505
 30
0.0
 11
121.8716909735438
 21
172.6056066940505
 31
0.0
  0
LINE
  5
EDE
330
18
100
AcDbEntity
  8
1
100
AcDbLine
 10
121.8716909735438
 20
170.1056066940505
 30
0.0
 11
121.8716909735438
 21
175.1056066940505
 31
0.0
  0
LINE
  5
EDF
330
18
100
AcDbEntity
  8
1
100
AcDbLine
 10
120.8716909735438
 20
170.1056066940505
 30
0.0
 11
120.8716909735438
 21
175.1056066940505
 31
0.0
  0
CIRCLE
  5
EE0
330
18
100
AcDbEntity
  8
1
100
AcDbCircle
 10
119.8716909735438
 20
180.1056066940505
 30
0.0
 40
0.5
  0
LINE
  5
EE1
330
18
100
AcDbEntity
  8
1
100
AcDbLine
 10
119.3716909735438
 20
180.1056066940505
 30
0.0
 11
118.3716909735438
 21
180.1056066940505
 31
0.0
  0
LINE
  5
EE2
330
18
100
AcDbEntity
  8
1
100
AcDbLine
 10
102.3716909735438
 20
202.1056066940505
 30
0.0
 11
110.3716909735438
 21
202.1056066940505
 31
0.0
  0
LINE
  5
EE3
330
18
100
AcDbEntity
  8
1
100
AcDbLine
 10
101.5716909735439
 20
200.1056066940505
 30
0.0
 11
111.1716909735438
 21
200.1056066940505
 31
0.0
  0
LINE
  5
EE5
330
18
100
AcDbEntity
  8
1
100
AcDbLine
 10
96.87169097354388
 20
190.6056066940505
 30
0.0
 11
104.8716909735438
 21
190.6056066940505
 31
0.0
  0
LINE
  5
EE6
330
18
100
AcDbEntity
  8
1
100
AcDbLine
 10
96.87169097354388
 20
186.1056066940505
 30
0.0
 11
104.8716909735438
 21
186.1056066940505
 31
0.0
  0
LINE
  5
EE7
330
18
100
AcDbEntity
  8
1
100
AcDbLine
 10
96.87169097354388
 20
188.6056066940505
 30
0.0
 11
92.87169097354388
 21
188.6056066940505
 31
0.0
  0
LINE
  5
EE8
330
18
100
AcDbEntity
  8
1
100
AcDbLine
 10
96.87169097354388
 20
190.6056066940505
 30
0.0
 11
96.87169097354388
 21
186.1056066940505
 31
0.0
  0
LINE
  5
EEB
330
18
100
AcDbEntity
  8
1
100
AcDbLine
 10
104.8716909735438
 20
190.6056066940505
 30
0.0
 11
104.8716909735438
 21
186.1056066940505
 31
0.0
  0
LINE
  5
EEC
330
18
100
AcDbEntity
  8
1
100
AcDbLine
 10
91.87169097354388
 20
202.1056066940505
 30
0.0
 11
99.87169097354389
 21
202.1056066940505
 31
0.0
  0
LINE
  5
EED
330
18
100
AcDbEntity
  8
1
100
AcDbLine
 10
91.37169097354387
 20
200.1056066940505
 30
0.0
 11
100.6716909735438
 21
200.1056066940505
 31
0.0
  0
LINE
  5
EEE
330
18
100
AcDbEntity
  8
1
100
AcDbLine
 10
89.37169097354388
 20
200.6056066940505
 30
0.0
 11
89.37169097354388
 21
203.6056066940505
 31
0.0
  0
LINE
  5
EEF
330
18
100
AcDbEntity
  8
1
100
AcDbLine
 10
91.37169097354387
 20
199.6056066940505
 30
0.0
 11
91.37169097354387
 21
205.6056066940505
 31
0.0
  0
LINE
  5
EF0
330
18
100
AcDbEntity
  8
1
100
AcDbLine
 10
91.87169097354388
 20
200.1056066940505
 30
0.0
 11
91.87169097354388
 21
202.1056066940505
 31
0.0
  0
ARC
  5
EF1
330
18
100
AcDbEntity
  8
1
100
AcDbCircle
 10
101.5716909735439
 20
199.6056066940505
 30
0.0
 40
0.5
100
AcDbArc
 50
90.0
 51
180.0
  0
ARC
  5
EF2
330
18
100
AcDbEntity
  8
1
100
AcDbCircle
 10
100.6716909735438
 20
199.6056066940505
 30
0.0
 40
0.5
100
AcDbArc
 50
0.0
 51
90.0
  0
LINE
  5
EF3
330
18
100
AcDbEntity
  8
1
100
AcDbLine
 10
99.87169097354389
 20
200.1056066940505
 30
0.0
 11
99.87169097354389
 21
202.1056066940505
 31
0.0
  0
LINE
  5
EF4
330
18
100
AcDbEntity
  8
1
100
AcDbLine
 10
102.3716909735438
 20
200.1056066940505
 30
0.0
 11
102.3716909735438
 21
202.1056066940505
 31
0.0
  0
ARC
  5
EF5
330
18
100
AcDbEntity
  8
1
100
AcDbCircle
 10
113.9716909735438
 20
199.6056066940505
 30
0.0
 40
0.5
100
AcDbArc
 50
90.0
 51
180.0
  0
ARC
  5
EF6
330
18
100
AcDbEntity
  8
1
100
AcDbCircle
 10
111.1716909735438
 20
199.6056066940505
 30
0.0
 40
0.5
100
AcDbArc
 50
0.0
 51
90.0
  0
LINE
  5
EF7
330
18
100
AcDbEntity
  8
1
100
AcDbLine
 10
110.3716909735438
 20
200.1056066940505
 30
0.0
 11
110.3716909735438
 21
202.1056066940505
 31
0.0
  0
LINE
  5
EF8
330
18
100
AcDbEntity
  8
1
100
AcDbLine
 10
114.9216909735439
 20
200.6056066940505
 30
0.0
 11
120.9216909735439
 21
200.6056066940505
 31
0.0
  0
LINE
  5
EF9
330
18
100
AcDbEntity
  8
1
100
AcDbLine
 10
114.9216909735439
 20
200.1056066940505
 30
0.0
 11
114.9216909735439
 21
200.6056066940505
 31
0.0
  0
LINE
  5
EFA
330
18
100
AcDbEntity
  8
1
100
AcDbLine
 10
120.9216909735439
 20
200.1056066940505
 30
0.0
 11
120.9216909735439
 21
200.6056066940505
 31
0.0
  0
LINE
  5
EFB
330
18
100
AcDbEntity
  8
1
100
AcDbLine
 10
142.8716909735438
 20
172.6056066940505
 30
0.0
 11
142.8716909735438
 21
188.6056066940505
 31
0.0
  0
LINE
  5
EFC
330
18
100
AcDbEntity
  8
1
100
AcDbLine
 10
133.8716909735438
 20
175.1056066940505
 30
0.0
 11
138.8716909735438
 21
175.1056066940505
 31
0.0
  0
LINE
  5
EFD
330
18
100
AcDbEntity
  8
1
100
AcDbLine
 10
133.8716909735438
 20
170.1056066940505
 30
0.0
 11
138.8716909735438
 21
170.1056066940505
 31
0.0
  0
LINE
  5
EFE
330
18
100
AcDbEntity
  8
1
100
AcDbLine
 10
136.3716909735438
 20
170.1056066940505
 30
0.0
 11
136.3716909735438
 21
167.1056066940505
 31
0.0
  0
LINE
  5
EFF
330
18
100
AcDbEntity
  8
1
100
AcDbLine
 10
130.3716909735438
 20
170.1056066940505
 30
0.0
 11
130.3716909735438
 21
160.1056066940505
 31
0.0
  0
LINE
  5
F00
330
18
100
AcDbEntity
  8
1
100
AcDbLine
 10
124.3716909735438
 20
170.1056066940505
 30
0.0
 11
124.3716909735438
 21
167.1056066940505
 31
0.0
  0
LINE
  5
F01
330
18
100
AcDbEntity
  8
1
100
AcDbLine
 10
123.3716909735438
 20
161.6056066940505
 30
0.0
 11
123.3716909735438
 21
158.6056066940505
 31
0.0
  0
LINE
  5
F02
330
18
100
AcDbEntity
  8
1
100
AcDbLine
 10
124.3716909735438
 20
164.1056066940505
 30
0.0
 11
124.3716909735438
 21
160.1056066940505
 31
0.0
  0
LINE
  5
F03
330
18
100
AcDbEntity
  8
1
100
AcDbLine
 10
123.3716909735438
 20
160.1056066940505
 30
0.0
 11
124.3716909735438
 21
160.1056066940505
 31
0.0
  0
CIRCLE
  5
F04
330
18
100
AcDbEntity
  8
1
100
AcDbCircle
 10
124.3716909735438
 20
165.6056066940505
 30
0.0
 40
1.5
  0
MTEXT
  5
F05
330
18
100
AcDbEntity
  8
1
100
AcDbMText
 10
124.5716909735438
 20
165.6056066940505
 30
0.0
 40
2.0
 41
0.0
 71
     5
 72
     5
  1
\fＭＳ ゴシック|b0|i0|c128|p49;～
  7
ＭＳ明朝
 11
-1.0
 21
0.0000000000000001
 31
0.0
 73
     1
 44
1.0
1001
ACAD
1000
MTEXTBEGIN
1070
    73
1070
     1
1070
    44
1040
1.0
1070
    74
1070
     0
1000
MTEXTEND
1000
MTEXTBEGIN
1070
    73
1070
     1
1070
    44
1040
1.0
1070
    74
1070
     0
1000
MTEXTEND
  0
LINE
  5
F07
330
18
100
AcDbEntity
  8
1
100
AcDbLine
 10
135.3716909735438
 20
161.6056066940505
 30
0.0
 11
135.3716909735438
 21
158.6056066940505
 31
0.0
  0
LINE
  5
F08
330
18
100
AcDbEntity
  8
1
100
AcDbLine
 10
136.3716909735438
 20
164.1056066940505
 30
0.0
 11
136.3716909735438
 21
160.1056066940505
 31
0.0
  0
LINE
  5
F09
330
18
100
AcDbEntity
  8
1
100
AcDbLine
 10
131.3716909735438
 20
161.6056066940505
 30
0.0
 11
131.3716909735438
 21
158.6056066940505
 31
0.0
  0
LINE
  5
F0A
330
18
100
AcDbEntity
  8
1
100
AcDbLine
 10
131.3716909735438
 20
158.6056066940505
 30
0.0
 11
135.3716909735438
 21
158.6056066940505
 31
0.0
  0
LINE
  5
F0B
330
18
100
AcDbEntity
  8
1
100
AcDbLine
 10
130.3716909735438
 20
160.1056066940505
 30
0.0
 11
131.3716909735438
 21
160.1056066940505
 31
0.0
  0
LINE
  5
F0C
330
18
100
AcDbEntity
  8
1
100
AcDbLine
 10
135.3716909735438
 20
160.1056066940505
 30
0.0
 11
136.3716909735438
 21
160.1056066940505
 31
0.0
  0
LINE
  5
F0D
330
18
100
AcDbEntity
  8
1
100
AcDbLine
 10
131.3716909735438
 20
161.6056066940505
 30
0.0
 11
135.3716909735438
 21
161.6056066940505
 31
0.0
  0
CIRCLE
  5
F0E
330
18
100
AcDbEntity
  8
1
100
AcDbCircle
 10
136.3716909735438
 20
165.6056066940505
 30
0.0
 40
1.5
  0
MTEXT
  5
F0F
330
18
100
AcDbEntity
  8
1
100
AcDbMText
 10
136.5716909735438
 20
165.6056066940505
 30
0.0
 40
2.0
 41
0.0
 71
     5
 72
     5
  1
\fＭＳ ゴシック|b0|i0|c128|p49;～
  7
ＭＳ明朝
 11
-1.0
 21
0.0000000000000001
 31
0.0
 73
     1
 44
1.0
1001
ACAD
1000
MTEXTBEGIN
1070
    73
1070
     1
1070
    44
1040
1.0
1070
    74
1070
     0
1000
MTEXTEND
1000
MTEXTBEGIN
1070
    73
1070
     1
1070
    44
1040
1.0
1070
    74
1070
     0
1000
MTEXTEND
  0
LINE
  5
F10
330
18
100
AcDbEntity
  8
1
100
AcDbLine
 10
127.8716909735438
 20
175.1056066940505
 30
0.0
 11
132.8716909735438
 21
175.1056066940505
 31
0.0
  0
LINE
  5
F11
330
18
100
AcDbEntity
  8
1
100
AcDbLine
 10
127.8716909735438
 20
170.1056066940505
 30
0.0
 11
132.8716909735438
 21
170.1056066940505
 31
0.0
  0
LINE
  5
F12
330
18
100
AcDbEntity
  8
1
100
AcDbLine
 10
127.8716909735438
 20
170.1056066940505
 30
0.0
 11
132.8716909735438
 21
170.1056066940505
 31
0.0
  0
LINE
  5
F14
330
18
100
AcDbEntity
  8
1
100
AcDbLine
 10
124.3716909735438
 20
175.1056066940505
 30
0.0
 11
124.3716909735438
 21
180.1056066940505
 31
0.0
  0
LINE
  5
F16
330
18
100
AcDbEntity
  8
1
100
AcDbLine
 10
126.8716909735438
 20
172.6056066940505
 30
0.0
 11
127.8716909735438
 21
172.6056066940505
 31
0.0
  0
LINE
  5
F17
330
18
100
AcDbEntity
  8
1
100
AcDbLine
 10
127.8716909735438
 20
170.1056066940505
 30
0.0
 11
127.8716909735438
 21
175.1056066940505
 31
0.0
  0
LINE
  5
F18
330
18
100
AcDbEntity
  8
1
100
AcDbLine
 10
126.8716909735438
 20
170.1056066940505
 30
0.0
 11
126.8716909735438
 21
175.1056066940505
 31
0.0
  0
LINE
  5
F19
330
18
100
AcDbEntity
  8
1
100
AcDbLine
 10
124.3716909735438
 20
180.1056066940505
 30
0.0
 11
123.3716909735438
 21
180.1056066940505
 31
0.0
  0
CIRCLE
  5
F1A
330
18
100
AcDbEntity
  8
1
100
AcDbCircle
 10
122.8716909735438
 20
180.1056066940505
 30
0.0
 40
0.5
  0
LINE
  5
F1B
330
18
100
AcDbEntity
  8
1
100
AcDbLine
 10
136.3716909735438
 20
175.1056066940505
 30
0.0
 11
136.3716909735438
 21
180.1056066940505
 31
0.0
  0
LINE
  5
F1C
330
18
100
AcDbEntity
  8
1
100
AcDbLine
 10
130.3716909735438
 20
175.1056066940505
 30
0.0
 11
130.3716909735438
 21
180.1056066940505
 31
0.0
  0
LINE
  5
F1D
330
18
100
AcDbEntity
  8
1
100
AcDbLine
 10
132.8716909735438
 20
172.6056066940505
 30
0.0
 11
133.8716909735438
 21
172.6056066940505
 31
0.0
  0
LINE
  5
F1E
330
18
100
AcDbEntity
  8
1
100
AcDbLine
 10
133.8716909735438
 20
170.1056066940505
 30
0.0
 11
133.8716909735438
 21
175.1056066940505
 31
0.0
  0
LINE
  5
F1F
330
18
100
AcDbEntity
  8
1
100
AcDbLine
 10
132.8716909735438
 20
170.1056066940505
 30
0.0
 11
132.8716909735438
 21
175.1056066940505
 31
0.0
  0
LINE
  5
F21
330
18
100
AcDbEntity
  8
1
100
AcDbLine
 10
135.3716909735438
 20
178.8556066940505
 30
0.0
 11
131.3716909735438
 21
178.8556066940505
 31
0.0
  0
LINE
  5
F22
330
18
100
AcDbEntity
  8
1
100
AcDbLine
 10
135.3716909735438
 20
178.6056066940505
 30
0.0
 11
131.3716909735438
 21
178.6056066940505
 31
0.0
  0
CIRCLE
  5
F24
330
18
100
AcDbEntity
  8
1
100
AcDbCircle
 10
131.8716909735438
 20
180.1056066940505
 30
0.0
 40
0.5
  0
LINE
  5
F25
330
18
100
AcDbEntity
  8
1
100
AcDbLine
 10
131.3716909735438
 20
180.1056066940505
 30
0.0
 11
130.3716909735438
 21
180.1056066940505
 31
0.0
  0
LINE
  5
F26
330
18
100
AcDbEntity
  8
1
100
AcDbLine
 10
136.3716909735438
 20
180.1056066940505
 30
0.0
 11
135.3716909735438
 21
180.1056066940505
 31
0.0
  0
CIRCLE
  5
F27
330
18
100
AcDbEntity
  8
1
100
AcDbCircle
 10
134.8716909735438
 20
180.1056066940505
 30
0.0
 40
0.5
  0
LINE
  5
F2A
330
18
100
AcDbEntity
  8
1
100
AcDbLine
 10
138.8716909735438
 20
172.6056066940505
 30
0.0
 11
142.8716909735438
 21
172.6056066940505
 31
0.0
  0
LINE
  5
F2B
330
18
100
AcDbEntity
  8
1
100
AcDbLine
 10
138.8716909735438
 20
170.1056066940505
 30
0.0
 11
138.8716909735438
 21
175.1056066940505
 31
0.0
  0
LINE
  5
F2C
330
18
100
AcDbEntity
  8
1
100
AcDbLine
 10
137.4216909735439
 20
200.6056066940505
 30
0.0
 11
143.4216909735439
 21
200.6056066940505
 31
0.0
  0
LINE
  5
F2E
330
18
100
AcDbEntity
  8
1
100
AcDbLine
 10
129.9216909735439
 20
200.6056066940505
 30
0.0
 11
135.9216909735439
 21
200.6056066940505
 31
0.0
  0
LINE
  5
F2F
330
18
100
AcDbEntity
  8
1
100
AcDbLine
 10
122.4216909735439
 20
200.6056066940505
 30
0.0
 11
128.4216909735439
 21
200.6056066940505
 31
0.0
  0
LINE
  5
F30
330
18
100
AcDbEntity
  8
1
100
AcDbLine
 10
122.4216909735439
 20
200.1056066940505
 30
0.0
 11
122.4216909735439
 21
200.6056066940505
 31
0.0
  0
LINE
  5
F31
330
18
100
AcDbEntity
  8
1
100
AcDbLine
 10
128.4216909735439
 20
200.1056066940505
 30
0.0
 11
128.4216909735439
 21
200.6056066940505
 31
0.0
  0
LINE
  5
F32
330
18
100
AcDbEntity
  8
1
100
AcDbLine
 10
129.9216909735439
 20
200.1056066940505
 30
0.0
 11
129.9216909735439
 21
200.6056066940505
 31
0.0
  0
LINE
  5
F33
330
18
100
AcDbEntity
  8
1
100
AcDbLine
 10
135.9216909735439
 20
200.1056066940505
 30
0.0
 11
135.9216909735439
 21
200.6056066940505
 31
0.0
  0
LINE
  5
F34
330
18
100
AcDbEntity
  8
1
100
AcDbLine
 10
137.4216909735439
 20
200.1056066940505
 30
0.0
 11
137.4216909735439
 21
200.6056066940505
 31
0.0
  0
LINE
  5
F35
330
18
100
AcDbEntity
  8
1
100
AcDbLine
 10
146.3716909735438
 20
200.6056066940505
 30
0.0
 11
147.8716909735438
 21
200.6056066940505
 31
0.0
  0
LINE
  5
F36
330
18
100
AcDbEntity
  8
1
100
AcDbLine
 10
146.3716909735438
 20
203.6056066940505
 30
0.0
 11
147.8716909735438
 21
203.6056066940505
 31
0.0
  0
LINE
  5
F37
330
18
100
AcDbEntity
  8
1
100
AcDbLine
 10
144.3716909735438
 20
205.6056066940505
 30
0.0
 11
149.8716909735438
 21
205.6056066940505
 31
0.0
  0
LINE
  5
F38
330
18
100
AcDbEntity
  8
1
100
AcDbLine
 10
146.3716909735438
 20
200.6056066940505
 30
0.0
 11
146.3716909735438
 21
203.6056066940505
 31
0.0
  0
LINE
  5
F39
330
18
100
AcDbEntity
  8
1
100
AcDbLine
 10
144.3716909735438
 20
199.6056066940505
 30
0.0
 11
144.3716909735438
 21
205.6056066940505
 31
0.0
  0
LINE
  5
F3A
330
18
100
AcDbEntity
  8
1
100
AcDbLine
 10
143.4216909735439
 20
200.1056066940505
 30
0.0
 11
143.4216909735439
 21
200.6056066940505
 31
0.0
  0
LINE
  5
F3B
330
18
100
AcDbEntity
  8
1
100
AcDbLine
 10
147.8716909735438
 20
200.6056066940505
 30
0.0
 11
147.8716909735438
 21
203.6056066940505
 31
0.0
  0
LINE
  5
F3C
330
18
100
AcDbEntity
  8
1
100
AcDbLine
 10
149.8716909735438
 20
199.6056066940505
 30
0.0
 11
149.8716909735438
 21
205.6056066940505
 31
0.0
  0
LINE
  5
F3D
330
18
100
AcDbEntity
  8
2
  6
4-中心線
100
AcDbLine
 10
301.1216909735438
 20
127.1056066940505
 30
0.0
 11
301.1216909735438
 21
170.1056066940505
 31
0.0
  0
DIMENSION
  5
F3E
330
18
100
AcDbEntity
  8
2
100
AcDbDimension
  2
*D3
 10
271.3716909735438
 20
92.10560669405053
 30
0.0
 11
238.8716909735439
 21
93.85560669405052
 31
0.0
 70
    32
 71
     5
 42
65.0
  3
STANDARD
100
AcDbAlignedDimension
 13
206.3716909735438
 23
82.10560669405053
 33
0.0
 14
271.3716909735438
 24
79.60560669405052
 34
0.0
100
AcDbRotatedDimension
1001
ACAD
1000
DSTYLE
1002
{
1070
    40
1040
1.0
1002
}
  0
LINE
  5
F3F
330
18
100
AcDbEntity
  8
1
100
AcDbLine
 10
206.3716909735438
 20
80.60560669405052
 30
0.0
 11
271.3716909735438
 21
79.60560669405052
 31
0.0
  0
LINE
  5
F40
330
18
100
AcDbEntity
  8
1
100
AcDbLine
 10
206.3716909735438
 20
47.60560669405052
 30
0.0
 11
271.3716909735438
 21
48.60560669405052
 31
0.0
  0
DIMENSION
  5
F41
330
18
100
AcDbEntity
  8
2
100
AcDbDimension
  2
*D4
 10
206.3716909735438
 20
92.10560669405053
 30
0.0
 11
205.1216909735438
 21
92.10560669405053
 31
0.0
 70
   160
 71
     5
 42
2.5
  3
STANDARD
100
AcDbAlignedDimension
 13
203.8716909735438
 23
81.60560669405052
 33
0.0
 14
206.3716909735438
 24
82.10560669405053
 34
0.0
100
AcDbRotatedDimension
1001
ACAD
1000
DSTYLE
1002
{
1070
    40
1040
1.0
1002
}
  0
LINE
  5
F42
330
18
100
AcDbEntity
  8
1
100
AcDbLine
 10
218.3716909735438
 20
58.4056066940505
 30
0.0
 11
218.3716909735438
 21
69.80560669405054
 31
0.0
  0
LINE
  5
F43
330
18
100
AcDbEntity
  8
1
100
AcDbLine
 10
212.8716909735438
 20
58.6056066940505
 30
0.0
 11
212.8716909735438
 21
69.60560669405052
 31
0.0
  0
LINE
  5
F44
330
18
100
AcDbEntity
  8
1
100
AcDbLine
 10
206.8716909735437
 20
58.60560669405052
 30
0.0
 11
206.8716909735438
 21
69.60560669405052
 31
0.0
  0
LINE
  5
F45
330
18
100
AcDbEntity
  8
1
100
AcDbLine
 10
212.1216909735438
 20
58.6056066940505
 30
0.0
 11
212.1216909735438
 21
69.60560669405052
 31
0.0
  0
LINE
  5
F46
330
18
100
AcDbEntity
  8
1
100
AcDbLine
 10
211.3716909735438
 20
58.6056066940505
 30
0.0
 11
211.3716909735438
 21
69.60560669405052
 31
0.0
  0
LINE
  5
F47
330
18
100
AcDbEntity
  8
1
100
AcDbLine
 10
210.6216909735438
 20
58.6056066940505
 30
0.0
 11
210.6216909735438
 21
69.60560669405052
 31
0.0
  0
LINE
  5
F48
330
18
100
AcDbEntity
  8
1
100
AcDbLine
 10
209.8716909735439
 20
58.6056066940505
 30
0.0
 11
209.8716909735439
 21
69.60560669405052
 31
0.0
  0
LINE
  5
F49
330
18
100
AcDbEntity
  8
1
100
AcDbLine
 10
209.1216909735438
 20
58.6056066940505
 30
0.0
 11
209.1216909735438
 21
69.60560669405052
 31
0.0
  0
LINE
  5
F4A
330
18
100
AcDbEntity
  8
1
100
AcDbLine
 10
208.3716909735438
 20
58.6056066940505
 30
0.0
 11
208.3716909735438
 21
69.60560669405052
 31
0.0
  0
LINE
  5
F4B
330
18
100
AcDbEntity
  8
1
100
AcDbLine
 10
207.6216909735438
 20
58.6056066940505
 30
0.0
 11
207.6216909735438
 21
69.60560669405052
 31
0.0
  0
LINE
  5
F4C
330
18
100
AcDbEntity
  8
1
100
AcDbLine
 10
203.8716909735438
 20
46.60560669405055
 30
0.0
 11
203.8716909735438
 21
81.60560669405052
 31
0.0
  0
LINE
  5
F4D
330
18
100
AcDbEntity
  8
1
100
AcDbLine
 10
206.3716909735438
 20
46.10560669405055
 30
0.0
 11
206.3716909735438
 21
82.10560669405053
 31
0.0
  0
LINE
  5
F4E
330
18
100
AcDbEntity
  8
1
100
AcDbLine
 10
204.3716909735438
 20
46.10560669405055
 30
0.0
 11
204.3716909735438
 21
82.10560669405053
 31
0.0
  0
LINE
  5
F4F
330
18
100
AcDbEntity
  8
1
100
AcDbLine
 10
203.8716909735438
 20
46.60560669405055
 30
0.0
 11
204.3716909735438
 21
46.10560669405049
 31
0.0
  0
LINE
  5
F50
330
18
100
AcDbEntity
  8
1
100
AcDbLine
 10
206.3716909735438
 20
58.4056066940505
 30
0.0
 11
218.3716909735438
 21
58.40560669405054
 31
0.0
  0
LINE
  5
F51
330
18
100
AcDbEntity
  8
1
100
AcDbLine
 10
206.8716909735438
 20
58.6056066940505
 30
0.0
 11
218.3716909735439
 21
58.6056066940505
 31
0.0
  0
LINE
  5
F52
330
18
100
AcDbEntity
  8
1
100
AcDbLine
 10
204.3716909735438
 20
46.10560669405055
 30
0.0
 11
206.3716909735438
 21
46.10560669405046
 31
0.0
  0
LINE
  5
F53
330
18
100
AcDbEntity
  8
1
100
AcDbLine
 10
203.8716909735438
 20
81.60560669405052
 30
0.0
 11
204.3716909735438
 21
82.10560669405053
 31
0.0
  0
LINE
  5
F54
330
18
100
AcDbEntity
  8
1
100
AcDbLine
 10
206.3716909735438
 20
69.80560669405051
 30
0.0
 11
218.3716909735438
 21
69.80560669405051
 31
0.0
  0
LINE
  5
F55
330
18
100
AcDbEntity
  8
1
100
AcDbLine
 10
206.8716909735438
 20
69.60560669405052
 30
0.0
 11
218.3716909735438
 21
69.60560669405052
 31
0.0
  0
LINE
  5
F56
330
18
100
AcDbEntity
  8
1
100
AcDbLine
 10
204.3716909735438
 20
82.10560669405053
 30
0.0
 11
206.3716909735438
 21
82.10560669405053
 31
0.0
  0
DIMENSION
  5
F57
330
18
100
AcDbEntity
  8
2
100
AcDbDimension
  2
*D5
 10
277.3716909735438
 20
92.10560669405053
 30
0.0
 11
274.3716909735439
 21
93.85560669405052
 31
0.0
 70
    32
 71
     5
 42
6.0
  3
STANDARD
100
AcDbAlignedDimension
 13
271.3716909735438
 23
79.60560669405052
 33
0.0
 14
277.3716909735438
 24
79.10560669405052
 34
0.0
100
AcDbRotatedDimension
1001
ACAD
1000
DSTYLE
1002
{
1070
    40
1040
1.0
1002
}
  0
LINE
  5
F58
330
18
100
AcDbEntity
  8
1
100
AcDbLine
 10
271.8716909735438
 20
62.10560669405058
 30
0.0
 11
271.8716909735438
 21
53.30560669405079
 31
0.0
  0
LINE
  5
F59
330
18
100
AcDbEntity
  8
1
100
AcDbLine
 10
271.3716909735438
 20
48.60560669405052
 30
0.0
 11
271.3716909735438
 21
79.60560669405052
 31
0.0
  0
LINE
  5
F5A
330
18
100
AcDbEntity
  8
1
100
AcDbLine
 10
271.3716909735438
 20
51.60560669405052
 30
0.0
 11
277.3716909735438
 21
51.60560669405052
 31
0.0
  0
LINE
  5
F5B
330
18
100
AcDbEntity
  8
1
100
AcDbLine
 10
271.3716909735438
 20
49.10560669405052
 30
0.0
 11
277.3716909735438
 21
49.10560669405052
 31
0.0
  0
LINE
  5
F5C
330
18
100
AcDbEntity
  8
1
100
AcDbLine
 10
277.3716909735438
 20
49.10560669405052
 30
0.0
 11
277.3716909735438
 21
51.60560669405052
 31
0.0
  0
LINE
  5
F5D
330
18
100
AcDbEntity
  8
1
100
AcDbLine
 10
273.3716909735438
 20
57.92560669405052
 30
0.0
 11
273.3716909735438
 21
57.28560669405053
 31
0.0
  0
LINE
  5
F5E
330
18
100
AcDbEntity
  8
1
100
AcDbLine
 10
273.3716909735438
 20
57.92560669405052
 30
0.0
 11
271.8716909735438
 21
57.92560669405054
 31
0.0
  0
LINE
  5
F5F
330
18
100
AcDbEntity
  8
1
100
AcDbLine
 10
273.3716909735438
 20
57.28560669405053
 30
0.0
 11
271.8716909735438
 21
57.28560669405055
 31
0.0
  0
ARC
  5
F60
330
18
100
AcDbEntity
  8
1
100
AcDbCircle
 10
271.3716909735438
 20
53.30560669405079
 30
0.0
 40
0.5
100
AcDbArc
 50
270.0
 51
0.0
  0
LINE
  5
F61
330
18
100
AcDbEntity
  8
1
100
AcDbLine
 10
271.8716909735438
 20
75.10560669405041
 30
0.0
 11
271.8716909735438
 21
65.10560669405055
 31
0.0
  0
LINE
  5
F62
330
18
100
AcDbEntity
  8
1
100
AcDbLine
 10
272.3716909735439
 20
73.60560669405052
 30
0.0
 11
272.3716909735439
 21
67.10560669405052
 31
0.0
  0
LINE
  5
F63
330
18
100
AcDbEntity
  8
1
100
AcDbLine
 10
273.8716909735438
 20
74.10560669405052
 30
0.0
 11
273.8716909735438
 21
67.10560669405049
 31
0.0
  0
LINE
  5
F64
330
18
100
AcDbEntity
  8
1
100
AcDbLine
 10
273.8716909735438
 20
67.10560669405049
 30
0.0
 11
271.8716909735438
 21
67.10560669405052
 31
0.0
  0
ARC
  5
F65
330
18
100
AcDbEntity
  8
1
100
AcDbCircle
 10
271.3716909735438
 20
65.10560669405055
 30
0.0
 40
0.5
100
AcDbArc
 50
270.0
 51
0.0
  0
ARC
  5
F66
330
18
100
AcDbEntity
  8
1
100
AcDbCircle
 10
271.3716909735438
 20
62.10560669405058
 30
0.0
 40
0.5
100
AcDbArc
 50
0.0
 51
90.0
  0
LINE
  5
F67
330
18
100
AcDbEntity
  8
1
100
AcDbLine
 10
273.8716909735438
 20
74.10560669405052
 30
0.0
 11
271.8716909735438
 21
74.10560669405052
 31
0.0
  0
LINE
  5
F68
330
18
100
AcDbEntity
  8
1
100
AcDbLine
 10
272.3716909735439
 20
73.60560669405052
 30
0.0
 11
271.8716909735438
 21
73.60560669405052
 31
0.0
  0
LINE
  5
F69
330
18
100
AcDbEntity
  8
1
100
AcDbLine
 10
271.3716909735438
 20
76.60560669405052
 30
0.0
 11
277.3716909735438
 21
76.60560669405052
 31
0.0
  0
LINE
  5
F6A
330
18
100
AcDbEntity
  8
1
100
AcDbLine
 10
271.3716909735438
 20
79.10560669405052
 30
0.0
 11
277.3716909735438
 21
79.10560669405052
 31
0.0
  0
ARC
  5
F6B
330
18
100
AcDbEntity
  8
1
100
AcDbCircle
 10
271.3716909735438
 20
75.10560669405041
 30
0.0
 40
0.5
100
AcDbArc
 50
0.0
 51
90.0
  0
LINE
  5
F6C
330
18
100
AcDbEntity
  8
1
100
AcDbLine
 10
277.3716909735438
 20
76.60560669405052
 30
0.0
 11
277.3716909735438
 21
79.10560669405052
 31
0.0
  0
DIMENSION
  5
F6F
330
18
100
AcDbEntity
  8
2
100
AcDbDimension
  2
*D6
 10
355.1216909735438
 20
165.1056066940505
 30
0.0
 11
352.1345511780269
 21
146.3238244293313
 31
0.0
 70
   160
 71
     5
 42
33.0
  3
STANDARD
100
AcDbAlignedDimension
 13
335.1216909735438
 23
132.1056066940505
 33
0.0
 14
335.1216909735438
 24
165.1056066940505
 34
0.0
 50
90.0
100
AcDbRotatedDimension
1001
ACAD
1000
DSTYLE
1002
{
1070
    40
1040
1.0
1070
    47
1040
0.7
1070
    48
1040
0.000000001
1070
   147
1040
1.0
1070
   279
1070
     2
1002
}
  0
LWPOLYLINE
  5
F70
330
18
100
AcDbEntity
  8
1
100
AcDbPolyline
 90
        8
 70
     1
 43
0.0
 10
328.3716909735439
 20
46.10560669405052
 10
398.3716909735438
 20
46.10560669405052
 42
0.4142135623730951
 10
399.3716909735439
 20
47.10560669405052
 10
399.3716909735439
 20
81.10560669405051
 42
0.4142135623730951
 10
398.3716909735438
 20
82.10560669405053
 10
328.3716909735439
 20
82.10560669405053
 42
0.4142135623730951
 10
327.3716909735438
 20
81.10560669405051
 10
327.3716909735438
 20
47.10560669405052
 42
0.4142135623730951
  0
LWPOLYLINE
  5
F71
330
18
100
AcDbEntity
  8
1
100
AcDbPolyline
 90
        4
 70
     1
 43
0.0
 10
329.3716909735438
 20
47.60560669405049
 10
397.3716909735437
 20
47.60560669405052
 10
397.3716909735438
 20
80.60560669405052
 10
329.3716909735438
 20
80.60560669405052
  0
LWPOLYLINE
  5
F72
330
18
100
AcDbEntity
  8
1
100
AcDbPolyline
 90
        4
 70
     1
 43
0.0
 10
330.3716909735438
 20
48.6056066940505
 10
396.3716909735437
 20
48.60560669405052
 10
396.3716909735438
 20
79.60560669405052
 10
330.3716909735438
 20
79.60560669405052
  0
CIRCLE
  5
F73
330
18
100
AcDbEntity
  8
1
100
AcDbCircle
 10
384.0816909735437
 20
71.23060669405052
 30
0.0
 40
0.5
  0
LWPOLYLINE
  5
F74
330
18
100
AcDbEntity
  8
1
100
AcDbPolyline
 90
        4
 70
     1
 43
0.0
 10
381.0716909735439
 20
67.10560669405052
 10
389.6716909735439
 20
67.10560669405052
 10
389.6716909735439
 20
74.40560669405059
 10
381.0716909735439
 20
74.40560669405059
  0
LWPOLYLINE
  5
F75
330
18
100
AcDbEntity
  8
1
100
AcDbPolyline
 90
        8
 70
     1
 43
0.0
 10
380.571690973544
 20
66.10560669405055
 10
390.1716909735438
 20
66.10560669405055
 42
0.4142135623730959
 10
390.6716909735438
 20
66.60560669405055
 10
390.6716909735438
 20
74.90560669405048
 42
0.4142135623730934
 10
390.1716909735438
 20
75.40560669405047
 10
380.571690973544
 20
75.40560669405059
 42
0.4142135623730966
 10
380.071690973544
 20
74.90560669405059
 10
380.071690973544
 20
66.60560669405055
 42
0.4142135623730951
  0
LINE
  5
F76
330
18
100
AcDbEntity
  8
1
100
AcDbLine
 10
381.0716909735439
 20
74.10560669405052
 30
0.0
 11
389.6716909735439
 21
74.10560669405052
 31
0.0
  0
LWPOLYLINE
  5
F77
330
18
100
AcDbEntity
  8
1
100
AcDbPolyline
 90
        4
 70
     1
 43
0.0
 10
388.3216909735438
 20
69.15560669405053
 10
382.4216909735439
 20
69.15560669405053
 10
382.4216909735439
 20
73.30560669405051
 10
388.3216909735438
 20
73.30560669405051
  0
LWPOLYLINE
  5
F78
330
18
100
AcDbEntity
  8
1
100
AcDbPolyline
 90
        4
 70
     1
 43
0.0
 10
389.1216909735438
 20
68.35560669405052
 10
381.6216909735438
 20
68.35560669405052
 10
381.6216909735438
 20
74.10560669405052
 10
389.1216909735438
 20
74.10560669405052
  0
CIRCLE
  5
F79
330
18
100
AcDbEntity
  8
1
100
AcDbCircle
 10
384.1216909735438
 20
57.60560669405055
 30
0.0
 40
0.5
  0
LINE
  5
F7A
330
18
100
AcDbEntity
  8
1
100
AcDbLine
 10
380.5216909735438
 20
54.10560669405055
 30
0.0
 11
390.1716909735439
 21
54.10560669405052
 31
0.0
  0
LINE
  5
F7B
330
18
100
AcDbEntity
  8
1
100
AcDbLine
 10
382.5216909735438
 20
59.70560669405054
 30
0.0
 11
388.2216909735439
 21
59.70560669405054
 31
0.0
  0
LWPOLYLINE
  5
F7C
330
18
100
AcDbEntity
  8
1
100
AcDbPolyline
 90
        4
 70
     1
 43
0.0
 10
380.5716909735437
 20
53.80560669405056
 10
390.1716909735439
 20
53.80560669405056
 10
390.1716909735439
 20
61.60560669405052
 10
380.5716909735437
 20
61.60560669405052
  0
LWPOLYLINE
  5
F7D
330
18
100
AcDbEntity
  8
1
100
AcDbPolyline
 90
        8
 70
     1
 43
0.0
 10
380.071690973544
 20
52.80560669405059
 10
390.6716909735439
 20
52.80560669405059
 42
0.4142135623730951
 10
391.1716909735439
 20
53.30560669405059
 10
391.1716909735439
 20
62.10560669405058
 42
0.4142135623730951
 10
390.6716909735439
 20
62.60560669405058
 10
380.071690973544
 20
62.60560669405058
 42
0.4142135623730967
 10
379.571690973544
 20
62.10560669405058
 10
379.571690973544
 20
53.30560669405059
 42
0.4142135623730951
  0
LWPOLYLINE
  5
F7E
330
18
100
AcDbEntity
  8
1
100
AcDbPolyline
 90
        4
 70
     1
 43
0.0
 10
335.8716909735438
 20
65.60560669405052
 10
366.7716909735438
 20
65.60560669405052
 10
366.7716909735438
 20
74.60560669405052
 10
335.8716909735438
 20
74.60560669405052
  0
LWPOLYLINE
  5
F7F
330
18
100
AcDbEntity
  8
1
100
AcDbPolyline
 90
        8
 70
     1
 43
0.0
 10
335.3716909735439
 20
64.60560669405055
 10
367.2716909735438
 20
64.60560669405058
 42
0.4142135623730951
 10
367.7716909735438
 20
65.10560669405058
 10
367.7716909735438
 20
75.10560669405046
 42
0.4142135623730961
 10
367.2716909735438
 20
75.60560669405046
 10
335.3716909735438
 20
75.60560669405041
 42
0.4142135623730961
 10
334.8716909735439
 20
75.10560669405041
 10
334.8716909735439
 20
65.10560669405055
 42
0.4142135623730938
  0
LINE
  5
F80
330
18
100
AcDbEntity
  8
1
100
AcDbLine
 10
335.8716909735438
 20
74.10560669405052
 30
0.0
 11
366.7716909735438
 21
74.10560669405052
 31
0.0
  0
ARC
  5
F81
330
18
100
AcDbEntity
  8
1
100
AcDbCircle
 10
347.8716909735438
 20
58.7362491905869
 30
0.0
 40
2.299999999999925
100
AcDbArc
 50
282.5558577985851
 51
77.4441422014148
  0
ARC
  5
F82
330
18
100
AcDbEntity
  8
1
100
AcDbCircle
 10
347.8716909735439
 20
58.73624919058705
 30
0.0
 40
2.50000000000004
100
AcDbArc
 50
281.5369590328115
 51
78.46304096718849
  0
ARC
  5
F83
330
18
100
AcDbEntity
  8
1
100
AcDbCircle
 10
347.8716909735438
 20
58.7362491905869
 30
0.0
 40
2.299999999999925
100
AcDbArc
 50
102.5558577985852
 51
257.4441422014148
  0
ARC
  5
F84
330
18
100
AcDbEntity
  8
1
100
AcDbCircle
 10
347.8716909735437
 20
58.73624919058705
 30
0.0
 40
2.50000000000004
100
AcDbArc
 50
101.5369590328115
 51
258.4630409671884
  0
ARC
  5
F85
330
18
100
AcDbEntity
  8
1
100
AcDbCircle
 10
339.8716909735437
 20
58.73624919058705
 30
0.0
 40
2.50000000000004
100
AcDbArc
 50
101.5369590328115
 51
258.4630409671884
  0
ARC
  5
F86
330
18
100
AcDbEntity
  8
1
100
AcDbCircle
 10
339.8716909735438
 20
58.7362491905869
 30
0.0
 40
2.299999999999925
100
AcDbArc
 50
102.5558577985852
 51
257.4441422014148
  0
ARC
  5
F87
330
18
100
AcDbEntity
  8
1
100
AcDbCircle
 10
339.8716909735438
 20
58.7362491905869
 30
0.0
 40
2.299999999999925
100
AcDbArc
 50
282.5558577985851
 51
77.4441422014148
  0
ARC
  5
F88
330
18
100
AcDbEntity
  8
1
100
AcDbCircle
 10
339.871690973544
 20
58.73624919058705
 30
0.0
 40
2.50000000000004
100
AcDbArc
 50
281.5369590328115
 51
78.46304096718849
  0
LINE
  5
F89
330
18
100
AcDbEntity
  8
1
100
AcDbLine
 10
331.3716909735438
 20
49.10560669405052
 30
0.0
 11
336.8716909735439
 21
49.10560669405052
 31
0.0
  0
LINE
  5
F8A
330
18
100
AcDbEntity
  8
1
100
AcDbLine
 10
331.3716909735438
 20
51.60560669405052
 30
0.0
 11
336.8716909735439
 21
51.60560669405052
 31
0.0
  0
LINE
  5
F8B
330
18
100
AcDbEntity
  8
1
100
AcDbLine
 10
330.3716909735438
 20
48.6056066940505
 30
0.0
 11
329.3716909735438
 21
47.60560669405049
 31
0.0
  0
LINE
  5
F8C
330
18
100
AcDbEntity
  8
1
100
AcDbLine
 10
331.3716909735438
 20
49.10560669405052
 30
0.0
 11
331.3716909735438
 21
51.60560669405052
 31
0.0
  0
LINE
  5
F8D
330
18
100
AcDbEntity
  8
1
100
AcDbLine
 10
329.3716909735438
 20
58.60560669405052
 30
0.0
 11
327.3716909735438
 21
58.60560669405052
 31
0.0
  0
LINE
  5
F8E
330
18
100
AcDbEntity
  8
1
100
AcDbLine
 10
336.8716909735439
 20
51.60560669405052
 30
0.0
 11
336.8716909735439
 21
49.10560669405052
 31
0.0
  0
LINE
  5
F8F
330
18
100
AcDbEntity
  8
1
100
AcDbLine
 10
340.3716909735438
 20
56.2867594478038
 30
0.0
 11
340.3716909735438
 21
56.49125475852262
 31
0.0
  0
LINE
  5
F90
330
18
100
AcDbEntity
  8
1
100
AcDbLine
 10
339.3716909735438
 20
56.2867594478038
 30
0.0
 11
339.3716909735438
 21
56.49125475852262
 31
0.0
  0
LINE
  5
F91
330
18
100
AcDbEntity
  8
1
100
AcDbLine
 10
347.3716909735439
 20
56.2867594478038
 30
0.0
 11
347.3716909735439
 21
56.49125475852262
 31
0.0
  0
LINE
  5
F92
330
18
100
AcDbEntity
  8
1
100
AcDbLine
 10
348.3716909735438
 20
56.2867594478038
 30
0.0
 11
348.3716909735438
 21
56.49125475852262
 31
0.0
  0
LINE
  5
F93
330
18
100
AcDbEntity
  8
1
100
AcDbLine
 10
331.3716909735438
 20
79.10560669405052
 30
0.0
 11
336.8716909735439
 21
79.10560669405052
 31
0.0
  0
LINE
  5
F94
330
18
100
AcDbEntity
  8
1
100
AcDbLine
 10
331.3716909735438
 20
76.60560669405052
 30
0.0
 11
336.8716909735439
 21
76.60560669405052
 31
0.0
  0
LINE
  5
F95
330
18
100
AcDbEntity
  8
1
100
AcDbLine
 10
329.3716909735438
 20
69.60560669405052
 30
0.0
 11
327.3716909735438
 21
69.60560669405052
 31
0.0
  0
LINE
  5
F96
330
18
100
AcDbEntity
  8
1
100
AcDbLine
 10
330.3716909735438
 20
79.60560669405052
 30
0.0
 11
329.3716909735438
 21
80.60560669405052
 31
0.0
  0
LINE
  5
F97
330
18
100
AcDbEntity
  8
1
100
AcDbLine
 10
331.3716909735438
 20
79.10560669405052
 30
0.0
 11
331.3716909735438
 21
76.60560669405052
 31
0.0
  0
LINE
  5
F98
330
18
100
AcDbEntity
  8
1
100
AcDbLine
 10
343.0716909735437
 20
67.10560669405052
 30
0.0
 11
343.0716909735437
 21
73.60560669405052
 31
0.0
  0
LINE
  5
F99
330
18
100
AcDbEntity
  8
1
100
AcDbLine
 10
337.0716909735438
 20
67.10560669405052
 30
0.0
 11
337.0716909735439
 21
73.60560669405052
 31
0.0
  0
LINE
  5
F9A
330
18
100
AcDbEntity
  8
1
100
AcDbLine
 10
337.0716909735438
 20
67.10560669405052
 30
0.0
 11
343.0716909735437
 21
67.10560669405052
 31
0.0
  0
LINE
  5
F9C
330
18
100
AcDbEntity
  8
1
100
AcDbLine
 10
340.3716909735438
 20
60.98124362265136
 30
0.0
 11
340.3716909735438
 21
61.18573893337018
 31
0.0
  0
LINE
  5
F9D
330
18
100
AcDbEntity
  8
1
100
AcDbLine
 10
339.3716909735438
 20
60.98124362265136
 30
0.0
 11
339.3716909735438
 21
61.18573893337018
 31
0.0
  0
CIRCLE
  5
F9E
330
18
100
AcDbEntity
  8
1
100
AcDbCircle
 10
340.0716909735439
 20
71.60560669405055
 30
0.0
 40
0.8
  0
CIRCLE
  5
F9F
330
18
100
AcDbEntity
  8
1
100
AcDbCircle
 10
340.0716909735439
 20
71.60560669405055
 30
0.0
 40
1.6
  0
LINE
  5
FA0
330
18
100
AcDbEntity
  8
1
100
AcDbLine
 10
337.0716909735439
 20
73.60560669405058
 30
0.0
 11
343.0716909735437
 21
73.60560669405058
 31
0.0
  0
LWPOLYLINE
  5
FA1
330
18
100
AcDbEntity
  8
1
100
AcDbPolyline
 90
        4
 70
     1
 43
0.0
 10
337.7716909735438
 20
67.60560669405052
 10
342.3716909735438
 20
67.60560669405052
 10
342.3716909735438
 20
69.70560669405052
 10
337.7716909735438
 20
69.70560669405052
  0
LWPOLYLINE
  5
FA2
330
18
100
AcDbEntity
  8
1
100
AcDbPolyline
 90
        4
 70
     1
 43
0.0
 10
338.5716909735438
 20
68.30560669405054
 10
341.5716909735438
 20
68.30560669405054
 10
341.5716909735438
 20
69.00560669405052
 10
338.5716909735438
 20
69.00560669405052
  0
LINE
  5
FA3
330
18
100
AcDbEntity
  8
1
100
AcDbLine
 10
350.5716909735438
 20
67.10560669405052
 30
0.0
 11
350.5716909735438
 21
73.60560669405052
 31
0.0
  0
LINE
  5
FA4
330
18
100
AcDbEntity
  8
1
100
AcDbLine
 10
344.5716909735438
 20
67.10560669405052
 30
0.0
 11
344.5716909735439
 21
73.60560669405052
 31
0.0
  0
LINE
  5
FA5
330
18
100
AcDbEntity
  8
1
100
AcDbLine
 10
344.5716909735438
 20
67.10560669405052
 30
0.0
 11
350.5716909735438
 21
67.10560669405052
 31
0.0
  0
LINE
  5
FA7
330
18
100
AcDbEntity
  8
1
100
AcDbLine
 10
347.3716909735439
 20
60.98124362265136
 30
0.0
 11
347.3716909735439
 21
61.18573893337018
 31
0.0
  0
LINE
  5
FA8
330
18
100
AcDbEntity
  8
1
100
AcDbLine
 10
348.3716909735438
 20
60.98124362265136
 30
0.0
 11
348.3716909735438
 21
61.18573893337018
 31
0.0
  0
LINE
  5
FA9
330
18
100
AcDbEntity
  8
1
100
AcDbLine
 10
344.5716909735439
 20
73.60560669405058
 30
0.0
 11
350.5716909735438
 21
73.60560669405058
 31
0.0
  0
CIRCLE
  5
FAA
330
18
100
AcDbEntity
  8
1
100
AcDbCircle
 10
347.5716909735439
 20
71.60560669405055
 30
0.0
 40
1.6
  0
CIRCLE
  5
FAB
330
18
100
AcDbEntity
  8
1
100
AcDbCircle
 10
347.5716909735439
 20
71.60560669405055
 30
0.0
 40
0.8
  0
LWPOLYLINE
  5
FAC
330
18
100
AcDbEntity
  8
1
100
AcDbPolyline
 90
        4
 70
     1
 43
0.0
 10
346.0716909735438
 20
68.30560669405054
 10
349.0716909735438
 20
68.30560669405054
 10
349.0716909735438
 20
69.00560669405052
 10
346.0716909735438
 20
69.00560669405052
  0
LWPOLYLINE
  5
FAD
330
18
100
AcDbEntity
  8
1
100
AcDbPolyline
 90
        4
 70
     1
 43
0.0
 10
345.2716909735438
 20
67.60560669405052
 10
349.8716909735438
 20
67.60560669405052
 10
349.8716909735438
 20
69.70560669405052
 10
345.2716909735438
 20
69.70560669405052
  0
LINE
  5
FAE
330
18
100
AcDbEntity
  8
1
100
AcDbLine
 10
336.8716909735439
 20
76.60560669405052
 30
0.0
 11
336.8716909735439
 21
79.10560669405052
 31
0.0
  0
LINE
  5
FB1
330
18
100
AcDbEntity
  8
2
  6
4-中心線
100
AcDbLine
 10
363.3716909735438
 20
41.10560669405052
 30
0.0
 11
363.3716909735438
 21
87.10560669405053
 31
0.0
  0
LINE
  5
FB2
330
18
100
AcDbEntity
  8
1
100
AcDbLine
 10
382.5216909735438
 20
54.10560669405052
 30
0.0
 11
382.5216909735438
 21
59.70560669405052
 31
0.0
  0
LWPOLYLINE
  5
FB3
330
18
100
AcDbEntity
  8
1
100
AcDbPolyline
 90
        4
 70
     1
 43
0.0
 10
362.3716909735438
 20
53.10560669405052
 10
364.3716909735438
 20
53.10560669405052
 10
364.3716909735438
 20
63.10560669405052
 10
362.3716909735438
 20
63.10560669405052
  0
LWPOLYLINE
  5
FB4
330
18
100
AcDbEntity
  8
1
100
AcDbPolyline
 90
        4
 70
     1
 43
0.0
 10
366.3716909735438
 20
53.10560669405052
 10
368.3716909735438
 20
53.10560669405052
 10
368.3716909735438
 20
63.10560669405052
 10
366.3716909735438
 20
63.10560669405052
  0
LWPOLYLINE
  5
FB5
330
18
100
AcDbEntity
  8
1
100
AcDbPolyline
 90
        4
 70
     1
 43
0.0
 10
370.3716909735438
 20
53.10560669405052
 10
372.3716909735439
 20
53.10560669405052
 10
372.3716909735439
 20
63.10560669405052
 10
370.3716909735438
 20
63.10560669405052
  0
LWPOLYLINE
  5
FB6
330
18
100
AcDbEntity
  8
1
100
AcDbPolyline
 90
        4
 70
     1
 43
0.0
 10
374.3716909735439
 20
53.10560669405052
 10
376.3716909735439
 20
53.10560669405052
 10
376.3716909735439
 20
63.10560669405052
 10
374.3716909735439
 20
63.10560669405052
  0
LWPOLYLINE
  5
FB7
330
18
100
AcDbEntity
  8
1
100
AcDbPolyline
 90
        4
 70
     1
 43
0.0
 10
354.3716909735438
 20
53.10560669405052
 10
356.3716909735438
 20
53.10560669405052
 10
356.3716909735438
 20
63.10560669405052
 10
354.3716909735438
 20
63.10560669405052
  0
LWPOLYLINE
  5
FB8
330
18
100
AcDbEntity
  8
1
100
AcDbPolyline
 90
        4
 70
     1
 43
0.0
 10
358.3716909735438
 20
53.10560669405052
 10
360.3716909735438
 20
53.10560669405052
 10
360.3716909735438
 20
63.10560669405052
 10
358.3716909735438
 20
63.10560669405052
  0
LINE
  5
FB9
330
18
100
AcDbEntity
  8
1
100
AcDbLine
 10
359.5716909735439
 20
73.60560669405058
 30
0.0
 11
365.5716909735438
 21
73.60560669405052
 31
0.0
  0
LINE
  5
FBA
330
18
100
AcDbEntity
  8
1
100
AcDbLine
 10
359.5716909735438
 20
67.10560669405052
 30
0.0
 11
365.5716909735438
 21
67.10560669405052
 31
0.0
  0
LINE
  5
FBB
330
18
100
AcDbEntity
  8
1
100
AcDbLine
 10
358.0716909735438
 20
67.10560669405052
 30
0.0
 11
358.0716909735438
 21
73.60560669405052
 31
0.0
  0
LINE
  5
FBC
330
18
100
AcDbEntity
  8
1
100
AcDbLine
 10
359.5716909735438
 20
67.10560669405052
 30
0.0
 11
359.5716909735439
 21
73.60560669405052
 31
0.0
  0
LINE
  5
FBD
330
18
100
AcDbEntity
  8
1
100
AcDbLine
 10
352.0716909735438
 20
67.10560669405052
 30
0.0
 11
352.0716909735439
 21
73.60560669405052
 31
0.0
  0
LINE
  5
FBE
330
18
100
AcDbEntity
  8
1
100
AcDbLine
 10
352.0716909735438
 20
67.10560669405052
 30
0.0
 11
358.0716909735438
 21
67.10560669405052
 31
0.0
  0
CIRCLE
  5
FBF
330
18
100
AcDbEntity
  8
1
100
AcDbCircle
 10
355.0716909735439
 20
71.60560669405055
 30
0.0
 40
0.8
  0
CIRCLE
  5
FC0
330
18
100
AcDbEntity
  8
1
100
AcDbCircle
 10
355.0716909735439
 20
71.60560669405055
 30
0.0
 40
1.6
  0
LWPOLYLINE
  5
FC1
330
18
100
AcDbEntity
  8
1
100
AcDbPolyline
 90
        4
 70
     1
 43
0.0
 10
352.7716909735438
 20
67.60560669405052
 10
357.3716909735438
 20
67.60560669405052
 10
357.3716909735438
 20
69.70560669405052
 10
352.7716909735438
 20
69.70560669405052
  0
LWPOLYLINE
  5
FC2
330
18
100
AcDbEntity
  8
1
100
AcDbPolyline
 90
        4
 70
     1
 43
0.0
 10
353.5716909735437
 20
68.30560669405054
 10
356.5716909735438
 20
68.30560669405054
 10
356.5716909735438
 20
69.00560669405052
 10
353.5716909735437
 20
69.00560669405052
  0
LINE
  5
FC3
330
18
100
AcDbEntity
  8
1
100
AcDbLine
 10
352.0716909735439
 20
73.60560669405058
 30
0.0
 11
358.0716909735438
 21
73.60560669405052
 31
0.0
  0
LINE
  5
FC4
330
18
100
AcDbEntity
  8
1
100
AcDbLine
 10
365.5716909735438
 20
67.10560669405052
 30
0.0
 11
365.5716909735438
 21
73.60560669405052
 31
0.0
  0
CIRCLE
  5
FC5
330
18
100
AcDbEntity
  8
1
100
AcDbCircle
 10
362.5716909735439
 20
71.60560669405055
 30
0.0
 40
1.6
  0
LWPOLYLINE
  5
FC6
330
18
100
AcDbEntity
  8
1
100
AcDbPolyline
 90
        4
 70
     1
 43
0.0
 10
361.0716909735438
 20
68.30560669405054
 10
364.0716909735438
 20
68.30560669405054
 10
364.0716909735438
 20
69.00560669405052
 10
361.0716909735438
 20
69.00560669405052
  0
LWPOLYLINE
  5
FC7
330
18
100
AcDbEntity
  8
1
100
AcDbPolyline
 90
        4
 70
     1
 43
0.0
 10
360.2716909735438
 20
67.60560669405052
 10
364.8716909735438
 20
67.60560669405052
 10
364.8716909735438
 20
69.70560669405052
 10
360.2716909735438
 20
69.70560669405052
  0
CIRCLE
  5
FC8
330
18
100
AcDbEntity
  8
1
100
AcDbCircle
 10
362.5716909735439
 20
71.60560669405055
 30
0.0
 40
0.8
  0
LWPOLYLINE
  5
FCB
330
18
100
AcDbEntity
  8
1
100
AcDbPolyline
 90
        8
 70
     1
 43
0.0
 10
370.071690973544
 20
66.10560669405055
 10
379.6716909735438
 20
66.10560669405055
 42
0.4142135623730959
 10
380.1716909735438
 20
66.60560669405055
 10
380.1716909735438
 20
74.90560669405048
 42
0.4142135623730934
 10
379.6716909735438
 20
75.40560669405047
 10
370.071690973544
 20
75.40560669405059
 42
0.4142135623730966
 10
369.571690973544
 20
74.90560669405059
 10
369.571690973544
 20
66.60560669405055
 42
0.4142135623730951
  0
CIRCLE
  5
FCC
330
18
100
AcDbEntity
  8
1
100
AcDbCircle
 10
376.0816909735438
 20
71.23060669405052
 30
0.0
 40
0.5
  0
LWPOLYLINE
  5
FCD
330
18
100
AcDbEntity
  8
1
100
AcDbPolyline
 90
        4
 70
     1
 43
0.0
 10
370.5716909735439
 20
67.10560669405052
 10
379.1716909735439
 20
67.10560669405052
 10
379.1716909735439
 20
74.40560669405059
 10
370.5716909735439
 20
74.40560669405059
  0
LINE
  5
FCE
330
18
100
AcDbEntity
  8
1
100
AcDbLine
 10
370.5716909735439
 20
74.10560669405052
 30
0.0
 11
379.1716909735439
 21
74.10560669405052
 31
0.0
  0
LWPOLYLINE
  5
FCF
330
18
100
AcDbEntity
  8
1
100
AcDbPolyline
 90
        4
 70
     1
 43
0.0
 10
377.8216909735438
 20
69.15560669405053
 10
371.9216909735439
 20
69.15560669405053
 10
371.9216909735439
 20
73.30560669405051
 10
377.8216909735438
 20
73.30560669405051
  0
LWPOLYLINE
  5
FD0
330
18
100
AcDbEntity
  8
1
100
AcDbPolyline
 90
        4
 70
     1
 43
0.0
 10
378.6216909735439
 20
68.35560669405052
 10
371.1216909735438
 20
68.35560669405052
 10
371.1216909735438
 20
74.10560669405052
 10
378.6216909735439
 20
74.10560669405052
  0
CIRCLE
  5
FD1
330
18
100
AcDbEntity
  8
1
100
AcDbCircle
 10
373.5816909735437
 20
71.23060669405052
 30
0.0
 40
0.5
  0
LINE
  5
FD2
330
18
100
AcDbEntity
  8
1
100
AcDbLine
 10
374.1616909735439
 20
68.35560669405052
 30
0.0
 11
374.1616909735439
 21
69.15560669405053
 31
0.0
  0
LINE
  5
FD3
330
18
100
AcDbEntity
  8
1
100
AcDbLine
 10
373.1616909735439
 20
68.35560669405052
 30
0.0
 11
373.1616909735439
 21
69.15560669405053
 31
0.0
  0
LINE
  5
FD4
330
18
100
AcDbEntity
  8
1
100
AcDbLine
 10
375.5816909735437
 20
68.35560669405052
 30
0.0
 11
375.5816909735437
 21
69.15560669405053
 31
0.0
  0
LINE
  5
FD5
330
18
100
AcDbEntity
  8
1
100
AcDbLine
 10
376.5816909735438
 20
68.35560669405052
 30
0.0
 11
376.5816909735438
 21
69.15560669405053
 31
0.0
  0
LINE
  5
FD6
330
18
100
AcDbEntity
  8
1
100
AcDbLine
 10
383.6616909735439
 20
68.35560669405052
 30
0.0
 11
383.6616909735439
 21
69.15560669405053
 31
0.0
  0
LINE
  5
FD8
330
18
100
AcDbEntity
  8
1
100
AcDbLine
 10
388.2216909735439
 20
54.10560669405052
 30
0.0
 11
388.2216909735439
 21
59.70560669405052
 31
0.0
  0
LINE
  5
FD9
330
18
100
AcDbEntity
  8
1
100
AcDbLine
 10
395.3716909735438
 20
51.60560669405052
 30
0.0
 11
389.8716909735438
 21
51.60560669405052
 31
0.0
  0
LINE
  5
FDA
330
18
100
AcDbEntity
  8
1
100
AcDbLine
 10
395.3716909735438
 20
49.10560669405052
 30
0.0
 11
389.8716909735438
 21
49.10560669405052
 31
0.0
  0
LINE
  5
FDB
330
18
100
AcDbEntity
  8
1
100
AcDbLine
 10
389.8716909735438
 20
51.60560669405052
 30
0.0
 11
389.8716909735438
 21
49.10560669405052
 31
0.0
  0
CIRCLE
  5
FDC
330
18
100
AcDbEntity
  8
1
100
AcDbCircle
 10
386.6216909735438
 20
57.60560669405055
 30
0.0
 40
0.5
  0
LINE
  5
FDD
330
18
100
AcDbEntity
  8
1
100
AcDbLine
 10
396.3716909735438
 20
48.6056066940505
 30
0.0
 11
397.3716909735438
 21
47.60560669405049
 31
0.0
  0
LINE
  5
FDE
330
18
100
AcDbEntity
  8
1
100
AcDbLine
 10
395.3716909735438
 20
49.10560669405052
 30
0.0
 11
395.3716909735438
 21
51.60560669405052
 31
0.0
  0
LINE
  5
FDF
330
18
100
AcDbEntity
  8
1
100
AcDbLine
 10
397.3716909735438
 20
58.60560669405052
 30
0.0
 11
399.3716909735439
 21
58.60560669405052
 31
0.0
  0
CIRCLE
  5
FE1
330
18
100
AcDbEntity
  8
1
100
AcDbCircle
 10
386.5816909735438
 20
71.23060669405052
 30
0.0
 40
0.5
  0
LINE
  5
FE2
330
18
100
AcDbEntity
  8
1
100
AcDbLine
 10
386.0816909735437
 20
68.35560669405052
 30
0.0
 11
386.0816909735437
 21
69.15560669405053
 31
0.0
  0
LINE
  5
FE3
330
18
100
AcDbEntity
  8
1
100
AcDbLine
 10
387.0816909735438
 20
68.35560669405052
 30
0.0
 11
387.0816909735438
 21
69.15560669405053
 31
0.0
  0
LINE
  5
FE4
330
18
100
AcDbEntity
  8
1
100
AcDbLine
 10
384.6616909735439
 20
68.35560669405052
 30
0.0
 11
384.6616909735439
 21
69.15560669405053
 31
0.0
  0
LINE
  5
FE5
330
18
100
AcDbEntity
  8
1
100
AcDbLine
 10
397.3716909735438
 20
69.60560669405052
 30
0.0
 11
399.3716909735439
 21
69.60560669405052
 31
0.0
  0
LINE
  5
FE6
330
18
100
AcDbEntity
  8
1
100
AcDbLine
 10
395.3716909735438
 20
79.10560669405052
 30
0.0
 11
389.8716909735438
 21
79.10560669405052
 31
0.0
  0
LINE
  5
FE7
330
18
100
AcDbEntity
  8
1
100
AcDbLine
 10
395.3716909735438
 20
76.60560669405052
 30
0.0
 11
389.8716909735438
 21
76.60560669405052
 31
0.0
  0
LINE
  5
FE9
330
18
100
AcDbEntity
  8
1
100
AcDbLine
 10
389.8716909735438
 20
76.60560669405052
 30
0.0
 11
389.8716909735438
 21
79.10560669405052
 31
0.0
  0
LINE
  5
FEA
330
18
100
AcDbEntity
  8
1
100
AcDbLine
 10
396.3716909735438
 20
79.60560669405052
 30
0.0
 11
397.3716909735438
 21
80.60560669405052
 31
0.0
  0
LINE
  5
FEB
330
18
100
AcDbEntity
  8
1
100
AcDbLine
 10
395.3716909735438
 20
79.10560669405052
 30
0.0
 11
395.3716909735438
 21
76.60560669405052
 31
0.0
  0
TEXT
  5
108E
330
18
100
AcDbEntity
  8
1
100
AcDbText
 10
137.1259020962306
 20
174.1019586802252
 30
0.0
 40
3.0
  1
1
 50
180.0
  7
ＭＳゴシック
100
AcDbText
  0
TEXT
  5
108F
330
18
100
AcDbEntity
  8
1
100
AcDbText
 10
131.3308673749469
 20
174.1090670359079
 30
0.0
 40
3.0
  1
2
 50
180.0
  7
ＭＳゴシック
100
AcDbText
  0
TEXT
  5
1092
330
18
100
AcDbEntity
  8
1
100
AcDbText
 10
125.2867626013828
 20
174.1379737835442
 30
0.0
 40
3.0
  1
3
 50
180.0
  7
ＭＳゴシック
100
AcDbText
  0
TEXT
  5
1093
330
18
100
AcDbEntity
  8
1
100
AcDbText
 10
119.3309951893216
 20
174.1404298734651
 30
0.0
 40
3.0
  1
4
 50
180.0
  7
ＭＳゴシック
100
AcDbText
  0
TEXT
  5
1094
330
18
100
AcDbEntity
  8
1
100
AcDbText
 10
109.3128401160903
 20
174.3689161468705
 30
0.0
 40
3.0
  1
5
 50
180.0
  7
ＭＳゴシック
100
AcDbText
  0
TEXT
  5
1095
330
18
100
AcDbEntity
  8
1
100
AcDbText
 10
101.3069666686591
 20
174.3865493767367
 30
0.0
 40
3.0
  1
6
 50
180.0
  7
ＭＳゴシック
100
AcDbText
  0
TEXT
  5
1096
330
18
100
AcDbEntity
  8
1
100
AcDbText
 10
101.8081457294312
 20
189.8673421357618
 30
0.0
 40
3.0
  1
9
 50
180.0
  7
ＭＳゴシック
100
AcDbText
  0
TEXT
  5
1097
330
18
100
AcDbEntity
  8
1
100
AcDbText
 10
135.3442494596806
 20
160.8055685077208
 30
0.0
 40
1.5
  1
負荷
 50
180.0
  7
ＭＳゴシック
100
AcDbText
  0
TEXT
  5
1098
330
18
100
AcDbEntity
  8
1
100
AcDbText
 10
123.3442494596806
 20
160.8055685077208
 30
0.0
 40
1.5
  1
負荷
 50
180.0
  7
ＭＳゴシック
100
AcDbText
  0
TEXT
  5
1099
330
18
100
AcDbEntity
  8
1
100
AcDbText
 10
142.2538410266144
 20
164.8514049014434
 30
0.0
 40
1.5
  1
制御
 50
180.0
  7
ＭＳゴシック
100
AcDbText
  0
TEXT
  5
109A
330
18
100
AcDbEntity
  8
1
100
AcDbText
 10
142.2138949044617
 20
167.3009600622906
 30
0.0
 40
1.5
  1
電源
 50
180.0
  7
ＭＳゴシック
100
AcDbText
  0
TEXT
  5
109B
330
18
100
AcDbEntity
  8
1
100
AcDbText
 10
110.1081734841971
 20
164.295710763247
 30
0.0
 40
1.5
  1
電源入／出力
 50
180.0
  7
ＭＳゴシック
100
AcDbText
  0
TEXT
  5
109C
330
18
100
AcDbEntity
  8
1
100
AcDbText
 10
106.7628520604444
 20
166.9028780540513
 30
0.0
 40
1.5
  1
AC10V
 50
180.0
  7
ＭＳゴシック
100
AcDbText
  0
TEXT
  5
109D
330
18
100
AcDbEntity
  8
1
100
AcDbText
 10
136.2408065720529
 20
182.8063333913122
 30
0.0
 40
1.5
  1
ﾃﾞﾌﾛｽﾄ
 50
180.0
  7
ＭＳゴシック
100
AcDbText
  0
TEXT
  5
109E
330
18
100
AcDbEntity
  8
1
100
AcDbText
 10
106.6276166711616
 20
192.831718506845
 30
0.0
 40
1.5
  1
温度センサー
 50
180.0
  7
ＭＳゴシック
100
AcDbText
  0
TEXT
  5
109F
330
18
100
AcDbEntity
  8
1
100
AcDbText
 10
125.2041635206024
 20
182.8278664497467
 30
0.0
 40
1.5
  1
制御出力
 50
180.0
  7
ＭＳゴシック
100
AcDbText
  0
TEXT
  5
10A0
330
18
100
AcDbEntity
  8
1
100
AcDbText
 10
137.7511070262263
 20
185.3916471341186
 30
0.0
 40
1.5
  1
AC250V 5A
 50
180.0
  7
ＭＳゴシック
100
AcDbText
  0
TEXT
  5
10A1
330
18
100
AcDbEntity
  8
1
100
AcDbText
 10
125.751121326474
 20
185.3508978275789
 30
0.0
 40
1.5
  1
AC250V 5A
 50
180.0
  7
ＭＳゴシック
100
AcDbText
  0
TEXT
  5
10A3
330
18
100
AcDbEntity
  8
1
100
AcDbText
 10
95.14903474406182
 20
196.1054414126589
 30
0.0
 40
1.0
  1
T6068-7
 50
180.0
  7
ＭＳゴシック
100
AcDbText
  0
TEXT
  5
10A4
330
18
100
AcDbEntity
  8
1
100
AcDbText
 10
354.4223925208735
 20
76.0653524187901
 30
0.0
 40
2.0
  1
3
  7
MSｺﾞｼｯｸ
100
AcDbText
  0
TEXT
  5
10A5
330
18
100
AcDbEntity
  8
1
100
AcDbText
 10
339.5361866074524
 20
76.09127413922329
 30
0.0
 40
2.0
  1
1
  7
MSｺﾞｼｯｸ
100
AcDbText
  0
TEXT
  5
10A6
330
18
100
AcDbEntity
  8
1
100
AcDbText
 10
346.9407882431438
 20
76.06116265021592
 30
0.0
 40
2.0
  1
2
  7
MSｺﾞｼｯｸ
100
AcDbText
  0
TEXT
  5
10A7
330
18
100
AcDbEntity
  8
1
100
AcDbText
 10
361.9213285695664
 20
76.05362421005736
 30
0.0
 40
2.0
  1
4
  7
MSｺﾞｼｯｸ
100
AcDbText
  0
TEXT
  5
10AE
330
18
100
AcDbEntity
  8
1
100
AcDbText
 10
374.2392022358635
 20
75.87224099390471
 30
0.0
 40
2.0
  1
5
  7
MSｺﾞｼｯｸ
100
AcDbText
  0
TEXT
  5
10B4
330
18
100
AcDbEntity
  8
1
100
AcDbText
 10
384.7267315476887
 20
75.87271248512934
 30
0.0
 40
2.0
  1
6
  7
MSｺﾞｼｯｸ
100
AcDbText
  0
TEXT
  5
10BA
330
18
100
AcDbEntity
  8
1
100
AcDbText
 10
339.2190982477744
 20
61.64658822435308
 30
0.0
 40
2.0
  1
7
  7
MSｺﾞｼｯｸ
100
AcDbText
  0
TEXT
  5
10C0
330
18
100
AcDbEntity
  8
1
100
AcDbText
 10
347.2210479458533
 20
61.65286772874686
 30
0.0
 40
2.0
  1
8
  7
MSｺﾞｼｯｸ
100
AcDbText
  0
TEXT
  5
10C6
330
18
100
AcDbEntity
  8
1
100
AcDbText
 10
384.7244445718912
 20
63.06409353335505
 30
0.0
 40
2.0
  1
9
  7
MSｺﾞｼｯｸ
100
AcDbText
  0
TEXT
  5
10D2
330
18
100
AcDbEntity
  8
2
100
AcDbText
 10
350.8801585126363
 20
148.8444359208662
 30
0.0
 40
2.5
  1
+0.700
 50
90.0
  7
ＭＳ明朝
100
AcDbText
  0
TEXT
  5
10D3
330
18
100
AcDbEntity
  8
2
100
AcDbText
 10
239.82931884228
 20
208.9621235795069
 30
0.0
 40
3.0
  1
ケース　ＡＢＳ樹脂（黒色）
  7
ＭＳ明朝
100
AcDbText
  0
TEXT
  5
10D4
330
18
100
AcDbEntity
  8
2
100
AcDbText
 10
239.9502818062005
 20
199.0219718458188
 30
0.0
 40
3.0
  1
パネルカット寸法
  7
ＭＳ明朝
100
AcDbText
  0
LINE
  5
10D5
330
18
100
AcDbEntity
  8
2
100
AcDbLine
 10
239.8965623342558
 20
198.3722669706763
 30
0.0
 11
274.8965623342558
 21
198.3722669706763
 31
0.0
  0
TEXT
  5
10D6
330
18
100
AcDbEntity
  8
2
100
AcDbText
 10
244.2281726991739
 20
193.4004590682414
 30
0.0
 40
3.0
  1
取付可能パネル板厚  1 ～ 3.2 mm
  7
ＭＳ明朝
100
AcDbText
  0
TEXT
  5
10D8
330
18
100
AcDbEntity
  8
2
100
AcDbText
 10
354.3801585126364
 20
148.8444359208662
 30
0.0
 40
2.5
  1
-0.000
 50
90.0
  7
ＭＳ明朝
100
AcDbText
  0
TEXT
  5
1124
330
18
100
AcDbEntity
  8
2
100
AcDbText
 10
299.2254306289227
 20
179.2539446518785
 30
0.0
 40
2.5
  1
+0.700
  7
ＭＳ明朝
100
AcDbText
  0
TEXT
  5
1125
330
18
100
AcDbEntity
  8
2
100
AcDbText
 10
299.2254306289227
 20
175.7539446518785
 30
0.0
 40
2.5
  1
-0.000
  7
ＭＳ明朝
100
AcDbText
  0
VIEWPORT
  5
699
330
692
100
AcDbEntity
 67
     1
  8
0
100
AcDbViewport
 10
186.9327194010227
 20
103.3457246716041
 30
0.0
 40
345.6026377110757
 41
221.3277166163396
 68
     1
 69
     1
 12
186.9327194010227
 22
103.3457246716041
 13
0.0
 23
0.0
 14
1.0
 24
1.0
 15
10.0
 25
10.0
 16
0.0
 26
0.0
 36
1.0
 17
0.0
 27
0.0
 37
0.0
 42
50.0
 43
0.0
 44
0.0
 45
221.3277166163396
 50
0.0
 51
0.0
 72
   100
 90
    33056
  1

281
     0
 71
     1
 74
     0
110
0.0
120
0.0
130
0.0
111
1.0
121
0.0
131
0.0
112
0.0
122
1.0
132
0.0
 79
     0
146
0.0
  0
VIEWPORT
  5
69B
330
692
100
AcDbEntity
 67
     1
  8
X ﾋﾞｭｰ
100
AcDbViewport
 10
142.5
 20
99.0
 30
0.0
 40
285.0
 41
198.0
 68
     2
 69
     2
 12
229.4268061707205
 22
120.9482612542035
 13
0.0
 23
0.0
 14
1.0
 24
1.0
 15
10.0
 25
10.0
 16
0.0
 26
0.0
 36
1.0
 17
0.0
 27
0.0
 37
0.0
 42
50.0
 43
0.0
 44
0.0
 45
375.0014659617456
 50
0.0
 51
0.0
 72
   100
 90
    33056
  1

281
     0
 71
     1
 74
     0
110
0.0
120
0.0
130
0.0
111
1.0
121
0.0
131
0.0
112
0.0
122
1.0
132
0.0
 79
     0
146
0.0
  0
ENDSEC
  0
SECTION
  2
OBJECTS
  0
DICTIONARY
  5
C
330
0
100
AcDbDictionary
281
     1
  3
ACAD_GROUP
350
D
  3
ACAD_LAYOUT
350
5E1
  3
ACAD_MLINESTYLE
350
1B
  3
ACAD_PLOTSETTINGS
350
5E2
  3
ACAD_PLOTSTYLENAME
350
5DF
  3
AcadDim
350
662
  3
CONTENTDICTIONARY
350
20
  0
DICTIONARY
  5
D
102
{ACAD_REACTORS
330
C
102
}
330
C
100
AcDbDictionary
281
     1
  0
DICTIONARY
  5
5E1
102
{ACAD_REACTORS
330
C
102
}
330
C
100
AcDbDictionary
281
     1
  3
Model
350
5E3
  3
ﾚｲｱｳﾄ1
350
693
  0
DICTIONARY
  5
1B
102
{ACAD_REACTORS
330
C
102
}
330
C
100
AcDbDictionary
281
     1
  3
STANDARD
350
1C
  0
DICTIONARY
  5
5E2
102
{ACAD_REACTORS
330
C
102
}
330
C
100
AcDbDictionary
281
     1
  0
ACDBDICTIONARYWDFLT
  5
5DF
102
{ACAD_REACTORS
330
C
102
}
330
C
100
AcDbDictionary
281
     1
  3
Normal
350
5E0
100
AcDbDictionaryWithDefault
340
5E0
  0
XRECORD
  5
662
102
{ACAD_REACTORS
330
C
102
}
330
C
100
AcDbXrecord
280
     1
 90
   990106
  3

 60
     0
 61
     0
 62
     4
 63
     4
 64
     1
 65
     0
 66
     0
 67
     3
 68
     1
 69
     0
 70
     0
 71
     0
 72
     0
 40
0.0
170
     2
340
0
  0
DICTIONARY
  5
20
102
{ACAD_REACTORS
330
C
102
}
330
C
100
AcDbDictionary
281
     1
1001
CONTENTTABDATA
1070
     6
1000
ビス.dwg
1000
C:\Program Files\AutoCAD LT 97\SYMBOLS\ビス.dwg
1070
     0
1070
     0
1070
     1
1000
ｺﾈｸﾀ.dwg
1000
C:\Program Files\AutoCAD LT 97\SYMBOLS\ｺﾈｸﾀ.dwg
1070
     0
1070
     0
1070
     1
1000
表示器.dwg
1000
C:\Program Files\AutoCAD LT 97\SYMBOLS\表示器.dwg
1070
     0
1070
     0
1070
     1
1000
ﾄﾗﾝｽ.dwg
1000
C:\Program Files\AutoCAD LT 97\SYMBOLS\ﾄﾗﾝｽ.dwg
1070
     0
1070
     0
1070
     1
1000
ﾘﾚｰ.dwg
1000
C:\Program Files\AutoCAD LT 97\SYMBOLS\ﾘﾚｰ.dwg
1070
     0
1070
     0
1070
     1
1000
汎用.dwg
1000
C:\Program Files\AutoCAD LT 97\SYMBOLS\汎用.dwg
1070
     0
1070
     0
1070
     1
1001
CONTENTCURRENTTAB
1070
     2
  0
LAYOUT
  5
5E3
102
{ACAD_REACTORS
330
5E1
102
}
330
5E1
100
AcDbPlotSettings
  1

  2
RICOH imagio MP C3000 RPCS.pc3
  4
A3
  6

 40
5.873749732971191
 41
5.873747825622558
 42
5.873748779296875
 43
5.873748779296875
 44
419.9466552734374
 45
296.9259948730469
 46
0.0
 47
0.0
 48
0.0
 49
0.0
140
0.0
141
0.0
142
1.0
143
1.286122978510651
 70
 11952
 72
     1
 73
     0
 74
     0
  7
monochrome.ctb
 75
     0
147
0.7775306224277355
148
0.0
149
0.0
100
AcDbLayout
  1
Model
 70
     1
 71
     0
 10
0.0
 20
0.0
 11
12.0
 21
9.0
 12
0.0
 22
0.0
 32
0.0
 14
0.0
 24
0.0
 34
0.0
 15
0.0
 25
0.0
 35
0.0
146
0.0
 13
0.0
 23
0.0
 33
0.0
 16
1.0
 26
0.0
 36
0.0
 17
0.0
 27
1.0
 37
0.0
 76
     0
330
18
  0
LAYOUT
  5
693
102
{ACAD_REACTORS
330
5E1
102
}
330
5E1
100
AcDbPlotSettings
  1

  2
RICOH imagio MP C3000 RPCS
  4
A4
  6

 40
5.873749732971191
 41
5.873747825622558
 42
5.873748779296875
 43
5.873748779296875
 44
209.9733276367187
 45
296.9259948730469
 46
0.0
 47
0.0
 48
0.0
 49
0.0
140
0.0
141
0.0
142
1.0
143
1.0
 70
   688
 72
     1
 73
     1
 74
     5
  7
monochrome.ctb
 75
    16
147
1.0
148
0.0
149
0.0
100
AcDbLayout
  1
ﾚｲｱｳﾄ1
 70
     1
 71
     1
 10
-5.873748779296875
 20
-5.873749732971191
 11
291.05224609375
 21
204.0995779037475
 12
0.0
 22
0.0
 32
0.0
 14
0.0
 24
0.0
 34
0.0
 15
285.0
 25
198.0
 35
0.0
146
0.0
 13
0.0
 23
0.0
 33
0.0
 16
1.0
 26
0.0
 36
0.0
 17
0.0
 27
1.0
 37
0.0
 76
     0
330
692
331
699
  0
MLINESTYLE
  5
1C
102
{ACAD_REACTORS
330
1B
102
}
330
1B
100
AcDbMlineStyle
  2
STANDARD
 70
     0
  3

 62
   256
 51
90.0
 52
90.0
 71
     2
 49
0.5
 62
   256
  6
BYLAYER
 49
-0.5
 62
   256
  6
BYLAYER
  0
ACDBPLACEHOLDER
  5
5E0
102
{ACAD_REACTORS
330
5DF
102
}
330
5DF
  0
ENDSEC
  0
EOF
