  0
SECTION
  2
HEADER
  9
$ACADVER
  1
AC1015
  9
$ACADMAINTVER
 70
    11
  9
$DWGCODEPAGE
  3
ANSI_932
  9
$INSBASE
 10
0.0
 20
0.0
 30
0.0
  9
$EXTMIN
 10
29.01967078338331
 20
32.41022284036489
 30
0.0
  9
$EXTMAX
 10
377.6521368759765
 20
214.2351286063351
 30
0.0
  9
$LIMMIN
 10
0.0
 20
0.0
  9
$LIMMAX
 10
420.0
 20
297.0
  9
$ORTHOMODE
 70
     0
  9
$REGENMODE
 70
     1
  9
$FILLMODE
 70
     1
  9
$QTEXTMODE
 70
     0
  9
$MIRRTEXT
 70
     1
  9
$LTSCALE
 40
1.0
  9
$ATTMODE
 70
     1
  9
$TEXTSIZE
 40
2.5
  9
$TRACEWID
 40
1.0
  9
$TEXTSTYLE
  7
ＭＳ明朝
  9
$CLAYER
  8
2
  9
$CELTYPE
  6
BYLAYER
  9
$CECOLOR
 62
   256
  9
$CELTSCALE
 40
1.0
  9
$DISPSILH
 70
     0
  9
$DIMSCALE
 40
0.0
  9
$DIMASZ
 40
2.5
  9
$DIMEXO
 40
1.5
  9
$DIMDLI
 40
5.0
  9
$DIMRND
 40
0.0
  9
$DIMDLE
 40
0.0
  9
$DIMEXE
 40
1.25
  9
$DIMTP
 40
0.0
  9
$DIMTM
 40
0.0
  9
$DIMTXT
 40
2.5
  9
$DIMCEN
 40
-5.0
  9
$DIMTSZ
 40
0.0
  9
$DIMTOL
 70
     0
  9
$DIMLIM
 70
     0
  9
$DIMTIH
 70
     0
  9
$DIMTOH
 70
     0
  9
$DIMSE1
 70
     0
  9
$DIMSE2
 70
     0
  9
$DIMTAD
 70
     1
  9
$DIMZIN
 70
     8
  9
$DIMBLK
  1

  9
$DIMASO
 70
     1
  9
$DIMSHO
 70
     1
  9
$DIMPOST
  1

  9
$DIMAPOST
  1

  9
$DIMALT
 70
     0
  9
$DIMALTD
 70
     4
  9
$DIMALTF
 40
0.0394
  9
$DIMLFAC
 40
1.0
  9
$DIMTOFL
 70
     1
  9
$DIMTVP
 40
0.0
  9
$DIMTIX
 70
     0
  9
$DIMSOXD
 70
     0
  9
$DIMSAH
 70
     0
  9
$DIMBLK1
  1

  9
$DIMBLK2
  1

  9
$DIMSTYLE
  2
STANDARD
  9
$DIMCLRD
 70
     0
  9
$DIMCLRE
 70
     0
  9
$DIMCLRT
 70
     0
  9
$DIMTFAC
 40
1.0
  9
$DIMGAP
 40
0.5
  9
$DIMJUST
 70
     0
  9
$DIMSD1
 70
     0
  9
$DIMSD2
 70
     0
  9
$DIMTOLJ
 70
     1
  9
$DIMTZIN
 70
     0
  9
$DIMALTZ
 70
     0
  9
$DIMALTTZ
 70
     0
  9
$DIMUPT
 70
     0
  9
$DIMDEC
 70
     3
  9
$DIMTDEC
 70
     3
  9
$DIMALTU
 70
     8
  9
$DIMALTTD
 70
     4
  9
$DIMTXSTY
  7
ＭＳ明朝
  9
$DIMAUNIT
 70
     0
  9
$DIMADEC
 70
     0
  9
$DIMALTRND
 40
0.0
  9
$DIMAZIN
 70
     0
  9
$DIMDSEP
 70
    46
  9
$DIMATFIT
 70
     3
  9
$DIMFRAC
 70
     0
  9
$DIMLDRBLK
  1

  9
$DIMLUNIT
 70
     6
  9
$DIMLWD
 70
    -2
  9
$DIMLWE
 70
    -2
  9
$DIMTMOVE
 70
     0
  9
$LUNITS
 70
     2
  9
$LUPREC
 70
     2
  9
$SKETCHINC
 40
1.0
  9
$FILLETRAD
 40
2.0
  9
$AUNITS
 70
     0
  9
$AUPREC
 70
     0
  9
$MENU
  1
acad
  9
$ELEVATION
 40
0.0
  9
$PELEVATION
 40
0.0
  9
$THICKNESS
 40
0.0
  9
$LIMCHECK
 70
     0
  9
$CHAMFERA
 40
10.0
  9
$CHAMFERB
 40
10.0
  9
$CHAMFERC
 40
20.0
  9
$CHAMFERD
 40
0.0
  9
$SKPOLY
 70
     0
  9
$TDCREATE
 40
2455957.594655949
  9
$TDUCREATE
 40
2455957.219655949
  9
$TDUPDATE
 40
2456029.634532280
  9
$TDUUPDATE
 40
2456029.259532280
  9
$TDINDWG
 40
0.0333687500
  9
$TDUSRTIMER
 40
0.0333687500
  9
$USRTIMER
 70
     1
  9
$ANGBASE
 50
0.0
  9
$ANGDIR
 70
     0
  9
$PDMODE
 70
     0
  9
$PDSIZE
 40
0.0
  9
$PLINEWID
 40
0.0
  9
$SPLFRAME
 70
     0
  9
$SPLINETYPE
 70
     6
  9
$SPLINESEGS
 70
     8
  9
$HANDSEED
  5
111E
  9
$SURFTAB1
 70
     6
  9
$SURFTAB2
 70
     6
  9
$SURFTYPE
 70
     6
  9
$SURFU
 70
     6
  9
$SURFV
 70
     6
  9
$UCSBASE
  2

  9
$UCSNAME
  2

  9
$UCSORG
 10
0.0
 20
0.0
 30
0.0
  9
$UCSXDIR
 10
1.0
 20
0.0
 30
0.0
  9
$UCSYDIR
 10
0.0
 20
1.0
 30
0.0
  9
$UCSORTHOREF
  2

  9
$UCSORTHOVIEW
 70
     0
  9
$UCSORGTOP
 10
0.0
 20
0.0
 30
0.0
  9
$UCSORGBOTTOM
 10
0.0
 20
0.0
 30
0.0
  9
$UCSORGLEFT
 10
0.0
 20
0.0
 30
0.0
  9
$UCSORGRIGHT
 10
0.0
 20
0.0
 30
0.0
  9
$UCSORGFRONT
 10
0.0
 20
0.0
 30
0.0
  9
$UCSORGBACK
 10
0.0
 20
0.0
 30
0.0
  9
$PUCSBASE
  2

  9
$PUCSNAME
  2

  9
$PUCSORG
 10
0.0
 20
0.0
 30
0.0
  9
$PUCSXDIR
 10
1.0
 20
0.0
 30
0.0
  9
$PUCSYDIR
 10
0.0
 20
1.0
 30
0.0
  9
$PUCSORTHOREF
  2

  9
$PUCSORTHOVIEW
 70
     0
  9
$PUCSORGTOP
 10
0.0
 20
0.0
 30
0.0
  9
$PUCSORGBOTTOM
 10
0.0
 20
0.0
 30
0.0
  9
$PUCSORGLEFT
 10
0.0
 20
0.0
 30
0.0
  9
$PUCSORGRIGHT
 10
0.0
 20
0.0
 30
0.0
  9
$PUCSORGFRONT
 10
0.0
 20
0.0
 30
0.0
  9
$PUCSORGBACK
 10
0.0
 20
0.0
 30
0.0
  9
$USERI1
 70
     0
  9
$USERI2
 70
     0
  9
$USERI3
 70
     0
  9
$USERI4
 70
     0
  9
$USERI5
 70
     0
  9
$USERR1
 40
0.0
  9
$USERR2
 40
0.0
  9
$USERR3
 40
0.0
  9
$USERR4
 40
0.0
  9
$USERR5
 40
0.0
  9
$WORLDVIEW
 70
     1
  9
$SHADEDGE
 70
     3
  9
$SHADEDIF
 70
    70
  9
$TILEMODE
 70
     0
  9
$MAXACTVP
 70
    48
  9
$PINSBASE
 10
0.0
 20
0.0
 30
0.0
  9
$PLIMCHECK
 70
     0
  9
$PEXTMIN
 10
0.0
 20
0.0
 30
0.0
  9
$PEXTMAX
 10
285.0
 20
198.0
 30
0.0
  9
$PLIMMIN
 10
-5.873748779296875
 20
-5.873749732971191
  9
$PLIMMAX
 10
291.05224609375
 20
204.0995779037475
  9
$UNITMODE
 70
     0
  9
$VISRETAIN
 70
     1
  9
$PLINEGEN
 70
     0
  9
$PSLTSCALE
 70
     1
  9
$TREEDEPTH
 70
  3020
  9
$CMLSTYLE
  2
STANDARD
  9
$CMLJUST
 70
     0
  9
$CMLSCALE
 40
20.0
  9
$PROXYGRAPHICS
 70
     1
  9
$MEASUREMENT
 70
     1
  9
$CELWEIGHT
370
    -1
  9
$ENDCAPS
280
     0
  9
$JOINSTYLE
280
     0
  9
$LWDISPLAY
290
     0
  9
$INSUNITS
 70
     0
  9
$HYPERLINKBASE
  1

  9
$STYLESHEET
  1

  9
$XEDIT
290
     1
  9
$CEPSNTYPE
380
     0
  9
$PSTYLEMODE
290
     1
  9
$FINGERPRINTGUID
  2
{778B7AA4-961B-11D4-A809-0000F45A11F6}
  9
$VERSIONGUID
  2
{C2839FEE-836A-4E37-BB3A-57822CC7EAB1}
  9
$EXTNAMES
290
     1
  9
$PSVPSCALE
 40
0.0
  9
$OLESTARTUP
290
     0
  0
ENDSEC
  0
SECTION
  2
CLASSES
  0
CLASS
  1
LWPOLYLINE
  2
AcDbPolyline
  3
AutoCAD 2000
 90
    32768
280
     0
281
     1
  0
CLASS
  1
ACDBDICTIONARYWDFLT
  2
AcDbDictionaryWithDefault
  3
AutoCAD 2000
 90
        0
280
     0
281
     0
  0
CLASS
  1
ACDBPLACEHOLDER
  2
AcDbPlaceHolder
  3
AutoCAD 2000
 90
        0
280
     0
281
     0
  0
CLASS
  1
LAYOUT
  2
AcDbLayout
  3
AutoCAD 2000
 90
        0
280
     0
281
     0
  0
ENDSEC
  0
SECTION
  2
TABLES
  0
TABLE
  2
VPORT
  5
8
330
0
100
AcDbSymbolTable
 70
     1
  0
VPORT
  5
1116
330
8
100
AcDbSymbolTableRecord
100
AcDbViewportTableRecord
  2
*Active
 70
     0
 10
0.0
 20
0.0
 11
1.0
 21
1.0
 12
205.9566047445989
 22
120.1620579000555
 13
0.0
 23
0.0
 14
1.0
 24
1.0
 15
10.0
 25
10.0
 16
0.0
 26
0.0
 36
1.0
 17
0.0
 27
0.0
 37
0.0
 40
303.3803137117034
 41
1.540127388535031
 42
50.0
 43
0.0
 44
0.0
 50
0.0
 51
0.0
 71
     0
 72
   100
 73
     1
 74
     1
 75
     1
 76
     1
 77
     0
 78
     0
281
     0
 65
     1
110
0.0
120
0.0
130
0.0
111
1.0
121
0.0
131
0.0
112
0.0
122
1.0
132
0.0
 79
     0
146
0.0
  0
ENDTAB
  0
TABLE
  2
LTYPE
  5
5
330
0
100
AcDbSymbolTable
 70
     2
  0
LTYPE
  5
12
330
5
100
AcDbSymbolTableRecord
100
AcDbLinetypeTableRecord
  2
BYBLOCK
 70
     0
  3

 72
    65
 73
     0
 40
0.0
  0
LTYPE
  5
13
330
5
100
AcDbSymbolTableRecord
100
AcDbLinetypeTableRecord
  2
BYLAYER
 70
     0
  3

 72
    65
 73
     0
 40
0.0
  0
LTYPE
  5
14
330
5
100
AcDbSymbolTableRecord
100
AcDbLinetypeTableRecord
  2
CONTINUOUS
 70
     0
  3
Solid line
 72
    65
 73
     0
 40
0.0
  0
LTYPE
  5
CD3
330
5
100
AcDbSymbolTableRecord
100
AcDbLinetypeTableRecord
  2
2-中心線
 70
     0
  3
Center (.5x) ___ _ ___ _ ___ _ ___ _ ___ _ ___
 72
    65
 73
     4
 40
28.57499999999999
 49
19.05
 74
     0
 49
-3.174999999999999
 74
     0
 49
3.174999999999999
 74
     0
 49
-3.174999999999999
 74
     0
  0
ENDTAB
  0
TABLE
  2
LAYER
  5
2
330
0
100
AcDbSymbolTable
 70
     5
  0
LAYER
  5
E
330
2
100
AcDbSymbolTableRecord
100
AcDbLayerTableRecord
  2
0
 70
     0
 62
     4
  6
CONTINUOUS
370
    -3
390
5E0
  0
LAYER
  5
21F
330
2
100
AcDbSymbolTableRecord
100
AcDbLayerTableRecord
  2
DEFPOINTS
 70
     0
 62
     9
  6
CONTINUOUS
290
     0
370
    -3
390
5E0
  0
LAYER
  5
508
330
2
100
AcDbSymbolTableRecord
100
AcDbLayerTableRecord
  2
X ﾋﾞｭｰ
 70
     0
 62
     2
  6
CONTINUOUS
290
     0
370
    35
390
5E0
  0
LAYER
  5
CD4
330
2
100
AcDbSymbolTableRecord
100
AcDbLayerTableRecord
  2
1
 70
     0
 62
     5
  6
CONTINUOUS
370
    30
390
5E0
  0
LAYER
  5
CD5
330
2
100
AcDbSymbolTableRecord
100
AcDbLayerTableRecord
  2
2
 70
     0
 62
     6
  6
CONTINUOUS
370
     9
390
5E0
  0
ENDTAB
  0
TABLE
  2
STYLE
  5
3
330
0
100
AcDbSymbolTable
 70
     4
  0
STYLE
  5
F
330
3
100
AcDbSymbolTableRecord
100
AcDbTextStyleTableRecord
  2
STANDARD
 70
     0
 40
0.0
 41
1.0
 50
0.0
 71
     0
 42
2.5
  3
txt.shx
  4
bigfont.shx
  0
STYLE
  5
4B4
330
3
100
AcDbSymbolTableRecord
100
AcDbTextStyleTableRecord
  2
ＭＳ明朝
 70
     0
 40
0.0
 41
1.0
 50
0.0
 71
     0
 42
2.5
  3
MS Mincho.ttf
  4

1001
ACAD
1000
MS Mincho
1071
    32785
  0
STYLE
  5
66E
330
3
100
AcDbSymbolTableRecord
100
AcDbTextStyleTableRecord
  2
MSｺﾞｼｯｸ
 70
     0
 40
0.0
 41
1.0
 50
0.0
 71
     0
 42
2.5
  3
MS Gothic.ttf
  4

1001
ACAD
1000
MS Gothic
1071
    32817
  0
STYLE
  5
CD6
330
3
100
AcDbSymbolTableRecord
100
AcDbTextStyleTableRecord
  2
ＭＳゴシック
 70
     0
 40
0.0
 41
1.0
 50
0.0
 71
     0
 42
2.5
  3
MS Gothic.ttf
  4

1001
ACAD
1000
MS Gothic
1071
    32817
  0
ENDTAB
  0
TABLE
  2
VIEW
  5
6
330
0
100
AcDbSymbolTable
 70
     0
  0
ENDTAB
  0
TABLE
  2
UCS
  5
7
330
0
100
AcDbSymbolTable
 70
     0
  0
ENDTAB
  0
TABLE
  2
APPID
  5
9
330
0
100
AcDbSymbolTable
 70
     5
  0
APPID
  5
10
330
9
100
AcDbSymbolTableRecord
100
AcDbRegAppTableRecord
  2
ACAD
 70
     0
  0
APPID
  5
21
330
9
100
AcDbSymbolTableRecord
100
AcDbRegAppTableRecord
  2
CONTENTTABDATA
 70
     0
  0
APPID
  5
22
330
9
100
AcDbSymbolTableRecord
100
AcDbRegAppTableRecord
  2
CONTENTCURRENTTAB
 70
     0
  0
APPID
  5
137
330
9
100
AcDbSymbolTableRecord
100
AcDbRegAppTableRecord
  2
CONTENTBLOCKDESCRIPTION
 70
     0
  0
APPID
  5
186
330
9
100
AcDbSymbolTableRecord
100
AcDbRegAppTableRecord
  2
CONTENTBLOCKICON
 70
     0
  0
ENDTAB
  0
TABLE
  2
DIMSTYLE
  5
A
330
0
100
AcDbSymbolTable
 70
     1
100
AcDbDimStyleTable
 71
     1
340
1D
  0
DIMSTYLE
105
1D
102
{ACAD_REACTORS
330
E4D
330
E72
330
E77
330
F1F
330
F4E
330
F50
330
F52
102
}
330
A
100
AcDbSymbolTableRecord
100
AcDbDimStyleTableRecord
  2
STANDARD
 70
     0
 40
0.0
 41
2.5
 42
1.5
 43
5.0
 44
1.25
 73
     0
 74
     0
 77
     1
 78
     8
140
2.5
141
-5.0
143
0.0394
147
0.5
171
     4
172
     1
271
     3
272
     3
273
     8
274
     4
277
     6
340
4B4
  0
ENDTAB
  0
TABLE
  2
BLOCK_RECORD
  5
1
330
0
100
AcDbSymbolTable
 70
     8
  0
BLOCK_RECORD
  5
18
330
1
100
AcDbSymbolTableRecord
100
AcDbBlockTableRecord
  2
*MODEL_SPACE
340
5E3
  0
BLOCK_RECORD
  5
692
330
1
100
AcDbSymbolTableRecord
100
AcDbBlockTableRecord
  2
*Paper_Space
340
693
  0
BLOCK_RECORD
  5
C74
330
1
100
AcDbSymbolTableRecord
100
AcDbBlockTableRecord
  2
合格証
340
0
310
2800000020000000200000000100040000000000000200000000000000000000000000000000000000000000000080000080000000808000800000008000800080800000C0C0C000808080000000FF0000FF000000FFFF00FF000000FF00FF00FFFF0000FFFFFF00FFF00000000000000000000000000FFFFFF00000000000
310
000000000000000FFFFFF00FFFFFFFFFFFFFFFFFFFFFF00FFFFFF00FFFFFFFFFFFFFFFFFFFFFF00FFFFFF00FFFFFFFFFFFFFFFFFFFFFF00FFFFFF00FFFFFFFFFFFFFFFFFFFFFF00FFFFFF00000000000000000000000F00FFFFFF000FFFFFFFFFFFFFFFFFFF0F00FFFFFF000FFFFFFFFFFFFFFFFFFF0F00FFFFFF000FFFFFF
310
FFFFFFFFFFFFF0F00FFFFFF000FFFFFFFFFFFFFFFFFFF0F00FFFFFF000FFFFFFFFFFFFFFFFFFF0F00FFFFFF000FFFFFFFFFFFFFFFFFFF0F00FFFFFF000FFFFFFFFFFFFFFFFFFF0F00FFFFFF000FFFFFFFFFFFFFFFFFFF0F00FFFFFF000FFFFFFFFFFFFFFFFFFF0F00FFFFFF000FFFFFFFFFFFFFFFFFFF0F00FFFFFF000FFFF
310
FFFFFFFFFFFFFFF0F00FFFFFF000FFFFFFFFFFFFFFFFFFF0F00FFFFFF000FFFFFFFFFFFFFFFFFFF0F00FFFFFF000FFFFFFFFFFFFFFFFFFF0F00FFFFFF000FFFFFFFFFFFFFFFFFFF0F00FFFFFF000FFFFFFFFFFFFFFFFFFF0F00FFFFFF000FFFFFFFFFFFFFFFFFFF0F00FFFFFF00000000000000000000000F00FFFFFF000FF
310
FFFFFFFFFFFFFFFFF0F00FFFFFF000FFFFFFFFFFFFFFFFFFF0F00FFFFFF000FFFFFFFFFFFFFFFFFFF0F00FFFFFF000FFFFFFFFFFFFFFFFFFF0F00FFFFFF00000000000000000000000F00FFFFFF00000000000000000000000000FFFFFF00000000000000000000000000FFF
102
{BLKREFS
331
F29
102
}
  0
BLOCK_RECORD
  5
FBC
330
1
100
AcDbSymbolTableRecord
100
AcDbBlockTableRecord
  2
*D1
340
0
  0
BLOCK_RECORD
  5
FC8
330
1
100
AcDbSymbolTableRecord
100
AcDbBlockTableRecord
  2
*D2
340
0
  0
BLOCK_RECORD
  5
FD4
330
1
100
AcDbSymbolTableRecord
100
AcDbBlockTableRecord
  2
*D3
340
0
  0
BLOCK_RECORD
  5
FE0
330
1
100
AcDbSymbolTableRecord
100
AcDbBlockTableRecord
  2
*D4
340
0
  0
BLOCK_RECORD
  5
FEC
330
1
100
AcDbSymbolTableRecord
100
AcDbBlockTableRecord
  2
*D5
340
0
  0
BLOCK_RECORD
  5
FF8
330
1
100
AcDbSymbolTableRecord
100
AcDbBlockTableRecord
  2
*D6
340
0
  0
BLOCK_RECORD
  5
1006
330
1
100
AcDbSymbolTableRecord
100
AcDbBlockTableRecord
  2
*D7
340
0
  0
ENDTAB
  0
ENDSEC
  0
SECTION
  2
BLOCKS
  0
BLOCK
  5
19
330
18
100
AcDbEntity
  8
0
100
AcDbBlockBegin
  2
*MODEL_SPACE
 70
     0
 10
0.0
 20
0.0
 30
0.0
  3
*MODEL_SPACE
  1

  0
ENDBLK
  5
1A
330
18
100
AcDbEntity
  8
0
100
AcDbBlockEnd
  0
BLOCK
  5
694
330
692
100
AcDbEntity
 67
     1
  8
0
100
AcDbBlockBegin
  2
*Paper_Space
 70
     0
 10
0.0
 20
0.0
 30
0.0
  3
*Paper_Space
  1

  0
ENDBLK
  5
695
330
692
100
AcDbEntity
 67
     1
  8
0
100
AcDbBlockEnd
  0
BLOCK
  5
C79
330
C74
100
AcDbEntity
  8
0
100
AcDbBlockBegin
  2
合格証
 70
     0
 10
0.0
 20
0.0
 30
0.0
  3
合格証
  1

  4
社内標準合格証
  0
LWPOLYLINE
  5
C75
330
C74
100
AcDbEntity
  8
0
  6
ByBlock
 62
     0
100
AcDbPolyline
 90
        4
 70
     1
 43
0.0
 10
-8.0
 20
6.5
 10
8.0
 20
6.5
 10
8.0
 20
-7.5
 10
-8.0
 20
-7.5
  0
MTEXT
  5
C76
330
C74
100
AcDbEntity
  8
0
  6
ByBlock
 62
     0
100
AcDbMText
 10
-8.0
 20
11.0
 30
0.0
 40
3.0
 41
16.5
 71
     1
 72
     5
  1
\fＭＳ Ｐゴシック|b0|i0|c128|p50;合 格 証
 73
     1
 44
1.0
  0
LWPOLYLINE
  5
C77
330
C74
100
AcDbEntity
  8
0
  6
ByBlock
 62
     0
100
AcDbPolyline
 90
        4
 70
     1
 43
0.0
 10
-9.0
 20
11.5
 10
9.0
 20
11.5
 10
9.0
 20
-11.5
 10
-9.0
 20
-11.5
  0
LWPOLYLINE
  5
C78
330
C74
100
AcDbEntity
  8
0
  6
ByBlock
 62
     0
100
AcDbPolyline
 90
        4
 70
     1
 43
0.0
 10
-10.0
 20
12.5
 10
10.0
 20
12.5
 10
10.0
 20
-12.5
 10
-10.0
 20
-12.5
  0
ENDBLK
  5
C7A
330
C74
100
AcDbEntity
  8
0
100
AcDbBlockEnd
  0
BLOCK
  5
FC6
330
FBC
100
AcDbEntity
  8
0
100
AcDbBlockBegin
  2
*D1
 70
     1
 10
0.0
 20
0.0
 30
0.0
  3
*D1
  1

  0
LINE
  5
10FB
330
FBC
100
AcDbEntity
  8
2
 62
     0
370
    -2
100
AcDbLine
 10
176.095784916926
 20
95.73512860633513
 30
0.0
 11
176.095784916926
 21
99.87460647090706
 31
0.0
  0
LINE
  5
10FC
330
FBC
100
AcDbEntity
  8
2
 62
     0
370
    -2
100
AcDbLine
 10
244.095784916926
 20
95.73512860633513
 30
0.0
 11
244.095784916926
 21
99.87460647090706
 31
0.0
  0
LINE
  5
10FD
330
FBC
100
AcDbEntity
  8
2
 62
     0
370
    -2
100
AcDbLine
 10
178.595784916926
 20
98.62460647090706
 30
0.0
 11
241.595784916926
 21
98.62460647090706
 31
0.0
  0
MTEXT
  5
10FE
330
FBC
100
AcDbEntity
  8
2
 62
     0
100
AcDbMText
 10
206.4228752223927
 20
100.6875144521052
 30
0.0
 40
2.5
 41
0.0
 71
     5
 72
     1
  1
68
  7
ＭＳ明朝
 73
     1
 44
1.0
  0
SOLID
  5
10FF
330
FBC
100
AcDbEntity
  8
2
 62
     0
100
AcDbTrace
 10
178.595784916926
 20
99.04127313757372
 30
0.0
 11
178.595784916926
 21
98.20793980424038
 31
0.0
 12
176.095784916926
 22
98.62460647090706
 32
0.0
 13
176.095784916926
 23
98.62460647090706
 33
0.0
  0
SOLID
  5
1100
330
FBC
100
AcDbEntity
  8
2
 62
     0
100
AcDbTrace
 10
241.595784916926
 20
99.04127313757372
 30
0.0
 11
241.595784916926
 21
98.20793980424038
 31
0.0
 12
244.095784916926
 22
98.62460647090706
 32
0.0
 13
244.095784916926
 23
98.62460647090706
 33
0.0
  0
POINT
  5
1101
330
FBC
100
AcDbEntity
  8
DEFPOINTS
 62
     0
100
AcDbPoint
 10
176.095784916926
 20
94.23512860633513
 30
0.0
  0
POINT
  5
1102
330
FBC
100
AcDbEntity
  8
DEFPOINTS
 62
     0
100
AcDbPoint
 10
244.095784916926
 20
94.23512860633513
 30
0.0
  0
POINT
  5
1103
330
FBC
100
AcDbEntity
  8
DEFPOINTS
 62
     0
100
AcDbPoint
 10
244.095784916926
 20
98.62460647090706
 30
0.0
  0
ENDBLK
  5
FC7
330
FBC
100
AcDbEntity
  8
0
100
AcDbBlockEnd
  0
BLOCK
  5
FD2
330
FC8
100
AcDbEntity
  8
0
100
AcDbBlockBegin
  2
*D2
 70
     1
 10
0.0
 20
0.0
 30
0.0
  3
*D2
  1

  0
LINE
  5
110D
330
FC8
100
AcDbEntity
  8
2
 62
     0
370
    -2
100
AcDbLine
 10
245.595784916926
 20
94.23512860633513
 30
0.0
 11
255.2486882953806
 21
94.23512860633513
 31
0.0
  0
LINE
  5
110E
330
FC8
100
AcDbEntity
  8
2
 62
     0
370
    -2
100
AcDbLine
 10
245.595784916926
 20
61.23512860633514
 30
0.0
 11
255.2486882953806
 21
61.23512860633514
 31
0.0
  0
LINE
  5
110F
330
FC8
100
AcDbEntity
  8
2
 62
     0
370
    -2
100
AcDbLine
 10
253.9986882953806
 20
91.73512860633513
 30
0.0
 11
253.9986882953805
 21
63.73512860633514
 31
0.0
  0
MTEXT
  5
1110
330
FC8
100
AcDbEntity
  8
2
 62
     0
100
AcDbMText
 10
251.8687098710988
 20
74.53620054323528
 30
0.0
 40
2.5
 41
0.0
 71
     5
 72
     1
  1
33
  7
ＭＳ明朝
 11
0.0000000000000001
 21
1.0
 31
0.0
 73
     1
 44
1.0
  0
SOLID
  5
1111
330
FC8
100
AcDbEntity
  8
2
 62
     0
100
AcDbTrace
 10
253.5820216287139
 20
91.73512860633513
 30
0.0
 11
254.4153549620472
 21
91.73512860633513
 31
0.0
 12
253.9986882953806
 22
94.23512860633513
 32
0.0
 13
253.9986882953806
 23
94.23512860633513
 33
0.0
  0
SOLID
  5
1112
330
FC8
100
AcDbEntity
  8
2
 62
     0
100
AcDbTrace
 10
253.5820216287139
 20
63.73512860633514
 30
0.0
 11
254.4153549620472
 21
63.73512860633514
 31
0.0
 12
253.9986882953805
 22
61.23512860633514
 32
0.0
 13
253.9986882953805
 23
61.23512860633514
 33
0.0
  0
POINT
  5
1113
330
FC8
100
AcDbEntity
  8
DEFPOINTS
 62
     0
100
AcDbPoint
 10
244.095784916926
 20
94.23512860633513
 30
0.0
  0
POINT
  5
1114
330
FC8
100
AcDbEntity
  8
DEFPOINTS
 62
     0
100
AcDbPoint
 10
244.095784916926
 20
61.23512860633514
 30
0.0
  0
POINT
  5
1115
330
FC8
100
AcDbEntity
  8
DEFPOINTS
 62
     0
100
AcDbPoint
 10
253.9986882953805
 20
61.23512860633514
 30
0.0
  0
ENDBLK
  5
FD3
330
FC8
100
AcDbEntity
  8
0
100
AcDbBlockEnd
  0
BLOCK
  5
FDE
330
FD4
100
AcDbEntity
  8
0
100
AcDbBlockBegin
  2
*D3
 70
     1
 10
0.0
 20
0.0
 30
0.0
  3
*D3
  1

  0
LINE
  5
1026
330
FD4
100
AcDbEntity
  8
2
 62
     0
370
    -2
100
AcDbLine
 10
118.595784916926
 20
194.2351286063351
 30
0.0
 11
125.7903487108243
 21
194.2351286063351
 31
0.0
  0
LINE
  5
1027
330
FD4
100
AcDbEntity
  8
2
 62
     0
370
    -2
100
AcDbLine
 10
118.595784916926
 20
158.2351286063351
 30
0.0
 11
125.7903487108243
 21
158.2351286063351
 31
0.0
  0
LINE
  5
1028
330
FD4
100
AcDbEntity
  8
2
 62
     0
370
    -2
100
AcDbLine
 10
124.5403487108243
 20
191.7351286063351
 30
0.0
 11
124.5403487108243
 21
160.7351286063351
 31
0.0
  0
SOLID
  5
1029
330
FD4
100
AcDbEntity
  8
2
 62
     0
100
AcDbTrace
 10
124.1236820441576
 20
191.7351286063351
 30
0.0
 11
124.957015377491
 21
191.7351286063351
 31
0.0
 12
124.5403487108243
 22
194.2351286063351
 32
0.0
 13
124.5403487108243
 23
194.2351286063351
 33
0.0
  0
SOLID
  5
102A
330
FD4
100
AcDbEntity
  8
2
 62
     0
100
AcDbTrace
 10
124.1236820441576
 20
160.7351286063351
 30
0.0
 11
124.957015377491
 21
160.7351286063351
 31
0.0
 12
124.5403487108243
 22
158.2351286063351
 32
0.0
 13
124.5403487108243
 23
158.2351286063351
 33
0.0
  0
MTEXT
  5
102B
330
FD4
100
AcDbEntity
  8
2
 62
     0
100
AcDbMText
 10
122.7903487108243
 20
176.2351286063351
 30
0.0
 40
2.5
 41
0.0
 71
     5
 72
     1
  1
\A1;36
  7
ＭＳ明朝
 11
0.0000000000000001
 21
1.0
 31
0.0
 73
     1
 44
1.0
  0
POINT
  5
102C
330
FD4
100
AcDbEntity
  8
DEFPOINTS
 62
     0
100
AcDbPoint
 10
117.095784916926
 20
194.2351286063351
 30
0.0
  0
POINT
  5
102D
330
FD4
100
AcDbEntity
  8
DEFPOINTS
 62
     0
100
AcDbPoint
 10
117.095784916926
 20
158.2351286063351
 30
0.0
  0
POINT
  5
102E
330
FD4
100
AcDbEntity
  8
DEFPOINTS
 62
     0
100
AcDbPoint
 10
124.5403487108243
 20
158.2351286063351
 30
0.0
  0
ENDBLK
  5
FDF
330
FD4
100
AcDbEntity
  8
0
100
AcDbBlockEnd
  0
BLOCK
  5
FEA
330
FE0
100
AcDbEntity
  8
0
100
AcDbBlockBegin
  2
*D4
 70
     1
 10
0.0
 20
0.0
 30
0.0
  3
*D4
  1

  0
LINE
  5
102F
330
FE0
100
AcDbEntity
  8
2
 62
     0
370
    -2
100
AcDbLine
 10
46.09578491692604
 20
194.7351286063351
 30
0.0
 11
46.09578491692604
 21
199.5158928159014
 31
0.0
  0
LINE
  5
1030
330
FE0
100
AcDbEntity
  8
2
 62
     0
370
    -2
100
AcDbLine
 10
118.095784916926
 20
194.7351286063351
 30
0.0
 11
118.095784916926
 21
199.5158928159014
 31
0.0
  0
LINE
  5
1031
330
FE0
100
AcDbEntity
  8
2
 62
     0
370
    -2
100
AcDbLine
 10
48.59578491692605
 20
198.2658928159014
 30
0.0
 11
115.595784916926
 21
198.2658928159014
 31
0.0
  0
SOLID
  5
1032
330
FE0
100
AcDbEntity
  8
2
 62
     0
100
AcDbTrace
 10
48.59578491692605
 20
198.6825594825681
 30
0.0
 11
48.59578491692605
 21
197.8492261492347
 31
0.0
 12
46.09578491692604
 22
198.2658928159014
 32
0.0
 13
46.09578491692604
 23
198.2658928159014
 33
0.0
  0
SOLID
  5
1033
330
FE0
100
AcDbEntity
  8
2
 62
     0
100
AcDbTrace
 10
115.595784916926
 20
198.6825594825681
 30
0.0
 11
115.595784916926
 21
197.8492261492347
 31
0.0
 12
118.095784916926
 22
198.2658928159014
 32
0.0
 13
118.095784916926
 23
198.2658928159014
 33
0.0
  0
MTEXT
  5
1034
330
FE0
100
AcDbEntity
  8
2
 62
     0
100
AcDbMText
 10
82.09578491692605
 20
200.0158928159014
 30
0.0
 40
2.5
 41
0.0
 71
     5
 72
     1
  1
\A1;72
  7
ＭＳ明朝
 73
     1
 44
1.0
  0
POINT
  5
1035
330
FE0
100
AcDbEntity
  8
DEFPOINTS
 62
     0
100
AcDbPoint
 10
46.09578491692604
 20
193.2351286063351
 30
0.0
  0
POINT
  5
1036
330
FE0
100
AcDbEntity
  8
DEFPOINTS
 62
     0
100
AcDbPoint
 10
118.095784916926
 20
193.2351286063351
 30
0.0
  0
POINT
  5
1037
330
FE0
100
AcDbEntity
  8
DEFPOINTS
 62
     0
100
AcDbPoint
 10
118.095784916926
 20
198.2658928159014
 30
0.0
  0
ENDBLK
  5
FEB
330
FE0
100
AcDbEntity
  8
0
100
AcDbBlockEnd
  0
BLOCK
  5
FF6
330
FEC
100
AcDbEntity
  8
0
100
AcDbBlockBegin
  2
*D5
 70
     1
 10
0.0
 20
0.0
 30
0.0
  3
*D5
  1

  0
LINE
  5
1038
330
FEC
100
AcDbEntity
  8
2
 62
     0
370
    -2
100
AcDbLine
 10
226.095784916926
 20
193.2351286063351
 30
0.0
 11
226.095784916926
 21
199.4851286063351
 31
0.0
  0
LINE
  5
1039
330
FEC
100
AcDbEntity
  8
2
 62
     0
370
    -2
100
AcDbLine
 10
161.095784916926
 20
195.7351286063351
 30
0.0
 11
161.095784916926
 21
199.4851286063351
 31
0.0
  0
LINE
  5
103A
330
FEC
100
AcDbEntity
  8
2
 62
     0
370
    -2
100
AcDbLine
 10
223.595784916926
 20
198.2351286063351
 30
0.0
 11
163.595784916926
 21
198.2351286063351
 31
0.0
  0
SOLID
  5
103B
330
FEC
100
AcDbEntity
  8
2
 62
     0
100
AcDbTrace
 10
223.595784916926
 20
198.6517952730018
 30
0.0
 11
223.595784916926
 21
197.8184619396684
 31
0.0
 12
226.095784916926
 22
198.2351286063351
 32
0.0
 13
226.095784916926
 23
198.2351286063351
 33
0.0
  0
SOLID
  5
103C
330
FEC
100
AcDbEntity
  8
2
 62
     0
100
AcDbTrace
 10
163.595784916926
 20
198.6517952730018
 30
0.0
 11
163.595784916926
 21
197.8184619396684
 31
0.0
 12
161.095784916926
 22
198.2351286063351
 32
0.0
 13
161.095784916926
 23
198.2351286063351
 33
0.0
  0
MTEXT
  5
103D
330
FEC
100
AcDbEntity
  8
2
 62
     0
100
AcDbMText
 10
193.595784916926
 20
199.9851286063351
 30
0.0
 40
2.5
 41
0.0
 71
     5
 72
     1
  1
\A1;65
  7
ＭＳ明朝
 73
     1
 44
1.0
  0
POINT
  5
103E
330
FEC
100
AcDbEntity
  8
DEFPOINTS
 62
     0
100
AcDbPoint
 10
226.095784916926
 20
191.7351286063351
 30
0.0
  0
POINT
  5
103F
330
FEC
100
AcDbEntity
  8
DEFPOINTS
 62
     0
100
AcDbPoint
 10
161.095784916926
 20
194.2351286063351
 30
0.0
  0
POINT
  5
1040
330
FEC
100
AcDbEntity
  8
DEFPOINTS
 62
     0
100
AcDbPoint
 10
161.095784916926
 20
198.2351286063351
 30
0.0
  0
ENDBLK
  5
FF7
330
FEC
100
AcDbEntity
  8
0
100
AcDbBlockEnd
  0
BLOCK
  5
1004
330
FF8
100
AcDbEntity
  8
0
100
AcDbBlockBegin
  2
*D6
 70
     1
 10
0.0
 20
0.0
 30
0.0
  3
*D6
  1

  0
LINE
  5
1041
330
FF8
100
AcDbEntity
  8
2
 62
     0
370
    -2
100
AcDbLine
 10
161.095784916926
 20
195.7351286063351
 30
0.0
 11
161.095784916926
 21
199.4851286063351
 31
0.0
  0
LINE
  5
1042
330
FF8
100
AcDbEntity
  8
2
 62
     0
370
    -2
100
AcDbLine
 10
158.595784916926
 20
194.7351286063351
 30
0.0
 11
158.595784916926
 21
199.4851286063351
 31
0.0
  0
LINE
  5
1043
330
FF8
100
AcDbEntity
  8
2
 62
     0
370
    -2
100
AcDbLine
 10
163.595784916926
 20
198.2351286063351
 30
0.0
 11
166.095784916926
 21
198.2351286063351
 31
0.0
  0
LINE
  5
1044
330
FF8
100
AcDbEntity
  8
2
 62
     0
370
    -2
100
AcDbLine
 10
156.095784916926
 20
198.2351286063351
 30
0.0
 11
147.5243563454974
 21
198.2351286063351
 31
0.0
  0
LINE
  5
1045
330
FF8
100
AcDbEntity
  8
2
 62
     0
370
    -2
100
AcDbLine
 10
161.095784916926
 20
198.2351286063351
 30
0.0
 11
158.595784916926
 21
198.2351286063351
 31
0.0
  0
SOLID
  5
1046
330
FF8
100
AcDbEntity
  8
2
 62
     0
100
AcDbTrace
 10
163.595784916926
 20
198.6517952730018
 30
0.0
 11
163.595784916926
 21
197.8184619396684
 31
0.0
 12
161.095784916926
 22
198.2351286063351
 32
0.0
 13
161.095784916926
 23
198.2351286063351
 33
0.0
  0
SOLID
  5
1047
330
FF8
100
AcDbEntity
  8
2
 62
     0
100
AcDbTrace
 10
156.095784916926
 20
198.6517952730018
 30
0.0
 11
156.095784916926
 21
197.8184619396684
 31
0.0
 12
158.595784916926
 22
198.2351286063351
 32
0.0
 13
158.595784916926
 23
198.2351286063351
 33
0.0
  0
MTEXT
  5
1048
330
FF8
100
AcDbEntity
  8
2
 62
     0
100
AcDbMText
 10
150.5600706312117
 20
199.9851286063351
 30
0.0
 40
2.5
 41
0.0
 71
     5
 72
     1
  1
\A1;2.5
  7
ＭＳ明朝
 73
     1
 44
1.0
  0
POINT
  5
1049
330
FF8
100
AcDbEntity
  8
DEFPOINTS
 62
     0
100
AcDbPoint
 10
161.095784916926
 20
194.2351286063351
 30
0.0
  0
POINT
  5
104A
330
FF8
100
AcDbEntity
  8
DEFPOINTS
 62
     0
100
AcDbPoint
 10
158.595784916926
 20
193.2351286063351
 30
0.0
  0
POINT
  5
104B
330
FF8
100
AcDbEntity
  8
DEFPOINTS
 62
     0
100
AcDbPoint
 10
158.595784916926
 20
198.2351286063351
 30
0.0
  0
ENDBLK
  5
1005
330
FF8
100
AcDbEntity
  8
0
100
AcDbBlockEnd
  0
BLOCK
  5
1012
330
1006
100
AcDbEntity
  8
0
100
AcDbBlockBegin
  2
*D7
 70
     1
 10
0.0
 20
0.0
 30
0.0
  3
*D7
  1

  0
LINE
  5
104C
330
1006
100
AcDbEntity
  8
2
 62
     0
370
    -2
100
AcDbLine
 10
226.095784916926
 20
193.2351286063351
 30
0.0
 11
226.095784916926
 21
199.4851286063351
 31
0.0
  0
LINE
  5
104D
330
1006
100
AcDbEntity
  8
2
 62
     0
370
    -2
100
AcDbLine
 10
232.095784916926
 20
192.7351286063351
 30
0.0
 11
232.095784916926
 21
199.4851286063351
 31
0.0
  0
LINE
  5
104E
330
1006
100
AcDbEntity
  8
2
 62
     0
370
    -2
100
AcDbLine
 10
223.595784916926
 20
198.2351286063351
 30
0.0
 11
221.095784916926
 21
198.2351286063351
 31
0.0
  0
LINE
  5
104F
330
1006
100
AcDbEntity
  8
2
 62
     0
370
    -2
100
AcDbLine
 10
234.595784916926
 20
198.2351286063351
 30
0.0
 11
237.095784916926
 21
198.2351286063351
 31
0.0
  0
LINE
  5
1050
330
1006
100
AcDbEntity
  8
2
 62
     0
370
    -2
100
AcDbLine
 10
226.095784916926
 20
198.2351286063351
 30
0.0
 11
232.095784916926
 21
198.2351286063351
 31
0.0
  0
SOLID
  5
1051
330
1006
100
AcDbEntity
  8
2
 62
     0
100
AcDbTrace
 10
223.595784916926
 20
198.6517952730018
 30
0.0
 11
223.595784916926
 21
197.8184619396684
 31
0.0
 12
226.095784916926
 22
198.2351286063351
 32
0.0
 13
226.095784916926
 23
198.2351286063351
 33
0.0
  0
SOLID
  5
1052
330
1006
100
AcDbEntity
  8
2
 62
     0
100
AcDbTrace
 10
234.595784916926
 20
198.6517952730018
 30
0.0
 11
234.595784916926
 21
197.8184619396684
 31
0.0
 12
232.095784916926
 22
198.2351286063351
 32
0.0
 13
232.095784916926
 23
198.2351286063351
 33
0.0
  0
MTEXT
  5
1053
330
1006
100
AcDbEntity
  8
2
 62
     0
100
AcDbMText
 10
229.095784916926
 20
199.9851286063351
 30
0.0
 40
2.5
 41
0.0
 71
     5
 72
     1
  1
\A1;6
  7
ＭＳ明朝
 73
     1
 44
1.0
  0
POINT
  5
1054
330
1006
100
AcDbEntity
  8
DEFPOINTS
 62
     0
100
AcDbPoint
 10
226.095784916926
 20
191.7351286063351
 30
0.0
  0
POINT
  5
1055
330
1006
100
AcDbEntity
  8
DEFPOINTS
 62
     0
100
AcDbPoint
 10
232.095784916926
 20
191.2351286063351
 30
0.0
  0
POINT
  5
1056
330
1006
100
AcDbEntity
  8
DEFPOINTS
 62
     0
100
AcDbPoint
 10
232.095784916926
 20
198.2351286063351
 30
0.0
  0
ENDBLK
  5
1013
330
1006
100
AcDbEntity
  8
0
100
AcDbBlockEnd
  0
ENDSEC
  0
SECTION
  2
ENTITIES
  0
LINE
  5
E4C
330
18
100
AcDbEntity
  8
2
  6
2-中心線
100
AcDbLine
 10
82.09578491692605
 20
196.2351286063351
 30
0.0
 11
82.09578491692605
 21
34.23512860633513
 31
0.0
  0
DIMENSION
  5
E4D
330
18
100
AcDbEntity
  8
2
100
AcDbDimension
  2
*D1
 10
244.095784916926
 20
98.62460647090706
 30
0.0
 11
206.4228752223927
 21
100.6875144521052
 31
0.0
 70
   160
 71
     5
 42
68.0
  3
STANDARD
100
AcDbAlignedDimension
 13
176.095784916926
 23
94.23512860633513
 33
0.0
 14
244.095784916926
 24
94.23512860633513
 34
0.0
100
AcDbRotatedDimension
1001
ACAD
1000
DSTYLE
1002
{
1070
    40
1040
1.0
1070
   146
1040
0.7
1070
   272
1070
     0
1070
   279
1070
     2
1070
   283
1070
     0
1070
   284
1070
    12
1002
}
  0
LINE
  5
E4E
330
18
100
AcDbEntity
  8
1
100
AcDbLine
 10
49.09578491692605
 20
50.47824039191977
 30
0.0
 11
48.09578491692604
 21
115.4782403919197
 31
0.0
  0
LINE
  5
E4F
330
18
100
AcDbEntity
  8
1
100
AcDbLine
 10
116.095784916926
 20
115.4782403919197
 30
0.0
 11
115.095784916926
 21
50.47824039191977
 31
0.0
  0
LEADER
  5
E50
330
18
100
AcDbEntity
  8
2
100
AcDbLeader
  3
STANDARD
 74
     0
 40
3.428571428571428
 41
22.85714285714286
 76
     2
 10
112.095784916926
 20
47.23512860633514
 30
0.0
 10
123.8998128877943
 20
32.41022284036489
 30
0.0
1001
ACAD
1000
DSTYLE
1002
{
1070
    47
1040
0.7
1070
   283
1070
     0
1070
    71
1070
     1
1070
   146
1040
0.5
1070
    40
1040
1.0
1002
}
  0
LINE
  5
E52
330
18
100
AcDbEntity
  8
1
100
AcDbLine
 10
49.09578491692605
 20
50.47824039191977
 30
0.0
 11
115.095784916926
 21
50.47824039191977
 31
0.0
  0
LWPOLYLINE
  5
E53
330
18
100
AcDbEntity
  8
1
100
AcDbPolyline
 90
        4
 70
     0
 43
0.0
 10
66.84578491692604
 20
49.97824039191974
 10
66.84578491692604
 20
48.47824039191976
 10
74.34578491692604
 20
48.47824039191976
 10
74.34578491692604
 20
49.97824039191977
  0
LINE
  5
E54
330
18
100
AcDbEntity
  8
1
100
AcDbLine
 10
55.59578491692604
 20
50.47824039191977
 30
0.0
 11
55.59578491692604
 21
44.47824039191977
 31
0.0
  0
LINE
  5
E55
330
18
100
AcDbEntity
  8
1
100
AcDbLine
 10
50.09578491692605
 20
44.47824039191977
 30
0.0
 11
50.09578491692605
 21
50.47824039191977
 31
0.0
  0
LWPOLYLINE
  5
E56
330
18
100
AcDbEntity
  8
1
370
    15
100
AcDbPolyline
 90
        6
 70
     0
 43
0.0
 10
60.84578491692605
 20
49.97824039191975
 10
60.84578491692605
 20
49.22824039191977
 10
61.09578491692605
 20
48.97824039191977
 10
61.59578491692605
 20
48.97824039191977
 10
61.84578491692604
 20
49.22824039191977
 10
61.84578491692604
 20
49.97824039191975
  0
LWPOLYLINE
  5
E57
330
18
100
AcDbEntity
  8
1
370
    15
100
AcDbPolyline
 90
        6
 70
     0
 43
0.0
 10
59.34578491692604
 20
49.97824039191975
 10
59.34578491692604
 20
49.22824039191977
 10
59.09578491692605
 20
48.97824039191977
 10
58.59578491692605
 20
48.97824039191977
 10
58.34578491692605
 20
49.22824039191977
 10
58.34578491692605
 20
49.97824039191975
  0
LWPOLYLINE
  5
E58
330
18
100
AcDbEntity
  8
1
100
AcDbPolyline
 90
        4
 70
     0
 43
0.0
 10
56.34578491692605
 20
49.97824039191974
 10
56.34578491692605
 20
48.47824039191976
 10
63.84578491692605
 20
48.47824039191976
 10
63.84578491692605
 20
49.97824039191977
  0
LINE
  5
E59
330
18
100
AcDbEntity
  8
1
100
AcDbLine
 10
55.59578491692604
 20
44.47824039191977
 30
0.0
 11
50.09578491692605
 21
44.47824039191977
 31
0.0
  0
LWPOLYLINE
  5
E5A
330
18
100
AcDbEntity
  8
1
100
AcDbPolyline
 90
        4
 70
     1
 43
0.0
 10
52.09578491692605
 20
48.97824039191977
 10
53.59578491692605
 20
48.97824039191977
 10
53.59578491692605
 20
45.97824039191976
 10
52.09578491692605
 20
45.97824039191976
  0
LINE
  5
E5B
330
18
100
AcDbEntity
  8
1
370
    15
100
AcDbLine
 10
59.34578491692604
 20
49.22824039191977
 30
0.0
 11
58.34578491692605
 21
49.22824039191977
 31
0.0
  0
LINE
  5
E5C
330
18
100
AcDbEntity
  8
1
370
    15
100
AcDbLine
 10
60.84578491692605
 20
49.22824039191977
 30
0.0
 11
61.84578491692604
 21
49.22824039191977
 31
0.0
  0
LINE
  5
E5D
330
18
100
AcDbEntity
  8
1
100
AcDbLine
 10
65.395784916926
 20
49.97824039191977
 30
0.0
 11
55.59578491692604
 21
49.97824039191974
 31
0.0
  0
LINE
  5
E5E
330
18
100
AcDbEntity
  8
1
100
AcDbLine
 10
75.395784916926
 20
49.97824039191977
 30
0.0
 11
65.79578491692609
 21
49.97824039191977
 31
0.0
  0
ARC
  5
E5F
330
18
100
AcDbEntity
  8
1
100
AcDbCircle
 10
65.395784916926
 20
50.47824039191977
 30
0.0
 40
0.5
100
AcDbArc
 50
270.0
 51
0.0
  0
ARC
  5
E60
330
18
100
AcDbEntity
  8
1
100
AcDbCircle
 10
65.79578491692609
 20
50.47824039191977
 30
0.0
 40
0.5
100
AcDbArc
 50
246.4218215217993
 51
270.0
  0
ARC
  5
E61
330
18
100
AcDbEntity
  8
1
100
AcDbCircle
 10
75.395784916926
 20
50.47824039191977
 30
0.0
 40
0.5
100
AcDbArc
 50
270.0
 51
0.0
  0
LINE
  5
E62
330
18
100
AcDbEntity
  8
1
100
AcDbLine
 10
114.095784916926
 20
44.47824039191977
 30
0.0
 11
114.095784916926
 21
50.47824039191977
 31
0.0
  0
LINE
  5
E63
330
18
100
AcDbEntity
  8
1
100
AcDbLine
 10
108.595784916926
 20
50.47824039191977
 30
0.0
 11
108.595784916926
 21
44.47824039191977
 31
0.0
  0
LWPOLYLINE
  5
E64
330
18
100
AcDbEntity
  8
1
100
AcDbPolyline
 90
        4
 70
     0
 43
0.0
 10
79.09578491692605
 20
49.97824039191979
 10
79.09578491692605
 20
47.97824039191978
 10
85.09578491692606
 20
47.97824039191978
 10
85.09578491692606
 20
49.97824039191979
  0
LWPOLYLINE
  5
E65
330
18
100
AcDbEntity
  8
1
100
AcDbPolyline
 90
        4
 70
     0
 43
0.0
 10
86.79578491692609
 20
49.97824039191979
 10
86.79578491692609
 20
47.97824039191978
 10
92.79578491692609
 20
47.97824039191978
 10
92.79578491692609
 20
49.97824039191979
  0
LINE
  5
E66
330
18
100
AcDbEntity
  8
1
100
AcDbLine
 10
108.595784916926
 20
44.47824039191977
 30
0.0
 11
114.095784916926
 21
44.47824039191977
 31
0.0
  0
LWPOLYLINE
  5
E67
330
18
100
AcDbEntity
  8
1
100
AcDbPolyline
 90
        4
 70
     1
 43
0.0
 10
112.095784916926
 20
48.97824039191977
 10
110.595784916926
 20
48.97824039191977
 10
110.595784916926
 20
45.97824039191976
 10
112.095784916926
 20
45.97824039191976
  0
LINE
  5
E68
330
18
100
AcDbEntity
  8
1
100
AcDbLine
 10
78.19578491692607
 20
49.97824039191977
 30
0.0
 11
108.595784916926
 21
49.97824039191977
 31
0.0
  0
ARC
  5
E69
330
18
100
AcDbEntity
  8
1
100
AcDbCircle
 10
78.19578491692607
 20
50.47824039191977
 30
0.0
 40
0.5
100
AcDbArc
 50
180.0
 51
270.0
  0
LINE
  5
E6A
330
18
100
AcDbEntity
  8
2
  6
2-中心線
100
AcDbLine
 10
176.095784916926
 20
94.23512860633513
 30
0.0
 11
244.095784916926
 21
61.23512860633514
 31
0.0
  0
LINE
  5
E6B
330
18
100
AcDbEntity
  8
2
  6
2-中心線
100
AcDbLine
 10
244.095784916926
 20
94.23512860633513
 30
0.0
 11
176.095784916926
 21
61.23512860633514
 31
0.0
  0
TEXT
  5
E6C
330
18
100
AcDbEntity
  8
2
100
AcDbText
 10
178.095784916926
 20
39.23512860633513
 30
0.0
 40
6.0
  1
パネルカット寸法
  7
ＭＳゴシック
100
AcDbText
  0
LINE
  5
E6D
330
18
100
AcDbEntity
  8
2
100
AcDbLine
 10
174.095784916926
 20
37.23512860633514
 30
0.0
 11
245.095784916926
 21
37.23512860633514
 31
0.0
  0
LINE
  5
E6E
330
18
100
AcDbEntity
  8
2
  6
2-中心線
100
AcDbLine
 10
169.095784916926
 20
77.73512860633513
 30
0.0
 11
248.095784916926
 21
77.73512860633513
 31
0.0
  0
LWPOLYLINE
  5
E6F
330
18
100
AcDbEntity
  8
1
100
AcDbPolyline
 90
        4
 70
     1
 43
0.0
 10
176.095784916926
 20
94.23512860633513
 10
244.095784916926
 20
94.23512860633513
 10
244.095784916926
 20
61.23512860633514
 10
176.095784916926
 20
61.23512860633514
  0
TEXT
  5
E70
330
18
100
AcDbEntity
  8
2
100
AcDbText
 10
192.595784916926
 20
52.23512860633514
 30
0.0
 40
3.0
  1
ﾊﾟﾈﾙ板厚：ｔ＝1～3.2mm
  7
ＭＳゴシック
100
AcDbText
  0
LINE
  5
E71
330
18
100
AcDbEntity
  8
2
  6
2-中心線
100
AcDbLine
 10
210.095784916926
 20
57.23512860633514
 30
0.0
 11
210.095784916926
 21
96.23512860633514
 31
0.0
  0
DIMENSION
  5
E72
330
18
100
AcDbEntity
  8
2
100
AcDbDimension
  2
*D2
 10
253.9986882953805
 20
61.23512860633514
 30
0.0
 11
251.8687098710988
 21
74.53620054323528
 31
0.0
 70
   160
 71
     5
 42
33.0
  3
STANDARD
100
AcDbAlignedDimension
 13
244.095784916926
 23
94.23512860633513
 33
0.0
 14
244.095784916926
 24
61.23512860633514
 34
0.0
 50
90.0
100
AcDbRotatedDimension
1001
ACAD
1000
DSTYLE
1002
{
1070
    40
1040
1.0
1070
    47
1040
0.7
1070
    48
1040
0.000000001
1070
   146
1040
0.7
1070
   279
1070
     2
1070
   283
1070
     0
1002
}
  0
LINE
  5
E73
330
18
100
AcDbEntity
  8
2
  6
2-中心線
100
AcDbLine
 10
256.095784916926
 20
77.73512860633513
 30
0.0
 11
273.095784916926
 21
77.73512860633513
 31
0.0
  0
LEADER
  5
E75
330
18
100
AcDbEntity
  8
2
100
AcDbLeader
  3
STANDARD
 74
     0
 40
3.37142857142857
 41
27.71428571428571
 76
     2
 10
94.09578491692604
 20
171.5613321489347
 30
0.0
 10
123.8350071557145
 20
139.5155469452698
 30
0.0
1001
ACAD
1000
DSTYLE
1002
{
1070
    40
1040
1.0
1070
    47
1040
0.7
1070
    71
1070
     1
1070
   146
1040
0.7
1070
   283
1070
     0
1002
}
  0
LINE
  5
E76
330
18
100
AcDbEntity
  8
2
  6
2-中心線
100
AcDbLine
 10
127.095784916926
 20
176.2351286063351
 30
0.0
 11
361.095784916926
 21
176.2351286063351
 31
0.0
  0
DIMENSION
  5
E77
330
18
100
AcDbEntity
  8
2
100
AcDbDimension
  2
*D3
 10
124.5403487108243
 20
158.2351286063351
 30
0.0
 11
122.7903487108243
 21
176.2351286063351
 31
0.0
 70
    32
 71
     5
 42
36.0
  3
STANDARD
100
AcDbAlignedDimension
 13
117.095784916926
 23
194.2351286063351
 33
0.0
 14
117.095784916926
 24
158.2351286063351
 34
0.0
 50
90.0
100
AcDbRotatedDimension
1001
ACAD
1000
DSTYLE
1002
{
1070
    40
1040
1.0
1002
}
  0
TEXT
  5
E78
330
18
100
AcDbEntity
  8
1
100
AcDbText
 10
50.09578491692605
 20
187.2351286063351
 30
0.0
 40
3.0
  1
TEMPERATURE CONTROLLER
  7
ＭＳゴシック
100
AcDbText
  0
LWPOLYLINE
  5
E79
330
18
100
AcDbEntity
  8
1
100
AcDbPolyline
 90
        8
 70
     1
 43
0.0
 10
47.09578491692605
 20
194.2351286063351
 10
117.095784916926
 20
194.2351286063351
 42
-0.4142135623730951
 10
118.095784916926
 20
193.2351286063351
 10
118.095784916926
 20
159.2351286063351
 42
-0.4142135623730951
 10
117.095784916926
 20
158.2351286063351
 10
47.09578491692605
 20
158.2351286063351
 42
-0.4142135623730951
 10
46.09578491692604
 20
159.2351286063351
 10
46.09578491692604
 20
193.2351286063351
 42
-0.4142135623730951
  0
LWPOLYLINE
  5
E7A
330
18
100
AcDbEntity
  8
1
370
     5
100
AcDbPolyline
 90
        4
 70
     1
 43
0.0
 10
47.09578491692605
 20
193.2351286063351
 10
117.095784916926
 20
193.2351286063351
 10
117.095784916926
 20
159.2351286063351
 10
47.09578491692605
 20
159.2351286063351
  0
LWPOLYLINE
  5
E7B
330
18
100
AcDbEntity
  8
1
370
     5
100
AcDbPolyline
 90
        4
 70
     1
 43
0.0
 10
47.19578491692607
 20
193.1351286063351
 10
116.995784916926
 20
193.1351286063351
 10
116.995784916926
 20
159.3351286063351
 10
47.19578491692607
 20
159.335128606335
  0
LINE
  5
E7C
330
18
100
AcDbEntity
  8
2
  6
2-中心線
100
AcDbLine
 10
31.0957849169132
 20
176.2351089986413
 30
0.0
 11
120.095784916926
 21
176.2351286063351
 31
0.0
  0
LWPOLYLINE
  5
E7D
330
18
100
AcDbEntity
  8
1
370
    15
100
AcDbPolyline
 90
        8
 70
     1
 43
0.0
 10
67.59578491692605
 20
183.2351286063351
 10
96.59578491692606
 20
183.2351286063351
 42
-0.4142135623730951
 10
97.09578491692605
 20
182.7351286063351
 10
97.09578491692605
 20
169.7351286063351
 42
-0.4142135623730951
 10
96.59578491692606
 20
169.2351286063351
 10
67.59578491692605
 20
169.2351286063351
 42
-0.4142135623730951
 10
67.09578491692605
 20
169.7351286063351
 10
67.09578491692605
 20
182.7351286063351
 42
-0.4142135623730951
  0
LINE
  5
E7E
330
18
100
AcDbEntity
  8
1
370
    15
100
AcDbLine
 10
117.095784916926
 20
117.9782403919197
 30
0.0
 11
47.09578491692605
 21
117.9782403919197
 31
0.0
  0
LWPOLYLINE
  5
E7F
330
18
100
AcDbEntity
  8
1
100
AcDbPolyline
 90
        4
 70
     1
 43
0.0
 10
46.09578491692604
 20
115.4782403919197
 10
118.095784916926
 20
115.4782403919197
 10
118.095784916926
 20
117.4782403919197
 10
46.09578491692604
 20
117.4782403919197
  0
LINE
  5
E80
330
18
100
AcDbEntity
  8
1
100
AcDbLine
 10
46.09609684355826
 20
108.9782403919197
 30
0.0
 11
48.30800187481202
 21
101.6841381293293
 31
0.0
  0
LINE
  5
E81
330
18
100
AcDbEntity
  8
1
370
    15
100
AcDbLine
 10
46.97082390775506
 20
114.2282403919197
 30
0.0
 11
47.25137698242792
 21
113.4782403919197
 31
0.0
  0
LINE
  5
E82
330
18
100
AcDbEntity
  8
1
370
    15
100
AcDbLine
 10
46.84586289858407
 20
113.4782403919198
 30
0.0
 11
47.25137698242792
 21
113.4782403919198
 31
0.0
  0
LINE
  5
E83
330
18
100
AcDbEntity
  8
1
370
    15
100
AcDbLine
 10
46.09609684355826
 20
108.9782403919197
 30
0.0
 11
46.50161092740211
 21
108.9782403919197
 31
0.0
  0
LINE
  5
E84
330
18
100
AcDbEntity
  8
1
370
    15
100
AcDbLine
 10
46.22105785272924
 20
109.7282403919197
 30
0.0
 11
46.6265719365731
 21
109.7282403919197
 31
0.0
  0
LINE
  5
E85
330
18
100
AcDbEntity
  8
1
370
    15
100
AcDbLine
 10
46.34601886190023
 20
110.4782403919198
 30
0.0
 11
46.75153294574409
 21
110.4782403919198
 31
0.0
  0
LINE
  5
E86
330
18
100
AcDbEntity
  8
1
370
    15
100
AcDbLine
 10
46.47097987107122
 20
111.2282403919197
 30
0.0
 11
46.87649395491507
 21
111.2282403919197
 31
0.0
  0
LINE
  5
E87
330
18
100
AcDbEntity
  8
1
370
    15
100
AcDbLine
 10
46.59594088024209
 20
111.9782403919197
 30
0.0
 11
47.00145496408595
 21
111.9782403919197
 31
0.0
  0
LINE
  5
E88
330
18
100
AcDbEntity
  8
1
370
    15
100
AcDbLine
 10
46.7209018894132
 20
112.7282403919197
 30
0.0
 11
47.12641597325694
 21
112.7282403919197
 31
0.0
  0
LINE
  5
E89
330
18
100
AcDbEntity
  8
1
370
    15
100
AcDbLine
 10
46.7209018894132
 20
112.7282403919197
 30
0.0
 11
47.00145496408595
 21
111.9782403919197
 31
0.0
  0
LINE
  5
E8A
330
18
100
AcDbEntity
  8
1
370
    15
100
AcDbLine
 10
46.59594088024209
 20
111.9782403919197
 30
0.0
 11
46.87649395491507
 21
111.2282403919197
 31
0.0
  0
LINE
  5
E8B
330
18
100
AcDbEntity
  8
1
370
    15
100
AcDbLine
 10
46.48629539923672
 20
111.2282403919197
 30
0.0
 11
46.76684847390947
 21
110.4782403919197
 31
0.0
  0
LINE
  5
E8C
330
18
100
AcDbEntity
  8
1
370
    15
100
AcDbLine
 10
46.34601886190023
 20
110.4782403919198
 30
0.0
 11
46.6265719365731
 21
109.7282403919197
 31
0.0
  0
LINE
  5
E8D
330
18
100
AcDbEntity
  8
1
370
    15
100
AcDbLine
 10
46.22105785272924
 20
109.7282403919197
 30
0.0
 11
46.50161092740211
 21
108.9782403919197
 31
0.0
  0
LINE
  5
E8E
330
18
100
AcDbEntity
  8
1
370
    15
100
AcDbLine
 10
46.84586289858407
 20
113.4782403919198
 30
0.0
 11
47.12641597325694
 21
112.7282403919197
 31
0.0
  0
LINE
  5
E8F
330
18
100
AcDbEntity
  8
1
370
    15
100
AcDbLine
 10
47.09578491692605
 20
114.9782403919197
 30
0.0
 11
48.10347722461836
 21
114.9782403919197
 31
0.0
  0
LINE
  5
E90
330
18
100
AcDbEntity
  8
1
370
    15
100
AcDbLine
 10
46.09578491692604
 20
117.4782403919197
 30
0.0
 11
47.09578491692605
 21
117.9782403919197
 31
0.0
  0
LINE
  5
E91
330
18
100
AcDbEntity
  8
1
370
    15
100
AcDbLine
 10
46.97082390775506
 20
114.2282403919198
 30
0.0
 11
47.37633799159891
 21
114.2282403919197
 31
0.0
  0
LINE
  5
E92
330
18
100
AcDbEntity
  8
1
370
    15
100
AcDbLine
 10
47.09578491692605
 20
114.9782403919197
 30
0.0
 11
47.37633799159891
 21
114.2282403919197
 31
0.0
  0
LWPOLYLINE
  5
E93
330
18
100
AcDbEntity
  8
1
370
    15
100
AcDbPolyline
 90
        4
 70
     1
 43
0.0
 10
64.395784916926
 20
111.6782403919197
 10
66.79578491692609
 20
111.6782403919197
 10
66.79578491692609
 20
109.6782403919197
 10
64.395784916926
 20
109.6782403919197
  0
LEADER
  5
E95
330
18
100
AcDbEntity
  8
2
100
AcDbLeader
  3
STANDARD
 40
3.414285714285714
 41
18.12857142857142
 76
     2
 10
75.79578491692609
 20
169.7351286063351
 30
0.0
 10
51.69578491692607
 20
143.6351286063351
 30
0.0
1001
ACAD
1000
DSTYLE
1002
{
1070
    40
1040
1.0
1070
    47
1040
0.7
1070
    71
1070
     1
1070
   146
1040
0.7
1070
   283
1070
     0
1002
}
  0
LEADER
  5
E96
330
18
100
AcDbEntity
  8
2
100
AcDbLeader
  3
STANDARD
 40
3.2
 41
10.81428571428571
 76
     2
 10
55.75730728584108
 20
168.8966367651797
 30
0.0
 10
42.01967155447247
 20
152.8524380689348
 30
0.0
1001
ACAD
1000
DSTYLE
1002
{
1070
    40
1040
1.0
1070
    47
1040
0.7
1070
    71
1070
     1
1070
   146
1040
0.7
1070
   283
1070
     0
1002
}
  0
LEADER
  5
E98
330
18
100
AcDbEntity
  8
2
100
AcDbLeader
  3
STANDARD
 40
3.114285714285714
 41
10.85714285714285
 76
     2
 10
55.75730728584097
 20
179.8966383073582
 30
0.0
 10
42.01967078338331
 20
164.6178057047542
 30
0.0
1001
ACAD
1000
DSTYLE
1002
{
1070
    40
1040
1.0
1070
    47
1040
0.7
1070
    71
1070
     1
1070
   146
1040
0.7
1070
   283
1070
     0
1002
}
  0
TEXT
  5
E9A
330
18
100
AcDbEntity
  8
1
100
AcDbText
 10
48.09578491692604
 20
160.2351286063351
 30
0.0
 40
1.8
  1
T5749-6
  7
ＭＳゴシック
100
AcDbText
  0
HATCH
  5
E9B
330
18
100
AcDbEntity
  8
1
370
     0
100
AcDbHatch
 10
0.0
 20
0.0
 30
0.0
210
0.0
220
0.0
230
1.0
  2
SOLID
 70
     1
 71
     1
 91
        3
 92
        7
 72
     1
 73
     1
 93
        6
 10
57.59578491692616
 20
184.3351159384432
 42
0.4142135623731081
 10
54.99578491692602
 20
181.7351159384432
 42
0.4142135623730969
 10
57.59578491692605
 20
179.1351159384432
 42
0.0
 10
60.59578491692604
 20
179.1351159384432
 42
0.4142135623730986
 10
63.19578491692607
 20
181.7351159384432
 42
0.4142135623731001
 10
60.59578491692604
 20
184.3351159384432
 42
0.0
 97
        1
330
EA2
 92
       22
 72
     1
 73
     1
 93
        6
 10
60.59578491692604
 20
183.7351159384432
 42
-0.4142135623730951
 10
62.59578491692605
 20
181.7351159384432
 42
-0.4142135623730951
 10
60.59578491692604
 20
179.7351159384432
 42
0.0
 10
57.59578491692605
 20
179.7351159384432
 42
-0.4142135623730951
 10
55.59578491692604
 20
181.7351159384432
 42
-0.4142135623730951
 10
57.59578491692605
 20
183.7351159384432
 42
0.0
 97
        1
330
EA1
 92
        6
 72
     0
 73
     1
 93
        3
 10
59.09578491692627
 20
183.2351151673537
 10
60.59578491692604
 20
180.2351154978208
 10
57.59578491692593
 20
180.2351148368873
 97
        3
330
E9E
330
E9D
330
EA6
 75
     0
 76
     1
 47
0.036524093151682
 98
        3
 10
58.44803832026514
 20
184.1139811620526
 10
58.44803832026514
 20
184.1139811620526
 10
58.44803832026514
 20
184.1139811620526
  0
HATCH
  5
E9C
330
18
100
AcDbEntity
  8
1
370
     0
100
AcDbHatch
 10
0.0
 20
0.0
 30
0.0
210
0.0
220
0.0
230
1.0
  2
SOLID
 70
     1
 71
     1
 91
        3
 92
        7
 72
     1
 73
     1
 93
        6
 10
57.59578491692605
 20
173.3351143962648
 42
0.4142135623730986
 10
54.99578491692602
 20
170.7351143962648
 42
0.4142135623731001
 10
57.59578491692605
 20
168.1351143962647
 42
0.0
 10
60.59578491692604
 20
168.1351143962647
 42
0.4142135623730952
 10
63.19578491692607
 20
170.7351143962648
 42
0.4142135623730969
 10
60.59578491692604
 20
173.3351143962648
 42
0.0
 97
        1
330
EA3
 92
       22
 72
     1
 73
     1
 93
        6
 10
60.59578491692604
 20
172.7351143962648
 42
-0.4142135623730951
 10
62.59578491692605
 20
170.7351143962648
 42
-0.4142135623730951
 10
60.59578491692604
 20
168.7351143962648
 42
0.0
 10
57.59578491692605
 20
168.7351143962648
 42
-0.4142135623730951
 10
55.59578491692604
 20
170.7351143962648
 42
-0.4142135623730951
 10
57.59578491692605
 20
172.7351143962648
 42
0.0
 97
        1
330
EA4
 92
        6
 72
     0
 73
     1
 93
        3
 10
60.59578491692616
 20
172.2351154978206
 10
59.09578491692605
 20
169.2351151673537
 10
57.59578491692605
 20
172.2351148368871
 97
        3
330
EA0
330
EA5
330
E9F
 75
     0
 76
     1
 47
0.036524093151682
 98
        3
 10
58.11905603554965
 20
173.0471805216952
 10
58.11905603554965
 20
173.0471805216952
 10
58.11905603554965
 20
173.0471805216952
  0
LINE
  5
E9D
102
{ACAD_REACTORS
330
E9B
102
}
330
18
100
AcDbEntity
  8
1
370
     0
100
AcDbLine
 10
57.59578491692605
 20
180.2351148368873
 30
0.0
 11
60.59578491692604
 21
180.2351154978208
 31
0.0
  0
LINE
  5
E9E
102
{ACAD_REACTORS
330
E9B
102
}
330
18
100
AcDbEntity
  8
1
370
     0
100
AcDbLine
 10
60.59578491692604
 20
180.2351154978208
 30
0.0
 11
59.09578491692605
 21
183.2351151673542
 31
0.0
  0
LINE
  5
E9F
102
{ACAD_REACTORS
330
E9C
102
}
330
18
100
AcDbEntity
  8
1
370
     0
100
AcDbLine
 10
60.59578491692604
 20
172.2351154978206
 30
0.0
 11
57.59578491692605
 21
172.2351148368872
 31
0.0
  0
LINE
  5
EA0
102
{ACAD_REACTORS
330
E9C
102
}
330
18
100
AcDbEntity
  8
1
370
     0
100
AcDbLine
 10
59.09578491692605
 20
169.2351151673538
 30
0.0
 11
60.59578491692604
 21
172.2351154978206
 31
0.0
  0
LWPOLYLINE
  5
EA1
102
{ACAD_REACTORS
330
E9B
102
}
330
18
100
AcDbEntity
  8
1
370
     0
100
AcDbPolyline
 90
        8
 70
     1
 43
0.0
 10
57.59578491692605
 20
183.7351159384432
 10
60.59578491692604
 20
183.7351159384432
 42
-0.4142135623730951
 10
62.59578491692605
 20
181.7351159384432
 10
62.59578491692605
 20
181.7351159384432
 42
-0.4142135623730951
 10
60.59578491692604
 20
179.7351159384432
 10
57.59578491692605
 20
179.7351159384432
 42
-0.4142135623730951
 10
55.59578491692604
 20
181.7351159384432
 10
55.59578491692604
 20
181.7351159384432
 42
-0.4142135623730951
  0
LWPOLYLINE
  5
EA2
102
{ACAD_REACTORS
330
E9B
102
}
330
18
100
AcDbEntity
  8
1
370
     0
100
AcDbPolyline
 90
        6
 70
     1
 43
0.0
 10
57.59578491692605
 20
184.3351159384432
 10
60.59578491692604
 20
184.3351159384432
 42
-0.4142135623731001
 10
63.19578491692607
 20
181.7351159384432
 42
-0.4142135623730986
 10
60.59578491692604
 20
179.1351159384432
 10
57.59578491692605
 20
179.1351159384432
 42
-0.4142135623730969
 10
54.99578491692602
 20
181.7351159384432
 42
-0.4142135623730954
  0
LWPOLYLINE
  5
EA3
102
{ACAD_REACTORS
330
E9C
102
}
330
18
100
AcDbEntity
  8
1
370
     0
100
AcDbPolyline
 90
        6
 70
     1
 43
0.0
 10
60.59578491692604
 20
168.1351143962647
 10
57.59578491692605
 20
168.1351143962647
 42
-0.4142135623731001
 10
54.99578491692602
 20
170.7351143962648
 42
-0.4142135623730986
 10
57.59578491692605
 20
173.3351143962648
 10
60.59578491692604
 20
173.3351143962648
 42
-0.4142135623730969
 10
63.19578491692607
 20
170.7351143962648
 42
-0.4142135623730954
  0
LWPOLYLINE
  5
EA4
102
{ACAD_REACTORS
330
E9C
102
}
330
18
100
AcDbEntity
  8
1
370
     0
100
AcDbPolyline
 90
        8
 70
     1
 43
0.0
 10
60.59578491692604
 20
168.7351143962648
 10
57.59578491692605
 20
168.7351143962648
 42
-0.4142135623730951
 10
55.59578491692604
 20
170.7351143962648
 10
55.59578491692604
 20
170.7351143962648
 42
-0.4142135623730951
 10
57.59578491692605
 20
172.7351143962648
 10
60.59578491692604
 20
172.7351143962648
 42
-0.4142135623730951
 10
62.59578491692605
 20
170.7351143962648
 10
62.59578491692605
 20
170.7351143962648
 42
-0.4142135623730951
  0
LINE
  5
EA5
102
{ACAD_REACTORS
330
E9C
102
}
330
18
100
AcDbEntity
  8
1
370
     0
100
AcDbLine
 10
57.59578491692605
 20
172.2351148368872
 30
0.0
 11
59.09578491692605
 21
169.2351151673538
 31
0.0
  0
LINE
  5
EA6
102
{ACAD_REACTORS
330
E9B
102
}
330
18
100
AcDbEntity
  8
1
370
     0
100
AcDbLine
 10
59.09578491692605
 20
183.2351151673542
 30
0.0
 11
57.59578491692605
 21
180.2351148368873
 31
0.0
  0
LINE
  5
EA7
330
18
100
AcDbEntity
  8
1
370
     0
100
AcDbLine
 10
74.59578491692605
 20
183.2351286063351
 30
0.0
 11
74.59578491692605
 21
169.2351286063351
 31
0.0
  0
HATCH
  5
EA8
330
18
100
AcDbEntity
  8
1
370
     0
100
AcDbHatch
 10
0.0
 20
0.0
 30
0.0
210
0.0
220
0.0
230
1.0
  2
SOLID
 70
     1
 71
     1
 91
        1
 92
        7
 72
     0
 73
     1
 93
        4
 10
72.59578491692616
 20
175.6351286063351
 10
72.59578491692605
 20
176.835128606335
 10
68.59578491692605
 20
176.835128606335
 10
68.59578491692605
 20
175.6351286063351
 97
        1
330
EA9
 75
     0
 76
     1
 47
0.067984988444285
 98
        1
 10
70.37366811415257
 20
175.869478722405
  0
LWPOLYLINE
  5
EA9
102
{ACAD_REACTORS
330
EA8
102
}
330
18
100
AcDbEntity
  8
1
370
     0
100
AcDbPolyline
 90
        4
 70
     1
 43
0.0
 10
68.59578491692605
 20
176.8351286063351
 10
72.59578491692605
 20
176.8351286063351
 10
72.59578491692605
 20
175.6351286063351
 10
68.59578491692605
 20
175.6351286063351
  0
LWPOLYLINE
  5
EAA
330
18
100
AcDbEntity
  8
1
370
    15
100
AcDbPolyline
 90
        4
 70
     1
 43
0.0
 10
99.7957849169261
 20
111.6782403919197
 10
97.39578491692601
 20
111.6782403919197
 10
97.39578491692601
 20
109.6782403919197
 10
99.7957849169261
 20
109.6782403919197
  0
LINE
  5
EAB
330
18
100
AcDbEntity
  8
1
100
AcDbLine
 10
118.0954729902938
 20
108.9782403919197
 30
0.0
 11
115.88356795904
 21
101.6841381293293
 31
0.0
  0
LINE
  5
EAC
330
18
100
AcDbEntity
  8
1
370
    15
100
AcDbLine
 10
117.095784916926
 20
117.9782403919197
 30
0.0
 11
118.095784916926
 21
117.4782403919197
 31
0.0
  0
LINE
  5
EAD
330
18
100
AcDbEntity
  8
1
370
    15
100
AcDbLine
 10
117.4706679444389
 20
112.7282403919197
 30
0.0
 11
117.0651538605951
 21
112.7282403919197
 31
0.0
  0
LINE
  5
EAE
330
18
100
AcDbEntity
  8
1
370
    15
100
AcDbLine
 10
117.5956289536098
 20
111.9782403919197
 30
0.0
 11
117.1901148697661
 21
111.9782403919197
 31
0.0
  0
LINE
  5
EAF
330
18
100
AcDbEntity
  8
1
370
    15
100
AcDbLine
 10
117.7205899627808
 20
111.2282403919197
 30
0.0
 11
117.315075878937
 21
111.2282403919197
 31
0.0
  0
LINE
  5
EB0
330
18
100
AcDbEntity
  8
1
370
    15
100
AcDbLine
 10
117.5956289536098
 20
111.9782403919197
 30
0.0
 11
117.315075878937
 21
111.2282403919197
 31
0.0
  0
LINE
  5
EB1
330
18
100
AcDbEntity
  8
1
370
    15
100
AcDbLine
 10
117.4706679444389
 20
112.7282403919197
 30
0.0
 11
117.1901148697661
 21
111.9782403919197
 31
0.0
  0
LINE
  5
EB2
330
18
100
AcDbEntity
  8
1
370
    15
100
AcDbLine
 10
117.220745926097
 20
114.2282403919197
 30
0.0
 11
116.9401928514241
 21
113.4782403919197
 31
0.0
  0
LINE
  5
EB3
330
18
100
AcDbEntity
  8
1
370
    15
100
AcDbLine
 10
117.345706935268
 20
113.4782403919198
 30
0.0
 11
116.9401928514241
 21
113.4782403919198
 31
0.0
  0
LINE
  5
EB4
330
18
100
AcDbEntity
  8
1
370
    15
100
AcDbLine
 10
117.345706935268
 20
113.4782403919198
 30
0.0
 11
117.0651538605951
 21
112.7282403919197
 31
0.0
  0
LINE
  5
EB5
330
18
100
AcDbEntity
  8
1
370
    15
100
AcDbLine
 10
117.095784916926
 20
114.9782403919197
 30
0.0
 11
116.0880926092337
 21
114.9782403919197
 31
0.0
  0
LINE
  5
EB6
330
18
100
AcDbEntity
  8
1
370
    15
100
AcDbLine
 10
117.220745926097
 20
114.2282403919198
 30
0.0
 11
116.8152318422531
 21
114.2282403919197
 31
0.0
  0
LINE
  5
EB7
330
18
100
AcDbEntity
  8
1
370
    15
100
AcDbLine
 10
117.095784916926
 20
114.9782403919197
 30
0.0
 11
116.8152318422531
 21
114.2282403919197
 31
0.0
  0
LINE
  5
EB8
330
18
100
AcDbEntity
  8
1
370
    15
100
AcDbLine
 10
117.9705119811228
 20
109.7282403919197
 30
0.0
 11
117.6899589064499
 21
108.9782403919197
 31
0.0
  0
LINE
  5
EB9
330
18
100
AcDbEntity
  8
1
370
    15
100
AcDbLine
 10
118.0954729902938
 20
108.9782403919197
 30
0.0
 11
117.6899589064499
 21
108.9782403919197
 31
0.0
  0
LINE
  5
EBA
330
18
100
AcDbEntity
  8
1
370
    15
100
AcDbLine
 10
117.8455509719518
 20
110.4782403919198
 30
0.0
 11
117.440036888108
 21
110.4782403919198
 31
0.0
  0
LINE
  5
EBB
330
18
100
AcDbEntity
  8
1
370
    15
100
AcDbLine
 10
117.9705119811228
 20
109.7282403919197
 30
0.0
 11
117.564997897279
 21
109.7282403919197
 31
0.0
  0
LINE
  5
EBC
330
18
100
AcDbEntity
  8
1
370
    15
100
AcDbLine
 10
117.8455509719518
 20
110.4782403919198
 30
0.0
 11
117.564997897279
 21
109.7282403919197
 31
0.0
  0
LINE
  5
EBD
330
18
100
AcDbEntity
  8
1
370
    15
100
AcDbLine
 10
117.7052744346153
 20
111.2282403919197
 30
0.0
 11
117.4247213599426
 21
110.4782403919197
 31
0.0
  0
LEADER
  5
EBE
330
18
100
AcDbEntity
  8
2
100
AcDbLeader
  3
STANDARD
 74
     0
 40
3.2
 41
9.071428571428571
 76
     2
 10
108.4342625480111
 20
168.8966484416716
 30
0.0
 10
126.5957836501368
 20
148.7351273395459
 30
0.0
1001
ACAD
1000
DSTYLE
1002
{
1070
    40
1040
1.0
1070
    47
1040
0.7
1070
    71
1070
     1
1070
   146
1040
0.7
1070
   283
1070
     0
1002
}
  0
LINE
  5
EC0
330
18
100
AcDbEntity
  8
1
370
    30
100
AcDbLine
 10
95.09578491692606
 20
188.2351286063351
 30
0.0
 11
115.095784916926
 21
188.2351286063351
 31
0.0
  0
LWPOLYLINE
  5
EC1
330
18
100
AcDbEntity
  8
1
370
     9
100
AcDbPolyline
 90
        6
 70
     1
 43
0.0
 10
103.595784916926
 20
173.3351260727566
 10
106.595784916926
 20
173.3351260727566
 42
-0.4142135623731001
 10
109.195784916926
 20
170.7351260727566
 42
-0.4142135623730986
 10
106.595784916926
 20
168.1351260727566
 10
103.595784916926
 20
168.1351260727566
 42
-0.4142135623730969
 10
100.995784916926
 20
170.7351260727566
 42
-0.4142135623730954
  0
LWPOLYLINE
  5
EC2
330
18
100
AcDbEntity
  8
1
370
     9
100
AcDbPolyline
 90
        6
 70
     1
 43
0.0
 10
103.595784916926
 20
172.9851260727566
 10
106.595784916926
 20
172.9851260727566
 42
-0.4142135623731025
 10
108.845784916926
 20
170.7351260727566
 42
-0.4142135623731025
 10
106.595784916926
 20
168.4851260727566
 10
103.595784916926
 20
168.4851260727566
 42
-0.4142135623731025
 10
101.345784916926
 20
170.7351260727566
 42
-0.4142135623731025
  0
TEXT
  5
EC3
330
18
100
AcDbEntity
  8
1
100
AcDbText
 10
100.095784916926
 20
161.2351286063351
 30
0.0
 40
3.0
  1
COMPACT
  7
ＭＳゴシック
100
AcDbText
  0
HATCH
  5
EC4
330
18
100
AcDbEntity
  8
1
370
     0
100
AcDbHatch
 10
0.0
 20
0.0
 30
0.0
210
0.0
220
0.0
230
1.0
  2
SOLID
 70
     1
 71
     1
 91
       11
 92
        7
 72
     0
 73
     1
 93
        6
 10
79.16863999788268
 20
181.3151286063351
 10
78.99259277123269
 20
181.1674074433833
 10
79.70773962906003
 20
180.315128606335
 10
82.92265836737328
 20
180.315128606335
 10
83.93836473331736
 20
181.1674074433832
 10
83.81441195996751
 20
181.3151286063351
 97
        6
330
F0D
330
F05
330
F09
330
F08
330
F06
330
F0C
 92
        7
 72
     0
 73
     1
 93
        6
 10
84.22758787113378
 20
180.8227247298291
 10
84.10363509778404
 20
180.9704458927808
 10
83.08792873183984
 20
180.1181670557327
 10
82.52613741197023
 20
176.9320901569375
 10
82.94568722755888
 20
176.4320901569375
 10
83.54156402385603
 20
176.9320901569375
 97
        6
330
F0E
330
F0B
330
ECF
330
EED
330
EE8
330
ECD
 92
        7
 72
     0
 73
     1
 93
        6
 10
82.11508079572842
 20
175.7351286063351
 10
82.71095759202557
 20
176.2351286063351
 10
82.29140777643692
 20
176.7351286063351
 10
79.07648903812367
 20
176.7351286063351
 10
78.4806122418264
 20
176.2351286063351
 10
78.90016205741517
 20
175.7351286063351
 97
        6
330
EEC
330
EDE
330
EE1
330
EE0
330
EDD
330
EEA
 92
        7
 72
     0
 73
     1
 93
        6
 10
76.96398196271798
 20
171.6475324828414
 10
77.08793473606807
 20
171.4998113198894
 10
78.10364110201226
 20
172.3520901569374
 10
78.66543242188197
 20
175.5381670557327
 10
78.24588260629321
 20
176.0381670557326
 10
77.65000580999594
 20
175.5381670557326
 97
        6
330
EE4
330
EE2
330
ED6
330
ED9
330
ED5
330
EE5
 92
        7
 72
     0
 73
     1
 93
        6
 10
82.02292983596942
 20
171.1551286063351
 10
82.1989770626193
 20
171.3028497692869
 10
81.48383020479219
 20
172.1551286063351
 10
78.26891146647881
 20
172.1551286063351
 10
77.25320510053461
 20
171.3028497692869
 10
77.3771578738847
 20
171.1551286063351
 97
        6
330
EDF
330
ED7
330
EDA
330
ED8
330
EDC
330
ED4
 92
        7
 72
     0
 73
     1
 93
        6
 10
89.16863999788267
 20
181.3151286063351
 10
88.99259277123281
 20
181.1674074433833
 10
89.70773962905992
 20
180.315128606335
 10
92.92265836737318
 20
180.315128606335
 10
93.93836473331726
 20
181.1674074433831
 10
93.81441195996741
 20
181.3151286063351
 97
        6
330
F1D
330
EC5
330
F12
330
F11
330
EC6
330
F1C
 92
        7
 72
     0
 73
     1
 93
        6
 10
87.89579206177155
 20
176.9320901569375
 10
88.31534187736009
 20
176.4320901569376
 10
88.91121867365701
 20
176.9320901569375
 10
89.47300999352661
 20
180.1181670557326
 10
88.75786313569927
 20
180.9704458927809
 10
88.58181590904905
 20
180.8227247298288
 97
        6
330
F10
330
F0F
330
ECB
330
EFF
330
EFA
330
ECC
 92
        7
 72
     0
 73
     1
 93
        6
 10
92.11508079572842
 20
175.7351286063351
 10
92.71095759202546
 20
176.235128606335
 10
92.29140777643692
 20
176.7351286063351
 10
89.07648903812367
 20
176.7351286063351
 10
88.48061224182641
 20
176.2351286063351
 10
88.90016205741517
 20
175.7351286063351
 97
        6
330
F02
330
F04
330
EF9
330
EF8
330
F03
330
F00
 92
        7
 72
     0
 73
     1
 93
        6
 10
91.71855984032561
 20
172.3520901569375
 10
92.43370669815305
 20
171.4998113198894
 10
92.60975392480293
 20
171.6475324828413
 10
93.29577777208067
 20
175.5381670557326
 10
92.87622795649225
 20
176.0381670557327
 10
92.28035116019498
 20
175.5381670557327
 97
        6
330
F17
330
EC7
330
F01
330
EEE
330
EF6
330
EC8
 92
        7
 72
     0
 73
     1
 93
        6
 10
92.02292983596942
 20
171.1551286063351
 10
92.1989770626194
 20
171.3028497692868
 10
91.48383020479229
 20
172.155128606335
 10
88.26891146647881
 20
172.1551286063351
 10
87.25320510053462
 20
171.3028497692868
 10
87.3771578738847
 20
171.1551286063351
 97
        6
330
EFB
330
EF1
330
EF5
330
EF3
330
EF7
330
EF2
 92
        7
 72
     1
 73
     1
 93
        2
 10
94.59578491692605
 20
171.5613321489347
 42
1.0
 10
93.59578491692605
 20
171.5613321489347
 42
1.0
 97
        1
330
F15
 75
     0
 76
     1
 47
0.0347077500900543
 98
       11
 10
82.02937973069868
 20
180.8434550250327
 10
83.55775394397699
 20
179.0733594793969
 10
80.57047747947592
 20
176.1926164618124
 10
77.79161608732829
 20
173.65895037098
 10
79.52840455914714
 20
171.6111931906323
 10
91.33856649304062
 20
180.8781626710528
 10
88.55970428707996
 20
178.5527433894426
 10
90.67858692257823
 20
176.1926164618124
 10
92.41537539439708
 20
174.2142745735051
 10
89.91439940903251
 20
171.5764855446122
 10
94.01322075591792
 20
171.4723621400011
  0
LINE
  5
EC5
102
{ACAD_REACTORS
330
EC4
102
}
330
18
100
AcDbEntity
  8
1
370
     0
100
AcDbLine
 10
89.16863999788267
 20
181.3151286063351
 30
0.0
 11
93.81441195996741
 21
181.3151286063351
 31
0.0
  0
LINE
  5
EC6
102
{ACAD_REACTORS
330
EC4
102
}
330
18
100
AcDbEntity
  8
1
370
     0
100
AcDbLine
 10
89.70773962905992
 20
180.3151286063351
 30
0.0
 11
92.92265836737328
 21
180.3151286063351
 31
0.0
  0
LINE
  5
EC7
102
{ACAD_REACTORS
330
EC4
102
}
330
18
100
AcDbEntity
  8
1
370
     0
100
AcDbLine
 10
92.87622795649213
 20
176.0381670557327
 30
0.0
 11
92.2803511601951
 21
175.5381670557326
 31
0.0
  0
LINE
  5
EC8
102
{ACAD_REACTORS
330
EC4
102
}
330
18
100
AcDbEntity
  8
1
370
     0
100
AcDbLine
 10
93.29577777208077
 20
175.5381670557326
 30
0.0
 11
92.60975392480293
 21
171.6475324828412
 31
0.0
  0
LINE
  5
EC9
330
18
100
AcDbEntity
  8
1
370
     0
100
AcDbLine
 10
92.52613741197023
 20
176.9320901569376
 30
0.0
 11
92.94568722755888
 21
176.4320901569375
 31
0.0
  0
LINE
  5
ECA
330
18
100
AcDbEntity
  8
1
370
     0
100
AcDbLine
 10
93.08792873183984
 20
180.1181670557327
 30
0.0
 11
92.52613741197036
 21
176.9320901569375
 31
0.0
  0
LINE
  5
ECB
102
{ACAD_REACTORS
330
EC4
102
}
330
18
100
AcDbEntity
  8
1
370
     0
100
AcDbLine
 10
88.58181590904917
 20
180.8227247298289
 30
0.0
 11
87.89579206177132
 21
176.9320901569375
 31
0.0
  0
LINE
  5
ECC
102
{ACAD_REACTORS
330
EC4
102
}
330
18
100
AcDbEntity
  8
1
370
     0
100
AcDbLine
 10
89.47300999352661
 20
180.1181670557326
 30
0.0
 11
88.91121867365701
 21
176.9320901569375
 31
0.0
  0
LINE
  5
ECD
102
{ACAD_REACTORS
330
EC4
102
}
330
18
100
AcDbEntity
  8
1
370
     0
100
AcDbLine
 10
84.22758787113389
 20
180.822724729829
 30
0.0
 11
83.54156402385603
 21
176.9320901569375
 31
0.0
  0
LINE
  5
ECE
330
18
100
AcDbEntity
  8
1
370
     0
100
AcDbLine
 10
79.4730099935266
 20
180.1181670557326
 30
0.0
 11
78.91121867365701
 21
176.9320901569375
 31
0.0
  0
LINE
  5
ECF
102
{ACAD_REACTORS
330
EC4
102
}
330
18
100
AcDbEntity
  8
1
370
     0
100
AcDbLine
 10
83.08792873183984
 20
180.1181670557327
 30
0.0
 11
82.52613741197036
 21
176.9320901569375
 31
0.0
  0
LINE
  5
ED0
330
18
100
AcDbEntity
  8
1
370
     0
100
AcDbLine
 10
78.58181590904917
 20
180.8227247298289
 30
0.0
 11
77.89579206177132
 21
176.9320901569375
 31
0.0
  0
CIRCLE
  5
ED1
330
18
100
AcDbEntity
  8
1
370
     0
100
AcDbCircle
 10
84.09578491692604
 20
171.5613321489347
 30
0.0
 40
0.5
  0
LINE
  5
ED2
330
18
100
AcDbEntity
  8
1
370
     0
100
AcDbLine
 10
83.29577777208077
 20
175.5381670557326
 30
0.0
 11
82.60975392480293
 21
171.6475324828412
 31
0.0
  0
LINE
  5
ED3
330
18
100
AcDbEntity
  8
1
370
     0
100
AcDbLine
 10
82.43370669815282
 20
171.4998113198894
 30
0.0
 11
81.7185598403255
 21
172.3520901569375
 31
0.0
  0
LINE
  5
ED4
102
{ACAD_REACTORS
330
EC4
102
}
330
18
100
AcDbEntity
  8
1
370
     0
100
AcDbLine
 10
82.1989770626194
 20
171.3028497692869
 30
0.0
 11
81.48383020479219
 21
172.1551286063351
 31
0.0
  0
LINE
  5
ED5
102
{ACAD_REACTORS
330
EC4
102
}
330
18
100
AcDbEntity
  8
1
370
     0
100
AcDbLine
 10
77.08793473606807
 20
171.4998113198893
 30
0.0
 11
78.10364110201226
 21
172.3520901569375
 31
0.0
  0
LINE
  5
ED6
102
{ACAD_REACTORS
330
EC4
102
}
330
18
100
AcDbEntity
  8
1
370
     0
100
AcDbLine
 10
77.65000580999606
 20
175.5381670557327
 30
0.0
 11
76.96398196271809
 21
171.6475324828412
 31
0.0
  0
LINE
  5
ED7
102
{ACAD_REACTORS
330
EC4
102
}
330
18
100
AcDbEntity
  8
1
370
     0
100
AcDbLine
 10
77.25320510053473
 20
171.3028497692869
 30
0.0
 11
78.26891146647881
 21
172.1551286063351
 31
0.0
  0
LINE
  5
ED8
102
{ACAD_REACTORS
330
EC4
102
}
330
18
100
AcDbEntity
  8
1
370
     0
100
AcDbLine
 10
77.3771578738847
 20
171.1551286063351
 30
0.0
 11
82.02292983596942
 21
171.1551286063351
 31
0.0
  0
LINE
  5
ED9
102
{ACAD_REACTORS
330
EC4
102
}
330
18
100
AcDbEntity
  8
1
370
     0
100
AcDbLine
 10
76.96398196271821
 20
171.6475324828412
 30
0.0
 11
77.08793473606807
 21
171.4998113198894
 31
0.0
  0
LINE
  5
EDA
102
{ACAD_REACTORS
330
EC4
102
}
330
18
100
AcDbEntity
  8
1
370
     0
100
AcDbLine
 10
77.25320510053473
 20
171.3028497692869
 30
0.0
 11
77.3771578738847
 21
171.1551286063351
 31
0.0
  0
LINE
  5
EDB
330
18
100
AcDbEntity
  8
1
370
     0
100
AcDbLine
 10
82.60975392480281
 20
171.6475324828412
 30
0.0
 11
82.43370669815295
 21
171.4998113198894
 31
0.0
  0
LINE
  5
EDC
102
{ACAD_REACTORS
330
EC4
102
}
330
18
100
AcDbEntity
  8
1
370
     0
100
AcDbLine
 10
82.1989770626194
 20
171.3028497692869
 30
0.0
 11
82.02292983596942
 21
171.1551286063351
 31
0.0
  0
LINE
  5
EDD
102
{ACAD_REACTORS
330
EC4
102
}
330
18
100
AcDbEntity
  8
1
370
     0
100
AcDbLine
 10
78.90016205741517
 20
175.7351286063351
 30
0.0
 11
82.11508079572842
 21
175.7351286063351
 31
0.0
  0
LINE
  5
EDE
102
{ACAD_REACTORS
330
EC4
102
}
330
18
100
AcDbEntity
  8
1
370
     0
100
AcDbLine
 10
79.07648903812367
 20
176.7351286063351
 30
0.0
 11
82.29140777643692
 21
176.7351286063351
 31
0.0
  0
LINE
  5
EDF
102
{ACAD_REACTORS
330
EC4
102
}
330
18
100
AcDbEntity
  8
1
370
     0
100
AcDbLine
 10
78.26891146647881
 20
172.1551286063351
 30
0.0
 11
81.48383020479219
 21
172.1551286063351
 31
0.0
  0
LINE
  5
EE0
102
{ACAD_REACTORS
330
EC4
102
}
330
18
100
AcDbEntity
  8
1
370
     0
100
AcDbLine
 10
78.48061224182652
 20
176.2351286063351
 30
0.0
 11
78.90016205741517
 21
175.7351286063351
 31
0.0
  0
LINE
  5
EE1
102
{ACAD_REACTORS
330
EC4
102
}
330
18
100
AcDbEntity
  8
1
370
     0
100
AcDbLine
 10
79.07648903812367
 20
176.7351286063351
 30
0.0
 11
78.48061224182652
 21
176.2351286063351
 31
0.0
  0
LINE
  5
EE2
102
{ACAD_REACTORS
330
EC4
102
}
330
18
100
AcDbEntity
  8
1
370
     0
100
AcDbLine
 10
78.24588260629321
 20
176.0381670557327
 30
0.0
 11
77.65000580999606
 21
175.5381670557327
 31
0.0
  0
LINE
  5
EE3
330
18
100
AcDbEntity
  8
1
370
     0
100
AcDbLine
 10
77.89579206177132
 20
176.9320901569375
 30
0.0
 11
78.31534187735996
 21
176.4320901569375
 31
0.0
  0
LINE
  5
EE4
102
{ACAD_REACTORS
330
EC4
102
}
330
18
100
AcDbEntity
  8
1
370
     0
100
AcDbLine
 10
78.24588260629321
 20
176.0381670557326
 30
0.0
 11
78.66543242188186
 21
175.5381670557326
 31
0.0
  0
LINE
  5
EE5
102
{ACAD_REACTORS
330
EC4
102
}
330
18
100
AcDbEntity
  8
1
370
     0
100
AcDbLine
 10
78.66543242188186
 20
175.5381670557326
 30
0.0
 11
78.10364110201226
 21
172.3520901569376
 31
0.0
  0
LINE
  5
EE6
330
18
100
AcDbEntity
  8
1
370
     0
100
AcDbLine
 10
78.91121867365701
 20
176.9320901569376
 30
0.0
 11
78.31534187735996
 21
176.4320901569375
 31
0.0
  0
LINE
  5
EE7
330
18
100
AcDbEntity
  8
1
370
     0
100
AcDbLine
 10
82.87622795649225
 20
176.0381670557327
 30
0.0
 11
83.29577777208077
 21
175.5381670557327
 31
0.0
  0
LINE
  5
EE8
102
{ACAD_REACTORS
330
EC4
102
}
330
18
100
AcDbEntity
  8
1
370
     0
100
AcDbLine
 10
83.54156402385603
 20
176.9320901569375
 30
0.0
 11
82.94568722755888
 21
176.4320901569375
 31
0.0
  0
LINE
  5
EE9
330
18
100
AcDbEntity
  8
1
370
     0
100
AcDbLine
 10
82.2803511601951
 20
175.5381670557326
 30
0.0
 11
81.7185598403255
 21
172.3520901569376
 31
0.0
  0
LINE
  5
EEA
102
{ACAD_REACTORS
330
EC4
102
}
330
18
100
AcDbEntity
  8
1
370
     0
100
AcDbLine
 10
82.71095759202557
 20
176.2351286063351
 30
0.0
 11
82.11508079572842
 21
175.7351286063351
 31
0.0
  0
LINE
  5
EEB
330
18
100
AcDbEntity
  8
1
370
     0
100
AcDbLine
 10
82.87622795649213
 20
176.0381670557327
 30
0.0
 11
82.2803511601951
 21
175.5381670557326
 31
0.0
  0
LINE
  5
EEC
102
{ACAD_REACTORS
330
EC4
102
}
330
18
100
AcDbEntity
  8
1
370
     0
100
AcDbLine
 10
82.29140777643692
 20
176.7351286063351
 30
0.0
 11
82.71095759202557
 21
176.2351286063351
 31
0.0
  0
LINE
  5
EED
102
{ACAD_REACTORS
330
EC4
102
}
330
18
100
AcDbEntity
  8
1
370
     0
100
AcDbLine
 10
82.52613741197023
 20
176.9320901569376
 30
0.0
 11
82.94568722755888
 21
176.4320901569375
 31
0.0
  0
LINE
  5
EEE
102
{ACAD_REACTORS
330
EC4
102
}
330
18
100
AcDbEntity
  8
1
370
     0
100
AcDbLine
 10
92.43370669815282
 20
171.4998113198894
 30
0.0
 11
91.7185598403255
 21
172.3520901569375
 31
0.0
  0
LINE
  5
EEF
330
18
100
AcDbEntity
  8
1
370
     0
100
AcDbLine
 10
87.08793473606807
 20
171.4998113198893
 30
0.0
 11
88.10364110201225
 21
172.3520901569375
 31
0.0
  0
LINE
  5
EF0
330
18
100
AcDbEntity
  8
1
370
     0
100
AcDbLine
 10
87.65000580999606
 20
175.5381670557327
 30
0.0
 11
86.96398196271809
 21
171.6475324828412
 31
0.0
  0
LINE
  5
EF1
102
{ACAD_REACTORS
330
EC4
102
}
330
18
100
AcDbEntity
  8
1
370
     0
100
AcDbLine
 10
87.25320510053473
 20
171.3028497692869
 30
0.0
 11
88.26891146647881
 21
172.1551286063351
 31
0.0
  0
LINE
  5
EF2
102
{ACAD_REACTORS
330
EC4
102
}
330
18
100
AcDbEntity
  8
1
370
     0
100
AcDbLine
 10
92.1989770626194
 20
171.3028497692869
 30
0.0
 11
91.48383020479219
 21
172.1551286063351
 31
0.0
  0
LINE
  5
EF3
102
{ACAD_REACTORS
330
EC4
102
}
330
18
100
AcDbEntity
  8
1
370
     0
100
AcDbLine
 10
87.3771578738847
 20
171.1551286063351
 30
0.0
 11
92.02292983596942
 21
171.1551286063351
 31
0.0
  0
LINE
  5
EF4
330
18
100
AcDbEntity
  8
1
370
     0
100
AcDbLine
 10
86.9639819627182
 20
171.6475324828412
 30
0.0
 11
87.08793473606807
 21
171.4998113198894
 31
0.0
  0
LINE
  5
EF5
102
{ACAD_REACTORS
330
EC4
102
}
330
18
100
AcDbEntity
  8
1
370
     0
100
AcDbLine
 10
87.25320510053473
 20
171.3028497692869
 30
0.0
 11
87.3771578738847
 21
171.1551286063351
 31
0.0
  0
LINE
  5
EF6
102
{ACAD_REACTORS
330
EC4
102
}
330
18
100
AcDbEntity
  8
1
370
     0
100
AcDbLine
 10
92.60975392480281
 20
171.6475324828412
 30
0.0
 11
92.43370669815295
 21
171.4998113198894
 31
0.0
  0
LINE
  5
EF7
102
{ACAD_REACTORS
330
EC4
102
}
330
18
100
AcDbEntity
  8
1
370
     0
100
AcDbLine
 10
92.1989770626194
 20
171.3028497692869
 30
0.0
 11
92.02292983596942
 21
171.1551286063351
 31
0.0
  0
LINE
  5
EF8
102
{ACAD_REACTORS
330
EC4
102
}
330
18
100
AcDbEntity
  8
1
370
     0
100
AcDbLine
 10
88.48061224182652
 20
176.2351286063351
 30
0.0
 11
88.90016205741517
 21
175.7351286063351
 31
0.0
  0
LINE
  5
EF9
102
{ACAD_REACTORS
330
EC4
102
}
330
18
100
AcDbEntity
  8
1
370
     0
100
AcDbLine
 10
89.07648903812367
 20
176.7351286063351
 30
0.0
 11
88.48061224182652
 21
176.2351286063351
 31
0.0
  0
LINE
  5
EFA
102
{ACAD_REACTORS
330
EC4
102
}
330
18
100
AcDbEntity
  8
1
370
     0
100
AcDbLine
 10
88.91121867365701
 20
176.9320901569376
 30
0.0
 11
88.31534187735996
 21
176.4320901569375
 31
0.0
  0
LINE
  5
EFB
102
{ACAD_REACTORS
330
EC4
102
}
330
18
100
AcDbEntity
  8
1
370
     0
100
AcDbLine
 10
88.26891146647881
 20
172.1551286063351
 30
0.0
 11
91.48383020479219
 21
172.1551286063351
 31
0.0
  0
LINE
  5
EFC
330
18
100
AcDbEntity
  8
1
370
     0
100
AcDbLine
 10
88.24588260629321
 20
176.0381670557326
 30
0.0
 11
88.66543242188186
 21
175.5381670557326
 31
0.0
  0
LINE
  5
EFD
330
18
100
AcDbEntity
  8
1
370
     0
100
AcDbLine
 10
88.24588260629321
 20
176.0381670557327
 30
0.0
 11
87.65000580999606
 21
175.5381670557327
 31
0.0
  0
LINE
  5
EFE
330
18
100
AcDbEntity
  8
1
370
     0
100
AcDbLine
 10
88.66543242188186
 20
175.5381670557326
 30
0.0
 11
88.10364110201225
 21
172.3520901569376
 31
0.0
  0
LINE
  5
EFF
102
{ACAD_REACTORS
330
EC4
102
}
330
18
100
AcDbEntity
  8
1
370
     0
100
AcDbLine
 10
87.89579206177132
 20
176.9320901569375
 30
0.0
 11
88.31534187735996
 21
176.4320901569375
 31
0.0
  0
LINE
  5
F00
102
{ACAD_REACTORS
330
EC4
102
}
330
18
100
AcDbEntity
  8
1
370
     0
100
AcDbLine
 10
92.71095759202557
 20
176.2351286063351
 30
0.0
 11
92.11508079572842
 21
175.7351286063351
 31
0.0
  0
LINE
  5
F01
102
{ACAD_REACTORS
330
EC4
102
}
330
18
100
AcDbEntity
  8
1
370
     0
100
AcDbLine
 10
92.2803511601951
 20
175.5381670557326
 30
0.0
 11
91.7185598403255
 21
172.3520901569376
 31
0.0
  0
LINE
  5
F02
102
{ACAD_REACTORS
330
EC4
102
}
330
18
100
AcDbEntity
  8
1
370
     0
100
AcDbLine
 10
92.29140777643692
 20
176.7351286063351
 30
0.0
 11
92.71095759202557
 21
176.2351286063351
 31
0.0
  0
LINE
  5
F03
102
{ACAD_REACTORS
330
EC4
102
}
330
18
100
AcDbEntity
  8
1
370
     0
100
AcDbLine
 10
88.90016205741517
 20
175.7351286063351
 30
0.0
 11
92.11508079572842
 21
175.7351286063351
 31
0.0
  0
LINE
  5
F04
102
{ACAD_REACTORS
330
EC4
102
}
330
18
100
AcDbEntity
  8
1
370
     0
100
AcDbLine
 10
89.07648903812367
 20
176.7351286063351
 30
0.0
 11
92.29140777643692
 21
176.7351286063351
 31
0.0
  0
LINE
  5
F05
102
{ACAD_REACTORS
330
EC4
102
}
330
18
100
AcDbEntity
  8
1
370
     0
100
AcDbLine
 10
79.16863999788268
 20
181.3151286063351
 30
0.0
 11
83.81441195996741
 21
181.3151286063351
 31
0.0
  0
LINE
  5
F06
102
{ACAD_REACTORS
330
EC4
102
}
330
18
100
AcDbEntity
  8
1
370
     0
100
AcDbLine
 10
79.70773962905991
 20
180.3151286063351
 30
0.0
 11
82.92265836737328
 21
180.3151286063351
 31
0.0
  0
LINE
  5
F07
330
18
100
AcDbEntity
  8
1
370
     0
100
AcDbLine
 10
78.75786313569927
 20
180.9704458927808
 30
0.0
 11
79.4730099935266
 21
180.1181670557326
 31
0.0
  0
LINE
  5
F08
102
{ACAD_REACTORS
330
EC4
102
}
330
18
100
AcDbEntity
  8
1
370
     0
100
AcDbLine
 10
78.99259277123269
 20
181.1674074433833
 30
0.0
 11
79.70773962905991
 21
180.3151286063351
 31
0.0
  0
LINE
  5
F09
102
{ACAD_REACTORS
330
EC4
102
}
330
18
100
AcDbEntity
  8
1
370
     0
100
AcDbLine
 10
79.16863999788268
 20
181.3151286063351
 30
0.0
 11
78.99259277123269
 21
181.1674074433833
 31
0.0
  0
LINE
  5
F0A
330
18
100
AcDbEntity
  8
1
370
     0
100
AcDbLine
 10
78.75786313569927
 20
180.9704458927808
 30
0.0
 11
78.58181590904928
 21
180.822724729829
 31
0.0
  0
LINE
  5
F0B
102
{ACAD_REACTORS
330
EC4
102
}
330
18
100
AcDbEntity
  8
1
370
     0
100
AcDbLine
 10
83.08792873183984
 20
180.1181670557326
 30
0.0
 11
84.10363509778404
 21
180.9704458927809
 31
0.0
  0
LINE
  5
F0C
102
{ACAD_REACTORS
330
EC4
102
}
330
18
100
AcDbEntity
  8
1
370
     0
100
AcDbLine
 10
82.92265836737328
 20
180.3151286063351
 30
0.0
 11
83.93836473331749
 21
181.1674074433833
 31
0.0
  0
LINE
  5
F0D
102
{ACAD_REACTORS
330
EC4
102
}
330
18
100
AcDbEntity
  8
1
370
     0
100
AcDbLine
 10
83.81441195996741
 20
181.3151286063351
 30
0.0
 11
83.93836473331736
 21
181.1674074433833
 31
0.0
  0
LINE
  5
F0E
102
{ACAD_REACTORS
330
EC4
102
}
330
18
100
AcDbEntity
  8
1
370
     0
100
AcDbLine
 10
84.10363509778404
 20
180.9704458927808
 30
0.0
 11
84.227587871134
 21
180.822724729829
 31
0.0
  0
LINE
  5
F0F
102
{ACAD_REACTORS
330
EC4
102
}
330
18
100
AcDbEntity
  8
1
370
     0
100
AcDbLine
 10
88.75786313569927
 20
180.9704458927808
 30
0.0
 11
88.58181590904928
 21
180.822724729829
 31
0.0
  0
LINE
  5
F10
102
{ACAD_REACTORS
330
EC4
102
}
330
18
100
AcDbEntity
  8
1
370
     0
100
AcDbLine
 10
88.75786313569927
 20
180.9704458927808
 30
0.0
 11
89.47300999352661
 21
180.1181670557326
 31
0.0
  0
LINE
  5
F11
102
{ACAD_REACTORS
330
EC4
102
}
330
18
100
AcDbEntity
  8
1
370
     0
100
AcDbLine
 10
88.99259277123269
 20
181.1674074433833
 30
0.0
 11
89.70773962905992
 21
180.3151286063351
 31
0.0
  0
LINE
  5
F12
102
{ACAD_REACTORS
330
EC4
102
}
330
18
100
AcDbEntity
  8
1
370
     0
100
AcDbLine
 10
89.16863999788267
 20
181.3151286063351
 30
0.0
 11
88.99259277123269
 21
181.1674074433833
 31
0.0
  0
LINE
  5
F13
330
18
100
AcDbEntity
  8
1
370
     0
100
AcDbLine
 10
94.22758787113389
 20
180.822724729829
 30
0.0
 11
93.54156402385603
 21
176.9320901569375
 31
0.0
  0
TEXT
  5
F14
330
18
100
AcDbEntity
  8
1
100
AcDbText
 10
100.095784916926
 20
177.2351286063351
 30
0.0
 40
5.0
  1
℃
  7
ＭＳゴシック
100
AcDbText
  0
CIRCLE
  5
F15
102
{ACAD_REACTORS
330
EC4
102
}
330
18
100
AcDbEntity
  8
1
370
     0
100
AcDbCircle
 10
94.09578491692604
 20
171.5613321489347
 30
0.0
 40
0.5
  0
TEXT
  5
F16
330
18
100
AcDbEntity
  8
1
100
AcDbText
 10
92.79629253113924
 20
166.5613321489347
 30
0.0
 40
2.0
  1
ON
  7
ＭＳゴシック
 72
     1
 11
94.09578491692604
 21
168.5613321489347
 31
0.0
100
AcDbText
 73
     3
  0
LINE
  5
F17
102
{ACAD_REACTORS
330
EC4
102
}
330
18
100
AcDbEntity
  8
1
370
     0
100
AcDbLine
 10
92.87622795649225
 20
176.0381670557327
 30
0.0
 11
93.29577777208077
 21
175.5381670557327
 31
0.0
  0
LINE
  5
F18
330
18
100
AcDbEntity
  8
1
370
     0
100
AcDbLine
 10
93.54156402385603
 20
176.9320901569375
 30
0.0
 11
92.94568722755888
 21
176.4320901569375
 31
0.0
  0
TEXT
  5
F19
330
18
100
AcDbEntity
  8
1
100
AcDbText
 10
103.1465463382458
 20
169.7452783570206
 30
0.0
 40
2.0
  1
SET
  7
ＭＳゴシック
 72
     4
 11
105.095784916926
 21
170.7351260727566
 31
0.0
100
AcDbText
  0
LWPOLYLINE
  5
F1A
330
18
100
AcDbEntity
  8
1
370
     9
100
AcDbPolyline
 90
        6
 70
     1
 43
0.0
 10
103.595784916926
 20
172.6351260727566
 10
106.595784916926
 20
172.6351260727566
 42
-0.4142135623731056
 10
108.495784916926
 20
170.7351260727566
 42
-0.4142135623731056
 10
106.595784916926
 20
168.8351260727566
 10
103.595784916926
 20
168.8351260727566
 42
-0.4142135623731056
 10
101.695784916926
 20
170.7351260727566
 42
-0.4142135623731056
  0
LINE
  5
F1B
330
18
100
AcDbEntity
  8
1
370
     0
100
AcDbLine
 10
93.08792873183984
 20
180.1181670557326
 30
0.0
 11
94.10363509778404
 21
180.9704458927809
 31
0.0
  0
LINE
  5
F1C
102
{ACAD_REACTORS
330
EC4
102
}
330
18
100
AcDbEntity
  8
1
370
     0
100
AcDbLine
 10
92.92265836737328
 20
180.3151286063351
 30
0.0
 11
93.93836473331749
 21
181.1674074433833
 31
0.0
  0
LINE
  5
F1D
102
{ACAD_REACTORS
330
EC4
102
}
330
18
100
AcDbEntity
  8
1
370
     0
100
AcDbLine
 10
93.81441195996741
 20
181.3151286063351
 30
0.0
 11
93.93836473331736
 21
181.1674074433833
 31
0.0
  0
LINE
  5
F1E
330
18
100
AcDbEntity
  8
1
370
     0
100
AcDbLine
 10
94.10363509778404
 20
180.9704458927808
 30
0.0
 11
94.227587871134
 21
180.822724729829
 31
0.0
  0
DIMENSION
  5
F1F
330
18
100
AcDbEntity
  8
2
100
AcDbDimension
  2
*D4
 10
118.095784916926
 20
198.2658928159014
 30
0.0
 11
82.09578491692605
 21
200.0158928159014
 31
0.0
 70
    32
 71
     5
 42
72.0
  3
STANDARD
100
AcDbAlignedDimension
 13
46.09578491692604
 23
193.2351286063351
 33
0.0
 14
118.095784916926
 24
193.2351286063351
 34
0.0
100
AcDbRotatedDimension
1001
ACAD
1000
DSTYLE
1002
{
1070
    40
1040
1.0
1002
}
  0
LINE
  5
F20
330
18
100
AcDbEntity
  8
1
370
    30
100
AcDbLine
 10
95.09578491692606
 20
189.2351286063351
 30
0.0
 11
115.095784916926
 21
189.2351286063351
 31
0.0
  0
LINE
  5
F21
330
18
100
AcDbEntity
  8
2
  6
2-中心線
100
AcDbLine
 10
82.09578491692605
 20
214.2351286063351
 30
0.0
 11
82.09578491692605
 21
202.2351286063351
 31
0.0
  0
LEADER
  5
F23
330
18
100
AcDbEntity
  8
2
100
AcDbLeader
  3
STANDARD
 40
3.414285714285714
 41
25.32857142857142
 76
     2
 10
306.0457849169261
 20
187.7351286063351
 30
0.0
 10
292.7446644494373
 20
202.3428120387002
 30
0.0
1001
ACAD
1000
DSTYLE
1002
{
1070
    40
1040
1.0
1070
    47
1040
0.7
1070
    71
1070
     1
1070
   146
1040
0.7
1070
   283
1070
     0
1002
}
  0
LINE
  5
F24
330
18
100
AcDbEntity
  8
1
100
AcDbLine
 10
232.095784916926
 20
188.7351286063351
 30
0.0
 11
232.095784916926
 21
191.2351286063351
 31
0.0
  0
LINE
  5
F25
330
18
100
AcDbEntity
  8
1
370
    15
100
AcDbLine
 10
158.595784916926
 20
193.2351286063351
 30
0.0
 11
158.595784916926
 21
159.2351286063351
 31
0.0
  0
LINE
  5
F26
330
18
100
AcDbEntity
  8
1
100
AcDbLine
 10
226.095784916926
 20
160.7351286063351
 30
0.0
 11
226.095784916926
 21
191.7351286063351
 31
0.0
  0
LWPOLYLINE
  5
F27
330
18
100
AcDbEntity
  8
1
100
AcDbPolyline
 90
        4
 70
     1
 43
0.0
 10
159.095784916926
 20
158.2351286063351
 10
161.095784916926
 20
158.2351286063351
 10
161.095784916926
 20
194.2351286063351
 10
159.095784916926
 20
194.2351286063351
  0
LINE
  5
F28
330
18
100
AcDbEntity
  8
1
100
AcDbLine
 10
226.095784916926
 20
160.7351286063351
 30
0.0
 11
161.095784916926
 21
159.7351286063351
 31
0.0
  0
INSERT
  5
F29
330
18
100
AcDbEntity
  8
1
100
AcDbBlockReference
  2
合格証
 10
214.095784916926
 20
175.2351286063351
 30
0.0
  0
LINE
  5
F2A
330
18
100
AcDbEntity
  8
1
370
    15
100
AcDbLine
 10
158.595784916926
 20
159.2351286063351
 30
0.0
 11
159.095784916926
 21
158.2351286063351
 31
0.0
  0
LINE
  5
F2B
330
18
100
AcDbEntity
  8
1
370
    15
100
AcDbLine
 10
174.095784916926
 20
181.9351286063351
 30
0.0
 11
174.095784916926
 21
170.5351286063351
 31
0.0
  0
LINE
  5
F2C
330
18
100
AcDbEntity
  8
1
370
    15
100
AcDbLine
 10
161.595784916926
 20
181.7351286063351
 30
0.0
 11
161.595784916926
 21
170.7351286063351
 31
0.0
  0
LINE
  5
F2D
330
18
100
AcDbEntity
  8
1
370
    15
100
AcDbLine
 10
162.345784916926
 20
181.7351286063351
 30
0.0
 11
162.345784916926
 21
170.7351286063351
 31
0.0
  0
LINE
  5
F2E
330
18
100
AcDbEntity
  8
1
370
    15
100
AcDbLine
 10
163.095784916926
 20
181.7351286063351
 30
0.0
 11
163.095784916926
 21
170.7351286063351
 31
0.0
  0
LINE
  5
F2F
330
18
100
AcDbEntity
  8
1
370
    15
100
AcDbLine
 10
163.845784916926
 20
181.7351286063351
 30
0.0
 11
163.845784916926
 21
170.7351286063351
 31
0.0
  0
LINE
  5
F30
330
18
100
AcDbEntity
  8
1
370
    15
100
AcDbLine
 10
164.595784916926
 20
181.7351286063351
 30
0.0
 11
164.595784916926
 21
170.7351286063351
 31
0.0
  0
LINE
  5
F31
330
18
100
AcDbEntity
  8
1
370
    15
100
AcDbLine
 10
165.345784916926
 20
181.7351286063351
 30
0.0
 11
165.345784916926
 21
170.7351286063351
 31
0.0
  0
LINE
  5
F32
330
18
100
AcDbEntity
  8
1
370
    15
100
AcDbLine
 10
166.095784916926
 20
181.7351286063351
 30
0.0
 11
166.095784916926
 21
170.7351286063351
 31
0.0
  0
LINE
  5
F33
330
18
100
AcDbEntity
  8
1
370
    15
100
AcDbLine
 10
166.845784916926
 20
181.7351286063351
 30
0.0
 11
166.845784916926
 21
170.7351286063351
 31
0.0
  0
LINE
  5
F34
330
18
100
AcDbEntity
  8
1
370
    15
100
AcDbLine
 10
167.595784916926
 20
181.7351286063351
 30
0.0
 11
167.595784916926
 21
170.7351286063351
 31
0.0
  0
LINE
  5
F35
330
18
100
AcDbEntity
  8
1
370
    15
100
AcDbLine
 10
161.095784916926
 20
170.5351286063351
 30
0.0
 11
174.095784916926
 21
170.5351286063351
 31
0.0
  0
LINE
  5
F36
330
18
100
AcDbEntity
  8
1
370
    15
100
AcDbLine
 10
161.095784916926
 20
170.7351286063351
 30
0.0
 11
174.095784916926
 21
170.7351286063351
 31
0.0
  0
LINE
  5
F37
330
18
100
AcDbEntity
  8
1
370
    15
100
AcDbLine
 10
161.095784916926
 20
181.9351286063351
 30
0.0
 11
174.095784916926
 21
181.9351286063351
 31
0.0
  0
LINE
  5
F38
330
18
100
AcDbEntity
  8
1
370
    15
100
AcDbLine
 10
161.095784916926
 20
181.7351286063351
 30
0.0
 11
174.095784916926
 21
181.7351286063351
 31
0.0
  0
LINE
  5
F39
330
18
100
AcDbEntity
  8
1
  6
2-中心線
100
AcDbLine
 10
210.095784916926
 20
105.2351286063351
 30
0.0
 11
210.095784916926
 21
115.2351286063351
 31
0.0
  0
LINE
  5
F3A
330
18
100
AcDbEntity
  8
1
100
AcDbLine
 10
226.595784916926
 20
165.7351286063351
 30
0.0
 11
226.595784916926
 21
173.7351286063351
 31
0.0
  0
LINE
  5
F3B
330
18
100
AcDbEntity
  8
1
100
AcDbLine
 10
226.095784916926
 20
163.7351286063351
 30
0.0
 11
232.095784916926
 21
163.7351286063351
 31
0.0
  0
LINE
  5
F3C
330
18
100
AcDbEntity
  8
1
100
AcDbLine
 10
226.095784916926
 20
161.2351286063351
 30
0.0
 11
232.095784916926
 21
161.2351286063351
 31
0.0
  0
LINE
  5
F3D
330
18
100
AcDbEntity
  8
1
100
AcDbLine
 10
226.095784916926
 20
165.2351286063351
 30
0.0
 11
226.095784916926
 21
165.2351286063351
 31
0.0
  0
ARC
  5
F3E
330
18
100
AcDbEntity
  8
1
100
AcDbCircle
 10
226.095784916926
 20
165.7351286063351
 30
0.0
 40
0.5
100
AcDbArc
 50
270.0
 51
0.0
  0
LINE
  5
F3F
330
18
100
AcDbEntity
  8
1
100
AcDbLine
 10
232.095784916926
 20
163.7351286063351
 30
0.0
 11
232.095784916926
 21
161.2351286063351
 31
0.0
  0
ARC
  5
F40
330
18
100
AcDbEntity
  8
1
100
AcDbCircle
 10
226.095784916926
 20
177.7351286063351
 30
0.0
 40
0.5
100
AcDbArc
 50
270.0
 51
0.0
  0
LINE
  5
F41
330
18
100
AcDbEntity
  8
1
370
    15
100
AcDbLine
 10
227.345784916926
 20
168.0851286063351
 30
0.0
 11
227.345784916926
 21
169.0851286063351
 31
0.0
  0
LWPOLYLINE
  5
F42
330
18
100
AcDbEntity
  8
1
370
    15
100
AcDbPolyline
 90
        6
 70
     0
 43
0.0
 10
226.595784916926
 20
168.0851286063351
 10
227.345784916926
 20
168.0851286063351
 10
227.595784916926
 20
168.3351286063351
 10
227.595784916926
 20
168.8351286063351
 10
227.345784916926
 20
169.0851286063351
 10
226.595784916926
 20
169.0851286063351
  0
LINE
  5
F43
330
18
100
AcDbEntity
  8
1
100
AcDbLine
 10
226.095784916926
 20
177.2351286063351
 30
0.0
 11
226.095784916926
 21
177.2351286063351
 31
0.0
  0
LINE
  5
F44
330
18
100
AcDbEntity
  8
1
100
AcDbLine
 10
226.095784916926
 20
174.2351286063351
 30
0.0
 11
226.095784916926
 21
174.2351286063351
 31
0.0
  0
ARC
  5
F45
330
18
100
AcDbEntity
  8
1
100
AcDbCircle
 10
226.095784916926
 20
173.7351286063351
 30
0.0
 40
0.5
100
AcDbArc
 50
0.0
 51
90.0
  0
LINE
  5
F46
330
18
100
AcDbEntity
  8
1
100
AcDbLine
 10
226.595784916926
 20
177.7351286063351
 30
0.0
 11
226.595784916926
 21
186.7351286063351
 31
0.0
  0
LINE
  5
F47
330
18
100
AcDbEntity
  8
1
100
AcDbLine
 10
228.595784916926
 20
185.2351286063351
 30
0.0
 11
228.595784916926
 21
178.235128606335
 31
0.0
  0
LINE
  5
F48
330
18
100
AcDbEntity
  8
1
100
AcDbLine
 10
226.595784916926
 20
178.235128606335
 30
0.0
 11
228.595784916926
 21
178.235128606335
 31
0.0
  0
LINE
  5
F49
330
18
100
AcDbEntity
  8
1
100
AcDbLine
 10
226.595784916926
 20
185.2351286063351
 30
0.0
 11
228.595784916926
 21
185.2351286063351
 31
0.0
  0
LINE
  5
F4A
330
18
100
AcDbEntity
  8
1
100
AcDbLine
 10
226.095784916926
 20
188.7351286063351
 30
0.0
 11
232.095784916926
 21
188.7351286063351
 31
0.0
  0
LWPOLYLINE
  5
F4B
330
18
100
AcDbEntity
  8
1
100
AcDbPolyline
 90
        3
 70
     0
 43
0.0
 10
228.095784916926
 20
185.2351286063351
 10
228.095784916926
 20
186.5351286063351
 10
226.595784916926
 20
186.5351286063351
  0
LINE
  5
F4C
330
18
100
AcDbEntity
  8
1
100
AcDbLine
 10
226.095784916926
 20
187.2351286063351
 30
0.0
 11
226.095784916926
 21
187.2351286063351
 31
0.0
  0
ARC
  5
F4D
330
18
100
AcDbEntity
  8
1
100
AcDbCircle
 10
226.095784916926
 20
186.7351286063351
 30
0.0
 40
0.5
100
AcDbArc
 50
0.0
 51
90.0
  0
DIMENSION
  5
F4E
330
18
100
AcDbEntity
  8
2
100
AcDbDimension
  2
*D5
 10
161.095784916926
 20
198.2351286063351
 30
0.0
 11
193.595784916926
 21
199.9851286063351
 31
0.0
 70
    32
 71
     5
 42
65.0
  3
STANDARD
100
AcDbAlignedDimension
 13
226.095784916926
 23
191.7351286063351
 33
0.0
 14
161.095784916926
 24
194.2351286063351
 34
0.0
100
AcDbRotatedDimension
1001
ACAD
1000
DSTYLE
1002
{
1070
    40
1040
1.0
1002
}
  0
LINE
  5
F4F
330
18
100
AcDbEntity
  8
1
100
AcDbLine
 10
226.095784916926
 20
191.7351286063351
 30
0.0
 11
161.095784916926
 21
192.7351286063351
 31
0.0
  0
DIMENSION
  5
F50
330
18
100
AcDbEntity
  8
2
100
AcDbDimension
  2
*D6
 10
158.595784916926
 20
198.2351286063351
 30
0.0
 11
150.5600706312117
 21
199.9851286063351
 31
0.0
 70
    32
 71
     5
 42
2.5
  3
STANDARD
100
AcDbAlignedDimension
 13
161.095784916926
 23
194.2351286063351
 33
0.0
 14
158.595784916926
 24
193.2351286063351
 34
0.0
100
AcDbRotatedDimension
1001
ACAD
1000
DSTYLE
1002
{
1070
    40
1040
1.0
1002
}
  0
LINE
  5
F51
330
18
100
AcDbEntity
  8
1
370
    15
100
AcDbLine
 10
159.095784916926
 20
194.2351286063351
 30
0.0
 11
158.595784916926
 21
193.2351286063351
 31
0.0
  0
DIMENSION
  5
F52
330
18
100
AcDbEntity
  8
2
100
AcDbDimension
  2
*D7
 10
232.095784916926
 20
198.2351286063351
 30
0.0
 11
229.095784916926
 21
199.9851286063351
 31
0.0
 70
    32
 71
     5
 42
6.0
  3
STANDARD
100
AcDbAlignedDimension
 13
226.095784916926
 23
191.7351286063351
 33
0.0
 14
232.095784916926
 24
191.2351286063351
 34
0.0
100
AcDbRotatedDimension
1001
ACAD
1000
DSTYLE
1002
{
1070
    40
1040
1.0
1002
}
  0
LINE
  5
F53
330
18
100
AcDbEntity
  8
1
100
AcDbLine
 10
226.095784916926
 20
191.2351286063351
 30
0.0
 11
232.095784916926
 21
191.2351286063351
 31
0.0
  0
LEADER
  5
F54
330
18
100
AcDbEntity
  8
2
100
AcDbLeader
  3
STANDARD
 76
     2
 10
324.7457849169259
 20
185.735128606335
 30
0.0
 10
351.6521368759765
 20
202.9341878585241
 30
0.0
1001
ACAD
1000
DSTYLE
1002
{
1070
    40
1040
1.0
1070
    47
1040
0.7
1070
    71
1070
     1
1070
   146
1040
0.7
1070
   283
1070
     0
1002
}
  0
LINE
  5
F55
330
18
100
AcDbEntity
  8
2
  6
2-中心線
100
AcDbLine
 10
310.095784916926
 20
203.2351286063351
 30
0.0
 11
310.095784916926
 21
144.2351286063351
 31
0.0
  0
LEADER
  5
F56
330
18
100
AcDbEntity
  8
2
100
AcDbLeader
  3
STANDARD
 74
     0
 40
3.371428571428571
 41
25.12857142857143
 76
     2
 10
336.095784916926
 20
186.2351286063351
 30
0.0
 10
351.6521368759765
 20
202.9341878585241
 30
0.0
1001
ACAD
1000
DSTYLE
1002
{
1070
    47
1040
0.7
1070
   283
1070
     0
1070
    71
1070
     1
1070
   146
1040
0.5
1070
    40
1040
1.0
1002
}
  0
TEXT
  5
F58
330
18
100
AcDbEntity
  8
1
100
AcDbText
 10
331.4460387240326
 20
188.2452808905991
 30
0.0
 40
2.0
  1
6
  7
ＭＳゴシック
 72
     4
 11
332.095784916926
 21
189.2351286063351
 31
0.0
100
AcDbText
  0
LWPOLYLINE
  5
F59
330
18
100
AcDbEntity
  8
1
100
AcDbPolyline
 90
        4
 70
     1
 43
0.0
 10
342.095784916926
 20
188.7351286063351
 10
336.595784916926
 20
188.7351286063351
 10
336.595784916926
 20
191.2351286063351
 10
342.095784916926
 20
191.2351286063351
  0
TEXT
  5
F5A
330
18
100
AcDbEntity
  8
1
100
AcDbText
 10
320.8460387240325
 20
188.2452808905989
 30
0.0
 40
2.0
  1
5
  7
ＭＳゴシック
 72
     4
 11
321.4957849169259
 21
189.235128606335
 31
0.0
100
AcDbText
  0
TEXT
  5
F5B
330
18
100
AcDbEntity
  8
1
100
AcDbText
 10
308.8460387240325
 20
188.2452808905989
 30
0.0
 40
2.0
  1
4
  7
ＭＳゴシック
 72
     4
 11
309.4957849169259
 21
189.235128606335
 31
0.0
100
AcDbText
  0
TEXT
  5
F5C
330
18
100
AcDbEntity
  8
1
100
AcDbText
 10
301.1460387240324
 20
188.2452808905989
 30
0.0
 40
2.0
  1
3
  7
ＭＳゴシック
 72
     4
 11
301.7957849169258
 21
189.235128606335
 31
0.0
100
AcDbText
  0
TEXT
  5
F5D
330
18
100
AcDbEntity
  8
1
100
AcDbText
 10
293.5460387240325
 20
188.2452808905989
 30
0.0
 40
2.0
  1
2
  7
ＭＳゴシック
 72
     4
 11
294.1957849169259
 21
189.235128606335
 31
0.0
100
AcDbText
  0
LWPOLYLINE
  5
F5E
330
18
100
AcDbEntity
  8
1
100
AcDbPolyline
 90
        4
 70
     1
 43
0.0
 10
278.095784916926
 20
188.7351286063351
 10
283.595784916926
 20
188.7351286063351
 10
283.595784916926
 20
191.2351286063351
 10
278.095784916926
 20
191.2351286063351
  0
TEXT
  5
F5F
330
18
100
AcDbEntity
  8
1
100
AcDbText
 10
285.9460387240324
 20
188.2452808905989
 30
0.0
 40
2.0
  1
1
  7
ＭＳゴシック
 72
     4
 11
286.5957849169258
 21
189.235128606335
 31
0.0
100
AcDbText
  0
LWPOLYLINE
  5
F60
330
18
100
AcDbEntity
  8
1
100
AcDbPolyline
 90
        8
 70
     1
 43
0.0
 10
345.095784916926
 20
194.2351286063351
 10
275.095784916926
 20
194.2351286063351
 42
0.4142135623730951
 10
274.095784916926
 20
193.2351286063351
 10
274.095784916926
 20
159.2351286063351
 42
0.4142135623730951
 10
275.095784916926
 20
158.2351286063351
 10
345.095784916926
 20
158.2351286063351
 42
0.4142135623730951
 10
346.095784916926
 20
159.2351286063351
 10
346.095784916926
 20
193.2351286063351
 42
0.4142135623730951
  0
LWPOLYLINE
  5
F61
330
18
100
AcDbEntity
  8
1
100
AcDbPolyline
 90
        4
 70
     1
 43
0.0
 10
276.095784916926
 20
192.7351286063351
 10
344.095784916926
 20
192.7351286063351
 10
344.095784916926
 20
159.7351286063351
 10
276.095784916926
 20
159.7351286063351
  0
LWPOLYLINE
  5
F62
330
18
100
AcDbEntity
  8
1
100
AcDbPolyline
 90
        4
 70
     1
 43
0.0
 10
277.095784916926
 20
191.7351286063351
 10
343.095784916926
 20
191.7351286063351
 10
343.095784916926
 20
160.7351286063351
 10
277.095784916926
 20
160.7351286063351
  0
LEADER
  5
F63
330
18
100
AcDbEntity
  8
2
100
AcDbLeader
  3
STANDARD
 74
     0
 40
3.385714285714285
 41
25.28571428571428
 76
     2
 10
335.095784916926
 20
166.2351286063351
 30
0.0
 10
349.6521163099455
 20
148.9859044843097
 30
0.0
1001
ACAD
1000
DSTYLE
1002
{
1070
    47
1040
0.7
1070
   283
1070
     0
1070
    71
1070
     1
1070
   146
1040
0.5
1070
    40
1040
1.0
1002
}
  0
LWPOLYLINE
  5
F65
330
18
100
AcDbEntity
  8
1
100
AcDbPolyline
 90
        4
 70
     1
 43
0.0
 10
342.095784916926
 20
163.7351286063351
 10
336.595784916926
 20
163.7351286063351
 10
336.595784916926
 20
161.2351286063351
 10
342.095784916926
 20
161.2351286063351
  0
LWPOLYLINE
  5
F66
330
18
100
AcDbEntity
  8
1
370
    15
100
AcDbPolyline
 90
        4
 70
     1
 43
0.0
 10
282.595784916926
 20
186.7351286063351
 10
313.495784916926
 20
186.7351286063351
 10
313.495784916926
 20
177.7351286063351
 10
282.595784916926
 20
177.7351286063351
  0
LWPOLYLINE
  5
F67
330
18
100
AcDbEntity
  8
1
370
    15
100
AcDbPolyline
 90
        8
 70
     1
 43
0.0
 10
282.095784916926
 20
187.7351286063351
 10
313.995784916926
 20
187.7351286063351
 42
-0.4142135623730951
 10
314.495784916926
 20
187.2351286063351
 10
314.495784916926
 20
177.2351286063351
 42
-0.4142135623730951
 10
313.995784916926
 20
176.7351286063351
 10
282.095784916926
 20
176.7351286063351
 42
-0.4142135623730951
 10
281.595784916926
 20
177.2351286063351
 10
281.595784916926
 20
187.2351286063351
 42
-0.4142135623730951
  0
LWPOLYLINE
  5
F68
330
18
100
AcDbEntity
  8
1
370
    15
100
AcDbPolyline
 90
        4
 70
     1
 43
0.0
 10
307.095784916926
 20
173.2351286063351
 10
305.095784916926
 20
173.2351286063351
 10
305.095784916926
 20
163.2351286063351
 10
307.095784916926
 20
163.2351286063351
  0
LWPOLYLINE
  5
F69
330
18
100
AcDbEntity
  8
1
370
    15
100
AcDbPolyline
 90
        4
 70
     1
 43
0.0
 10
303.095784916926
 20
173.2351286063351
 10
301.095784916926
 20
173.2351286063351
 10
301.095784916926
 20
163.2351286063351
 10
303.095784916926
 20
163.2351286063351
  0
ARC
  5
F6A
330
18
100
AcDbEntity
  8
1
370
    15
100
AcDbCircle
 10
294.595784916926
 20
167.2351286063351
 30
0.0
 40
2.5
100
AcDbArc
 50
275.739170477268
 51
84.26082952273189
  0
ARC
  5
F6B
330
18
100
AcDbEntity
  8
1
370
    15
100
AcDbCircle
 10
294.595784916926
 20
167.2351286063351
 30
0.0
 40
2.25
100
AcDbArc
 50
276.3793702084413
 51
83.62062979155863
  0
ARC
  5
F6C
330
18
100
AcDbEntity
  8
1
370
    15
100
AcDbCircle
 10
294.595784916926
 20
167.2351286063351
 30
0.0
 40
2.25
100
AcDbArc
 50
96.37937020844134
 51
263.6206297915586
  0
ARC
  5
F6D
330
18
100
AcDbEntity
  8
1
370
    15
100
AcDbCircle
 10
294.595784916926
 20
167.2351286063351
 30
0.0
 40
2.5
100
AcDbArc
 50
95.7391704772681
 51
264.2608295227319
  0
ARC
  5
F6E
330
18
100
AcDbEntity
  8
1
370
    15
100
AcDbCircle
 10
286.595784916926
 20
167.2351286063351
 30
0.0
 40
2.5
100
AcDbArc
 50
95.7391704772681
 51
264.2608295227319
  0
ARC
  5
F6F
330
18
100
AcDbEntity
  8
1
370
    15
100
AcDbCircle
 10
286.595784916926
 20
167.2351286063351
 30
0.0
 40
2.25
100
AcDbArc
 50
96.37937020844134
 51
263.6206297915586
  0
ARC
  5
F70
330
18
100
AcDbEntity
  8
1
370
    15
100
AcDbCircle
 10
286.595784916926
 20
167.2351286063351
 30
0.0
 40
2.25
100
AcDbArc
 50
276.3793702084413
 51
83.62062979155863
  0
ARC
  5
F71
330
18
100
AcDbEntity
  8
1
370
    15
100
AcDbCircle
 10
286.595784916926
 20
167.2351286063351
 30
0.0
 40
2.5
100
AcDbArc
 50
275.739170477268
 51
84.26082952273189
  0
LINE
  5
F72
330
18
100
AcDbEntity
  8
2
  6
2-中心線
100
AcDbLine
 10
294.595784916926
 20
164.7351286063351
 30
0.0
 11
294.595784916926
 21
169.7351286063351
 31
0.0
  0
LINE
  5
F73
330
18
100
AcDbEntity
  8
2
  6
2-中心線
100
AcDbLine
 10
286.595784916926
 20
164.7351286063351
 30
0.0
 11
286.595784916926
 21
169.7351286063351
 31
0.0
  0
LWPOLYLINE
  5
F74
330
18
100
AcDbEntity
  8
1
100
AcDbPolyline
 90
        4
 70
     1
 43
0.0
 10
278.095784916926
 20
163.7351286063351
 10
283.595784916926
 20
163.7351286063351
 10
283.595784916926
 20
161.2351286063351
 10
278.095784916926
 20
161.2351286063351
  0
LINE
  5
F75
330
18
100
AcDbEntity
  8
1
370
    15
100
AcDbLine
 10
286.845784916926
 20
164.9990606288353
 30
0.0
 11
286.845784916926
 21
164.7476600135685
 31
0.0
  0
LINE
  5
F76
330
18
100
AcDbEntity
  8
1
370
    15
100
AcDbLine
 10
286.345784916926
 20
164.9990606288353
 30
0.0
 11
286.345784916926
 21
164.7476600135685
 31
0.0
  0
LINE
  5
F77
330
18
100
AcDbEntity
  8
1
370
    15
100
AcDbLine
 10
294.345784916926
 20
164.9990606288353
 30
0.0
 11
294.345784916926
 21
164.7476600135685
 31
0.0
  0
LINE
  5
F78
330
18
100
AcDbEntity
  8
1
370
    15
100
AcDbLine
 10
294.845784916926
 20
164.9990606288353
 30
0.0
 11
294.845784916926
 21
164.7476600135685
 31
0.0
  0
LINE
  5
F79
330
18
100
AcDbEntity
  8
1
100
AcDbLine
 10
274.095784916926
 20
181.9351286063351
 30
0.0
 11
274.095784916926
 21
170.5351286063351
 31
0.0
  0
LINE
  5
F7A
330
18
100
AcDbEntity
  8
1
370
    15
100
AcDbLine
 10
274.095784916926
 20
170.5351286063351
 30
0.0
 11
276.095784916926
 21
170.5351286063351
 31
0.0
  0
TEXT
  5
F7B
330
18
100
AcDbEntity
  8
1
100
AcDbText
 10
285.9460387240324
 20
170.7452808905989
 30
0.0
 40
2.0
  1
7
  7
ＭＳゴシック
 72
     4
 11
286.5957849169258
 21
171.735128606335
 31
0.0
100
AcDbText
  0
LINE
  5
F7C
330
18
100
AcDbEntity
  8
2
  6
2-中心線
100
AcDbLine
 10
284.095784916926
 20
167.2351286063351
 30
0.0
 11
289.095784916926
 21
167.2351286063351
 31
0.0
  0
LINE
  5
F7D
330
18
100
AcDbEntity
  8
1
370
    15
100
AcDbLine
 10
286.345784916926
 20
169.7225971991016
 30
0.0
 11
286.345784916926
 21
169.4711965838349
 31
0.0
  0
LINE
  5
F7E
330
18
100
AcDbEntity
  8
1
370
    15
100
AcDbLine
 10
286.845784916926
 20
169.7225971991016
 30
0.0
 11
286.845784916926
 21
169.4711965838349
 31
0.0
  0
LINE
  5
F7F
330
18
100
AcDbEntity
  8
1
370
    15
100
AcDbLine
 10
276.095784916926
 20
181.9351286063351
 30
0.0
 11
274.095784916926
 21
181.9351286063351
 31
0.0
  0
LINE
  5
F80
330
18
100
AcDbEntity
  8
1
370
    15
100
AcDbLine
 10
282.595784916926
 20
186.7351286063351
 30
0.0
 11
282.595784916926
 21
182.7351286063351
 31
0.0
  0
LINE
  5
F81
330
18
100
AcDbEntity
  8
1
370
    15
100
AcDbLine
 10
283.095784916926
 20
186.4351286063351
 30
0.0
 11
283.095784916926
 21
182.7351286063351
 31
0.0
  0
LINE
  5
F82
330
18
100
AcDbEntity
  8
1
370
    15
100
AcDbLine
 10
288.795784916926
 20
178.0351286063351
 30
0.0
 11
283.095784916926
 21
178.0351286063351
 31
0.0
  0
LINE
  5
F83
330
18
100
AcDbEntity
  8
1
370
    15
100
AcDbLine
 10
282.595784916926
 20
181.7351286063351
 30
0.0
 11
283.095784916926
 21
181.7351286063351
 31
0.0
  0
LINE
  5
F84
330
18
100
AcDbEntity
  8
1
370
    15
100
AcDbLine
 10
282.595784916926
 20
182.7351286063351
 30
0.0
 11
283.095784916926
 21
182.7351286063351
 31
0.0
  0
LINE
  5
F85
330
18
100
AcDbEntity
  8
1
370
    15
100
AcDbLine
 10
282.595784916926
 20
181.7351286063351
 30
0.0
 11
282.595784916926
 21
177.7351286063351
 31
0.0
  0
LINE
  5
F86
330
18
100
AcDbEntity
  8
1
370
    15
100
AcDbLine
 10
283.095784916926
 20
178.0351286063351
 30
0.0
 11
283.095784916926
 21
181.7351286063351
 31
0.0
  0
LINE
  5
F87
330
18
100
AcDbEntity
  8
1
370
    15
100
AcDbLine
 10
288.795784916926
 20
178.0351286063351
 30
0.0
 11
288.795784916926
 21
177.7351286063351
 31
0.0
  0
LINE
  5
F88
330
18
100
AcDbEntity
  8
1
370
    15
100
AcDbLine
 10
288.795784916926
 20
186.4351286063351
 30
0.0
 11
283.095784916926
 21
186.4351286063351
 31
0.0
  0
LINE
  5
F89
330
18
100
AcDbEntity
  8
1
370
    15
100
AcDbLine
 10
288.795784916926
 20
186.4351286063351
 30
0.0
 11
288.795784916926
 21
186.7351286063351
 31
0.0
  0
TEXT
  5
F8A
330
18
100
AcDbEntity
  8
1
100
AcDbText
 10
294.0460387240325
 20
170.7452808905989
 30
0.0
 40
2.0
  1
8
  7
ＭＳゴシック
 72
     4
 11
294.6957849169259
 21
171.735128606335
 31
0.0
100
AcDbText
  0
LINE
  5
F8B
330
18
100
AcDbEntity
  8
2
  6
2-中心線
100
AcDbLine
 10
292.095784916926
 20
167.2351286063351
 30
0.0
 11
297.095784916926
 21
167.2351286063351
 31
0.0
  0
LINE
  5
F8C
330
18
100
AcDbEntity
  8
1
370
    15
100
AcDbLine
 10
294.845784916926
 20
169.7225971991016
 30
0.0
 11
294.845784916926
 21
169.4711965838349
 31
0.0
  0
LINE
  5
F8D
330
18
100
AcDbEntity
  8
1
370
    15
100
AcDbLine
 10
294.345784916926
 20
169.7225971991016
 30
0.0
 11
294.345784916926
 21
169.4711965838349
 31
0.0
  0
LINE
  5
F8E
330
18
100
AcDbEntity
  8
1
370
    15
100
AcDbLine
 10
296.995784916926
 20
186.7351286063351
 30
0.0
 11
296.995784916926
 21
177.7351286063351
 31
0.0
  0
LINE
  5
F8F
330
18
100
AcDbEntity
  8
1
370
    15
100
AcDbLine
 10
289.7957849169261
 20
186.7351286063351
 30
0.0
 11
289.7957849169261
 21
182.7351286063351
 31
0.0
  0
LINE
  5
F90
330
18
100
AcDbEntity
  8
1
370
    15
100
AcDbLine
 10
290.295784916926
 20
186.4351286063351
 30
0.0
 11
290.295784916926
 21
182.7351286063351
 31
0.0
  0
LINE
  5
F91
330
18
100
AcDbEntity
  8
1
370
    15
100
AcDbLine
 10
295.995784916926
 20
178.0351286063351
 30
0.0
 11
290.295784916926
 21
178.0351286063351
 31
0.0
  0
LINE
  5
F92
330
18
100
AcDbEntity
  8
1
370
    15
100
AcDbLine
 10
289.7957849169261
 20
181.7351286063351
 30
0.0
 11
290.295784916926
 21
181.7351286063351
 31
0.0
  0
LINE
  5
F93
330
18
100
AcDbEntity
  8
1
370
    15
100
AcDbLine
 10
289.7957849169261
 20
182.7351286063351
 30
0.0
 11
290.295784916926
 21
182.7351286063351
 31
0.0
  0
LINE
  5
F94
330
18
100
AcDbEntity
  8
1
370
    15
100
AcDbLine
 10
290.295784916926
 20
178.0351286063351
 30
0.0
 11
290.295784916926
 21
181.7351286063351
 31
0.0
  0
LINE
  5
F95
330
18
100
AcDbEntity
  8
1
370
    15
100
AcDbLine
 10
289.7957849169261
 20
181.7351286063351
 30
0.0
 11
289.7957849169261
 21
177.7351286063351
 31
0.0
  0
LINE
  5
F96
330
18
100
AcDbEntity
  8
1
370
    15
100
AcDbLine
 10
289.7957849169261
 20
178.2351286063351
 30
0.0
 11
289.7957849169261
 21
177.7351286063351
 31
0.0
  0
LINE
  5
F97
330
18
100
AcDbEntity
  8
1
370
    15
100
AcDbLine
 10
295.995784916926
 20
178.0351286063351
 30
0.0
 11
295.995784916926
 21
177.7351286063351
 31
0.0
  0
LINE
  5
F98
330
18
100
AcDbEntity
  8
1
370
    15
100
AcDbLine
 10
295.995784916926
 20
186.4351286063351
 30
0.0
 11
290.295784916926
 21
186.4351286063351
 31
0.0
  0
LINE
  5
F99
330
18
100
AcDbEntity
  8
1
370
    15
100
AcDbLine
 10
289.7957849169261
 20
186.7351286063351
 30
0.0
 11
289.7957849169261
 21
186.2351286063351
 31
0.0
  0
LINE
  5
F9A
330
18
100
AcDbEntity
  8
1
370
    15
100
AcDbLine
 10
289.7957849169261
 20
186.7351286063351
 30
0.0
 11
289.7957849169261
 21
186.2351286063351
 31
0.0
  0
LINE
  5
F9B
330
18
100
AcDbEntity
  8
1
370
    15
100
AcDbLine
 10
295.995784916926
 20
186.7351286063351
 30
0.0
 11
295.995784916926
 21
186.4351286063351
 31
0.0
  0
LINE
  5
F9C
330
18
100
AcDbEntity
  8
1
370
    15
100
AcDbLine
 10
295.995784916926
 20
186.7351286063351
 30
0.0
 11
295.995784916926
 21
186.4851286063351
 31
0.0
  0
CIRCLE
  5
F9D
330
18
100
AcDbEntity
  8
1
100
AcDbCircle
 10
301.495784916926
 20
183.235128606335
 30
0.0
 40
1.3
  0
LWPOLYLINE
  5
F9E
330
18
100
AcDbEntity
  8
1
100
AcDbPolyline
 90
        4
 70
     1
 43
0.0
 10
298.495784916926
 20
185.235128606335
 10
304.495784916926
 20
185.235128606335
 10
304.495784916926
 20
178.235128606335
 10
298.495784916926
 20
178.235128606335
  0
LWPOLYLINE
  5
F9F
330
18
100
AcDbEntity
  8
1
100
AcDbPolyline
 90
        4
 70
     1
 43
0.0
 10
299.495784916926
 20
178.735128606335
 10
303.495784916926
 20
178.735128606335
 10
303.495784916926
 20
180.7351286063351
 10
299.495784916926
 20
180.7351286063351
  0
LWPOLYLINE
  5
FA0
330
18
100
AcDbEntity
  8
1
370
    15
100
AcDbPolyline
 90
        4
 70
     1
 43
0.0
 10
309.095784916926
 20
173.2351286063351
 10
311.095784916926
 20
173.2351286063351
 10
311.095784916926
 20
163.2351286063351
 10
309.095784916926
 20
163.2351286063351
  0
LWPOLYLINE
  5
FA1
330
18
100
AcDbEntity
  8
1
370
    15
100
AcDbPolyline
 90
        4
 70
     1
 43
0.0
 10
313.095784916926
 20
173.2351286063351
 10
315.095784916926
 20
173.2351286063351
 10
315.095784916926
 20
163.2351286063351
 10
313.095784916926
 20
163.2351286063351
  0
LWPOLYLINE
  5
FA2
330
18
100
AcDbEntity
  8
1
370
    15
100
AcDbPolyline
 90
        4
 70
     1
 43
0.0
 10
317.095784916926
 20
173.2351286063351
 10
319.095784916926
 20
173.2351286063351
 10
319.095784916926
 20
163.2351286063351
 10
317.095784916926
 20
163.2351286063351
  0
LWPOLYLINE
  5
FA3
330
18
100
AcDbEntity
  8
1
370
    15
100
AcDbPolyline
 90
        4
 70
     1
 43
0.0
 10
321.095784916926
 20
173.2351286063351
 10
323.095784916926
 20
173.2351286063351
 10
323.095784916926
 20
163.2351286063351
 10
321.095784916926
 20
163.2351286063351
  0
LWPOLYLINE
  5
FA4
330
18
100
AcDbEntity
  8
1
370
    15
100
AcDbPolyline
 90
        8
 70
     1
 43
0.0
 10
326.7957849169259
 20
174.7351286063351
 10
337.395784916926
 20
174.7351286063351
 42
-0.4142135623730941
 10
337.895784916926
 20
174.2351286063351
 10
337.8957849169261
 20
165.4351286063351
 42
-0.4142135623730959
 10
337.3957849169261
 20
164.9351286063351
 10
326.7957849169261
 20
164.9351286063351
 42
-0.4142135623730906
 10
326.2957849169261
 20
165.4351286063351
 10
326.2957849169259
 20
174.2351286063351
 42
-0.4142135623730984
  0
CIRCLE
  5
FA5
330
18
100
AcDbEntity
  8
1
370
    15
100
AcDbCircle
 10
322.7457849169259
 20
182.385128606335
 30
0.0
 40
0.5
  0
LWPOLYLINE
  5
FA6
330
18
100
AcDbEntity
  8
1
370
    15
100
AcDbPolyline
 90
        4
 70
     1
 43
0.0
 10
318.2457849169259
 20
185.735128606335
 10
324.7457849169259
 20
185.735128606335
 10
324.7457849169259
 20
179.735128606335
 10
318.2457849169259
 20
179.735128606335
  0
LWPOLYLINE
  5
FA7
330
18
100
AcDbEntity
  8
1
370
    15
100
AcDbPolyline
 90
        8
 70
     1
 43
0.0
 10
316.6957849169259
 20
178.235128606335
 10
326.2957849169259
 20
178.2351286063351
 42
0.4142135623730925
 10
326.7957849169259
 20
178.7351286063351
 10
326.7957849169259
 20
187.035128606335
 42
0.4142135623730934
 10
326.2957849169259
 20
187.535128606335
 10
316.6957849169259
 20
187.5351286063351
 42
0.4142135623730966
 10
316.1957849169259
 20
187.0351286063351
 10
316.1957849169259
 20
178.735128606335
 42
0.4142135623730948
  0
LWPOLYLINE
  5
FA8
330
18
100
AcDbEntity
  8
1
100
AcDbPolyline
 90
        4
 70
     1
 43
0.0
 10
317.1957849169259
 20
179.235128606335
 10
325.795784916926
 20
179.235128606335
 10
325.795784916926
 20
186.5351286063351
 10
317.1957849169259
 20
186.5351286063351
  0
CIRCLE
  5
FA9
330
18
100
AcDbEntity
  8
1
100
AcDbCircle
 10
309.495784916926
 20
183.235128606335
 30
0.0
 40
1.3
  0
LWPOLYLINE
  5
FAA
330
18
100
AcDbEntity
  8
1
100
AcDbPolyline
 90
        4
 70
     1
 43
0.0
 10
306.495784916926
 20
185.235128606335
 10
312.495784916926
 20
185.235128606335
 10
312.495784916926
 20
178.235128606335
 10
306.495784916926
 20
178.235128606335
  0
LWPOLYLINE
  5
FAB
330
18
100
AcDbEntity
  8
1
100
AcDbPolyline
 90
        4
 70
     1
 43
0.0
 10
307.495784916926
 20
178.735128606335
 10
311.495784916926
 20
178.735128606335
 10
311.495784916926
 20
180.7351286063351
 10
307.495784916926
 20
180.7351286063351
  0
CIRCLE
  5
FAC
330
18
100
AcDbEntity
  8
1
370
    15
100
AcDbCircle
 10
320.2457849169259
 20
182.385128606335
 30
0.0
 40
0.5
  0
TEXT
  5
FAD
330
18
100
AcDbEntity
  8
1
100
AcDbText
 10
331.4460387240326
 20
175.245280890599
 30
0.0
 40
2.0
  1
9
  7
ＭＳゴシック
 72
     4
 11
332.095784916926
 21
176.2351286063351
 31
0.0
100
AcDbText
  0
CIRCLE
  5
FAE
330
18
100
AcDbEntity
  8
1
370
    15
100
AcDbCircle
 10
330.845784916926
 20
168.5851286063351
 30
0.0
 40
0.5
  0
LWPOLYLINE
  5
FAF
330
18
100
AcDbEntity
  8
1
370
    15
100
AcDbPolyline
 90
        4
 70
     1
 43
0.0
 10
327.2957849169261
 20
173.7351286063351
 10
336.895784916926
 20
173.7351286063351
 10
336.895784916926
 20
165.9351286063351
 10
327.2957849169261
 20
165.9351286063351
  0
LINE
  5
FB0
330
18
100
AcDbEntity
  8
1
100
AcDbLine
 10
328.845784916926
 20
170.9351286063351
 30
0.0
 11
335.345784916926
 21
170.9351286063351
 31
0.0
  0
LINE
  5
FB1
330
18
100
AcDbEntity
  8
1
100
AcDbLine
 10
328.845784916926
 20
170.9351286063351
 30
0.0
 11
328.845784916926
 21
165.9351286063351
 31
0.0
  0
CIRCLE
  5
FB2
330
18
100
AcDbEntity
  8
1
370
    15
100
AcDbCircle
 10
333.345784916926
 20
168.5851286063351
 30
0.0
 40
0.5
  0
LINE
  5
FB3
330
18
100
AcDbEntity
  8
1
100
AcDbLine
 10
335.345784916926
 20
170.9351286063351
 30
0.0
 11
335.345784916926
 21
165.9351286063351
 31
0.0
  0
CIRCLE
  5
FB4
330
18
100
AcDbEntity
  8
1
370
    15
100
AcDbCircle
 10
330.845784916926
 20
182.3851286063351
 30
0.0
 40
0.5
  0
LWPOLYLINE
  5
FB5
330
18
100
AcDbEntity
  8
1
100
AcDbPolyline
 90
        4
 70
     1
 43
0.0
 10
327.795784916926
 20
179.2351286063351
 10
336.395784916926
 20
179.2351286063351
 10
336.395784916926
 20
186.5351286063351
 10
327.795784916926
 20
186.5351286063351
  0
LWPOLYLINE
  5
FB6
330
18
100
AcDbEntity
  8
1
370
    15
100
AcDbPolyline
 90
        8
 70
     1
 43
0.0
 10
327.2957849169259
 20
178.2351286063351
 10
336.895784916926
 20
178.2351286063352
 42
0.4142135623730925
 10
337.395784916926
 20
178.7351286063352
 10
337.395784916926
 20
187.0351286063351
 42
0.4142135623730934
 10
336.895784916926
 20
187.5351286063351
 10
327.2957849169259
 20
187.5351286063352
 42
0.4142135623730966
 10
326.7957849169259
 20
187.0351286063351
 10
326.7957849169259
 20
178.7351286063351
 42
0.4142135623730948
  0
LWPOLYLINE
  5
FB7
330
18
100
AcDbEntity
  8
1
370
    15
100
AcDbPolyline
 90
        4
 70
     1
 43
0.0
 10
328.845784916926
 20
185.7351286063351
 10
335.345784916926
 20
185.7351286063351
 10
335.345784916926
 20
179.7351286063351
 10
328.845784916926
 20
179.7351286063351
  0
CIRCLE
  5
FB8
330
18
100
AcDbEntity
  8
1
370
    15
100
AcDbCircle
 10
333.345784916926
 20
182.3851286063351
 30
0.0
 40
0.5
  0
LINE
  5
FB9
330
18
100
AcDbEntity
  8
1
100
AcDbLine
 10
346.095784916926
 20
181.9351286063351
 30
0.0
 11
346.095784916926
 21
170.5351286063351
 31
0.0
  0
LINE
  5
FBA
330
18
100
AcDbEntity
  8
1
370
    15
100
AcDbLine
 10
346.095784916926
 20
170.5351286063351
 30
0.0
 11
344.095784916926
 21
170.5351286063351
 31
0.0
  0
LINE
  5
FBB
330
18
100
AcDbEntity
  8
1
370
    15
100
AcDbLine
 10
344.095784916926
 20
181.9351286063351
 30
0.0
 11
346.095784916926
 21
181.9351286063351
 31
0.0
  0
TEXT
  5
106F
330
18
100
AcDbEntity
  8
2
100
AcDbText
 10
29.85646046821125
 20
165.2414239678963
 30
0.0
 40
2.5
  1
ｱｯﾌﾟｷｰ
  7
ＭＳ明朝
100
AcDbText
  0
LINE
  5
1070
330
18
100
AcDbEntity
  8
2
100
AcDbLine
 10
42.01967078338331
 20
164.6178057047542
 30
0.0
 11
29.01967078338331
 21
164.6178057047542
 31
0.0
  0
TEXT
  5
1071
330
18
100
AcDbEntity
  8
2
100
AcDbText
 10
29.85646046821125
 20
153.7414239678963
 30
0.0
 40
2.5
  1
ﾀﾞｳﾝｷｰ
  7
ＭＳ明朝
100
AcDbText
  0
LINE
  5
1072
330
18
100
AcDbEntity
  8
2
100
AcDbLine
 10
42.01967155447247
 20
152.8524380689348
 30
0.0
 11
29.01967155447247
 21
152.8524380689348
 31
0.0
  0
TEXT
  5
1073
330
18
100
AcDbEntity
  8
2
100
AcDbText
 10
32.29602418917647
 20
144.4163250924998
 30
0.0
 40
2.5
  1
温度表示器
  7
ＭＳ明朝
100
AcDbText
  0
LINE
  5
1074
330
18
100
AcDbEntity
  8
2
100
AcDbLine
 10
51.69578491692607
 20
143.6351286063351
 30
0.0
 11
31.69578491692607
 21
143.6351286063351
 31
0.0
  0
TEXT
  5
1075
330
18
100
AcDbEntity
  8
2
100
AcDbText
 10
125.3395888131719
 20
140.1899606556484
 30
0.0
 40
2.5
  1
出力動作表示ﾗﾝﾌﾟ
  7
ＭＳ明朝
100
AcDbText
  0
LINE
  5
1076
330
18
100
AcDbEntity
  8
2
100
AcDbLine
 10
123.8350071557145
 20
139.5155469452698
 30
0.0
 11
153.8350071557145
 21
139.5155469452698
 31
0.0
  0
TEXT
  5
1077
330
18
100
AcDbEntity
  8
2
100
AcDbText
 10
128.1627607200394
 20
149.6318287639233
 30
0.0
 40
2.5
  1
ｾｯﾄｷｰ
  7
ＭＳ明朝
100
AcDbText
  0
LINE
  5
1078
330
18
100
AcDbEntity
  8
2
100
AcDbLine
 10
126.5957836501368
 20
148.7351273395459
 30
0.0
 11
138.5957836501368
 21
148.7351273395459
 31
0.0
  0
TEXT
  5
1079
330
18
100
AcDbEntity
  8
2
100
AcDbText
 10
125.3395888131719
 20
33.1899606556484
 30
0.0
 40
2.5
  1
4-結束固定ﾗｸﾞ
  7
ＭＳ明朝
100
AcDbText
  0
LINE
  5
107A
330
18
100
AcDbEntity
  8
2
100
AcDbLine
 10
123.8998128877943
 20
32.41022284036489
 30
0.0
 11
148.8998128877943
 21
32.41022284036489
 31
0.0
  0
TEXT
  5
107B
330
18
100
AcDbEntity
  8
2
100
AcDbText
 10
265.7142308782172
 20
203.1401824913049
 30
0.0
 40
2.5
  1
制御出力用端子
  7
ＭＳ明朝
100
AcDbText
  0
LINE
  5
107C
330
18
100
AcDbEntity
  8
2
100
AcDbLine
 10
292.7446644494373
 20
202.3428120387002
 30
0.0
 11
264.7446644494373
 21
202.3428120387002
 31
0.0
  0
TEXT
  5
107D
330
18
100
AcDbEntity
  8
2
100
AcDbText
 10
351.9953652144804
 20
204.2610657838941
 30
0.0
 40
2.5
  1
電源入出力ｺﾈｸﾀ
  7
ＭＳ明朝
100
AcDbText
  0
LINE
  5
107E
330
18
100
AcDbEntity
  8
2
100
AcDbLine
 10
351.6521368759765
 20
202.9341878585241
 30
0.0
 11
377.6521368759765
 21
202.9341878585241
 31
0.0
  0
TEXT
  5
107F
330
18
100
AcDbEntity
  8
2
100
AcDbText
 10
350.8175179582783
 20
149.9616685477074
 30
0.0
 40
2.5
  1
感熱部入力ｺﾈｸﾀ
  7
ＭＳ明朝
100
AcDbText
  0
LINE
  5
1080
330
18
100
AcDbEntity
  8
2
100
AcDbLine
 10
349.6521163099455
 20
148.9859044843097
 30
0.0
 11
376.6521163099455
 21
148.9859044843097
 31
0.0
  0
TEXT
  5
1081
330
18
100
AcDbEntity
  8
2
100
AcDbText
 10
209.4972878129201
 20
101.7549046210736
 30
0.0
 40
1.8
  1
+0.700
  7
ＭＳ明朝
100
AcDbText
  0
TEXT
  5
1083
330
18
100
AcDbEntity
  8
2
100
AcDbText
 10
209.4972878129201
 20
99.25490462107367
 30
0.0
 40
1.8
  1
 0.000
  7
ＭＳ明朝
100
AcDbText
  0
TEXT
  5
10BB
330
18
100
AcDbEntity
  8
2
100
AcDbText
 10
253.5008536306189
 20
76.99165803059942
 30
0.0
 40
1.8
  1
-0.000
 50
90.0
  7
ＭＳ明朝
100
AcDbText
  0
TEXT
  5
10BC
330
18
100
AcDbEntity
  8
2
100
AcDbText
 10
251.0008536306189
 20
76.99165803059942
 30
0.0
 40
1.8
  1
+0.700
 50
90.0
  7
ＭＳ明朝
100
AcDbText
  0
VIEWPORT
  5
699
330
692
100
AcDbEntity
 67
     1
  8
0
100
AcDbViewport
 10
171.5124748890568
 20
100.2254200374944
 30
0.0
 40
295.3594837448678
 41
189.1514502064736
 68
     1
 69
     1
 12
171.5124748890568
 22
100.2254200374944
 13
0.0
 23
0.0
 14
1.0
 24
1.0
 15
10.0
 25
10.0
 16
0.0
 26
0.0
 36
1.0
 17
0.0
 27
0.0
 37
0.0
 42
50.0
 43
0.0
 44
0.0
 45
189.1514502064736
 50
0.0
 51
0.0
 72
   100
 90
    33056
  1

281
     0
 71
     1
 74
     0
110
0.0
120
0.0
130
0.0
111
1.0
121
0.0
131
0.0
112
0.0
122
1.0
132
0.0
 79
     0
146
0.0
  0
VIEWPORT
  5
69B
330
692
100
AcDbEntity
 67
     1
  8
X ﾋﾞｭｰ
100
AcDbViewport
 10
142.5
 20
99.0
 30
0.0
 40
285.0
 41
198.0
 68
     2
 69
     2
 12
211.0185934734356
 22
123.3254687975187
 13
0.0
 23
0.0
 14
1.0
 24
1.0
 15
10.0
 25
10.0
 16
0.0
 26
0.0
 36
1.0
 17
0.0
 27
0.0
 37
0.0
 42
50.0
 43
0.0
 44
0.0
 45
375.0014659617456
 50
0.0
 51
0.0
 72
   100
 90
    33056
  1

281
     0
 71
     1
 74
     0
110
0.0
120
0.0
130
0.0
111
1.0
121
0.0
131
0.0
112
0.0
122
1.0
132
0.0
 79
     0
146
0.0
  0
ENDSEC
  0
SECTION
  2
OBJECTS
  0
DICTIONARY
  5
C
330
0
100
AcDbDictionary
281
     1
  3
ACAD_GROUP
350
D
  3
ACAD_LAYOUT
350
5E1
  3
ACAD_MLINESTYLE
350
1B
  3
ACAD_PLOTSETTINGS
350
5E2
  3
ACAD_PLOTSTYLENAME
350
5DF
  3
AcadDim
350
662
  3
CONTENTDICTIONARY
350
20
  0
DICTIONARY
  5
D
102
{ACAD_REACTORS
330
C
102
}
330
C
100
AcDbDictionary
281
     1
  0
DICTIONARY
  5
5E1
102
{ACAD_REACTORS
330
C
102
}
330
C
100
AcDbDictionary
281
     1
  3
Model
350
5E3
  3
ﾚｲｱｳﾄ1
350
693
  0
DICTIONARY
  5
1B
102
{ACAD_REACTORS
330
C
102
}
330
C
100
AcDbDictionary
281
     1
  3
STANDARD
350
1C
  0
DICTIONARY
  5
5E2
102
{ACAD_REACTORS
330
C
102
}
330
C
100
AcDbDictionary
281
     1
  0
ACDBDICTIONARYWDFLT
  5
5DF
102
{ACAD_REACTORS
330
C
102
}
330
C
100
AcDbDictionary
281
     1
  3
Normal
350
5E0
100
AcDbDictionaryWithDefault
340
5E0
  0
XRECORD
  5
662
102
{ACAD_REACTORS
330
C
102
}
330
C
100
AcDbXrecord
280
     1
 90
   990106
  3

 60
     0
 61
     0
 62
     4
 63
     4
 64
     1
 65
     0
 66
     0
 67
     3
 68
     1
 69
     0
 70
     0
 71
     0
 72
     0
 40
0.0
170
     2
340
0
  0
DICTIONARY
  5
20
102
{ACAD_REACTORS
330
C
102
}
330
C
100
AcDbDictionary
281
     1
1001
CONTENTTABDATA
1070
     6
1000
ビス.dwg
1000
C:\Program Files\AutoCAD LT 97\SYMBOLS\ビス.dwg
1070
     0
1070
     0
1070
     1
1000
ｺﾈｸﾀ.dwg
1000
C:\Program Files\AutoCAD LT 97\SYMBOLS\ｺﾈｸﾀ.dwg
1070
     0
1070
     0
1070
     1
1000
表示器.dwg
1000
C:\Program Files\AutoCAD LT 97\SYMBOLS\表示器.dwg
1070
     0
1070
     0
1070
     1
1000
ﾄﾗﾝｽ.dwg
1000
C:\Program Files\AutoCAD LT 97\SYMBOLS\ﾄﾗﾝｽ.dwg
1070
     0
1070
     0
1070
     1
1000
ﾘﾚｰ.dwg
1000
C:\Program Files\AutoCAD LT 97\SYMBOLS\ﾘﾚｰ.dwg
1070
     0
1070
     0
1070
     1
1000
汎用.dwg
1000
C:\Program Files\AutoCAD LT 97\SYMBOLS\汎用.dwg
1070
     0
1070
     0
1070
     1
1001
CONTENTCURRENTTAB
1070
     2
  0
LAYOUT
  5
5E3
102
{ACAD_REACTORS
330
5E1
102
}
330
5E1
100
AcDbPlotSettings
  1

  2
RICOH imagio MP C3000 RPCS.pc3
  4
A3
  6

 40
5.873749732971191
 41
5.873747825622558
 42
5.873748779296875
 43
5.873748779296875
 44
419.9466552734374
 45
296.9259948730469
 46
0.0
 47
0.0
 48
0.0
 49
0.0
140
0.0
141
0.0
142
1.0
143
1.286122978510651
 70
 11952
 72
     1
 73
     0
 74
     0
  7
monochrome.ctb
 75
     0
147
0.7775306224277355
148
0.0
149
0.0
100
AcDbLayout
  1
Model
 70
     1
 71
     0
 10
0.0
 20
0.0
 11
12.0
 21
9.0
 12
0.0
 22
0.0
 32
0.0
 14
0.0
 24
0.0
 34
0.0
 15
0.0
 25
0.0
 35
0.0
146
0.0
 13
0.0
 23
0.0
 33
0.0
 16
1.0
 26
0.0
 36
0.0
 17
0.0
 27
1.0
 37
0.0
 76
     0
330
18
  0
LAYOUT
  5
693
102
{ACAD_REACTORS
330
5E1
102
}
330
5E1
100
AcDbPlotSettings
  1

  2
RICOH imagio MP C3000 RPCS
  4
A4
  6

 40
5.873749732971191
 41
5.873747825622558
 42
5.873748779296875
 43
5.873748779296875
 44
209.9733276367187
 45
296.9259948730469
 46
0.0
 47
0.0
 48
0.0
 49
0.0
140
0.0
141
0.0
142
1.0
143
1.0
 70
   688
 72
     1
 73
     1
 74
     5
  7
monochrome.ctb
 75
    16
147
1.0
148
0.0
149
0.0
100
AcDbLayout
  1
ﾚｲｱｳﾄ1
 70
     1
 71
     1
 10
-5.873748779296875
 20
-5.873749732971191
 11
291.05224609375
 21
204.0995779037475
 12
0.0
 22
0.0
 32
0.0
 14
0.0
 24
0.0
 34
0.0
 15
285.0
 25
198.0
 35
0.0
146
0.0
 13
0.0
 23
0.0
 33
0.0
 16
1.0
 26
0.0
 36
0.0
 17
0.0
 27
1.0
 37
0.0
 76
     0
330
692
331
699
  0
MLINESTYLE
  5
1C
102
{ACAD_REACTORS
330
1B
102
}
330
1B
100
AcDbMlineStyle
  2
STANDARD
 70
     0
  3

 62
   256
 51
90.0
 52
90.0
 71
     2
 49
0.5
 62
   256
  6
BYLAYER
 49
-0.5
 62
   256
  6
BYLAYER
  0
ACDBPLACEHOLDER
  5
5E0
102
{ACAD_REACTORS
330
5DF
102
}
330
5DF
  0
ENDSEC
  0
EOF
