  0
SECTION
  2
HEADER
  9
$ACADVER
  1
AC1015
  9
$ACADMAINTVER
 70
    11
  9
$DWGCODEPAGE
  3
ANSI_932
  9
$INSBASE
 10
0.0
 20
0.0
 30
0.0
  9
$EXTMIN
 10
71.58578655277246
 20
41.61830738300516
 30
0.0
  9
$EXTMAX
 10
386.8314286865743
 20
255.3742483354173
 30
0.0
  9
$LIMMIN
 10
0.0
 20
0.0
  9
$LIMMAX
 10
420.0
 20
297.0
  9
$ORTHOMODE
 70
     0
  9
$REGENMODE
 70
     1
  9
$FILLMODE
 70
     1
  9
$QTEXTMODE
 70
     0
  9
$MIRRTEXT
 70
     1
  9
$LTSCALE
 40
1.0
  9
$ATTMODE
 70
     1
  9
$TEXTSIZE
 40
2.5
  9
$TRACEWID
 40
1.0
  9
$TEXTSTYLE
  7
ＭＳ明朝
  9
$CLAYER
  8
1
  9
$CELTYPE
  6
BYLAYER
  9
$CECOLOR
 62
   256
  9
$CELTSCALE
 40
1.0
  9
$DISPSILH
 70
     0
  9
$DIMSCALE
 40
0.0
  9
$DIMASZ
 40
2.5
  9
$DIMEXO
 40
1.5
  9
$DIMDLI
 40
5.0
  9
$DIMRND
 40
0.0
  9
$DIMDLE
 40
0.0
  9
$DIMEXE
 40
1.25
  9
$DIMTP
 40
0.0
  9
$DIMTM
 40
0.0
  9
$DIMTXT
 40
2.5
  9
$DIMCEN
 40
-5.0
  9
$DIMTSZ
 40
0.0
  9
$DIMTOL
 70
     0
  9
$DIMLIM
 70
     0
  9
$DIMTIH
 70
     0
  9
$DIMTOH
 70
     0
  9
$DIMSE1
 70
     0
  9
$DIMSE2
 70
     0
  9
$DIMTAD
 70
     1
  9
$DIMZIN
 70
     8
  9
$DIMBLK
  1

  9
$DIMASO
 70
     1
  9
$DIMSHO
 70
     1
  9
$DIMPOST
  1

  9
$DIMAPOST
  1

  9
$DIMALT
 70
     0
  9
$DIMALTD
 70
     4
  9
$DIMALTF
 40
0.0394
  9
$DIMLFAC
 40
1.0
  9
$DIMTOFL
 70
     1
  9
$DIMTVP
 40
0.0
  9
$DIMTIX
 70
     0
  9
$DIMSOXD
 70
     0
  9
$DIMSAH
 70
     0
  9
$DIMBLK1
  1

  9
$DIMBLK2
  1

  9
$DIMSTYLE
  2
STANDARD
  9
$DIMCLRD
 70
     0
  9
$DIMCLRE
 70
     0
  9
$DIMCLRT
 70
     0
  9
$DIMTFAC
 40
1.0
  9
$DIMGAP
 40
0.5
  9
$DIMJUST
 70
     0
  9
$DIMSD1
 70
     0
  9
$DIMSD2
 70
     0
  9
$DIMTOLJ
 70
     1
  9
$DIMTZIN
 70
     0
  9
$DIMALTZ
 70
     0
  9
$DIMALTTZ
 70
     0
  9
$DIMUPT
 70
     0
  9
$DIMDEC
 70
     3
  9
$DIMTDEC
 70
     3
  9
$DIMALTU
 70
     8
  9
$DIMALTTD
 70
     4
  9
$DIMTXSTY
  7
ＭＳ明朝
  9
$DIMAUNIT
 70
     0
  9
$DIMADEC
 70
     0
  9
$DIMALTRND
 40
0.0
  9
$DIMAZIN
 70
     0
  9
$DIMDSEP
 70
    46
  9
$DIMATFIT
 70
     3
  9
$DIMFRAC
 70
     0
  9
$DIMLDRBLK
  1

  9
$DIMLUNIT
 70
     6
  9
$DIMLWD
 70
    -2
  9
$DIMLWE
 70
    -2
  9
$DIMTMOVE
 70
     0
  9
$LUNITS
 70
     2
  9
$LUPREC
 70
     2
  9
$SKETCHINC
 40
1.0
  9
$FILLETRAD
 40
2.0
  9
$AUNITS
 70
     0
  9
$AUPREC
 70
     0
  9
$MENU
  1
acad
  9
$ELEVATION
 40
0.0
  9
$PELEVATION
 40
0.0
  9
$THICKNESS
 40
0.0
  9
$LIMCHECK
 70
     0
  9
$CHAMFERA
 40
10.0
  9
$CHAMFERB
 40
10.0
  9
$CHAMFERC
 40
20.0
  9
$CHAMFERD
 40
0.0
  9
$SKPOLY
 70
     0
  9
$TDCREATE
 40
2455957.594655949
  9
$TDUCREATE
 40
2455957.219655949
  9
$TDUPDATE
 40
2456029.630672152
  9
$TDUUPDATE
 40
2456029.255672152
  9
$TDINDWG
 40
0.0238715162
  9
$TDUSRTIMER
 40
0.0238715162
  9
$USRTIMER
 70
     1
  9
$ANGBASE
 50
0.0
  9
$ANGDIR
 70
     0
  9
$PDMODE
 70
     0
  9
$PDSIZE
 40
0.0
  9
$PLINEWID
 40
0.0
  9
$SPLFRAME
 70
     0
  9
$SPLINETYPE
 70
     6
  9
$SPLINESEGS
 70
     8
  9
$HANDSEED
  5
CCF
  9
$SURFTAB1
 70
     6
  9
$SURFTAB2
 70
     6
  9
$SURFTYPE
 70
     6
  9
$SURFU
 70
     6
  9
$SURFV
 70
     6
  9
$UCSBASE
  2

  9
$UCSNAME
  2

  9
$UCSORG
 10
0.0
 20
0.0
 30
0.0
  9
$UCSXDIR
 10
1.0
 20
0.0
 30
0.0
  9
$UCSYDIR
 10
0.0
 20
1.0
 30
0.0
  9
$UCSORTHOREF
  2

  9
$UCSORTHOVIEW
 70
     0
  9
$UCSORGTOP
 10
0.0
 20
0.0
 30
0.0
  9
$UCSORGBOTTOM
 10
0.0
 20
0.0
 30
0.0
  9
$UCSORGLEFT
 10
0.0
 20
0.0
 30
0.0
  9
$UCSORGRIGHT
 10
0.0
 20
0.0
 30
0.0
  9
$UCSORGFRONT
 10
0.0
 20
0.0
 30
0.0
  9
$UCSORGBACK
 10
0.0
 20
0.0
 30
0.0
  9
$PUCSBASE
  2

  9
$PUCSNAME
  2

  9
$PUCSORG
 10
0.0
 20
0.0
 30
0.0
  9
$PUCSXDIR
 10
1.0
 20
0.0
 30
0.0
  9
$PUCSYDIR
 10
0.0
 20
1.0
 30
0.0
  9
$PUCSORTHOREF
  2

  9
$PUCSORTHOVIEW
 70
     0
  9
$PUCSORGTOP
 10
0.0
 20
0.0
 30
0.0
  9
$PUCSORGBOTTOM
 10
0.0
 20
0.0
 30
0.0
  9
$PUCSORGLEFT
 10
0.0
 20
0.0
 30
0.0
  9
$PUCSORGRIGHT
 10
0.0
 20
0.0
 30
0.0
  9
$PUCSORGFRONT
 10
0.0
 20
0.0
 30
0.0
  9
$PUCSORGBACK
 10
0.0
 20
0.0
 30
0.0
  9
$USERI1
 70
     0
  9
$USERI2
 70
     0
  9
$USERI3
 70
     0
  9
$USERI4
 70
     0
  9
$USERI5
 70
     0
  9
$USERR1
 40
0.0
  9
$USERR2
 40
0.0
  9
$USERR3
 40
0.0
  9
$USERR4
 40
0.0
  9
$USERR5
 40
0.0
  9
$WORLDVIEW
 70
     1
  9
$SHADEDGE
 70
     3
  9
$SHADEDIF
 70
    70
  9
$TILEMODE
 70
     0
  9
$MAXACTVP
 70
    48
  9
$PINSBASE
 10
0.0
 20
0.0
 30
0.0
  9
$PLIMCHECK
 70
     0
  9
$PEXTMIN
 10
0.0
 20
0.0
 30
0.0
  9
$PEXTMAX
 10
285.0
 20
198.0
 30
0.0
  9
$PLIMMIN
 10
-5.873748779296875
 20
-5.873749732971191
  9
$PLIMMAX
 10
291.05224609375
 20
204.0995779037475
  9
$UNITMODE
 70
     0
  9
$VISRETAIN
 70
     1
  9
$PLINEGEN
 70
     0
  9
$PSLTSCALE
 70
     1
  9
$TREEDEPTH
 70
  3020
  9
$CMLSTYLE
  2
STANDARD
  9
$CMLJUST
 70
     0
  9
$CMLSCALE
 40
20.0
  9
$PROXYGRAPHICS
 70
     1
  9
$MEASUREMENT
 70
     1
  9
$CELWEIGHT
370
    -1
  9
$ENDCAPS
280
     0
  9
$JOINSTYLE
280
     0
  9
$LWDISPLAY
290
     0
  9
$INSUNITS
 70
     0
  9
$HYPERLINKBASE
  1

  9
$STYLESHEET
  1

  9
$XEDIT
290
     1
  9
$CEPSNTYPE
380
     0
  9
$PSTYLEMODE
290
     1
  9
$FINGERPRINTGUID
  2
{778B7AA4-961B-11D4-A809-0000F45A11F6}
  9
$VERSIONGUID
  2
{B1B33CA4-1EE9-49B4-AD29-89D2FA18CD60}
  9
$EXTNAMES
290
     1
  9
$PSVPSCALE
 40
0.0
  9
$OLESTARTUP
290
     0
  0
ENDSEC
  0
SECTION
  2
CLASSES
  0
CLASS
  1
LWPOLYLINE
  2
AcDbPolyline
  3
AutoCAD 2000
 90
    32768
280
     0
281
     1
  0
CLASS
  1
ACDBDICTIONARYWDFLT
  2
AcDbDictionaryWithDefault
  3
AutoCAD 2000
 90
        0
280
     0
281
     0
  0
CLASS
  1
ACDBPLACEHOLDER
  2
AcDbPlaceHolder
  3
AutoCAD 2000
 90
        0
280
     0
281
     0
  0
CLASS
  1
LAYOUT
  2
AcDbLayout
  3
AutoCAD 2000
 90
        0
280
     0
281
     0
  0
ENDSEC
  0
SECTION
  2
TABLES
  0
TABLE
  2
VPORT
  5
8
330
0
100
AcDbSymbolTable
 70
     1
  0
VPORT
  5
CC6
330
8
100
AcDbSymbolTableRecord
100
AcDbViewportTableRecord
  2
*Active
 70
     0
 10
0.0
 20
0.0
 11
1.0
 21
1.0
 12
221.8872493592855
 22
127.2000149363989
 13
0.0
 23
0.0
 14
1.0
 24
1.0
 15
10.0
 25
10.0
 16
0.0
 26
0.0
 36
1.0
 17
0.0
 27
0.0
 37
0.0
 40
349.3347907261597
 41
1.540127388535031
 42
50.0
 43
0.0
 44
0.0
 50
0.0
 51
0.0
 71
     0
 72
   100
 73
     1
 74
     1
 75
     1
 76
     1
 77
     0
 78
     0
281
     0
 65
     1
110
0.0
120
0.0
130
0.0
111
1.0
121
0.0
131
0.0
112
0.0
122
1.0
132
0.0
 79
     0
146
0.0
  0
ENDTAB
  0
TABLE
  2
LTYPE
  5
5
330
0
100
AcDbSymbolTable
 70
     8
  0
LTYPE
  5
12
330
5
100
AcDbSymbolTableRecord
100
AcDbLinetypeTableRecord
  2
BYBLOCK
 70
     0
  3

 72
    65
 73
     0
 40
0.0
  0
LTYPE
  5
13
330
5
100
AcDbSymbolTableRecord
100
AcDbLinetypeTableRecord
  2
BYLAYER
 70
     0
  3

 72
    65
 73
     0
 40
0.0
  0
LTYPE
  5
14
330
5
100
AcDbSymbolTableRecord
100
AcDbLinetypeTableRecord
  2
CONTINUOUS
 70
     0
  3
Solid line
 72
    65
 73
     0
 40
0.0
  0
LTYPE
  5
34
330
5
100
AcDbSymbolTableRecord
100
AcDbLinetypeTableRecord
  2
6-破線
 70
     0
  3
Dashed (.5x) _ _ _ _ _ _ _ _ _ _ _ _ _ _ _ _ _
 72
    65
 73
     2
 40
9.524999999999998
 49
6.349999999999999
 74
     0
 49
-3.174999999999999
 74
     0
  0
LTYPE
  5
F2
330
5
100
AcDbSymbolTableRecord
100
AcDbLinetypeTableRecord
  2
1-隠れ線
 70
     0
  3
Hidden (.5x) _ _ _ _ _ _ _ _ _ _ _ _ _ _ _ _ _
 72
    65
 73
     2
 40
4.762499999999999
 49
3.174999999999999
 74
     0
 49
-1.587499999999999
 74
     0
  0
LTYPE
  5
110
330
5
100
AcDbSymbolTableRecord
100
AcDbLinetypeTableRecord
  2
4-中心線
 70
     0
  3
Center (.5x) ___ _ ___ _ ___ _ ___ _ ___ _ ___
 72
    65
 73
     4
 40
28.57499999999999
 49
19.05
 74
     0
 49
-3.174999999999999
 74
     0
 49
3.174999999999999
 74
     0
 49
-3.174999999999999
 74
     0
  0
LTYPE
  5
111
330
5
100
AcDbSymbolTableRecord
100
AcDbLinetypeTableRecord
  2
3-2点鎖線
 70
     0
  3
Divide (.5x) __..__..__..__..__..__..__..__.._
 72
    65
 73
     6
 40
15.87499999999999
 49
6.349999999999999
 74
     0
 49
-3.174999999999999
 74
     0
 49
0.0
 74
     0
 49
-3.174999999999999
 74
     0
 49
0.0
 74
     0
 49
-3.174999999999999
 74
     0
  0
LTYPE
  5
112
330
5
100
AcDbSymbolTableRecord
100
AcDbLinetypeTableRecord
  2
2-1点鎖線
 70
     0
  3
Dash dot (.5x) _._._._._._._._._._._._._._._.
 72
    65
 73
     4
 40
12.7
 49
6.349999999999999
 74
     0
 49
-3.174999999999999
 74
     0
 49
0.0
 74
     0
 49
-3.174999999999999
 74
     0
  0
LTYPE
  5
113
330
5
100
AcDbSymbolTableRecord
100
AcDbLinetypeTableRecord
  2
5-点線
 70
     0
  3
Dot (.5x) .....................................
 72
    65
 73
     2
 40
3.174999999999999
 49
0.0
 74
     0
 49
-3.174999999999999
 74
     0
  0
LTYPE
  5
138
330
5
100
AcDbSymbolTableRecord
100
AcDbLinetypeTableRecord
  2
7-補助線
 70
     0
  3
ISO dot . . . . . . . . . . . . . . . . . . . .
 72
    65
 73
     2
 40
3.5
 49
0.5
 74
     0
 49
-3.0
 74
     0
  0
ENDTAB
  0
TABLE
  2
LAYER
  5
2
330
0
100
AcDbSymbolTable
 70
     5
  0
LAYER
  5
E
330
2
100
AcDbSymbolTableRecord
100
AcDbLayerTableRecord
  2
0
 70
     0
 62
     4
  6
CONTINUOUS
370
    -3
390
5E0
  0
LAYER
  5
21F
330
2
100
AcDbSymbolTableRecord
100
AcDbLayerTableRecord
  2
DEFPOINTS
 70
     0
 62
     9
  6
CONTINUOUS
290
     0
370
    -3
390
5E0
  0
LAYER
  5
508
330
2
100
AcDbSymbolTableRecord
100
AcDbLayerTableRecord
  2
X ﾋﾞｭｰ
 70
     0
 62
     2
  6
CONTINUOUS
290
     0
370
    35
390
5E0
  0
LAYER
  5
726
330
2
100
AcDbSymbolTableRecord
100
AcDbLayerTableRecord
  2
1
 70
     0
 62
     5
  6
CONTINUOUS
370
    30
390
5E0
  0
LAYER
  5
727
330
2
100
AcDbSymbolTableRecord
100
AcDbLayerTableRecord
  2
2
 70
     0
 62
     6
  6
CONTINUOUS
370
    15
390
5E0
  0
ENDTAB
  0
TABLE
  2
STYLE
  5
3
330
0
100
AcDbSymbolTable
 70
     5
  0
STYLE
  5
F
330
3
100
AcDbSymbolTableRecord
100
AcDbTextStyleTableRecord
  2
STANDARD
 70
     0
 40
0.0
 41
1.0
 50
0.0
 71
     0
 42
2.5
  3
txt.shx
  4
bigfont.shx
  0
STYLE
  5
32
330
3
100
AcDbSymbolTableRecord
100
AcDbTextStyleTableRecord
  2

 70
     1
 40
0.0
 41
1.0
 50
0.0
 71
     0
 42
2.5
  3
ltypeshp.shx
  4

  0
STYLE
  5
4B4
330
3
100
AcDbSymbolTableRecord
100
AcDbTextStyleTableRecord
  2
ＭＳ明朝
 70
     0
 40
0.0
 41
1.0
 50
0.0
 71
     0
 42
2.5
  3
MS Mincho.ttf
  4

1001
ACAD
1000
MS Mincho
1071
    32785
  0
STYLE
  5
560
330
3
100
AcDbSymbolTableRecord
100
AcDbTextStyleTableRecord
  2
ＭＳゴシック
 70
     0
 40
0.0
 41
1.0
 50
0.0
 71
     0
 42
2.5
  3
MS Gothic.ttf
  4

1001
ACAD
1000
MS Gothic
1071
    32817
  0
STYLE
  5
66E
330
3
100
AcDbSymbolTableRecord
100
AcDbTextStyleTableRecord
  2
MSｺﾞｼｯｸ
 70
     0
 40
0.0
 41
1.0
 50
0.0
 71
     0
 42
2.5
  3
MS Gothic.ttf
  4

1001
ACAD
1000
MS Gothic
1071
    32817
  0
ENDTAB
  0
TABLE
  2
VIEW
  5
6
330
0
100
AcDbSymbolTable
 70
     0
  0
ENDTAB
  0
TABLE
  2
UCS
  5
7
330
0
100
AcDbSymbolTable
 70
     0
  0
ENDTAB
  0
TABLE
  2
APPID
  5
9
330
0
100
AcDbSymbolTable
 70
     5
  0
APPID
  5
10
330
9
100
AcDbSymbolTableRecord
100
AcDbRegAppTableRecord
  2
ACAD
 70
     0
  0
APPID
  5
21
330
9
100
AcDbSymbolTableRecord
100
AcDbRegAppTableRecord
  2
CONTENTTABDATA
 70
     0
  0
APPID
  5
22
330
9
100
AcDbSymbolTableRecord
100
AcDbRegAppTableRecord
  2
CONTENTCURRENTTAB
 70
     0
  0
APPID
  5
137
330
9
100
AcDbSymbolTableRecord
100
AcDbRegAppTableRecord
  2
CONTENTBLOCKDESCRIPTION
 70
     0
  0
APPID
  5
186
330
9
100
AcDbSymbolTableRecord
100
AcDbRegAppTableRecord
  2
CONTENTBLOCKICON
 70
     0
  0
ENDTAB
  0
TABLE
  2
DIMSTYLE
  5
A
330
0
100
AcDbSymbolTable
 70
     3
100
AcDbDimStyleTable
 71
     1
340
1D
  0
DIMSTYLE
105
1D
102
{ACAD_REACTORS
330
998
330
999
330
9CF
330
9D0
330
A63
330
B1B
330
B30
330
B4F
330
B78
330
B80
102
}
330
A
100
AcDbSymbolTableRecord
100
AcDbDimStyleTableRecord
  2
STANDARD
 70
     0
 40
0.0
 41
2.5
 42
1.5
 43
5.0
 44
1.25
 73
     0
 74
     0
 77
     1
 78
     8
140
2.5
141
-5.0
143
0.0394
147
0.5
171
     4
172
     1
271
     3
272
     3
273
     8
274
     4
277
     6
340
4B4
  0
DIMSTYLE
105
533
330
A
100
AcDbSymbolTableRecord
100
AcDbDimStyleTableRecord
  2
STANDARD$3
 70
     0
 40
0.0
 41
2.5
 42
1.5
 43
5.0
 44
1.25
 73
     0
 74
     0
 77
     1
 78
     8
140
2.5
141
0.0
143
0.0394
147
0.5
171
     4
271
     2
272
     2
273
     8
274
     4
277
     6
340
F
  0
DIMSTYLE
105
534
330
A
100
AcDbSymbolTableRecord
100
AcDbDimStyleTableRecord
  2
STANDARD$4
 70
     0
 40
0.0
 41
2.5
 42
1.5
 43
5.0
 44
1.25
 73
     0
 74
     0
 77
     1
 78
     8
140
2.5
141
0.0
143
0.0394
147
0.5
171
     4
271
     2
272
     2
273
     8
274
     4
277
     6
340
F
  0
ENDTAB
  0
TABLE
  2
BLOCK_RECORD
  5
1
330
0
100
AcDbSymbolTable
 70
    11
  0
BLOCK_RECORD
  5
18
330
1
100
AcDbSymbolTableRecord
100
AcDbBlockTableRecord
  2
*MODEL_SPACE
340
5E3
  0
BLOCK_RECORD
  5
692
330
1
100
AcDbSymbolTableRecord
100
AcDbBlockTableRecord
  2
*Paper_Space
340
693
  0
BLOCK_RECORD
  5
66C
330
1
100
AcDbSymbolTableRecord
100
AcDbBlockTableRecord
  2
RoHS指令対応
340
0
310
2800000020000000200000000100080000000000000400000000000000000000000000000000000000000000000080000080000000808000800000008000800080800000C0C0C000C0DCC000F0CAA6000020400000206000002080000020A0000020C0000020E00000400000004020000040400000406000004080000040A0
310
000040C0000040E00000600000006020000060400000606000006080000060A0000060C0000060E00000800000008020000080400000806000008080000080A0000080C0000080E00000A0000000A0200000A0400000A0600000A0800000A0A00000A0C00000A0E00000C0000000C0200000C0400000C0600000C0800000C0
310
A00000C0C00000C0E00000E0000000E0200000E0400000E0600000E0800000E0A00000E0C00000E0E00040000000400020004000400040006000400080004000A0004000C0004000E00040200000402020004020400040206000402080004020A0004020C0004020E000404000004040200040404000404060004040800040
310
40A0004040C0004040E00040600000406020004060400040606000406080004060A0004060C0004060E00040800000408020004080400040806000408080004080A0004080C0004080E00040A0000040A0200040A0400040A0600040A0800040A0A00040A0C00040A0E00040C0000040C0200040C0400040C0600040C08000
310
40C0A00040C0C00040C0E00040E0000040E0200040E0400040E0600040E0800040E0A00040E0C00040E0E00080000000800020008000400080006000800080008000A0008000C0008000E00080200000802020008020400080206000802080008020A0008020C0008020E00080400000804020008040400080406000804080
310
008040A0008040C0008040E00080600000806020008060400080606000806080008060A0008060C0008060E00080800000808020008080400080806000808080008080A0008080C0008080E00080A0000080A0200080A0400080A0600080A0800080A0A00080A0C00080A0E00080C0000080C0200080C0400080C0600080C0
310
800080C0A00080C0C00080C0E00080E0000080E0200080E0400080E0600080E0800080E0A00080E0C00080E0E000C0000000C0002000C0004000C0006000C0008000C000A000C000C000C000E000C0200000C0202000C0204000C0206000C0208000C020A000C020C000C020E000C0400000C0402000C0404000C0406000C0
310
408000C040A000C040C000C040E000C0600000C0602000C0604000C0606000C0608000C060A000C060C000C060E000C0800000C0802000C0804000C0806000C0808000C080A000C080C000C080E000C0A00000C0A02000C0A04000C0A06000C0A08000C0A0A000C0A0C000C0A0E000C0C00000C0C02000C0C04000C0C06000
310
C0C08000C0C0A000F0FBFF00A4A0A000808080000000FF0000FF000000FFFF00FF000000FF00FF00FFFF0000FFFFFF00FFFFFFFFFFFFFFFFFFFFFFFFFFFFFFFFFFFFFFFFFFFFFFFFFFFFFFFFFFFFFFFFFFFFFFFFFFFFFFFFFFFFFFFFFFFFFFFFFFFFFFFFFFFFFFFFFFFFFFFFFFFFFFFFFFFFFFFFFFFFFFFFFFFFFFFFFFFFFF
310
FFFFFFFFFFFFFFFFFFFFFFFFFFFFFFFFFFFFFFFFFFFFFFFFFFFFFFFFFFFFFFFFFFFFFFFFFFFFFFFFFFFFFFFFFFFFFFFFFFFFFFFFFFFFFFFFFFFFFFFFFFFFFFFFFFFFFFFFFFFFFFFFFFFFFFFFFFFFFFFFFFFFFFFFFFFFFFFFFFFFFFFFFFFFFFFFFFFFFFFFFFFFFFFFFFFFFFFFFFFFFFFFFFFFFFFFFFFFFFFFFFFFFFFFFFFFFF
310
FFFFFFFFFFFFFFFFFFFFFFFFFFFFFFFFFFFFFFFFFFFFFFFFFFFFFFFFFFFFFFFFFFFFFFFFFFFFFFFFFFFFFFFFFFFFFFFFFFFFFFFFFFFFFFFFFFFFFFFFFFFFFFFFFFFFFFFFFFFFFFFFFFFFFFFFFFFFFFFFFFFFFFFFFFFFFFFFFFFFFFFFFFFFFFFFFFFFFFFFFFFFFFFFFFFFFFFFFFFFFFFFFFFFFFFFFFFFFFFFFFFFFFFFFFFFFF
310
FFFFFFFFFFFFFFFFFFFFFFFFFFFFFFFFFFFFFFFFFFFFFFFFFFFFFFFFFFFFFFFFFFFFFFFFFFFFFFFFFFFFFFFFFFFFFFFFFFFFFFFFFFFFFFFFFFFFFFFFFFFFFFFFFFFFFFFFFFFFFFFFFFFFFFFFFFFFFFFFFFFFFFFF000000000000000000000000000000000000000000000000000000000000FFFF00FF000000000000000000
310
00000000FF0000000000000000000000FFFF00FFFF00FF0000000000000000000000000000000000FF0000000000000000FF00FFFF00FF00000000000000000000000000000000000000000000000000FFFF00FFFF00FF000000FF000000000000000000FF0000FF000000000000000000FF00FFFF00000000000000000000
310
0000000000000000000000000000000000000000FFFFFFFFFFFFFFFFFFFFFFFFFFFFFFFFFFFFFFFFFFFFFFFFFFFFFFFFFFFFFFFFFFFFFFFFFFFFFFFFFFFFFFFFFFFFFFFFFFFFFFFFFFFFFFFFFFFFFFFFFFFFFFFFFFFFFFFFFFFFFFFFFFFFFFFFFFFFFFFFFFFFFFFFFFFFFFFFFFFFFFFFFFFFFFFFFFFFFFFFFFFFFFFFFFFFFF
310
FFFFFFFFFFFFFFFFFFFFFFFFFFFFFFFFFFFFFFFFFFFFFFFFFFFFFFFFFFFFFFFFFFFFFFFFFFFFFFFFFFFFFFFFFFFFFFFFFFFFFFFFFFFFFFFFFFFFFFFFFFFFFFFFFFFFFFFFFFFFFFFFFFFFFFFFFFFFFFFFFFFFFFFFFFFFFFFFFFFFFFFFFFFFFFFFFFFFFFFFFFFFFFFFFFFFFFFFFFFFFFFFFFFFFFFFFFFFFFFFFFFFFFFFFFFFFF
310
FFFFFFFFFFFFFFFFFFFFFFFFFFFFFFFFFFFFFFFFFFFFFFFFFFFFFFFFFFFFFFFFFFFFFFFFFFFFFFFFFFFFFFFFFFFFFFFFFFFFFFFFFFFFFFFFFFFFFFFFFFFFFFFFFFFFFFFFFFFFFFFFFFFFFFFFFFFFFFFFFFFFFFFFFFFFFFFFFFFFFFFFFFFFFFFFFFFFFFFFFFFFFFFFFFFFFFFFFFFFFFFFFFFFFFFFFFFFFFFFFFFFFFFFFFFFFF
310
FFFFFFFFFFFFFFFFFFFFFFFFFFFFFFFFFFFFFFFFFFFFFFFFFFFFFFFFFFFFFFFFFFFFFFFFFFFFFFFFFFFFFFFFFFFFFFFFFFFFFFFFFFFFFFFF
  0
BLOCK_RECORD
  5
B83
330
1
100
AcDbSymbolTableRecord
100
AcDbBlockTableRecord
  2
*D1
340
0
  0
BLOCK_RECORD
  5
B8F
330
1
100
AcDbSymbolTableRecord
100
AcDbBlockTableRecord
  2
*D2
340
0
  0
BLOCK_RECORD
  5
B9B
330
1
100
AcDbSymbolTableRecord
100
AcDbBlockTableRecord
  2
*D3
340
0
  0
BLOCK_RECORD
  5
BA7
330
1
100
AcDbSymbolTableRecord
100
AcDbBlockTableRecord
  2
*D4
340
0
  0
BLOCK_RECORD
  5
BB3
330
1
100
AcDbSymbolTableRecord
100
AcDbBlockTableRecord
  2
*D5
340
0
  0
BLOCK_RECORD
  5
BBF
330
1
100
AcDbSymbolTableRecord
100
AcDbBlockTableRecord
  2
*D6
340
0
  0
BLOCK_RECORD
  5
BCB
330
1
100
AcDbSymbolTableRecord
100
AcDbBlockTableRecord
  2
*D7
340
0
  0
BLOCK_RECORD
  5
BD7
330
1
100
AcDbSymbolTableRecord
100
AcDbBlockTableRecord
  2
*D8
340
0
  0
BLOCK_RECORD
  5
BE3
330
1
100
AcDbSymbolTableRecord
100
AcDbBlockTableRecord
  2
*D9
340
0
  0
BLOCK_RECORD
  5
BEF
330
1
100
AcDbSymbolTableRecord
100
AcDbBlockTableRecord
  2
*D10
340
0
  0
ENDTAB
  0
ENDSEC
  0
SECTION
  2
BLOCKS
  0
BLOCK
  5
19
330
18
100
AcDbEntity
  8
0
100
AcDbBlockBegin
  2
*MODEL_SPACE
 70
     0
 10
0.0
 20
0.0
 30
0.0
  3
*MODEL_SPACE
  1

  0
ENDBLK
  5
1A
330
18
100
AcDbEntity
  8
0
100
AcDbBlockEnd
  0
BLOCK
  5
694
330
692
100
AcDbEntity
 67
     1
  8
0
100
AcDbBlockBegin
  2
*Paper_Space
 70
     0
 10
0.0
 20
0.0
 30
0.0
  3
*Paper_Space
  1

  0
ENDBLK
  5
695
330
692
100
AcDbEntity
 67
     1
  8
0
100
AcDbBlockEnd
  0
BLOCK
  5
670
330
66C
100
AcDbEntity
  8
0
 62
     0
370
    -2
100
AcDbBlockBegin
  2
RoHS指令対応
 70
     0
 10
0.0
 20
0.0
 30
0.0
  3
RoHS指令対応
  1

  0
TEXT
  5
66D
330
66C
100
AcDbEntity
  8
0
  6
ByBlock
 62
     0
370
    -2
100
AcDbText
 10
-9.746192893401014
 20
0.8261421319796955
 30
0.0
 40
2.5
  1
RoHS指令対応
  7
MSｺﾞｼｯｸ
 72
     4
 11
0.0
 21
2.0
 31
0.0
100
AcDbText
  0
LWPOLYLINE
  5
66F
330
66C
100
AcDbEntity
  8
0
  6
ByBlock
 62
     0
370
    -2
100
AcDbPolyline
 90
        4
 70
     1
 43
0.0
 10
-11.0
 20
4.0
 10
11.0
 20
4.0
 10
11.0
 20
0.0
 10
-11.0
 20
0.0
  0
ENDBLK
  5
671
330
66C
100
AcDbEntity
  8
0
 62
     0
370
    -2
100
AcDbBlockEnd
  0
BLOCK
  5
B8D
330
B83
100
AcDbEntity
  8
0
100
AcDbBlockBegin
  2
*D1
 70
     1
 10
0.0
 20
0.0
 30
0.0
  3
*D1
  1

  0
LINE
  5
BFB
330
B83
100
AcDbEntity
  8
2
 62
     0
370
    -2
100
AcDbLine
 10
78.11716261265758
 20
230.7313911925601
 30
0.0
 11
78.11716261265758
 21
252.9813911925602
 31
0.0
  0
LINE
  5
BFC
330
B83
100
AcDbEntity
  8
2
 62
     0
370
    -2
100
AcDbLine
 10
188.1171626126575
 20
230.7313911925601
 30
0.0
 11
188.1171626126575
 21
252.9813911925602
 31
0.0
  0
LINE
  5
BFD
330
B83
100
AcDbEntity
  8
2
 62
     0
370
    -2
100
AcDbLine
 10
80.61716261265758
 20
251.7313911925601
 30
0.0
 11
185.6171626126575
 21
251.7313911925601
 31
0.0
  0
SOLID
  5
BFE
330
B83
100
AcDbEntity
  8
2
 62
     0
100
AcDbTrace
 10
80.61716261265758
 20
252.1480578592268
 30
0.0
 11
80.61716261265758
 21
251.3147245258935
 31
0.0
 12
78.11716261265758
 22
251.7313911925601
 32
0.0
 13
78.11716261265758
 23
251.7313911925601
 33
0.0
  0
SOLID
  5
BFF
330
B83
100
AcDbEntity
  8
2
 62
     0
100
AcDbTrace
 10
185.6171626126575
 20
252.1480578592268
 30
0.0
 11
185.6171626126575
 21
251.3147245258935
 31
0.0
 12
188.1171626126575
 22
251.7313911925601
 32
0.0
 13
188.1171626126575
 23
251.7313911925601
 33
0.0
  0
MTEXT
  5
C00
330
B83
100
AcDbEntity
  8
2
 62
     0
100
AcDbMText
 10
133.1171626126575
 20
253.4813911925601
 30
0.0
 40
2.5
 41
0.0
 71
     5
 72
     1
  1
\A1;110
  7
ＭＳ明朝
 73
     1
 44
1.0
  0
POINT
  5
C01
330
B83
100
AcDbEntity
  8
DEFPOINTS
 62
     0
100
AcDbPoint
 10
78.11716261265758
 20
229.2313911925601
 30
0.0
  0
POINT
  5
C02
330
B83
100
AcDbEntity
  8
DEFPOINTS
 62
     0
100
AcDbPoint
 10
188.1171626126575
 20
229.2313911925601
 30
0.0
  0
POINT
  5
C03
330
B83
100
AcDbEntity
  8
DEFPOINTS
 62
     0
100
AcDbPoint
 10
188.1171626126575
 20
251.7313911925601
 30
0.0
  0
ENDBLK
  5
B8E
330
B83
100
AcDbEntity
  8
0
100
AcDbBlockEnd
  0
BLOCK
  5
B99
330
B8F
100
AcDbEntity
  8
0
100
AcDbBlockBegin
  2
*D2
 70
     1
 10
0.0
 20
0.0
 30
0.0
  3
*D2
  1

  0
LINE
  5
C04
330
B8F
100
AcDbEntity
  8
2
 62
     0
370
    -2
100
AcDbLine
 10
73.11716261265758
 20
147.7166139983112
 30
0.0
 11
73.11716261265758
 21
137.9813911925601
 31
0.0
  0
LINE
  5
C05
330
B8F
100
AcDbEntity
  8
2
 62
     0
370
    -2
100
AcDbLine
 10
193.1171626126575
 20
147.7313911925601
 30
0.0
 11
193.1171626126575
 21
137.9813911925601
 31
0.0
  0
LINE
  5
C06
330
B8F
100
AcDbEntity
  8
2
 62
     0
370
    -2
100
AcDbLine
 10
75.61716261265758
 20
139.2313911925601
 30
0.0
 11
190.6171626126575
 21
139.2313911925601
 31
0.0
  0
SOLID
  5
C07
330
B8F
100
AcDbEntity
  8
2
 62
     0
100
AcDbTrace
 10
75.61716261265758
 20
139.6480578592268
 30
0.0
 11
75.61716261265758
 21
138.8147245258935
 31
0.0
 12
73.11716261265758
 22
139.2313911925601
 32
0.0
 13
73.11716261265758
 23
139.2313911925601
 33
0.0
  0
SOLID
  5
C08
330
B8F
100
AcDbEntity
  8
2
 62
     0
100
AcDbTrace
 10
190.6171626126575
 20
139.6480578592268
 30
0.0
 11
190.6171626126575
 21
138.8147245258935
 31
0.0
 12
193.1171626126575
 22
139.2313911925601
 32
0.0
 13
193.1171626126575
 23
139.2313911925601
 33
0.0
  0
MTEXT
  5
C09
330
B8F
100
AcDbEntity
  8
2
 62
     0
100
AcDbMText
 10
133.1171626126575
 20
140.9813911925601
 30
0.0
 40
2.5
 41
0.0
 71
     5
 72
     1
  1
\A1;120
  7
ＭＳ明朝
 73
     1
 44
1.0
  0
POINT
  5
C0A
330
B8F
100
AcDbEntity
  8
DEFPOINTS
 62
     0
100
AcDbPoint
 10
73.11716261265758
 20
149.2166139983112
 30
0.0
  0
POINT
  5
C0B
330
B8F
100
AcDbEntity
  8
DEFPOINTS
 62
     0
100
AcDbPoint
 10
193.1171626126575
 20
149.2313911925601
 30
0.0
  0
POINT
  5
C0C
330
B8F
100
AcDbEntity
  8
DEFPOINTS
 62
     0
100
AcDbPoint
 10
193.1171626126575
 20
139.2313911925601
 30
0.0
  0
ENDBLK
  5
B9A
330
B8F
100
AcDbEntity
  8
0
100
AcDbBlockEnd
  0
BLOCK
  5
BA5
330
B9B
100
AcDbEntity
  8
0
100
AcDbBlockBegin
  2
*D3
 70
     1
 10
0.0
 20
0.0
 30
0.0
  3
*D3
  1

  0
LINE
  5
C0D
330
B9B
100
AcDbEntity
  8
2
 62
     0
370
    -2
100
AcDbLine
 10
193.6171626126575
 20
227.2313911925601
 30
0.0
 11
204.3671626126576
 21
227.2313911925601
 31
0.0
  0
LINE
  5
C0E
330
B9B
100
AcDbEntity
  8
2
 62
     0
370
    -2
100
AcDbLine
 10
194.6171626126575
 20
159.2313911925601
 30
0.0
 11
204.3671626126575
 21
159.2313911925601
 31
0.0
  0
LINE
  5
C0F
330
B9B
100
AcDbEntity
  8
2
 62
     0
370
    -2
100
AcDbLine
 10
203.1171626126575
 20
224.7313911925601
 30
0.0
 11
203.1171626126575
 21
161.7313911925601
 31
0.0
  0
SOLID
  5
C10
330
B9B
100
AcDbEntity
  8
2
 62
     0
100
AcDbTrace
 10
202.7004959459909
 20
224.7313911925601
 30
0.0
 11
203.5338292793242
 21
224.7313911925601
 31
0.0
 12
203.1171626126575
 22
227.2313911925601
 32
0.0
 13
203.1171626126575
 23
227.2313911925601
 33
0.0
  0
SOLID
  5
C11
330
B9B
100
AcDbEntity
  8
2
 62
     0
100
AcDbTrace
 10
202.7004959459909
 20
161.7313911925601
 30
0.0
 11
203.5338292793242
 21
161.7313911925601
 31
0.0
 12
203.1171626126575
 22
159.2313911925601
 32
0.0
 13
203.1171626126575
 23
159.2313911925601
 33
0.0
  0
MTEXT
  5
C12
330
B9B
100
AcDbEntity
  8
2
 62
     0
100
AcDbMText
 10
201.3671626126575
 20
193.2313911925602
 30
0.0
 40
2.5
 41
0.0
 71
     5
 72
     1
  1
\A1;68
  7
ＭＳ明朝
 11
0.0000000000000001
 21
1.0
 31
0.0
 73
     1
 44
1.0
  0
POINT
  5
C13
330
B9B
100
AcDbEntity
  8
DEFPOINTS
 62
     0
100
AcDbPoint
 10
192.1171626126575
 20
227.2313911925601
 30
0.0
  0
POINT
  5
C14
330
B9B
100
AcDbEntity
  8
DEFPOINTS
 62
     0
100
AcDbPoint
 10
193.1171626126575
 20
159.2313911925601
 30
0.0
  0
POINT
  5
C15
330
B9B
100
AcDbEntity
  8
DEFPOINTS
 62
     0
100
AcDbPoint
 10
203.1171626126575
 20
159.2313911925601
 30
0.0
  0
ENDBLK
  5
BA6
330
B9B
100
AcDbEntity
  8
0
100
AcDbBlockEnd
  0
BLOCK
  5
BB1
330
BA7
100
AcDbEntity
  8
0
100
AcDbBlockBegin
  2
*D4
 70
     1
 10
0.0
 20
0.0
 30
0.0
  3
*D4
  1

  0
LINE
  5
C16
330
BA7
100
AcDbEntity
  8
2
 62
     0
370
    -2
100
AcDbLine
 10
193.6171626126575
 20
227.2313911925601
 30
0.0
 11
214.3671626126576
 21
227.2313911925601
 31
0.0
  0
LINE
  5
C17
330
BA7
100
AcDbEntity
  8
2
 62
     0
370
    -2
100
AcDbLine
 10
194.6171626126575
 20
149.2313911925601
 30
0.0
 11
214.3671626126575
 21
149.2313911925601
 31
0.0
  0
LINE
  5
C18
330
BA7
100
AcDbEntity
  8
2
 62
     0
370
    -2
100
AcDbLine
 10
213.1171626126576
 20
224.7313911925601
 30
0.0
 11
213.1171626126575
 21
151.7313911925601
 31
0.0
  0
SOLID
  5
C19
330
BA7
100
AcDbEntity
  8
2
 62
     0
100
AcDbTrace
 10
212.7004959459909
 20
224.7313911925601
 30
0.0
 11
213.5338292793242
 21
224.7313911925601
 31
0.0
 12
213.1171626126576
 22
227.2313911925601
 32
0.0
 13
213.1171626126576
 23
227.2313911925601
 33
0.0
  0
SOLID
  5
C1A
330
BA7
100
AcDbEntity
  8
2
 62
     0
100
AcDbTrace
 10
212.7004959459909
 20
151.7313911925601
 30
0.0
 11
213.5338292793242
 21
151.7313911925601
 31
0.0
 12
213.1171626126575
 22
149.2313911925601
 32
0.0
 13
213.1171626126575
 23
149.2313911925601
 33
0.0
  0
MTEXT
  5
C1B
330
BA7
100
AcDbEntity
  8
2
 62
     0
100
AcDbMText
 10
210.9885911840861
 20
188.2313911925602
 30
0.0
 40
2.5
 41
0.0
 71
     5
 72
     1
  1
\A1;(78)
  7
ＭＳ明朝
 11
0.0000000000000001
 21
1.0
 31
0.0
 73
     1
 44
1.0
  0
POINT
  5
C1C
330
BA7
100
AcDbEntity
  8
DEFPOINTS
 62
     0
100
AcDbPoint
 10
192.1171626126575
 20
227.2313911925601
 30
0.0
  0
POINT
  5
C1D
330
BA7
100
AcDbEntity
  8
DEFPOINTS
 62
     0
100
AcDbPoint
 10
193.1171626126575
 20
149.2313911925601
 30
0.0
  0
POINT
  5
C1E
330
BA7
100
AcDbEntity
  8
DEFPOINTS
 62
     0
100
AcDbPoint
 10
213.1171626126575
 20
149.2313911925601
 30
0.0
  0
ENDBLK
  5
BB2
330
BA7
100
AcDbEntity
  8
0
100
AcDbBlockEnd
  0
BLOCK
  5
BBD
330
BB3
100
AcDbEntity
  8
0
100
AcDbBlockBegin
  2
*D5
 70
     1
 10
0.0
 20
0.0
 30
0.0
  3
*D5
  1

  0
LINE
  5
C1F
330
BB3
100
AcDbEntity
  8
2
 62
     0
370
    -2
100
AcDbLine
 10
194.6171626126575
 20
159.2313911925601
 30
0.0
 11
204.3671626126575
 21
159.2313911925601
 31
0.0
  0
LINE
  5
C20
330
BB3
100
AcDbEntity
  8
2
 62
     0
370
    -2
100
AcDbLine
 10
194.6171626126575
 20
149.2313911925601
 30
0.0
 11
204.3671626126575
 21
149.2313911925601
 31
0.0
  0
LINE
  5
C21
330
BB3
100
AcDbEntity
  8
2
 62
     0
370
    -2
100
AcDbLine
 10
203.1171626126575
 20
156.7313911925601
 30
0.0
 11
203.1171626126575
 21
151.7313911925601
 31
0.0
  0
SOLID
  5
C22
330
BB3
100
AcDbEntity
  8
2
 62
     0
100
AcDbTrace
 10
202.7004959459909
 20
156.7313911925601
 30
0.0
 11
203.5338292793242
 21
156.7313911925601
 31
0.0
 12
203.1171626126575
 22
159.2313911925601
 32
0.0
 13
203.1171626126575
 23
159.2313911925601
 33
0.0
  0
SOLID
  5
C23
330
BB3
100
AcDbEntity
  8
2
 62
     0
100
AcDbTrace
 10
202.7004959459909
 20
151.7313911925601
 30
0.0
 11
203.5338292793242
 21
151.7313911925601
 31
0.0
 12
203.1171626126575
 22
149.2313911925601
 32
0.0
 13
203.1171626126575
 23
149.2313911925601
 33
0.0
  0
MTEXT
  5
C24
330
BB3
100
AcDbEntity
  8
2
 62
     0
100
AcDbMText
 10
201.3671626126575
 20
154.2313911925602
 30
0.0
 40
2.5
 41
0.0
 71
     5
 72
     1
  1
\A1;10
  7
ＭＳ明朝
 11
0.0000000000000001
 21
1.0
 31
0.0
 73
     1
 44
1.0
  0
POINT
  5
C25
330
BB3
100
AcDbEntity
  8
DEFPOINTS
 62
     0
100
AcDbPoint
 10
193.1171626126575
 20
159.2313911925601
 30
0.0
  0
POINT
  5
C26
330
BB3
100
AcDbEntity
  8
DEFPOINTS
 62
     0
100
AcDbPoint
 10
193.1171626126575
 20
149.2313911925601
 30
0.0
  0
POINT
  5
C27
330
BB3
100
AcDbEntity
  8
DEFPOINTS
 62
     0
100
AcDbPoint
 10
203.1171626126575
 20
149.2313911925601
 30
0.0
  0
ENDBLK
  5
BBE
330
BB3
100
AcDbEntity
  8
0
100
AcDbBlockEnd
  0
BLOCK
  5
BC9
330
BBF
100
AcDbEntity
  8
0
100
AcDbBlockBegin
  2
*D6
 70
     1
 10
0.0
 20
0.0
 30
0.0
  3
*D6
  1

  0
LINE
  5
C28
330
BBF
100
AcDbEntity
  8
2
 62
     0
370
    -2
100
AcDbLine
 10
184.6171626126576
 20
242.2313911925602
 30
0.0
 11
204.3671626126576
 21
242.2313911925601
 31
0.0
  0
LINE
  5
C29
330
BBF
100
AcDbEntity
  8
2
 62
     0
370
    -2
100
AcDbLine
 10
193.6171626126575
 20
227.2313911925601
 30
0.0
 11
204.3671626126576
 21
227.2313911925601
 31
0.0
  0
LINE
  5
C2A
330
BBF
100
AcDbEntity
  8
2
 62
     0
370
    -2
100
AcDbLine
 10
203.1171626126575
 20
239.7313911925601
 30
0.0
 11
203.1171626126575
 21
229.7313911925601
 31
0.0
  0
SOLID
  5
C2B
330
BBF
100
AcDbEntity
  8
2
 62
     0
100
AcDbTrace
 10
202.7004959459909
 20
239.7313911925601
 30
0.0
 11
203.5338292793242
 21
239.7313911925601
 31
0.0
 12
203.1171626126575
 22
242.2313911925601
 32
0.0
 13
203.1171626126575
 23
242.2313911925601
 33
0.0
  0
SOLID
  5
C2C
330
BBF
100
AcDbEntity
  8
2
 62
     0
100
AcDbTrace
 10
202.7004959459909
 20
229.7313911925601
 30
0.0
 11
203.5338292793242
 21
229.7313911925601
 31
0.0
 12
203.1171626126575
 22
227.2313911925601
 32
0.0
 13
203.1171626126575
 23
227.2313911925601
 33
0.0
  0
MTEXT
  5
C2D
330
BBF
100
AcDbEntity
  8
2
 62
     0
100
AcDbMText
 10
200.9885911840861
 20
234.7313911925602
 30
0.0
 40
2.5
 41
0.0
 71
     5
 72
     1
  1
\A1;(15)
  7
ＭＳ明朝
 11
0.0000000000000001
 21
1.0
 31
0.0
 73
     1
 44
1.0
  0
POINT
  5
C2E
330
BBF
100
AcDbEntity
  8
DEFPOINTS
 62
     0
100
AcDbPoint
 10
183.1171626126575
 20
242.2313911925602
 30
0.0
  0
POINT
  5
C2F
330
BBF
100
AcDbEntity
  8
DEFPOINTS
 62
     0
100
AcDbPoint
 10
192.1171626126575
 20
227.2313911925601
 30
0.0
  0
POINT
  5
C30
330
BBF
100
AcDbEntity
  8
DEFPOINTS
 62
     0
100
AcDbPoint
 10
203.1171626126575
 20
227.2313911925601
 30
0.0
  0
ENDBLK
  5
BCA
330
BBF
100
AcDbEntity
  8
0
100
AcDbBlockEnd
  0
BLOCK
  5
BD5
330
BCB
100
AcDbEntity
  8
0
100
AcDbBlockBegin
  2
*D7
 70
     1
 10
0.0
 20
0.0
 30
0.0
  3
*D7
  1

  0
LINE
  5
C31
330
BCB
100
AcDbEntity
  8
2
 62
     0
370
    -2
100
AcDbLine
 10
240.5000001151456
 20
124.5231011729796
 30
0.0
 11
230.7500001151456
 21
124.5231011729796
 31
0.0
  0
LINE
  5
C32
330
BCB
100
AcDbEntity
  8
2
 62
     0
370
    -2
100
AcDbLine
 10
240.5000001151456
 20
54.52310117297966
 30
0.0
 11
230.7500001151456
 21
54.52310117297967
 31
0.0
  0
LINE
  5
C33
330
BCB
100
AcDbEntity
  8
2
 62
     0
370
    -2
100
AcDbLine
 10
232.0000001151456
 20
122.0231011729796
 30
0.0
 11
232.0000001151456
 21
57.02310117297967
 31
0.0
  0
SOLID
  5
C34
330
BCB
100
AcDbEntity
  8
2
 62
     0
100
AcDbTrace
 10
231.583333448479
 20
122.0231011729796
 30
0.0
 11
232.4166667818123
 21
122.0231011729796
 31
0.0
 12
232.0000001151456
 22
124.5231011729796
 32
0.0
 13
232.0000001151456
 23
124.5231011729796
 33
0.0
  0
SOLID
  5
C35
330
BCB
100
AcDbEntity
  8
2
 62
     0
100
AcDbTrace
 10
231.5833334484789
 20
57.02310117297967
 30
0.0
 11
232.4166667818122
 21
57.02310117297967
 31
0.0
 12
232.0000001151456
 22
54.52310117297967
 32
0.0
 13
232.0000001151456
 23
54.52310117297967
 33
0.0
  0
MTEXT
  5
C36
330
BCB
100
AcDbEntity
  8
2
 62
     0
100
AcDbMText
 10
230.2500001151456
 20
89.52310117297972
 30
0.0
 40
2.5
 41
0.0
 71
     5
 72
     1
  1
\A1;70
  7
ＭＳ明朝
 11
0.0000000000000001
 21
1.0
 31
0.0
 73
     1
 44
1.0
  0
POINT
  5
C37
330
BCB
100
AcDbEntity
  8
DEFPOINTS
 62
     0
100
AcDbPoint
 10
242.0000001151456
 20
124.5231011729796
 30
0.0
  0
POINT
  5
C38
330
BCB
100
AcDbEntity
  8
DEFPOINTS
 62
     0
100
AcDbPoint
 10
242.0000001151456
 20
54.52310117297966
 30
0.0
  0
POINT
  5
C39
330
BCB
100
AcDbEntity
  8
DEFPOINTS
 62
     0
100
AcDbPoint
 10
232.0000001151456
 20
54.52310117297967
 30
0.0
  0
ENDBLK
  5
BD6
330
BCB
100
AcDbEntity
  8
0
100
AcDbBlockEnd
  0
BLOCK
  5
BE1
330
BD7
100
AcDbEntity
  8
0
100
AcDbBlockBegin
  2
*D8
 70
     1
 10
0.0
 20
0.0
 30
0.0
  3
*D8
  1

  0
LINE
  5
C3A
330
BD7
100
AcDbEntity
  8
2
 62
     0
370
    -2
100
AcDbLine
 10
321.5000001151456
 20
119.5231011729796
 30
0.0
 11
343.0508501821455
 21
119.5231011729796
 31
0.0
  0
LINE
  5
C3B
330
BD7
100
AcDbEntity
  8
2
 62
     0
370
    -2
100
AcDbLine
 10
321.5000001151456
 20
59.52310117297966
 30
0.0
 11
343.0508501821455
 21
59.52310117297965
 31
0.0
  0
LINE
  5
C3C
330
BD7
100
AcDbEntity
  8
2
 62
     0
370
    -2
100
AcDbLine
 10
341.8008501821454
 20
117.0231011729796
 30
0.0
 11
341.8008501821454
 21
62.02310117297965
 31
0.0
  0
SOLID
  5
C3D
330
BD7
100
AcDbEntity
  8
2
 62
     0
100
AcDbTrace
 10
341.3841835154788
 20
117.0231011729796
 30
0.0
 11
342.2175168488121
 21
117.0231011729796
 31
0.0
 12
341.8008501821454
 22
119.5231011729796
 32
0.0
 13
341.8008501821454
 23
119.5231011729796
 33
0.0
  0
SOLID
  5
C3E
330
BD7
100
AcDbEntity
  8
2
 62
     0
100
AcDbTrace
 10
341.3841835154788
 20
62.02310117297965
 30
0.0
 11
342.2175168488121
 21
62.02310117297965
 31
0.0
 12
341.8008501821454
 22
59.52310117297965
 32
0.0
 13
341.8008501821454
 23
59.52310117297965
 33
0.0
  0
MTEXT
  5
C3F
330
BD7
100
AcDbEntity
  8
2
 62
     0
100
AcDbMText
 10
340.0508501821454
 20
89.52310117297972
 30
0.0
 40
2.5
 41
0.0
 71
     5
 72
     1
  1
\A1;60
  7
ＭＳ明朝
 11
0.0000000000000001
 21
1.0
 31
0.0
 73
     1
 44
1.0
  0
POINT
  5
C40
330
BD7
100
AcDbEntity
  8
DEFPOINTS
 62
     0
100
AcDbPoint
 10
320.0000001151456
 20
119.5231011729796
 30
0.0
  0
POINT
  5
C41
330
BD7
100
AcDbEntity
  8
DEFPOINTS
 62
     0
100
AcDbPoint
 10
320.0000001151456
 20
59.52310117297966
 30
0.0
  0
POINT
  5
C42
330
BD7
100
AcDbEntity
  8
DEFPOINTS
 62
     0
100
AcDbPoint
 10
341.8008501821454
 20
59.52310117297965
 30
0.0
  0
ENDBLK
  5
BE2
330
BD7
100
AcDbEntity
  8
0
100
AcDbBlockEnd
  0
BLOCK
  5
BED
330
BE3
100
AcDbEntity
  8
0
100
AcDbBlockBegin
  2
*D9
 70
     1
 10
0.0
 20
0.0
 30
0.0
  3
*D9
  1

  0
LINE
  5
CB4
330
BE3
100
AcDbEntity
  8
2
 62
     0
370
    -2
100
AcDbLine
 10
355.5000001151456
 20
237.8223612198241
 30
0.0
 11
366.517275279345
 21
237.8223612198241
 31
0.0
  0
LINE
  5
CB5
330
BE3
100
AcDbEntity
  8
2
 62
     0
370
    -2
100
AcDbLine
 10
355.5000001151456
 20
175.8223612198241
 30
0.0
 11
366.517275279345
 21
175.8223612198241
 31
0.0
  0
LINE
  5
CB6
330
BE3
100
AcDbEntity
  8
2
 62
     0
370
    -2
100
AcDbLine
 10
365.2672752793451
 20
235.3223612198241
 30
0.0
 11
365.2672752793451
 21
178.3223612198241
 31
0.0
  0
SOLID
  5
CB7
330
BE3
100
AcDbEntity
  8
2
 62
     0
100
AcDbTrace
 10
364.8506086126784
 20
235.3223612198241
 30
0.0
 11
365.6839419460117
 21
235.3223612198241
 31
0.0
 12
365.2672752793451
 22
237.8223612198241
 32
0.0
 13
365.2672752793451
 23
237.8223612198241
 33
0.0
  0
SOLID
  5
CB8
330
BE3
100
AcDbEntity
  8
2
 62
     0
100
AcDbTrace
 10
364.8506086126784
 20
178.3223612198241
 30
0.0
 11
365.6839419460117
 21
178.3223612198241
 31
0.0
 12
365.2672752793451
 22
175.8223612198241
 32
0.0
 13
365.2672752793451
 23
175.8223612198241
 33
0.0
  0
MTEXT
  5
CB9
330
BE3
100
AcDbEntity
  8
2
 62
     0
100
AcDbMText
 10
363.517275279345
 20
206.8223612198242
 30
0.0
 40
2.5
 41
0.0
 71
     5
 72
     1
  1
\A1;62
  7
ＭＳ明朝
 11
0.0000000000000001
 21
1.0
 31
0.0
 73
     1
 44
1.0
  0
POINT
  5
CBA
330
BE3
100
AcDbEntity
  8
DEFPOINTS
 62
     0
100
AcDbPoint
 10
354.0000001151456
 20
237.8223612198241
 30
0.0
  0
POINT
  5
CBB
330
BE3
100
AcDbEntity
  8
DEFPOINTS
 62
     0
100
AcDbPoint
 10
354.0000001151456
 20
175.8223612198241
 30
0.0
  0
POINT
  5
CBC
330
BE3
100
AcDbEntity
  8
DEFPOINTS
 62
     0
100
AcDbPoint
 10
365.2672752793451
 20
175.8223612198241
 30
0.0
  0
ENDBLK
  5
BEE
330
BE3
100
AcDbEntity
  8
0
100
AcDbBlockEnd
  0
BLOCK
  5
BF9
330
BEF
100
AcDbEntity
  8
0
100
AcDbBlockBegin
  2
*D10
 70
     1
 10
0.0
 20
0.0
 30
0.0
  3
*D10
  1

  0
LINE
  5
C8E
330
BEF
100
AcDbEntity
  8
2
 62
     0
370
    -2
100
AcDbLine
 10
242.0000001151456
 20
177.0223612198241
 30
0.0
 11
242.0000001151456
 21
164.6030643533093
 31
0.0
  0
LINE
  5
C8F
330
BEF
100
AcDbEntity
  8
2
 62
     0
370
    -2
100
AcDbLine
 10
354.0000001151456
 20
177.0223612198241
 30
0.0
 11
354.0000001151456
 21
164.6030643533093
 31
0.0
  0
LINE
  5
C90
330
BEF
100
AcDbEntity
  8
2
 62
     0
370
    -2
100
AcDbLine
 10
244.5000001151456
 20
165.8530643533093
 30
0.0
 11
351.5000001151456
 21
165.8530643533093
 31
0.0
  0
MTEXT
  5
C91
330
BEF
100
AcDbEntity
  8
2
 62
     0
100
AcDbMText
 10
295.3062853749186
 20
167.6160160273953
 30
0.0
 40
2.5
 41
0.0
 71
     5
 72
     1
  1
\A1;112
  7
ＭＳ明朝
 73
     1
 44
1.0
  0
SOLID
  5
C92
330
BEF
100
AcDbEntity
  8
2
 62
     0
100
AcDbTrace
 10
244.5000001151456
 20
166.269731019976
 30
0.0
 11
244.5000001151456
 21
165.4363976866427
 31
0.0
 12
242.0000001151456
 22
165.8530643533093
 32
0.0
 13
242.0000001151456
 23
165.8530643533093
 33
0.0
  0
SOLID
  5
C93
330
BEF
100
AcDbEntity
  8
2
 62
     0
100
AcDbTrace
 10
351.5000001151456
 20
166.269731019976
 30
0.0
 11
351.5000001151456
 21
165.4363976866427
 31
0.0
 12
354.0000001151456
 22
165.8530643533093
 32
0.0
 13
354.0000001151456
 23
165.8530643533093
 33
0.0
  0
POINT
  5
C94
330
BEF
100
AcDbEntity
  8
DEFPOINTS
 62
     0
100
AcDbPoint
 10
242.0000001151456
 20
178.5223612198241
 30
0.0
  0
POINT
  5
C95
330
BEF
100
AcDbEntity
  8
DEFPOINTS
 62
     0
100
AcDbPoint
 10
354.0000001151456
 20
178.5223612198241
 30
0.0
  0
POINT
  5
C96
330
BEF
100
AcDbEntity
  8
DEFPOINTS
 62
     0
100
AcDbPoint
 10
354.0000001151456
 20
165.8530643533093
 30
0.0
  0
ENDBLK
  5
BFA
330
BEF
100
AcDbEntity
  8
0
100
AcDbBlockEnd
  0
ENDSEC
  0
SECTION
  2
ENTITIES
  0
LEADER
  5
958
330
18
100
AcDbEntity
  8
2
100
AcDbLeader
  3
STANDARD
 73
     0
 40
9.679999999999999
 41
17.34857142857142
 76
     3
 10
183.0000001151456
 20
117.0223612198241
 30
0.0
 10
195.3743687859102
 20
129.3967298905886
 30
0.0
 10
197.3743687859102
 20
129.3967298905886
 30
0.0
213
-0.5
223
-1.25
233
0.0
1001
ACAD
1000
DSTYLE
1002
{
1070
    40
1040
1.0
1070
    77
1070
     0
1070
   271
1070
     4
1002
}
  0
MTEXT
  5
959
102
{ACAD_REACTORS
330
958
102
}
330
18
100
AcDbEntity
  8
2
100
AcDbMText
 10
198.8743687859102
 20
130.6467298905886
 30
0.0
 40
3.0
 41
0.0
 71
     1
 72
     1
  1
銀なし地\P黒色印刷
  7
ＭＳ明朝
 73
     1
 44
1.0
  0
LWPOLYLINE
  5
95A
330
18
100
AcDbEntity
  8
1
100
AcDbPolyline
 90
        8
 70
     1
 43
0.0
 10
74.00000011514555
 20
124.5223612198241
 10
190.0000001151456
 20
124.5223612198241
 42
-0.4142135623730951
 10
192.0000001151456
 20
122.5223612198241
 10
192.0000001151456
 20
56.52236121982411
 42
-0.4142135623730951
 10
190.0000001151456
 20
54.52236121982412
 10
74.00000011514555
 20
54.52236121982412
 42
-0.4142135623730951
 10
72.00000011514555
 20
56.52236121982411
 10
72.00000011514555
 20
122.5223612198241
 42
-0.4142135623730951
  0
LINE
  5
95B
330
18
100
AcDbEntity
  8
1
370
    15
100
AcDbLine
 10
191.0000001151456
 20
122.5223612198241
 30
0.0
 11
191.0000001151456
 21
56.52236121982411
 31
0.0
  0
LINE
  5
95C
330
18
100
AcDbEntity
  8
1
370
    15
100
AcDbLine
 10
73.00000011514555
 20
56.52236121982411
 30
0.0
 11
73.00000011514555
 21
122.5223612198241
 31
0.0
  0
LINE
  5
95D
330
18
100
AcDbEntity
  8
1
370
    15
100
AcDbLine
 10
76.00000011514556
 20
113.5223612198241
 30
0.0
 11
76.00000011514556
 21
120.5223612198241
 31
0.0
  0
LINE
  5
95E
330
18
100
AcDbEntity
  8
1
370
    15
100
AcDbLine
 10
188.0000001151456
 20
120.5223612198241
 30
0.0
 11
188.0000001151456
 21
113.5223612198241
 31
0.0
  0
LINE
  5
95F
330
18
100
AcDbEntity
  8
1
370
    15
100
AcDbLine
 10
190.0000001151456
 20
55.52236121982412
 30
0.0
 11
74.00000011514555
 21
55.52236121982412
 31
0.0
  0
LINE
  5
960
330
18
100
AcDbEntity
  8
1
370
    15
100
AcDbLine
 10
76.00000011514556
 20
113.5223612198241
 30
0.0
 11
188.0000001151456
 21
113.5223612198241
 31
0.0
  0
LINE
  5
961
330
18
100
AcDbEntity
  8
1
370
    15
100
AcDbLine
 10
78.00000011514555
 20
110.5223612198241
 30
0.0
 11
186.0000001151455
 21
110.5223612198241
 31
0.0
  0
LINE
  5
962
330
18
100
AcDbEntity
  8
1
370
    15
100
AcDbLine
 10
186.0000001151455
 20
68.52236121982412
 30
0.0
 11
78.00000011514555
 21
68.52236121982412
 31
0.0
  0
LINE
  5
963
330
18
100
AcDbEntity
  8
1
370
    15
100
AcDbLine
 10
76.08854959533181
 20
58.52236121982412
 30
0.0
 11
188.0885495953318
 21
58.52236121982412
 31
0.0
  0
LINE
  5
964
330
18
100
AcDbEntity
  8
1
370
    15
100
AcDbLine
 10
76.08854959533181
 20
65.52236121982412
 30
0.0
 11
188.0885495953318
 21
65.52236121982412
 31
0.0
  0
LINE
  5
965
330
18
100
AcDbEntity
  8
1
370
    15
100
AcDbLine
 10
78.88661384891864
 20
70.08599925831314
 30
0.0
 11
94.28495925662625
 21
76.63029605658889
 31
0.0
  0
LINE
  5
966
330
18
100
AcDbEntity
  8
1
370
    15
100
AcDbLine
 10
76.00000011514556
 20
70.52236121982412
 30
0.0
 11
76.00000011514556
 21
108.5223612198241
 31
0.0
  0
LINE
  5
967
330
18
100
AcDbEntity
  8
1
370
    15
100
AcDbLine
 10
76.08854959533181
 20
58.52236121982412
 30
0.0
 11
76.08854959533181
 21
65.52236121982412
 31
0.0
  0
ARC
  5
968
330
18
100
AcDbEntity
  8
1
370
    15
100
AcDbCircle
 10
74.00000011514555
 20
56.52236121982411
 30
0.0
 40
1.0
100
AcDbArc
 50
180.0
 51
270.0
  0
ARC
  5
969
330
18
100
AcDbEntity
  8
1
370
    15
100
AcDbCircle
 10
78.00000011514555
 20
70.52236121982412
 30
0.0
 40
2.0
100
AcDbArc
 50
180.0
 51
270.0
  0
LINE
  5
96A
330
18
100
AcDbEntity
  8
1
370
    15
100
AcDbLine
 10
78.88661384891864
 20
108.9587231813351
 30
0.0
 11
94.28495925662625
 21
102.4144263830593
 31
0.0
  0
LINE
  5
96B
330
18
100
AcDbEntity
  8
1
370
    15
100
AcDbLine
 10
79.00000011514555
 20
119.5223612198241
 30
0.0
 11
87.00000011514555
 21
119.5223612198241
 31
0.0
  0
LINE
  5
96C
330
18
100
AcDbEntity
  8
1
370
    15
100
AcDbLine
 10
87.00000011514555
 20
114.5223612198241
 30
0.0
 11
79.00000011514555
 21
114.5223612198241
 31
0.0
  0
TEXT
  5
96D
330
18
100
AcDbEntity
  8
1
100
AcDbText
 10
79.10152295778515
 20
117.0223612198241
 30
0.0
 40
2.0
  1
LM
 41
3.0
  7
ＭＳゴシック
 72
     1
 11
83.00000011514555
 21
117.0223612198241
 31
0.0
100
AcDbText
  0
ARC
  5
96E
330
18
100
AcDbEntity
  8
1
370
    15
100
AcDbCircle
 10
78.00000011514555
 20
108.5223612198241
 30
0.0
 40
2.0
100
AcDbArc
 50
90.0
 51
180.0
  0
ARC
  5
96F
330
18
100
AcDbEntity
  8
1
370
    15
100
AcDbCircle
 10
79.00000011514555
 20
115.5223612198241
 30
0.0
 40
1.0
100
AcDbArc
 50
180.0
 51
270.0
  0
LINE
  5
970
330
18
100
AcDbEntity
  8
1
370
    15
100
AcDbLine
 10
78.00000011514555
 20
115.5223612198241
 30
0.0
 11
78.00000011514555
 21
118.5223612198241
 31
0.0
  0
ARC
  5
971
330
18
100
AcDbEntity
  8
1
370
    15
100
AcDbCircle
 10
79.00000011514555
 20
118.5223612198241
 30
0.0
 40
1.0
100
AcDbArc
 50
90.0
 51
180.0
  0
ARC
  5
972
330
18
100
AcDbEntity
  8
1
370
    15
100
AcDbCircle
 10
87.00000011514555
 20
118.5223612198241
 30
0.0
 40
1.0
100
AcDbArc
 50
0.0
 51
90.0
  0
ARC
  5
973
330
18
100
AcDbEntity
  8
1
370
    15
100
AcDbCircle
 10
87.00000011514555
 20
115.5223612198241
 30
0.0
 40
1.0
100
AcDbArc
 50
270.0
 51
0.0
  0
TEXT
  5
974
330
18
100
AcDbEntity
  8
1
 48
0.8
100
AcDbText
 10
79.19898488671916
 20
115.0223612198241
 30
0.0
 40
1.5
  1
SERIES
 41
1.3
  7
ＭＳゴシック
 72
     1
 11
83.00000011514555
 21
115.0223612198241
 31
0.0
100
AcDbText
  0
LINE
  5
975
330
18
100
AcDbEntity
  8
1
370
    15
100
AcDbLine
 10
88.00000011514555
 20
118.5223612198241
 30
0.0
 11
88.00000011514555
 21
115.5223612198241
 31
0.0
  0
LWPOLYLINE
  5
976
330
18
100
AcDbEntity
  8
1
370
    15
100
AcDbPolyline
 90
        8
 70
     1
 43
0.0
 10
98.00000011514555
 20
102.0223612198241
 10
166.0000001151455
 20
102.0223612198241
 42
-0.4142135623730951
 10
168.0000001151455
 20
100.0223612198241
 10
168.0000001151455
 20
79.02236121982411
 42
-0.4142135623730951
 10
166.0000001151455
 20
77.02236121982412
 10
98.00000011514555
 20
77.02236121982412
 42
-0.4142135623730951
 10
96.00000011514556
 20
79.02236121982411
 10
96.00000011514556
 20
100.0223612198241
 42
-0.4142135623730951
  0
HATCH
  5
977
330
18
100
AcDbEntity
  8
1
100
AcDbHatch
 10
0.0
 20
0.0
 30
0.0
210
0.0
220
0.0
230
1.0
  2
SOLID
 70
     1
 71
     0
 91
       22
 92
        7
 72
     0
 73
     1
 93
        6
 10
126.750525729169
 20
98.21493879510729
 10
126.4925676859736
 20
98.52236121982418
 10
118.7939606389575
 20
98.52236121982413
 10
118.3218267825377
 20
98.12619387503595
 10
119.3487443121485
 20
96.90236121982412
 10
125.1862566882668
 20
96.90236121982412
 97
        0
 92
        7
 72
     0
 73
     1
 93
        6
 10
118.9350803128644
 20
96.55525591059348
 10
117.9081627832534
 20
97.77908856580523
 10
117.4360289268335
 20
97.38292122101709
 10
116.0976083999367
 20
89.7923612198241
 10
117.0114923506339
 20
89.79236121982413
 10
117.8378160807743
 20
90.33236121982415
 97
        0
 92
        7
 72
     0
 73
     1
 93
        6
 10
117.5521663720266
 20
88.71236121982411
 10
116.9162757810512
 20
89.25236121982411
 10
116.0023918303541
 20
89.25236121982408
 10
114.6217515714068
 20
81.42236121982419
 10
114.8257937508213
 20
81.17919321946624
 10
116.4666382327936
 20
82.5560252191085
 97
        0
 92
        7
 72
     0
 73
     1
 93
        6
 10
123.7786304550973
 20
80.79880856520873
 10
122.6512559181424
 20
82.14236121982413
 10
116.8137435420242
 20
82.14236121982413
 10
115.172899060052
 20
80.76552922018198
 10
115.3769412394665
 20
80.52236121982412
 10
123.4491733380721
 20
80.52236121982412
 97
        0
 92
        7
 72
     0
 73
     1
 93
        6
 10
125.9023918303541
 20
89.25236121982411
 10
124.9885078796571
 20
89.25236121982411
 10
124.1621841495167
 20
88.71236121982406
 10
123.0649199174266
 20
82.48946652905477
 10
124.1922944543816
 20
81.14591387443949
 10
124.521751571407
 20
81.42236121982424
 97
        0
 92
        7
 72
     0
 73
     1
 93
        6
 10
123.9078338582645
 20
90.3323612198241
 10
118.3778160807742
 20
90.33236121982412
 10
117.1383304855637
 20
89.52236121982412
 10
118.0921663720266
 20
88.71236121982411
 10
123.6221841495167
 20
88.71236121982411
 10
124.8616697447271
 20
89.52236121982403
 97
        0
 92
        7
 72
     0
 73
     1
 93
        6
 10
127.3555890815952
 20
97.49385237110622
 10
127.0976310383997
 20
97.80127479582304
 10
125.5333619974975
 20
96.48869722053991
 10
124.4478338582645
 20
90.33236121982401
 10
125.0837244492396
 20
89.7923612198241
 10
125.9976083999367
 20
89.7923612198241
 97
        0
 92
        7
 72
     0
 73
     1
 93
        6
 10
144.7496836363243
 20
98.21493879510729
 10
144.4917255931289
 20
98.52236121982418
 10
136.7931185461128
 20
98.52236121982413
 10
136.320984689693
 20
98.12619387503595
 10
137.3479022193039
 20
96.90236121982412
 10
143.1854145954222
 20
96.90236121982412
 97
        0
 92
        7
 72
     0
 73
     1
 93
        6
 10
136.9342382200197
 20
96.55525591059342
 10
135.9073206904087
 20
97.7790885658053
 10
135.4351868339889
 20
97.38292122101709
 10
134.096766307092
 20
89.7923612198241
 10
135.0106502577892
 20
89.79236121982413
 10
135.8369739879296
 20
90.33236121982412
 97
        0
 92
        7
 72
     0
 73
     1
 93
        6
 10
142.8608276518825
 20
89.52236121982407
 10
141.9069917654199
 20
90.33236121982412
 10
136.3769739879296
 20
90.33236121982412
 10
135.137488392719
 20
89.52236121982412
 10
136.0913242791819
 20
88.71236121982411
 10
141.6213420566721
 20
88.71236121982411
 97
        0
 92
        7
 72
     0
 73
     1
 93
        6
 10
135.5513242791819
 20
88.71236121982414
 10
134.9154336882066
 20
89.25236121982411
 10
134.0015497375095
 20
89.25236121982413
 10
132.6209094785622
 20
81.42236121982421
 10
132.8249516579766
 20
81.17919321946624
 10
134.4657961399489
 20
82.55602521910844
 97
        0
 92
        7
 72
     0
 73
     1
 93
        6
 10
140.6504138252977
 20
82.14236121982413
 10
134.8129014491796
 20
82.14236121982413
 10
133.1720569672073
 20
80.76552922018192
 10
133.3760991466218
 20
80.52236121982412
 10
141.4483312452274
 20
80.52236121982412
 10
141.7777883622527
 20
80.79880856520876
 97
        0
 92
        7
 72
     0
 73
     1
 93
        6
 10
143.9015497375095
 20
89.25236121982411
 10
142.9876657868124
 20
89.25236121982411
 10
142.161342056672
 20
88.71236121982406
 10
141.064077824582
 20
82.48946652905477
 10
142.191452361537
 20
81.14591387443955
 10
142.5209094785623
 20
81.42236121982421
 97
        0
 92
        7
 72
     0
 73
     1
 93
        6
 10
145.3547469887505
 20
97.49385237110619
 10
145.0967889455551
 20
97.80127479582304
 10
143.5325199046528
 20
96.48869722053987
 10
142.4469917654198
 20
90.33236121982406
 10
143.0828823563949
 20
89.7923612198241
 10
143.996766307092
 20
89.7923612198241
 97
        0
 92
        7
 72
     1
 73
     1
 93
        2
 10
147.4591580223008
 20
81.33236121982411
 42
1.0
 10
145.8391580223008
 20
81.33236121982411
 42
1.0
 97
        0
 92
        7
 72
     0
 73
     1
 93
        6
 10
153.5513242791819
 20
88.71236121982414
 10
152.9154336882066
 20
89.25236121982411
 10
152.0015497375094
 20
89.25236121982411
 10
150.6209094785621
 20
81.42236121982419
 10
150.8249516579767
 20
81.17919321946629
 10
152.4657961399489
 20
82.55602521910844
 97
        0
 92
        7
 72
     0
 73
     1
 93
        6
 10
154.9342382200197
 20
96.55525591059342
 10
153.9073206904087
 20
97.77908856580523
 10
153.4351868339889
 20
97.38292122101711
 10
152.096766307092
 20
89.7923612198241
 10
153.0106502577892
 20
89.79236121982413
 10
153.8369739879296
 20
90.33236121982415
 97
        0
 92
        7
 72
     0
 73
     1
 93
        6
 10
162.7496836363244
 20
98.21493879510734
 10
162.4917255931289
 20
98.52236121982413
 10
154.7931185461128
 20
98.52236121982414
 10
154.320984689693
 20
98.12619387503595
 10
155.3479022193039
 20
96.90236121982412
 10
161.1854145954221
 20
96.90236121982412
 97
        0
 92
        7
 72
     0
 73
     1
 93
        6
 10
163.3547469887505
 20
97.49385237110619
 10
163.0967889455551
 20
97.80127479582304
 10
161.5325199046528
 20
96.48869722053991
 10
160.4469917654198
 20
90.3323612198241
 10
161.0828823563949
 20
89.7923612198241
 10
161.9967663070921
 20
89.7923612198241
 97
        0
 92
        7
 72
     0
 73
     1
 93
        6
 10
161.9015497375095
 20
89.25236121982411
 10
160.9876657868124
 20
89.25236121982411
 10
160.161342056672
 20
88.71236121982406
 10
159.064077824582
 20
82.48946652905482
 10
160.191452361537
 20
81.14591387443951
 10
160.5209094785623
 20
81.42236121982421
 97
        0
 92
        7
 72
     0
 73
     1
 93
        6
 10
159.7777883622527
 20
80.79880856520873
 10
158.6504138252978
 20
82.14236121982413
 10
152.8129014491795
 20
82.14236121982413
 10
151.1720569672073
 20
80.76552922018194
 10
151.3760991466218
 20
80.52236121982412
 10
159.4483312452275
 20
80.52236121982412
 97
        0
 92
        7
 72
     0
 73
     1
 93
        6
 10
160.8608276518825
 20
89.52236121982407
 10
159.9069917654198
 20
90.33236121982406
 10
154.3769739879296
 20
90.33236121982415
 10
153.137488392719
 20
89.52236121982412
 10
154.0913242791819
 20
88.71236121982411
 10
159.6213420566721
 20
88.71236121982411
 97
        0
 75
     0
 76
     1
 47
0.0966323301571697
 98
       23
 10
-62.99999988485445
 20
-21.45117425909359
 10
123.9563685958352
 20
97.68058084503127
 10
117.7676890428241
 20
94.58834630879072
 10
116.8007073720424
 20
87.05102454375605
 10
117.0908018732769
 20
80.67329089570852
 10
124.9233492199526
 20
85.31164270006923
 10
122.0224063009358
 20
89.5634653532968
 10
125.8903308907346
 20
93.42875819180369
 10
137.8808962817796
 20
97.58394855724795
 10
135.5601423652316
 20
94.29844944544084
 10
138.2676889500925
 20
89.37020077773025
 10
134.1096698590589
 20
86.47123081705638
 10
138.7511797854832
 20
80.96318775905842
 10
142.6191043752822
 20
85.02174583671934
 10
143.6827831664778
 20
92.17253845062089
 10
146.8738216333937
 20
81.25308462240832
 10
152.1922176827011
 20
86.18133329011891
 10
153.5459909751315
 20
91.20621490920042
 10
156.8337265624612
 20
97.97047837196874
 10
162.4422171130032
 20
95.16814069907809
 10
160.6049529851819
 20
85.98806871455236
 10
157.0271228966177
 20
80.67329089570852
 10
157.0271228966177
 20
89.37020077773025
  0
TEXT
  5
978
330
18
100
AcDbEntity
  8
1
100
AcDbText
 10
101.137055952709
 20
115.791396752819
 30
0.0
 40
2.5
  1
DIGITAL THERMOMETER
 41
2.0
  7
ＭＳゴシック
 72
     4
 11
132.0000001151455
 21
117.0223612198241
 31
0.0
100
AcDbText
  0
TEXT
  5
979
330
18
100
AcDbEntity
  8
1
100
AcDbText
 10
104.0682450268039
 20
60.79139675281904
 30
0.0
 40
2.5
  1
NIPPO ELECTRIC CO. LTD.
 41
1.5
  7
ＭＳゴシック
 72
     4
 11
132.0885495953318
 21
62.02236121982412
 31
0.0
100
AcDbText
  0
TEXT
  5
97A
330
18
100
AcDbEntity
  8
1
100
AcDbText
 10
146.8702754836567
 20
60.82870639748911
 30
0.0
 40
2.5
  1
,
 41
1.5
  7
ＭＳゴシック
 72
     4
 11
148.0885495953318
 21
60.82236121982413
 31
0.0
100
AcDbText
  0
HATCH
  5
97B
330
18
100
AcDbEntity
  8
1
100
AcDbHatch
 10
0.0
 20
0.0
 30
0.0
210
0.0
220
0.0
230
1.0
  2
SOLID
 70
     1
 71
     0
 91
        2
 92
        7
 72
     0
 73
     1
 93
        6
 10
110.4727515791072
 20
97.528627863487
 10
110.2147935359117
 20
97.83605028820383
 10
108.6505244950095
 20
96.5234727129207
 10
107.5649963557766
 20
90.36713671220482
 10
108.2008869467516
 20
89.82713671220489
 10
109.1147708974487
 20
89.82713671220489
 97
        0
 92
        7
 72
     0
 73
     1
 93
        6
 10
109.0195543278662
 20
89.2871367122049
 10
108.1056703771691
 20
89.28713671220487
 10
107.2793466470287
 20
88.7471367122049
 10
106.1820824149387
 20
82.52424202143561
 10
107.3094569518937
 20
81.1806893668203
 10
107.638914068919
 20
81.45713671220503
 97
        0
 75
     0
 76
     1
 47
0.0966323301571697
 98
        2
 10
109.0216437316827
 20
94.33322493782162
 10
107.571172272174
 20
86.50600630943717
  0
HATCH
  5
97C
330
18
100
AcDbEntity
  8
1
100
AcDbHatch
 10
0.0
 20
0.0
 30
0.0
210
0.0
220
0.0
230
1.0
  2
SOLID
 70
     1
 71
     0
 91
        1
 92
        7
 72
     0
 73
     1
 93
        6
 10
105.9078338582645
 20
90.33236121982412
 10
100.3778160807742
 20
90.33236121982412
 10
99.13833048556377
 20
89.52236121982412
 10
100.0921663720266
 20
88.71236121982411
 10
105.6221841495168
 20
88.71236121982411
 10
106.8616697447272
 20
89.52236121982403
 97
        0
 75
     0
 76
     1
 47
0.0966323301571697
 98
        1
 10
104.9068401480754
 20
90.1432590799966
  0
LINE
  5
97D
330
18
100
AcDbEntity
  8
1
370
    15
100
AcDbLine
 10
185.1133863813724
 20
70.08599925831314
 30
0.0
 11
169.7150409736648
 21
76.63029605658889
 31
0.0
  0
LINE
  5
97E
330
18
100
AcDbEntity
  8
1
370
    15
100
AcDbLine
 10
188.0000001151455
 20
108.5223612198241
 30
0.0
 11
188.0000001151455
 21
70.52236121982412
 31
0.0
  0
TEXT
  5
97F
330
18
100
AcDbEntity
  8
1
100
AcDbText
 10
176.6900724379714
 20
59.96144751424036
 30
0.0
 40
4.0
  1
℃
 41
1.5
 51
10.0
  7
ＭＳゴシック
 72
     4
 11
180.5885495953318
 21
62.02236121982412
 31
0.0
100
AcDbText
  0
LINE
  5
980
330
18
100
AcDbEntity
  8
1
370
    15
100
AcDbLine
 10
188.0885495953318
 20
65.52236121982412
 30
0.0
 11
188.0885495953318
 21
58.52236121982412
 31
0.0
  0
ARC
  5
981
330
18
100
AcDbEntity
  8
1
370
    15
100
AcDbCircle
 10
190.0000001151456
 20
56.52236121982411
 30
0.0
 40
1.0
100
AcDbArc
 50
270.0
 51
0.0
  0
ARC
  5
982
330
18
100
AcDbEntity
  8
1
370
    15
100
AcDbCircle
 10
186.0000001151455
 20
70.52236121982412
 30
0.0
 40
2.0
100
AcDbArc
 50
270.0
 51
0.0
  0
LEADER
  5
983
330
18
100
AcDbEntity
  8
2
100
AcDbLeader
  3
STANDARD
 73
     0
 40
8.222857142857142
 41
17.19428571428571
 76
     3
 10
188.7071068963321
 20
111.3152544386375
 30
0.0
 10
199.3137086141303
 20
100.7086527208393
 30
0.0
 10
201.3137086141303
 20
100.7086527208393
 30
0.0
213
-0.5
223
-1.25
233
0.0
1001
ACAD
1000
DSTYLE
1002
{
1070
    40
1040
1.0
1070
    77
1070
     0
1070
   271
1070
     4
1002
}
  0
MTEXT
  5
984
102
{ACAD_REACTORS
330
983
102
}
330
18
100
AcDbEntity
  8
2
100
AcDbMText
 10
202.8137086141303
 20
101.9586527208393
 30
0.0
 40
3.0
 41
0.0
 71
     1
 72
     1
  1
ABS\Pﾏﾝｾﾙ N-3
  7
ＭＳ明朝
 73
     1
 44
1.0
  0
LINE
  5
985
330
18
100
AcDbEntity
  8
1
370
    15
100
AcDbLine
 10
185.1133863813724
 20
108.9587231813351
 30
0.0
 11
169.7150409736648
 21
102.4144263830593
 31
0.0
  0
ARC
  5
986
330
18
100
AcDbEntity
  8
1
370
    15
100
AcDbCircle
 10
186.0000001151455
 20
108.5223612198241
 30
0.0
 40
2.0
100
AcDbArc
 50
0.0
 51
90.0
  0
LINE
  5
987
330
18
100
AcDbEntity
  8
1
370
    20
100
AcDbLine
 10
94.11716261265757
 20
242.2336124160304
 30
0.0
 11
96.11716261265758
 21
242.2336124160304
 31
0.0
  0
LINE
  5
988
330
18
100
AcDbEntity
  8
1
370
    15
100
AcDbLine
 10
98.11716261265758
 20
169.2313911925601
 30
0.0
 11
88.11716261265758
 21
169.2313911925601
 31
0.0
  0
LINE
  5
989
330
18
100
AcDbEntity
  8
1
100
AcDbLine
 10
76.11716261265758
 20
227.2313911925601
 30
0.0
 11
190.1171626126576
 21
227.2313911925601
 31
0.0
  0
LINE
  5
98A
330
18
100
AcDbEntity
  8
1
100
AcDbLine
 10
193.1171626126575
 20
159.2313911925601
 30
0.0
 11
73.12144112511692
 21
159.2313911925601
 31
0.0
  0
LINE
  5
98B
330
18
100
AcDbEntity
  8
1
100
AcDbLine
 10
75.11716261265758
 20
229.2313911925601
 30
0.0
 11
191.1171626126575
 21
229.2313911925601
 31
0.0
  0
LINE
  5
98C
330
18
100
AcDbEntity
  8
1
100
AcDbLine
 10
78.11716261265758
 20
159.2313911925601
 30
0.0
 11
188.1171626126575
 21
159.2313911925601
 31
0.0
  0
LINE
  5
98D
330
18
100
AcDbEntity
  8
1
100
AcDbLine
 10
78.11716261265758
 20
159.2313911925601
 30
0.0
 11
188.1171626126575
 21
159.2313911925601
 31
0.0
  0
LINE
  5
98E
330
18
100
AcDbEntity
  8
1
100
AcDbLine
 10
78.11716261265758
 20
159.2313911925601
 30
0.0
 11
188.1171626126575
 21
159.2313911925601
 31
0.0
  0
LINE
  5
98F
330
18
100
AcDbEntity
  8
1
100
AcDbLine
 10
78.11716261265758
 20
159.2313911925601
 30
0.0
 11
188.1171626126575
 21
159.2313911925601
 31
0.0
  0
LINE
  5
990
330
18
100
AcDbEntity
  8
1
100
AcDbLine
 10
74.11716261265758
 20
149.2313911925601
 30
0.0
 11
192.1171626126575
 21
149.2313911925601
 31
0.0
  0
LINE
  5
991
330
18
100
AcDbEntity
  8
1
370
    20
100
AcDbLine
 10
86.11716261265758
 20
229.2336124160304
 30
0.0
 11
164.1171626126575
 21
229.2336124160304
 31
0.0
  0
LINE
  5
992
330
18
100
AcDbEntity
  8
1
100
AcDbLine
 10
94.11716261265757
 20
227.2313911925601
 30
0.0
 11
169.1171626126575
 21
227.2313911925601
 31
0.0
  0
LINE
  5
993
330
18
100
AcDbEntity
  8
1
370
    15
100
AcDbLine
 10
94.11716261265757
 20
177.2313911925601
 30
0.0
 11
169.1171626126575
 21
177.2313911925601
 31
0.0
  0
LINE
  5
994
330
18
100
AcDbEntity
  8
1
370
    20
100
AcDbLine
 10
95.11716261265759
 20
220.0313911925602
 30
0.0
 11
168.1171626126575
 21
220.0313911925602
 31
0.0
  0
LINE
  5
995
330
18
100
AcDbEntity
  8
1
370
    20
100
AcDbLine
 10
95.11716261265759
 20
220.2313911925601
 30
0.0
 11
168.1171626126575
 21
220.2313911925601
 31
0.0
  0
LINE
  5
996
330
18
100
AcDbEntity
  8
1
370
    20
100
AcDbLine
 10
95.11716261265759
 20
225.2313911925601
 30
0.0
 11
168.1171626126575
 21
225.2313911925601
 31
0.0
  0
LINE
  5
997
330
18
100
AcDbEntity
  8
1
370
    20
100
AcDbLine
 10
95.11716261265759
 20
192.2313911925601
 30
0.0
 11
168.1171626126575
 21
192.2313911925601
 31
0.0
  0
DIMENSION
  5
998
330
18
100
AcDbEntity
  8
2
100
AcDbDimension
  2
*D1
 10
188.1171626126575
 20
251.7313911925601
 30
0.0
 11
133.1171626126575
 21
253.4813911925601
 31
0.0
 70
    32
 71
     5
 42
110.0
  3
STANDARD
100
AcDbAlignedDimension
 13
78.11716261265758
 23
229.2313911925601
 33
0.0
 14
188.1171626126575
 24
229.2313911925601
 34
0.0
100
AcDbRotatedDimension
1001
ACAD
1000
DSTYLE
1002
{
1070
    40
1040
1.0
1002
}
  0
DIMENSION
  5
999
330
18
100
AcDbEntity
  8
2
100
AcDbDimension
  2
*D2
 10
193.1171626126575
 20
139.2313911925601
 30
0.0
 11
133.1171626126575
 21
140.9813911925601
 31
0.0
 70
    32
 71
     5
 42
120.0
  3
STANDARD
100
AcDbAlignedDimension
 13
73.11716261265758
 23
149.2166139983112
 33
0.0
 14
193.1171626126575
 24
149.2313911925601
 34
0.0
100
AcDbRotatedDimension
1001
ACAD
1000
DSTYLE
1002
{
1070
    40
1040
1.0
1002
}
  0
LINE
  5
99A
330
18
100
AcDbEntity
  8
1
370
    15
100
AcDbLine
 10
74.00000011514555
 20
123.5223612198241
 30
0.0
 11
190.0000001151456
 21
123.5223612198241
 31
0.0
  0
LINE
  5
99B
330
18
100
AcDbEntity
  8
1
370
    15
100
AcDbLine
 10
76.00000011514556
 20
120.5223612198241
 30
0.0
 11
188.0000001151456
 21
120.5223612198241
 31
0.0
  0
LINE
  5
99C
330
18
100
AcDbEntity
  8
1
100
AcDbLine
 10
78.11716261265758
 20
159.2313911925601
 30
0.0
 11
78.11716261265758
 21
227.2313911925601
 31
0.0
  0
LINE
  5
99D
330
18
100
AcDbEntity
  8
1
100
AcDbLine
 10
74.11716261265761
 20
159.2313911925602
 30
0.0
 11
74.11716261265758
 21
228.2313911925601
 31
0.0
  0
LINE
  5
99E
330
18
100
AcDbEntity
  8
1
100
AcDbLine
 10
76.11716261265758
 20
159.2313911925601
 30
0.0
 11
76.11716261265758
 21
227.2313911925601
 31
0.0
  0
LINE
  5
99F
330
18
100
AcDbEntity
  8
1
370
    15
100
AcDbLine
 10
94.11716261265757
 20
227.2313911925601
 30
0.0
 11
94.11716261265757
 21
177.2313911925601
 31
0.0
  0
LINE
  5
9A0
330
18
100
AcDbEntity
  8
1
370
    20
100
AcDbLine
 10
95.11716261265759
 20
225.2313911925601
 30
0.0
 11
95.11716261265759
 21
192.2313911925601
 31
0.0
  0
LINE
  5
9A1
330
18
100
AcDbEntity
  8
1
370
    15
100
AcDbLine
 10
92.71716261265757
 20
166.4307185193217
 30
0.0
 11
92.71716261265757
 21
166.0307185193217
 31
0.0
  0
LINE
  5
9A2
330
18
100
AcDbEntity
  8
1
370
    15
100
AcDbLine
 10
93.51716261265757
 20
166.0307185193217
 30
0.0
 11
93.51716261265757
 21
166.4307185193217
 31
0.0
  0
CIRCLE
  5
9A3
330
18
100
AcDbEntity
  8
1
370
    15
100
AcDbCircle
 10
93.11716261265756
 20
165.2307185193217
 30
0.0
 40
2.08
  0
LINE
  5
9A4
330
18
100
AcDbEntity
  8
1
370
    15
100
AcDbLine
 10
88.11716261265758
 20
159.3313911925601
 30
0.0
 11
88.11716261265758
 21
169.2313911925601
 31
0.0
  0
ARC
  5
9A5
330
18
100
AcDbEntity
  8
1
370
    15
100
AcDbCircle
 10
74.00000011514555
 20
122.5223612198241
 30
0.0
 40
1.0
100
AcDbArc
 50
90.0
 51
180.0
  0
LINE
  5
9A6
330
18
100
AcDbEntity
  8
1
100
AcDbLine
 10
73.11716261265758
 20
159.2166139983112
 30
0.0
 11
74.11716261265758
 21
149.2313911925601
 31
0.0
  0
LINE
  5
9A7
330
18
100
AcDbEntity
  8
1
370
    15
100
AcDbLine
 10
91.91716261265757
 20
165.6307185193217
 30
0.0
 11
91.91716261265757
 21
164.8307185193217
 31
0.0
  0
LINE
  5
9A8
330
18
100
AcDbEntity
  8
1
370
    15
100
AcDbLine
 10
94.31716261265757
 20
164.8307185193217
 30
0.0
 11
94.31716261265757
 21
165.6307185193217
 31
0.0
  0
LINE
  5
9A9
330
18
100
AcDbEntity
  8
1
370
    15
100
AcDbLine
 10
92.31716261265757
 20
165.6307185193217
 30
0.0
 11
91.91716261265757
 21
165.6307185193217
 31
0.0
  0
ARC
  5
9AA
330
18
100
AcDbEntity
  8
1
370
    15
100
AcDbCircle
 10
92.31716261265757
 20
166.0307185193217
 30
0.0
 40
0.4
100
AcDbArc
 50
270.0
 51
0.0
  0
LINE
  5
9AB
330
18
100
AcDbEntity
  8
1
370
    15
100
AcDbLine
 10
91.91716261265757
 20
164.8307185193217
 30
0.0
 11
92.31716261265757
 21
164.8307185193217
 31
0.0
  0
LINE
  5
9AC
330
18
100
AcDbEntity
  8
1
370
    15
100
AcDbLine
 10
93.91716261265756
 20
164.8307185193217
 30
0.0
 11
94.31716261265757
 21
164.8307185193217
 31
0.0
  0
LINE
  5
9AD
330
18
100
AcDbEntity
  8
1
370
    15
100
AcDbLine
 10
94.31716261265757
 20
165.6307185193217
 30
0.0
 11
93.91716261265756
 21
165.6307185193217
 31
0.0
  0
ARC
  5
9AE
330
18
100
AcDbEntity
  8
1
370
    15
100
AcDbCircle
 10
93.91716261265756
 20
166.0307185193217
 30
0.0
 40
0.4
100
AcDbArc
 50
180.0
 51
270.0
  0
LINE
  5
9AF
330
18
100
AcDbEntity
  8
1
370
    15
100
AcDbLine
 10
92.71716261265757
 20
164.0307185193217
 30
0.0
 11
93.51716261265757
 21
164.0307185193217
 31
0.0
  0
LINE
  5
9B0
330
18
100
AcDbEntity
  8
1
370
    15
100
AcDbLine
 10
92.71716261265757
 20
164.4307185193217
 30
0.0
 11
92.71716261265757
 21
164.0307185193217
 31
0.0
  0
LINE
  5
9B1
330
18
100
AcDbEntity
  8
1
370
    15
100
AcDbLine
 10
93.51716261265757
 20
164.0307185193217
 30
0.0
 11
93.51716261265757
 21
164.4307185193217
 31
0.0
  0
ARC
  5
9B2
330
18
100
AcDbEntity
  8
1
370
    15
100
AcDbCircle
 10
92.31716261265757
 20
164.4307185193217
 30
0.0
 40
0.4
100
AcDbArc
 50
0.0
 51
90.0
  0
ARC
  5
9B3
330
18
100
AcDbEntity
  8
1
370
    15
100
AcDbCircle
 10
93.91716261265756
 20
164.4307185193217
 30
0.0
 40
0.4
100
AcDbArc
 50
90.0
 51
180.0
  0
LINE
  5
9B4
330
18
100
AcDbEntity
  8
1
100
AcDbLine
 10
88.11716261265758
 20
169.3313911925601
 30
0.0
 11
88.11716261265758
 21
169.3313911925601
 31
0.0
  0
LINE
  5
9B5
330
18
100
AcDbEntity
  8
1
370
    15
100
AcDbLine
 10
93.51716261265757
 20
166.4307185193217
 30
0.0
 11
92.71716261265757
 21
166.4307185193217
 31
0.0
  0
LINE
  5
9B6
330
18
100
AcDbEntity
  8
1
370
    20
100
AcDbLine
 10
90.11716261265759
 20
235.7336124160304
 30
0.0
 11
90.11716261265759
 21
236.5616124160303
 31
0.0
  0
LINE
  5
9B7
330
18
100
AcDbEntity
  8
1
370
    20
100
AcDbLine
 10
93.13316261265756
 20
235.7336124160304
 30
0.0
 11
93.13316261265756
 21
236.5616124160303
 31
0.0
  0
LINE
  5
9B8
330
18
100
AcDbEntity
  8
1
370
    20
100
AcDbLine
 10
87.10116261265758
 20
235.7336124160304
 30
0.0
 11
87.10116261265758
 21
236.5616124160303
 31
0.0
  0
LINE
  5
9B9
330
18
100
AcDbEntity
  8
1
370
    20
100
AcDbLine
 10
94.11716261265757
 20
242.2336124160304
 30
0.0
 11
94.11716261265757
 21
230.2336124160304
 31
0.0
  0
ARC
  5
9BA
330
18
100
AcDbEntity
  8
1
100
AcDbCircle
 10
75.11716261265758
 20
228.2313911925601
 30
0.0
 40
1.0
100
AcDbArc
 50
90.0
 51
180.0
  0
LINE
  5
9BB
330
18
100
AcDbEntity
  8
1
370
    20
100
AcDbLine
 10
86.11716261265758
 20
235.7336124160304
 30
0.0
 11
94.11716261265757
 21
235.7336124160304
 31
0.0
  0
LINE
  5
9BC
330
18
100
AcDbEntity
  8
1
370
    20
100
AcDbLine
 10
86.11716261265758
 20
230.2336124160304
 30
0.0
 11
94.11716261265757
 21
230.2336124160304
 31
0.0
  0
LINE
  5
9BD
330
18
100
AcDbEntity
  8
1
370
    20
100
AcDbLine
 10
86.11716261265758
 20
235.7336124160304
 30
0.0
 11
86.11716261265758
 21
229.2336124160304
 31
0.0
  0
LINE
  5
9BE
330
18
100
AcDbEntity
  8
1
370
    20
100
AcDbLine
 10
87.10116261265758
 20
236.5616124160303
 30
0.0
 11
93.13316261265759
 21
236.5616124160303
 31
0.0
  0
ARC
  5
9BF
330
18
100
AcDbEntity
  8
1
370
    20
100
AcDbCircle
 10
88.84116261265758
 20
237.4736124160303
 30
0.0
 40
1.739999999999999
100
AcDbArc
 50
90.0
 51
180.0
  0
ARC
  5
9C0
330
18
100
AcDbEntity
  8
1
370
    20
100
AcDbCircle
 10
87.68116261265758
 20
237.1416124160304
 30
0.0
 40
0.58
100
AcDbArc
 50
180.0
 51
270.0
  0
LINE
  5
9C1
330
18
100
AcDbEntity
  8
1
370
    20
100
AcDbLine
 10
87.10116261265758
 20
237.1416124160304
 30
0.0
 11
87.10116261265758
 21
237.4736124160303
 31
0.0
  0
ARC
  5
9C2
330
18
100
AcDbEntity
  8
1
370
    20
100
AcDbCircle
 10
91.39316261265756
 20
237.4736124160304
 30
0.0
 40
1.739999999999999
100
AcDbArc
 50
0.0
 51
90.00000000000081
  0
LINE
  5
9C3
330
18
100
AcDbEntity
  8
1
370
    20
100
AcDbLine
 10
88.84116261265758
 20
239.2136124160304
 30
0.0
 11
91.39316261265753
 21
239.2136124160304
 31
0.0
  0
LINE
  5
9C4
330
18
100
AcDbEntity
  8
1
370
    20
100
AcDbLine
 10
93.13316261265756
 20
237.1416124160304
 30
0.0
 11
93.13316261265756
 21
237.4736124160304
 31
0.0
  0
ARC
  5
9C5
330
18
100
AcDbEntity
  8
1
370
    20
100
AcDbCircle
 10
92.55316261265756
 20
237.1416124160304
 30
0.0
 40
0.58
100
AcDbArc
 50
270.0
 51
0.0
  0
LINE
  5
9C6
330
18
100
AcDbEntity
  8
1
100
AcDbLine
 10
188.1171626126575
 20
227.2313911925601
 30
0.0
 11
188.1171626126575
 21
159.2313911925601
 31
0.0
  0
LINE
  5
9C7
330
18
100
AcDbEntity
  8
1
100
AcDbLine
 10
192.1171626126575
 20
228.2313911925601
 30
0.0
 11
192.1171626126576
 21
159.2313911925602
 31
0.0
  0
LINE
  5
9C8
330
18
100
AcDbEntity
  8
1
100
AcDbLine
 10
190.1171626126576
 20
227.2313911925601
 30
0.0
 11
190.1171626126576
 21
159.2313911925601
 31
0.0
  0
LINE
  5
9C9
330
18
100
AcDbEntity
  8
1
370
    15
100
AcDbLine
 10
169.1171626126575
 20
227.2313911925601
 30
0.0
 11
169.1171626126575
 21
177.2313911925601
 31
0.0
  0
LINE
  5
9CA
330
18
100
AcDbEntity
  8
1
 48
0.3
370
    20
100
AcDbLine
 10
143.0667268940278
 20
210.1242289110966
 30
0.0
 11
143.0667268940278
 21
215.1226994088606
 31
0.0
  0
LINE
  5
9CB
330
18
100
AcDbEntity
  8
1
 48
0.3
370
    20
100
AcDbLine
 10
143.1667268940278
 20
210.1242289110966
 30
0.0
 11
143.1667268940278
 21
215.1226994088606
 31
0.0
  0
LINE
  5
9CC
330
18
100
AcDbEntity
  8
1
 48
0.3
370
    20
100
AcDbLine
 10
153.2100593443081
 20
210.1572992894811
 30
0.0
 11
153.2100593443081
 21
215.155769787245
 31
0.0
  0
LINE
  5
9CD
330
18
100
AcDbEntity
  8
1
 48
0.3
370
    20
100
AcDbLine
 10
153.1100593443081
 20
210.1572992894811
 30
0.0
 11
153.1100593443081
 21
215.155769787245
 31
0.0
  0
LINE
  5
9CE
330
18
100
AcDbEntity
  8
1
370
    20
100
AcDbLine
 10
168.1171626126575
 20
225.2313911925601
 30
0.0
 11
168.1171626126575
 21
192.2313911925601
 31
0.0
  0
DIMENSION
  5
9CF
330
18
100
AcDbEntity
  8
2
100
AcDbDimension
  2
*D3
 10
203.1171626126575
 20
159.2313911925601
 30
0.0
 11
201.3671626126575
 21
193.2313911925602
 31
0.0
 70
    32
 71
     5
 42
67.99999999999997
  3
STANDARD
100
AcDbAlignedDimension
 13
192.1171626126575
 23
227.2313911925601
 33
0.0
 14
193.1171626126575
 24
159.2313911925601
 34
0.0
 50
90.0
100
AcDbRotatedDimension
1001
ACAD
1000
DSTYLE
1002
{
1070
    40
1040
1.0
1002
}
  0
DIMENSION
  5
9D0
330
18
100
AcDbEntity
  8
2
100
AcDbDimension
  2
*D4
 10
213.1171626126575
 20
149.2313911925601
 30
0.0
 11
210.9885911840861
 21
188.2313911925602
 31
0.0
 70
    32
  1
(78)
 71
     5
 42
77.99999999999997
  3
STANDARD
100
AcDbAlignedDimension
 13
192.1171626126575
 23
227.2313911925601
 33
0.0
 14
193.1171626126575
 24
149.2313911925601
 34
0.0
 50
90.0
100
AcDbRotatedDimension
1001
ACAD
1000
DSTYLE
1002
{
1070
    40
1040
1.0
1002
}
  0
LINE
  5
9D1
330
18
100
AcDbEntity
  8
1
370
    20
100
AcDbLine
 10
103.0514254318076
 20
212.9430170003538
 30
0.0
 11
103.0514254318076
 21
199.8415508197568
 31
0.0
  0
LINE
  5
9D2
330
18
100
AcDbEntity
  8
1
370
    20
100
AcDbLine
 10
103.1514254318076
 20
212.8415508197568
 30
0.0
 11
103.1514254318076
 21
199.8415508197568
 31
0.0
  0
TEXT
  5
9D3
330
18
100
AcDbEntity
  8
1
100
AcDbText
 10
116.6025676819293
 20
213.5840446775649
 30
0.0
 40
1.5
  1
AC200V
 50
180.0
  7
ＭＳゴシック
100
AcDbText
  0
LINE
  5
9D4
330
18
100
AcDbEntity
  8
1
370
    20
100
AcDbLine
 10
109.5164249427021
 20
210.8513560805923
 30
0.0
 11
109.5164249427021
 21
214.6525329216387
 31
0.0
  0
LINE
  5
9D5
330
18
100
AcDbEntity
  8
1
370
    20
100
AcDbLine
 10
109.4164249427021
 20
210.7513560805923
 30
0.0
 11
109.4164249427021
 21
214.7525329216386
 31
0.0
  0
LINE
  5
9D6
330
18
100
AcDbEntity
  8
1
370
    20
100
AcDbLine
 10
117.3120989314298
 20
214.6525329216387
 30
0.0
 11
117.3120989314298
 21
210.8513560805923
 31
0.0
  0
LINE
  5
9D7
330
18
100
AcDbEntity
  8
1
370
    20
100
AcDbLine
 10
117.4120989314298
 20
214.7525329216386
 30
0.0
 11
117.4120989314298
 21
210.7513560805923
 31
0.0
  0
LINE
  5
9D8
330
18
100
AcDbEntity
  8
1
370
    20
100
AcDbLine
 10
126.0120989314298
 20
201.939828209487
 30
0.0
 11
126.0120989314298
 21
212.8519445011154
 31
0.0
  0
LINE
  5
9D9
330
18
100
AcDbEntity
  8
1
370
    20
100
AcDbLine
 10
125.9120989314298
 20
201.939828209487
 30
0.0
 11
125.9120989314298
 21
212.7519445011154
 31
0.0
  0
TEXT
  5
9DA
330
18
100
AcDbEntity
  8
1
100
AcDbText
 10
164.1171626126575
 20
203.3903210763923
 30
0.0
 40
1.199999999999999
  1
T.C.
 50
180.0
  7
ＭＳゴシック
100
AcDbText
  0
LINE
  5
9DB
330
18
100
AcDbEntity
  8
1
370
    20
100
AcDbLine
 10
155.1171626126575
 20
198.0313911925601
 30
0.0
 11
163.9171626126575
 21
198.0313911925601
 31
0.0
  0
LINE
  5
9DC
330
18
100
AcDbEntity
  8
1
370
    20
100
AcDbLine
 10
155.1171626126575
 20
198.2313911925601
 30
0.0
 11
164.1171626126575
 21
198.2313911925601
 31
0.0
  0
TEXT
  5
9DD
330
18
100
AcDbEntity
  8
1
100
AcDbText
 10
163.2785613669855
 20
185.5981813152734
 30
0.0
 40
2.0
  1
SER.NO.
 50
180.0
  7
ＭＳゴシック
100
AcDbText
  0
TEXT
  5
9DE
330
18
100
AcDbEntity
  8
1
100
AcDbText
 10
163.1171626126575
 20
181.7467360128506
 30
0.0
 40
3.0
  1
TYPE LM
 50
180.0
  7
ＭＳゴシック
100
AcDbText
  0
TEXT
  5
9DF
330
18
100
AcDbEntity
  8
1
100
AcDbText
 10
163.4399656356377
 20
189.7360663533417
 30
0.0
 40
2.0
  1
NIPPO ELECTRIC CO.,LTD.
 50
180.0
  7
ＭＳゴシック
100
AcDbText
  0
LINE
  5
9E0
330
18
100
AcDbEntity
  8
1
370
    15
100
AcDbLine
 10
98.11716261265761
 20
159.2313911925601
 30
0.0
 11
98.11716261265758
 21
169.2313911925601
 31
0.0
  0
LINE
  5
9E1
330
18
100
AcDbEntity
  8
1
370
    20
100
AcDbLine
 10
124.9871652618166
 20
198.1321800574069
 30
0.0
 11
130.9871652618166
 21
198.1321800574069
 31
0.0
  0
LINE
  5
9E2
330
18
100
AcDbEntity
  8
1
370
    20
100
AcDbLine
 10
124.9871652618166
 20
197.9321800574069
 30
0.0
 11
130.9875499707836
 21
197.9321800574069
 31
0.0
  0
TEXT
  5
9E3
330
18
100
AcDbEntity
  8
1
100
AcDbText
 10
118.4995805303026
 20
185.6958138018413
 30
0.0
 40
2.0
  1
IN PUT
 50
180.0
  7
ＭＳゴシック
100
AcDbText
  0
TEXT
  5
9E4
330
18
100
AcDbEntity
  8
1
100
AcDbText
 10
102.4058473935672
 20
182.0584292473646
 30
0.0
 40
3.0
  1
℃
 50
180.0
  7
ＭＳゴシック
100
AcDbText
  0
TEXT
  5
9E5
330
18
100
AcDbEntity
  8
1
100
AcDbText
 10
114.0818643478207
 20
178.7313911925601
 30
0.0
 40
3.0
  1
～
  7
ＭＳ明朝
100
AcDbText
  0
LINE
  5
9E6
330
18
100
AcDbEntity
  8
1
370
    20
100
AcDbLine
 10
117.3120989314298
 20
210.8513560805923
 30
0.0
 11
109.5164249427021
 21
210.8513560805923
 31
0.0
  0
LINE
  5
9E7
330
18
100
AcDbEntity
  8
1
370
    20
100
AcDbLine
 10
117.4120989314298
 20
210.7513560805923
 30
0.0
 11
109.4164249427021
 21
210.7513560805923
 31
0.0
  0
CIRCLE
  5
9E8
330
18
100
AcDbEntity
  8
1
370
    20
100
AcDbCircle
 10
112.8974322590669
 20
197.9553008903846
 30
0.0
 40
1.9
  0
CIRCLE
  5
9E9
330
18
100
AcDbEntity
  8
1
370
    20
100
AcDbCircle
 10
112.8974322590669
 20
197.9553008903846
 30
0.0
 40
2.0
  0
CIRCLE
  5
9EA
330
18
100
AcDbEntity
  8
1
370
    20
100
AcDbCircle
 10
112.8974322590669
 20
197.9553008903846
 30
0.0
 40
1.149999999999999
  0
CIRCLE
  5
9EB
330
18
100
AcDbEntity
  8
1
370
    20
100
AcDbCircle
 10
112.8974322590669
 20
197.9553008903846
 30
0.0
 40
1.25
  0
CIRCLE
  5
9EC
330
18
100
AcDbEntity
  8
1
370
    20
100
AcDbCircle
 10
102.8540998087866
 20
197.9222305120002
 30
0.0
 40
1.149999999999999
  0
CIRCLE
  5
9ED
330
18
100
AcDbEntity
  8
1
370
    20
100
AcDbCircle
 10
102.8540998087866
 20
197.9222305120002
 30
0.0
 40
1.25
  0
CIRCLE
  5
9EE
330
18
100
AcDbEntity
  8
1
370
    20
100
AcDbCircle
 10
102.8540998087866
 20
197.9222305120002
 30
0.0
 40
1.9
  0
CIRCLE
  5
9EF
330
18
100
AcDbEntity
  8
1
370
    20
100
AcDbCircle
 10
102.8540998087866
 20
197.9222305120002
 30
0.0
 40
2.0
  0
LINE
  5
9F0
330
18
100
AcDbEntity
  8
1
370
    20
100
AcDbLine
 10
98.65716791097577
 20
198.0329689222537
 30
0.0
 11
98.65716791097577
 21
194.2313911925601
 31
0.0
  0
LINE
  5
9F1
330
18
100
AcDbEntity
  8
1
370
    20
100
AcDbLine
 10
98.85716791097577
 20
197.8329689222537
 30
0.0
 11
98.85716791097577
 21
194.2313911925601
 31
0.0
  0
LINE
  5
9F2
330
18
100
AcDbEntity
  8
1
370
    20
100
AcDbLine
 10
98.85716791097577
 20
194.2313911925601
 30
0.0
 11
98.65716791097577
 21
194.2313911925601
 31
0.0
  0
LINE
  5
9F3
330
18
100
AcDbEntity
  8
1
370
    20
100
AcDbLine
 10
98.85716791097577
 20
197.8329689222537
 30
0.0
 11
100.8575526199426
 21
197.8329689222537
 31
0.0
  0
LINE
  5
9F4
330
18
100
AcDbEntity
  8
1
370
    20
100
AcDbLine
 10
98.65716791097577
 20
198.0329689222537
 30
0.0
 11
100.8571679109757
 21
198.0329689222537
 31
0.0
  0
LINE
  5
9F5
330
18
100
AcDbEntity
  8
1
370
    20
100
AcDbLine
 10
104.900500361256
 20
198.0660393006381
 30
0.0
 11
110.900500361256
 21
198.0660393006381
 31
0.0
  0
LINE
  5
9F6
330
18
100
AcDbEntity
  8
1
370
    20
100
AcDbLine
 10
104.900500361256
 20
197.8660393006381
 30
0.0
 11
110.900885070223
 21
197.8660393006381
 31
0.0
  0
LINE
  5
9F7
330
18
100
AcDbEntity
  8
1
370
    20
100
AcDbLine
 10
122.9407647093472
 20
199.988371268769
 30
0.0
 11
122.9407647093472
 21
204.8842001482733
 31
0.0
  0
LINE
  5
9F8
330
18
100
AcDbEntity
  8
1
370
    20
100
AcDbLine
 10
123.0407647093472
 20
199.988371268769
 30
0.0
 11
123.0407647093472
 21
204.9842001482733
 31
0.0
  0
LINE
  5
9F9
330
18
100
AcDbEntity
  8
1
370
    20
100
AcDbLine
 10
123.9517104495803
 20
199.7413722809062
 30
0.0
 11
126.0120989314298
 21
201.939828209487
 31
0.0
  0
LINE
  5
9FA
330
18
100
AcDbEntity
  8
1
370
    20
100
AcDbLine
 10
123.8337645011371
 20
199.7649453896103
 30
0.0
 11
125.9120989314298
 21
201.939828209487
 31
0.0
  0
LINE
  5
9FB
330
18
100
AcDbEntity
  8
1
370
    20
100
AcDbLine
 10
113.0450907206195
 20
199.888371268769
 30
0.0
 11
113.0450907206195
 21
204.8842001482733
 31
0.0
  0
LINE
  5
9FC
330
18
100
AcDbEntity
  8
1
370
    20
100
AcDbLine
 10
113.1450907206195
 20
199.888371268769
 30
0.0
 11
113.1450907206195
 21
204.7842001482734
 31
0.0
  0
LINE
  5
9FD
330
18
100
AcDbEntity
  8
1
370
    20
100
AcDbLine
 10
114.9438328115363
 20
197.8991096790225
 30
0.0
 11
120.9442175205032
 21
197.8991096790225
 31
0.0
  0
LINE
  5
9FE
330
18
100
AcDbEntity
  8
1
370
    20
100
AcDbLine
 10
114.9438328115363
 20
198.0991096790225
 30
0.0
 11
120.9438328115363
 21
198.0991096790225
 31
0.0
  0
CIRCLE
  5
9FF
330
18
100
AcDbEntity
  8
1
370
    20
100
AcDbCircle
 10
122.9407647093472
 20
197.988371268769
 30
0.0
 40
1.9
  0
CIRCLE
  5
A00
330
18
100
AcDbEntity
  8
1
370
    20
100
AcDbCircle
 10
122.9407647093472
 20
197.988371268769
 30
0.0
 40
2.0
  0
CIRCLE
  5
A01
330
18
100
AcDbEntity
  8
1
370
    20
100
AcDbCircle
 10
122.9407647093472
 20
197.988371268769
 30
0.0
 40
1.149999999999999
  0
CIRCLE
  5
A02
330
18
100
AcDbEntity
  8
1
370
    20
100
AcDbCircle
 10
122.9407647093472
 20
197.988371268769
 30
0.0
 40
1.25
  0
TEXT
  5
A03
330
18
100
AcDbEntity
  8
1
100
AcDbText
 10
121.2312334598467
 20
205.7163003247228
 30
0.0
 40
1.5
  1
AC100V
 50
180.0
  7
ＭＳゴシック
100
AcDbText
  0
LINE
  5
A04
330
18
100
AcDbEntity
  8
1
370
    20
100
AcDbLine
 10
121.9407647093472
 20
202.9836117277501
 30
0.0
 11
114.1450907206195
 21
202.9836117277501
 31
0.0
  0
LINE
  5
A05
330
18
100
AcDbEntity
  8
1
370
    20
100
AcDbLine
 10
114.1450907206195
 20
206.7847885687965
 30
0.0
 11
121.9407647093472
 21
206.7847885687965
 31
0.0
  0
LINE
  5
A06
330
18
100
AcDbEntity
  8
1
370
    20
100
AcDbLine
 10
122.0407647093472
 20
202.8836117277502
 30
0.0
 11
114.0450907206195
 21
202.8836117277502
 31
0.0
  0
LINE
  5
A07
330
18
100
AcDbEntity
  8
1
370
    20
100
AcDbLine
 10
114.0450907206195
 20
206.8847885687965
 30
0.0
 11
122.0407647093472
 21
206.8847885687965
 31
0.0
  0
LINE
  5
A08
330
18
100
AcDbEntity
  8
1
370
    20
100
AcDbLine
 10
114.0450907206195
 20
202.8836117277502
 30
0.0
 11
114.0450907206195
 21
206.8847885687965
 31
0.0
  0
LINE
  5
A09
330
18
100
AcDbEntity
  8
1
370
    20
100
AcDbLine
 10
114.1450907206195
 20
202.9836117277501
 30
0.0
 11
114.1450907206195
 21
206.7847885687965
 31
0.0
  0
LINE
  5
A0A
330
18
100
AcDbEntity
  8
1
370
    20
100
AcDbLine
 10
113.0450907206195
 20
204.8842001482733
 30
0.0
 11
114.0450907206195
 21
204.8842001482733
 31
0.0
  0
LINE
  5
A0B
330
18
100
AcDbEntity
  8
1
370
    20
100
AcDbLine
 10
113.1450907206195
 20
204.7842001482734
 30
0.0
 11
114.0450907206195
 21
204.7842001482734
 31
0.0
  0
LINE
  5
A0C
330
18
100
AcDbEntity
  8
1
370
    20
100
AcDbLine
 10
122.0407647093472
 20
206.8847885687965
 30
0.0
 11
122.0407647093472
 21
202.8836117277502
 31
0.0
  0
LINE
  5
A0D
330
18
100
AcDbEntity
  8
1
370
    20
100
AcDbLine
 10
122.9407647093472
 20
204.8842001482733
 30
0.0
 11
122.0407647093472
 21
204.8842001482733
 31
0.0
  0
LINE
  5
A0E
330
18
100
AcDbEntity
  8
1
370
    20
100
AcDbLine
 10
123.0407647093472
 20
204.9842001482733
 30
0.0
 11
122.0407647093472
 21
204.9842001482733
 31
0.0
  0
LINE
  5
A0F
330
18
100
AcDbEntity
  8
1
370
    20
100
AcDbLine
 10
121.9407647093472
 20
206.7847885687965
 30
0.0
 11
121.9407647093472
 21
202.9836117277501
 31
0.0
  0
LINE
  5
A10
330
18
100
AcDbEntity
  8
1
370
    20
100
AcDbLine
 10
144.6756284362188
 20
212.0235271493577
 30
0.0
 11
145.4906207836293
 21
209.3960272976992
 31
0.0
  0
LINE
  5
A11
330
18
100
AcDbEntity
  8
1
370
    20
100
AcDbLine
 10
144.7493107107568
 20
212.1235271493576
 30
0.0
 11
145.5953208466895
 21
209.3960272976992
 31
0.0
  0
LINE
  5
A12
330
18
100
AcDbEntity
  8
1
370
    20
100
AcDbLine
 10
143.828267144851
 20
209.2960272976991
 30
0.0
 11
146.4863367814817
 21
209.2960272976992
 31
0.0
  0
LINE
  5
A13
330
18
100
AcDbEntity
  8
1
370
    20
100
AcDbLine
 10
143.828267144851
 20
209.3960272976992
 30
0.0
 11
146.5598409628928
 21
209.3960272976992
 31
0.0
  0
TEXT
  5
A14
330
18
100
AcDbEntity
  8
1
100
AcDbText
 10
144.9525839310971
 20
204.4616108281393
 30
0.0
 40
1.199999999999999
  1
-
 50
180.0
  7
ＭＳゴシック
100
AcDbText
  0
LINE
  5
A15
330
18
100
AcDbEntity
  8
1
370
    20
100
AcDbLine
 10
143.8092144999482
 20
202.839051809863
 30
0.0
 11
147.167506347967
 21
202.839051809863
 31
0.0
  0
LINE
  5
A16
330
18
100
AcDbEntity
  8
1
370
    20
100
AcDbLine
 10
143.8030251452572
 20
202.939051809863
 30
0.0
 11
147.167506347967
 21
202.939051809863
 31
0.0
  0
CIRCLE
  5
A17
330
18
100
AcDbEntity
  8
1
370
    20
100
AcDbCircle
 10
143.0274296099078
 20
198.0545120255378
 30
0.0
 40
1.9
  0
CIRCLE
  5
A18
330
18
100
AcDbEntity
  8
1
370
    20
100
AcDbCircle
 10
143.0274296099078
 20
198.0545120255378
 30
0.0
 40
2.0
  0
LINE
  5
A19
330
18
100
AcDbEntity
  8
1
370
    20
100
AcDbLine
 10
143.0274296099078
 20
200.0545120255378
 30
0.0
 11
143.0274296099078
 21
202.0529825233018
 31
0.0
  0
LINE
  5
A1A
330
18
100
AcDbEntity
  8
1
370
    20
100
AcDbLine
 10
143.1274296099078
 20
200.0545120255378
 30
0.0
 11
143.1274296099078
 21
202.0529825233018
 31
0.0
  0
LINE
  5
A1B
330
18
100
AcDbEntity
  8
1
370
    20
100
AcDbLine
 10
133.0840971596275
 20
200.0214416471534
 30
0.0
 11
133.0840971596275
 21
208.6172705266577
 31
0.0
  0
LINE
  5
A1C
330
18
100
AcDbEntity
  8
1
370
    20
100
AcDbLine
 10
132.9840971596275
 20
200.0214416471534
 30
0.0
 11
132.9840971596275
 21
208.6178884884237
 31
0.0
  0
LINE
  5
A1D
330
18
100
AcDbEntity
  8
1
370
    20
100
AcDbLine
 10
135.0304977120969
 20
197.9652504357913
 30
0.0
 11
141.0308824210638
 21
197.9652504357913
 31
0.0
  0
LINE
  5
A1E
330
18
100
AcDbEntity
  8
1
370
    20
100
AcDbLine
 10
135.0304977120969
 20
198.1652504357913
 30
0.0
 11
141.0304977120969
 21
198.1652504357913
 31
0.0
  0
CIRCLE
  5
A1F
330
18
100
AcDbEntity
  8
1
370
    20
100
AcDbCircle
 10
132.9840971596275
 20
198.0214416471534
 30
0.0
 40
1.149999999999999
  0
CIRCLE
  5
A20
330
18
100
AcDbEntity
  8
1
370
    20
100
AcDbCircle
 10
132.9840971596275
 20
198.0214416471534
 30
0.0
 40
1.9
  0
CIRCLE
  5
A21
330
18
100
AcDbEntity
  8
1
370
    20
100
AcDbCircle
 10
132.9840971596275
 20
198.0214416471534
 30
0.0
 40
2.0
  0
CIRCLE
  5
A22
330
18
100
AcDbEntity
  8
1
370
    20
100
AcDbCircle
 10
132.9840971596275
 20
198.0214416471534
 30
0.0
 40
1.25
  0
CIRCLE
  5
A23
330
18
100
AcDbEntity
  8
1
370
    20
100
AcDbCircle
 10
143.0274296099078
 20
198.0545120255378
 30
0.0
 40
1.149999999999999
  0
CIRCLE
  5
A24
330
18
100
AcDbEntity
  8
1
370
    20
100
AcDbCircle
 10
143.0274296099078
 20
198.0545120255378
 30
0.0
 40
1.25
  0
LINE
  5
A25
330
18
100
AcDbEntity
  8
1
370
    20
100
AcDbLine
 10
135.7816048318645
 20
212.0235271493577
 30
0.0
 11
144.6756284362188
 21
212.0235271493577
 31
0.0
  0
LINE
  5
A26
330
18
100
AcDbEntity
  8
1
370
    20
100
AcDbLine
 10
135.7816048318645
 20
212.1235271493576
 30
0.0
 11
144.7493107107568
 21
212.1235271493576
 31
0.0
  0
CIRCLE
  5
A27
330
18
100
AcDbEntity
  8
1
370
    20
100
AcDbCircle
 10
133.0387214733511
 20
209.3658966329985
 30
0.0
 40
0.75
  0
CIRCLE
  5
A28
330
18
100
AcDbEntity
  8
1
370
    20
100
AcDbCircle
 10
133.0387214733511
 20
209.3658966329985
 30
0.0
 40
0.65
  0
TEXT
  5
A29
330
18
100
AcDbEntity
  8
1
100
AcDbText
 10
132.0204212926835
 20
209.8754346046139
 30
0.0
 40
1.199999999999999
  1
B
 50
180.0
  7
ＭＳゴシック
100
AcDbText
  0
LINE
  5
A2A
330
18
100
AcDbEntity
  8
1
370
    20
100
AcDbLine
 10
133.6014139128868
 20
209.8617567125466
 30
0.0
 11
135.8218355749619
 21
212.0523397717968
 31
0.0
  0
LINE
  5
A2B
330
18
100
AcDbEntity
  8
1
370
    20
100
AcDbLine
 10
133.530440491876
 20
209.9322113924927
 30
0.0
 11
135.7516048318645
 21
212.1235271493576
 31
0.0
  0
LINE
  5
A2C
330
18
100
AcDbEntity
  8
1
 48
0.3
370
    20
100
AcDbLine
 10
143.0470782519678
 20
203.5775848812243
 30
0.0
 11
143.0470782519678
 21
208.5760553789883
 31
0.0
  0
LINE
  5
A2D
330
18
100
AcDbEntity
  8
1
 48
0.3
370
    20
100
AcDbLine
 10
143.1470782519678
 20
203.5775848812243
 30
0.0
 11
143.1470782519678
 21
208.5760553789883
 31
0.0
  0
CIRCLE
  5
A2E
330
18
100
AcDbEntity
  8
1
370
    20
100
AcDbCircle
 10
143.0592239851671
 20
202.8428237773121
 30
0.0
 40
0.65
  0
CIRCLE
  5
A2F
330
18
100
AcDbEntity
  8
1
370
    20
100
AcDbCircle
 10
143.0592239851671
 20
202.8428237773121
 30
0.0
 40
0.75
  0
CIRCLE
  5
A30
330
18
100
AcDbEntity
  8
1
370
    20
100
AcDbCircle
 10
143.0788726272271
 20
209.3658966329985
 30
0.0
 40
0.65
  0
TEXT
  5
A31
330
18
100
AcDbEntity
  8
1
100
AcDbText
 10
142.0605724465596
 20
209.8921537781171
 30
0.0
 40
1.199999999999999
  1
B
 50
180.0
  7
ＭＳゴシック
100
AcDbText
  0
CIRCLE
  5
A32
330
18
100
AcDbEntity
  8
1
370
    20
100
AcDbCircle
 10
143.0788726272271
 20
209.3658966329985
 30
0.0
 40
0.75
  0
LINE
  5
A33
330
18
100
AcDbEntity
  8
1
370
    20
100
AcDbLine
 10
153.0707620601881
 20
200.0875824039222
 30
0.0
 11
153.0707620601881
 21
202.0860529016863
 31
0.0
  0
LINE
  5
A34
330
18
100
AcDbEntity
  8
1
370
    20
100
AcDbLine
 10
153.1707620601881
 20
200.0875824039222
 30
0.0
 11
153.1707620601881
 21
202.0860529016863
 31
0.0
  0
CIRCLE
  5
A35
330
18
100
AcDbEntity
  8
1
370
    20
100
AcDbCircle
 10
153.0707620601881
 20
198.0875824039222
 30
0.0
 40
1.149999999999999
  0
CIRCLE
  5
A36
330
18
100
AcDbEntity
  8
1
370
    20
100
AcDbCircle
 10
153.0707620601881
 20
198.0875824039222
 30
0.0
 40
1.25
  0
CIRCLE
  5
A37
330
18
100
AcDbEntity
  8
1
370
    20
100
AcDbCircle
 10
153.0707620601881
 20
198.0875824039222
 30
0.0
 40
1.9
  0
CIRCLE
  5
A38
330
18
100
AcDbEntity
  8
1
370
    20
100
AcDbCircle
 10
153.0707620601881
 20
198.0875824039222
 30
0.0
 40
2.0
  0
LINE
  5
A39
330
18
100
AcDbEntity
  8
1
370
    20
100
AcDbLine
 10
145.0738301623772
 20
198.1983208141757
 30
0.0
 11
151.0738301623772
 21
198.1983208141757
 31
0.0
  0
LINE
  5
A3A
330
18
100
AcDbEntity
  8
1
370
    20
100
AcDbLine
 10
145.0738301623772
 20
197.9983208141757
 30
0.0
 11
151.0742148713442
 21
197.9983208141757
 31
0.0
  0
CIRCLE
  5
A3B
330
18
100
AcDbEntity
  8
1
370
    20
100
AcDbCircle
 10
153.1222050775074
 20
209.3989670113829
 30
0.0
 40
0.75
  0
CIRCLE
  5
A3C
330
18
100
AcDbEntity
  8
1
370
    20
100
AcDbCircle
 10
153.1222050775074
 20
209.3989670113829
 30
0.0
 40
0.65
  0
CIRCLE
  5
A3D
330
18
100
AcDbEntity
  8
1
370
    20
100
AcDbCircle
 10
153.1025564354474
 20
202.8758941556965
 30
0.0
 40
0.65
  0
CIRCLE
  5
A3E
330
18
100
AcDbEntity
  8
1
370
    20
100
AcDbCircle
 10
153.1025564354474
 20
202.8758941556965
 30
0.0
 40
0.75
  0
LINE
  5
A3F
330
18
100
AcDbEntity
  8
1
370
    20
100
AcDbLine
 10
149.0310064805825
 20
202.839051809863
 30
0.0
 11
148.1905613501883
 21
203.8849727351542
 31
0.0
  0
LINE
  5
A40
330
18
100
AcDbEntity
  8
1
370
    20
100
AcDbLine
 10
149.0310064805825
 20
202.939051809863
 30
0.0
 11
148.262034719406
 21
203.913542822939
 31
0.0
  0
LINE
  5
A41
330
18
100
AcDbEntity
  8
1
370
    20
100
AcDbLine
 10
147.167506347967
 20
202.839051809863
 30
0.0
 11
147.8907419975153
 21
203.8903294518092
 31
0.0
  0
LINE
  5
A42
330
18
100
AcDbEntity
  8
1
370
    20
100
AcDbLine
 10
147.167506347967
 20
202.939051809863
 30
0.0
 11
147.8192675254326
 21
203.9153286282303
 31
0.0
  0
LWPOLYLINE
  5
A43
330
18
100
AcDbEntity
  8
1
370
    20
100
AcDbPolyline
 90
        2
 70
     1
 43
0.75
 10
147.6691108097868
 20
204.6279096894715
 42
1.0
 10
148.4191108097868
 20
204.6279096894715
 42
1.0
  0
LINE
  5
A44
330
18
100
AcDbEntity
  8
1
370
    20
100
AcDbLine
 10
149.0310064805825
 20
202.939051809863
 30
0.0
 11
152.3597504472509
 21
202.939051809863
 31
0.0
  0
LINE
  5
A45
330
18
100
AcDbEntity
  8
1
370
    20
100
AcDbLine
 10
149.0371958352734
 20
202.839051809863
 30
0.0
 11
152.3597504472509
 21
202.839051809863
 31
0.0
  0
TEXT
  5
A46
330
18
100
AcDbEntity
  8
1
100
AcDbText
 10
151.0694269901892
 20
204.4616108281393
 30
0.0
 40
1.199999999999999
  1
+
 50
180.0
  7
ＭＳゴシック
100
AcDbText
  0
LINE
  5
A47
330
18
100
AcDbEntity
  8
1
370
    20
100
AcDbLine
 10
148.4956678374612
 20
208.6419000427234
 30
0.0
 11
149.0398662564391
 21
209.8823131491333
 31
0.0
  0
LINE
  5
A48
330
18
100
AcDbEntity
  8
1
370
    20
100
AcDbLine
 10
148.5280325124663
 20
208.9633890459524
 30
0.0
 11
149.0428322281907
 21
210.3139046471024
 31
0.0
  0
SPLINE
  5
A49
330
18
100
AcDbEntity
  8
1
370
    20
100
AcDbSpline
210
0.0
220
0.0
230
1.0
 70
    11
 71
     3
 72
    32
 73
    28
 74
     0
 42
0.0000000001
 43
0.0000000001
 40
0.0
 40
0.0
 40
0.0
 40
0.0
 40
0.4455306396178831
 40
0.4455306396178831
 40
0.891061279235766
 40
0.891061279235766
 40
1.336591918853649
 40
1.336591918853649
 40
1.782122558471532
 40
1.782122558471532
 40
2.312637815555949
 40
2.312637815555949
 40
2.843153072640365
 40
2.843153072640365
 40
3.373668329724782
 40
3.373668329724782
 40
3.904183586809199
 40
3.904183586809199
 40
4.434698843893615
 40
4.434698843893615
 40
4.965214100978032
 40
4.965214100978032
 40
5.495729358062449
 40
5.495729358062449
 40
6.026244615146866
 40
6.026244615146866
 40
6.283185307179586
 40
6.283185307179586
 40
6.283185307179586
 40
6.283185307179586
 10
145.6936926609708
 20
209.3449304718292
 30
0.0
 10
145.6936926609708
 20
209.1571376067934
 30
0.0
 10
145.7692980171536
 20
208.9668824846684
 30
0.0
 10
146.0777357371
 20
208.6083104780212
 30
0.0
 10
146.3108913114265
 20
208.4428319722263
 30
0.0
 10
146.8912866836563
 20
208.1824042202073
 30
0.0
 10
147.2376647647964
 20
208.0875344587671
 30
0.0
 10
147.9724650092355
 20
207.9902059303451
 30
0.0
 10
148.3603886820777
 20
207.9877364895592
 30
0.0
 10
149.1696494131828
 20
208.0841209677283
 30
0.0
 10
149.5821155181219
 20
208.2029376517285
 30
0.0
 10
150.2350113866519
 20
208.5351341963609
 30
0.0
 10
150.4730538588958
 20
208.7477928484103
 30
0.0
 10
150.717792059142
 20
209.1894739442452
 30
0.0
 10
150.7308274141084
 20
209.4156048749357
 30
0.0
 10
150.5414626076779
 20
209.8604462995678
 30
0.0
 10
150.331588593202
 20
210.079430014533
 30
0.0
 10
149.7224392744497
 20
210.433405122917
 30
0.0
 10
149.3257990406019
 20
210.5670378616059
 30
0.0
 10
148.4612059283142
 20
210.703865111366
 30
0.0
 10
147.9944758274434
 20
210.7070975619913
 30
0.0
 10
147.1237420788185
 20
210.5822064394629
 30
0.0
 10
146.7209496410233
 20
210.4540500893016
 30
0.0
 10
146.0950702934043
 20
210.1080029805712
 30
0.0
 10
145.8745377096116
 20
209.8912010417826
 30
0.0
 10
145.7186325980006
 20
209.5617792893497
 30
0.0
 10
145.6936926609708
 20
209.453231954175
 30
0.0
 10
145.6936926609708
 20
209.3449304718292
 30
0.0
  0
ELLIPSE
  5
A4A
330
18
100
AcDbEntity
  8
1
370
    20
100
AcDbEllipse
 10
148.1958038187576
 20
209.3449304718292
 30
0.0
 11
-2.602111157786794
 21
0.0
 31
0.0
210
0.0
220
0.0
230
1.0
 40
0.555177655840252
 41
0.0
 42
6.283185307179586
  0
LINE
  5
A4B
330
18
100
AcDbEntity
  8
1
370
    20
100
AcDbLine
 10
147.1171181493495
 20
209.8834571093471
 30
0.0
 11
147.6561615184621
 21
208.6269185767206
 31
0.0
  0
LINE
  5
A4C
330
18
100
AcDbEntity
  8
1
370
    20
100
AcDbLine
 10
147.1019476149328
 20
210.2266917621463
 30
0.0
 11
147.6325469740195
 21
208.9484075799496
 31
0.0
  0
LINE
  5
A4D
330
18
100
AcDbEntity
  8
1
370
    20
100
AcDbLine
 10
146.7716825722784
 20
208.8714186750128
 30
0.0
 11
147.1171181493495
 21
209.8834571093471
 31
0.0
  0
LINE
  5
A4E
330
18
100
AcDbEntity
  8
1
370
    20
100
AcDbLine
 10
146.4863367814817
 20
209.2960272976992
 30
0.0
 11
146.7716825722784
 21
208.8714186750128
 31
0.0
  0
LINE
  5
A4F
330
18
100
AcDbEntity
  8
1
370
    20
100
AcDbLine
 10
146.7405431802394
 20
209.1028119134048
 30
0.0
 11
147.1019476149328
 21
210.2266917621463
 31
0.0
  0
LINE
  5
A50
330
18
100
AcDbEntity
  8
1
370
    20
100
AcDbLine
 10
146.5598409628928
 20
209.3960272976992
 30
0.0
 11
146.7405431802394
 21
209.1028119134048
 31
0.0
  0
LINE
  5
A51
330
18
100
AcDbEntity
  8
1
370
    20
100
AcDbLine
 10
148.0579049864388
 20
209.9425517567953
 30
0.0
 11
148.4956678374612
 21
208.6419000427234
 31
0.0
  0
LINE
  5
A52
330
18
100
AcDbEntity
  8
1
370
    20
100
AcDbLine
 10
147.6561615184621
 20
208.6269185767206
 30
0.0
 11
148.0579049864388
 21
209.9425517567953
 31
0.0
  0
LINE
  5
A53
330
18
100
AcDbEntity
  8
1
370
    20
100
AcDbLine
 10
148.0424079862943
 20
210.2989231810996
 30
0.0
 11
148.5280325124663
 21
208.9633890459524
 31
0.0
  0
LINE
  5
A54
330
18
100
AcDbEntity
  8
1
370
    20
100
AcDbLine
 10
147.6325469740195
 20
208.9484075799496
 30
0.0
 11
148.0424079862943
 21
210.2989231810996
 31
0.0
  0
LINE
  5
A55
330
18
100
AcDbEntity
  8
1
370
    20
100
AcDbLine
 10
149.6978566035056
 20
209.2960272976991
 30
0.0
 11
149.3951391298601
 21
208.9463246065891
 31
0.0
  0
LINE
  5
A56
330
18
100
AcDbEntity
  8
1
370
    20
100
AcDbLine
 10
149.0398662564391
 20
209.8823131491333
 30
0.0
 11
149.3951391298601
 21
208.9463246065891
 31
0.0
  0
LINE
  5
A57
330
18
100
AcDbEntity
  8
1
370
    20
100
AcDbLine
 10
149.6360721110611
 20
209.3960272976992
 30
0.0
 11
149.4130695083183
 21
209.2341210437388
 31
0.0
  0
LINE
  5
A58
330
18
100
AcDbEntity
  8
1
370
    20
100
AcDbLine
 10
149.0428322281907
 20
210.3139046471024
 30
0.0
 11
149.4130695083183
 21
209.2341210437388
 31
0.0
  0
LINE
  5
A59
330
18
100
AcDbEntity
  8
1
370
    20
100
AcDbLine
 10
149.6978566035056
 20
209.2960272976991
 30
0.0
 11
152.3722108388072
 21
209.2960272976991
 31
0.0
  0
LINE
  5
A5A
330
18
100
AcDbEntity
  8
1
370
    20
100
AcDbLine
 10
149.6360721110611
 20
209.3960272976992
 30
0.0
 11
152.3722108388072
 21
209.3960272976992
 31
0.0
  0
LINE
  5
A5B
330
18
100
AcDbEntity
  8
1
 48
0.3
370
    20
100
AcDbLine
 10
153.1904107022481
 20
203.6106552596087
 30
0.0
 11
153.1904107022481
 21
208.6091257573726
 31
0.0
  0
LINE
  5
A5C
330
18
100
AcDbEntity
  8
1
 48
0.3
370
    20
100
AcDbLine
 10
153.0904107022481
 20
203.6106552596087
 30
0.0
 11
153.0904107022481
 21
208.6091257573726
 31
0.0
  0
TEXT
  5
A5D
330
18
100
AcDbEntity
  8
1
100
AcDbText
 10
155.0603423086569
 20
209.8393385544913
 30
0.0
 40
1.199999999999999
  1
A
 50
180.0
  7
ＭＳゴシック
100
AcDbText
  0
LINE
  5
A5E
330
18
100
AcDbEntity
  8
1
370
    15
100
AcDbLine
 10
172.7214411251169
 20
166.0307185193217
 30
0.0
 11
172.7214411251169
 21
166.4307185193217
 31
0.0
  0
LINE
  5
A5F
330
18
100
AcDbEntity
  8
1
370
    15
100
AcDbLine
 10
173.5214411251169
 20
166.4307185193217
 30
0.0
 11
173.5214411251169
 21
166.0307185193217
 31
0.0
  0
CIRCLE
  5
A60
330
18
100
AcDbEntity
  8
1
370
    15
100
AcDbCircle
 10
173.1214411251169
 20
165.2307185193217
 30
0.0
 40
2.08
  0
LINE
  5
A61
330
18
100
AcDbEntity
  8
1
370
    15
100
AcDbLine
 10
178.1171626126575
 20
169.2313911925601
 30
0.0
 11
178.1171626126576
 21
159.2313911925601
 31
0.0
  0
LINE
  5
A62
330
18
100
AcDbEntity
  8
1
370
    15
100
AcDbLine
 10
168.1171626126575
 20
169.2313911925601
 30
0.0
 11
168.1171626126576
 21
159.2313911925601
 31
0.0
  0
DIMENSION
  5
A63
330
18
100
AcDbEntity
  8
2
100
AcDbDimension
  2
*D5
 10
203.1171626126575
 20
149.2313911925601
 30
0.0
 11
201.3671626126575
 21
154.2313911925602
 31
0.0
 70
    32
 71
     5
 42
10.0
  3
STANDARD
100
AcDbAlignedDimension
 13
193.1171626126575
 23
159.2313911925601
 33
0.0
 14
193.1171626126575
 24
149.2313911925601
 34
0.0
 50
90.0
100
AcDbRotatedDimension
1001
ACAD
1000
DSTYLE
1002
{
1070
    40
1040
1.0
1002
}
  0
ARC
  5
A64
330
18
100
AcDbEntity
  8
1
370
    15
100
AcDbCircle
 10
190.0000001151456
 20
122.5223612198241
 30
0.0
 40
1.0
100
AcDbArc
 50
0.0
 51
90.0
  0
ARC
  5
A65
330
18
100
AcDbEntity
  8
1
370
    15
100
AcDbCircle
 10
173.9214411251169
 20
164.4307185193217
 30
0.0
 40
0.4
100
AcDbArc
 50
90.0
 51
180.0
  0
LINE
  5
A66
330
18
100
AcDbEntity
  8
1
370
    15
100
AcDbLine
 10
173.5214411251169
 20
164.0307185193217
 30
0.0
 11
172.7214411251169
 21
164.0307185193217
 31
0.0
  0
ARC
  5
A67
330
18
100
AcDbEntity
  8
1
370
    15
100
AcDbCircle
 10
173.9214411251169
 20
166.0307185193217
 30
0.0
 40
0.4
100
AcDbArc
 50
180.0
 51
270.0
  0
ARC
  5
A68
330
18
100
AcDbEntity
  8
1
370
    15
100
AcDbCircle
 10
172.3214411251169
 20
164.4307185193217
 30
0.0
 40
0.4
100
AcDbArc
 50
0.0
 51
90.0
  0
LINE
  5
A69
330
18
100
AcDbEntity
  8
1
370
    15
100
AcDbLine
 10
172.7214411251169
 20
164.0307185193217
 30
0.0
 11
172.7214411251169
 21
164.4307185193217
 31
0.0
  0
ARC
  5
A6A
330
18
100
AcDbEntity
  8
1
370
    15
100
AcDbCircle
 10
172.3214411251169
 20
166.0307185193217
 30
0.0
 40
0.4
100
AcDbArc
 50
270.0
 51
0.0
  0
LINE
  5
A6B
330
18
100
AcDbEntity
  8
1
370
    15
100
AcDbLine
 10
171.9214411251169
 20
165.6307185193217
 30
0.0
 11
172.3214411251169
 21
165.6307185193217
 31
0.0
  0
LINE
  5
A6C
330
18
100
AcDbEntity
  8
1
370
    15
100
AcDbLine
 10
172.3214411251169
 20
164.8307185193217
 30
0.0
 11
171.9214411251169
 21
164.8307185193217
 31
0.0
  0
LINE
  5
A6D
330
18
100
AcDbEntity
  8
1
370
    15
100
AcDbLine
 10
171.9214411251169
 20
164.8307185193217
 30
0.0
 11
171.9214411251169
 21
165.6307185193217
 31
0.0
  0
LINE
  5
A6E
330
18
100
AcDbEntity
  8
1
370
    15
100
AcDbLine
 10
173.5214411251169
 20
164.4307185193217
 30
0.0
 11
173.5214411251169
 21
164.0307185193217
 31
0.0
  0
LINE
  5
A6F
330
18
100
AcDbEntity
  8
1
370
    15
100
AcDbLine
 10
174.3214411251169
 20
164.8307185193217
 30
0.0
 11
173.9214411251169
 21
164.8307185193217
 31
0.0
  0
LINE
  5
A70
330
18
100
AcDbEntity
  8
1
370
    15
100
AcDbLine
 10
173.9214411251169
 20
165.6307185193217
 30
0.0
 11
174.3214411251169
 21
165.6307185193217
 31
0.0
  0
LINE
  5
A71
330
18
100
AcDbEntity
  8
1
370
    15
100
AcDbLine
 10
174.3214411251169
 20
165.6307185193217
 30
0.0
 11
174.3214411251169
 21
164.8307185193217
 31
0.0
  0
LINE
  5
A72
330
18
100
AcDbEntity
  8
1
100
AcDbLine
 10
193.1171626126575
 20
159.2313911925601
 30
0.0
 11
192.1171626126575
 21
149.2313911925601
 31
0.0
  0
LINE
  5
A73
330
18
100
AcDbEntity
  8
1
370
    15
100
AcDbLine
 10
178.1171626126575
 20
169.2313911925601
 30
0.0
 11
168.1171626126575
 21
169.2313911925601
 31
0.0
  0
LINE
  5
A74
330
18
100
AcDbEntity
  8
1
370
    15
100
AcDbLine
 10
172.7214411251169
 20
166.4307185193217
 30
0.0
 11
173.5214411251169
 21
166.4307185193217
 31
0.0
  0
LINE
  5
A75
330
18
100
AcDbEntity
  8
1
370
    20
100
AcDbLine
 10
163.9171626126575
 20
198.0313911925601
 30
0.0
 11
163.9171626126575
 21
194.2313911925601
 31
0.0
  0
LINE
  5
A76
330
18
100
AcDbEntity
  8
1
370
    20
100
AcDbLine
 10
164.1171626126575
 20
198.2313911925601
 30
0.0
 11
164.1171626126575
 21
194.2313911925601
 31
0.0
  0
LINE
  5
A77
330
18
100
AcDbEntity
  8
1
370
    20
100
AcDbLine
 10
163.9171626126575
 20
194.2313911925601
 30
0.0
 11
164.1171626126575
 21
194.2313911925601
 31
0.0
  0
TEXT
  5
A78
330
18
100
AcDbEntity
  8
1
100
AcDbText
 10
164.1171626126575
 20
209.9133939320788
 30
0.0
 40
1.199999999999999
  1
Pt
 50
180.0
  7
ＭＳゴシック
100
AcDbText
  0
LINE
  5
A79
330
18
100
AcDbEntity
  8
1
370
    20
100
AcDbLine
 10
163.1331626126575
 20
236.5616124160303
 30
0.0
 11
157.1011626126575
 21
236.5616124160303
 31
0.0
  0
LINE
  5
A7A
330
18
100
AcDbEntity
  8
1
370
    20
100
AcDbLine
 10
161.3931626126575
 20
239.2136124160304
 30
0.0
 11
158.8411626126576
 21
239.2136124160304
 31
0.0
  0
LINE
  5
A7B
330
18
100
AcDbEntity
  8
1
370
    20
100
AcDbLine
 10
164.1171626126575
 20
235.7336124160304
 30
0.0
 11
156.1171626126575
 21
235.7336124160304
 31
0.0
  0
LINE
  5
A7C
330
18
100
AcDbEntity
  8
1
370
    20
100
AcDbLine
 10
164.1171626126575
 20
230.2336124160304
 30
0.0
 11
156.1171626126575
 21
230.2336124160304
 31
0.0
  0
LINE
  5
A7D
330
18
100
AcDbEntity
  8
1
370
    20
100
AcDbLine
 10
126.1171626126575
 20
236.2336124160304
 30
0.0
 11
134.1171626126575
 21
236.2336124160304
 31
0.0
  0
LINE
  5
A7E
330
18
100
AcDbEntity
  8
1
370
    20
100
AcDbLine
 10
126.1171626126575
 20
237.2336124160304
 30
0.0
 11
134.1171626126575
 21
237.2336124160304
 31
0.0
  0
LINE
  5
A7F
330
18
100
AcDbEntity
  8
1
370
    20
100
AcDbLine
 10
126.1171626126575
 20
238.7336124160304
 30
0.0
 11
134.1171626126575
 21
238.7336124160304
 31
0.0
  0
LINE
  5
A80
330
18
100
AcDbEntity
  8
1
370
    20
100
AcDbLine
 10
126.6171626126575
 20
239.2336124160304
 30
0.0
 11
133.6171626126575
 21
239.2336124160304
 31
0.0
  0
ARC
  5
A81
330
18
100
AcDbEntity
  8
1
370
    20
100
AcDbCircle
 10
128.6171626126575
 20
240.2336124160304
 30
0.0
 40
2.0
100
AcDbArc
 50
90.0
 51
180.0
  0
LINE
  5
A82
330
18
100
AcDbEntity
  8
1
370
    20
100
AcDbLine
 10
126.1171626126575
 20
235.7336124160304
 30
0.0
 11
134.1171626126575
 21
235.7336124160304
 31
0.0
  0
LINE
  5
A83
330
18
100
AcDbEntity
  8
1
370
    20
100
AcDbLine
 10
126.1171626126575
 20
230.2336124160304
 30
0.0
 11
134.1171626126575
 21
230.2336124160304
 31
0.0
  0
LINE
  5
A84
330
18
100
AcDbEntity
  8
1
370
    20
100
AcDbLine
 10
114.1171626126575
 20
242.2336124160304
 30
0.0
 11
114.1171626126575
 21
230.2336124160304
 31
0.0
  0
LINE
  5
A85
330
18
100
AcDbEntity
  8
1
370
    20
100
AcDbLine
 10
124.1171626126575
 20
242.2336124160304
 30
0.0
 11
124.1171626126575
 21
230.2336124160304
 31
0.0
  0
LINE
  5
A86
330
18
100
AcDbEntity
  8
1
370
    20
100
AcDbLine
 10
116.1171626126575
 20
242.2336124160304
 30
0.0
 11
116.1171626126575
 21
230.2336124160304
 31
0.0
  0
LINE
  5
A87
330
18
100
AcDbEntity
  8
1
370
    20
100
AcDbLine
 10
126.1171626126575
 20
242.2336124160304
 30
0.0
 11
126.1171626126575
 21
230.2336124160304
 31
0.0
  0
LINE
  5
A88
330
18
100
AcDbEntity
  8
1
370
    20
100
AcDbLine
 10
104.1171626126575
 20
242.2336124160304
 30
0.0
 11
104.1171626126575
 21
230.2336124160304
 31
0.0
  0
LINE
  5
A89
330
18
100
AcDbEntity
  8
1
370
    20
100
AcDbLine
 10
114.1171626126575
 20
242.2336124160304
 30
0.0
 11
114.1171626126575
 21
230.2336124160304
 31
0.0
  0
LINE
  5
A8A
330
18
100
AcDbEntity
  8
1
370
    20
100
AcDbLine
 10
106.1171626126575
 20
242.2336124160304
 30
0.0
 11
106.1171626126575
 21
230.2336124160304
 31
0.0
  0
LINE
  5
A8B
330
18
100
AcDbEntity
  8
1
370
    20
100
AcDbLine
 10
116.1171626126575
 20
242.2336124160304
 30
0.0
 11
116.1171626126575
 21
230.2336124160304
 31
0.0
  0
LINE
  5
A8C
330
18
100
AcDbEntity
  8
1
370
    20
100
AcDbLine
 10
104.1171626126575
 20
242.2336124160304
 30
0.0
 11
104.1171626126575
 21
230.2336124160304
 31
0.0
  0
LINE
  5
A8D
330
18
100
AcDbEntity
  8
1
370
    20
100
AcDbLine
 10
106.1171626126575
 20
242.2336124160304
 30
0.0
 11
106.1171626126575
 21
230.2336124160304
 31
0.0
  0
LINE
  5
A8E
330
18
100
AcDbEntity
  8
1
370
    20
100
AcDbLine
 10
124.1171626126575
 20
242.2336124160304
 30
0.0
 11
124.1171626126575
 21
230.2336124160304
 31
0.0
  0
LINE
  5
A8F
330
18
100
AcDbEntity
  8
1
370
    20
100
AcDbLine
 10
126.1171626126575
 20
242.2336124160304
 30
0.0
 11
126.1171626126575
 21
230.2336124160304
 31
0.0
  0
LINE
  5
A90
330
18
100
AcDbEntity
  8
1
370
    20
100
AcDbLine
 10
96.11716261265758
 20
242.2336124160304
 30
0.0
 11
96.11716261265758
 21
230.2336124160304
 31
0.0
  0
LINE
  5
A91
330
18
100
AcDbEntity
  8
1
370
    20
100
AcDbLine
 10
106.1171626126575
 20
235.7336124160304
 30
0.0
 11
114.1171626126575
 21
235.7336124160304
 31
0.0
  0
LINE
  5
A92
330
18
100
AcDbEntity
  8
1
370
    20
100
AcDbLine
 10
106.1171626126575
 20
230.2336124160304
 30
0.0
 11
114.1171626126575
 21
230.2336124160304
 31
0.0
  0
LINE
  5
A93
330
18
100
AcDbEntity
  8
1
370
    20
100
AcDbLine
 10
109.5164249427021
 20
214.6525329216387
 30
0.0
 11
117.3120989314298
 21
214.6525329216387
 31
0.0
  0
LINE
  5
A94
330
18
100
AcDbEntity
  8
1
370
    20
100
AcDbLine
 10
109.4164249427021
 20
214.7525329216386
 30
0.0
 11
117.4120989314298
 21
214.7525329216386
 31
0.0
  0
SOLID
  5
A95
330
18
100
AcDbEntity
  8
1
370
    20
100
AcDbTrace
 10
104.7953448689533
 20
223.5153831811695
 30
0.0
 11
105.4286782022866
 21
223.5153831811695
 31
0.0
 12
105.11201153562
 22
225.0153831811696
 32
0.0
 13
105.11201153562
 23
225.0153831811696
 33
0.0
  0
TEXT
  5
A96
330
18
100
AcDbEntity
  8
1
100
AcDbText
 10
104.12524054747
 20
224.7252562265471
 30
0.0
 40
1.199999999999999
  1
L.ADJ
 50
180.0
  7
ＭＳゴシック
100
AcDbText
  0
LINE
  5
A97
330
18
100
AcDbEntity
  8
1
370
    20
100
AcDbLine
 10
109.4164249427021
 20
212.9415508197567
 30
0.0
 11
103.0514254318076
 21
212.9430170003538
 31
0.0
  0
LINE
  5
A98
330
18
100
AcDbEntity
  8
1
370
    20
100
AcDbLine
 10
109.4164249427021
 20
212.8415508197567
 30
0.0
 11
103.1514254318076
 21
212.8415508197568
 31
0.0
  0
LINE
  5
A99
330
18
100
AcDbEntity
  8
1
370
    20
100
AcDbLine
 10
105.11201153562
 20
223.5153831811695
 30
0.0
 11
105.11201153562
 21
220.7313911925601
 31
0.0
  0
LINE
  5
A9A
330
18
100
AcDbEntity
  8
1
370
    20
100
AcDbLine
 10
96.11716261265758
 20
230.2336124160304
 30
0.0
 11
104.1171626126575
 21
230.2336124160304
 31
0.0
  0
LINE
  5
A9B
330
18
100
AcDbEntity
  8
1
370
    20
100
AcDbLine
 10
96.11716261265758
 20
235.7336124160304
 30
0.0
 11
104.1171626126575
 21
235.7336124160304
 31
0.0
  0
TEXT
  5
A9C
330
18
100
AcDbEntity
  8
1
100
AcDbText
 10
102.0454666359509
 20
226.3278081082248
 30
0.0
 40
0.8
  1
T1152-6
 50
180.0
 41
1.5
  7
ＭＳゴシック
100
AcDbText
  0
LINE
  5
A9D
330
18
100
AcDbEntity
  8
1
370
    20
100
AcDbLine
 10
126.0120989314298
 20
212.8519445011154
 30
0.0
 11
117.4120989314298
 21
212.8519445011154
 31
0.0
  0
LINE
  5
A9E
330
18
100
AcDbEntity
  8
1
370
    20
100
AcDbLine
 10
125.9120989314298
 20
212.7519445011154
 30
0.0
 11
117.4120989314298
 21
212.7519445011154
 31
0.0
  0
LINE
  5
A9F
330
18
100
AcDbEntity
  8
1
370
    20
100
AcDbLine
 10
116.1171626126575
 20
235.7336124160304
 30
0.0
 11
124.1171626126575
 21
235.7336124160304
 31
0.0
  0
LINE
  5
AA0
330
18
100
AcDbEntity
  8
1
370
    20
100
AcDbLine
 10
116.1171626126575
 20
230.2336124160304
 30
0.0
 11
124.1171626126575
 21
230.2336124160304
 31
0.0
  0
ARC
  5
AA1
330
18
100
AcDbEntity
  8
1
370
    20
100
AcDbCircle
 10
111.6171626126575
 20
240.2336124160304
 30
0.0
 40
2.0
100
AcDbArc
 50
0.0
 51
90.0
  0
LINE
  5
AA2
330
18
100
AcDbEntity
  8
1
370
    20
100
AcDbLine
 10
106.1171626126575
 20
236.2336124160304
 30
0.0
 11
114.1171626126575
 21
236.2336124160304
 31
0.0
  0
LINE
  5
AA3
330
18
100
AcDbEntity
  8
1
370
    20
100
AcDbLine
 10
106.1171626126575
 20
237.2336124160304
 30
0.0
 11
114.1171626126575
 21
237.2336124160304
 31
0.0
  0
LINE
  5
AA4
330
18
100
AcDbEntity
  8
1
370
    20
100
AcDbLine
 10
106.1171626126575
 20
238.7336124160304
 30
0.0
 11
114.1171626126575
 21
238.7336124160304
 31
0.0
  0
LINE
  5
AA5
330
18
100
AcDbEntity
  8
1
370
    20
100
AcDbLine
 10
106.6171626126575
 20
239.2336124160304
 30
0.0
 11
113.6171626126575
 21
239.2336124160304
 31
0.0
  0
ARC
  5
AA6
330
18
100
AcDbEntity
  8
1
370
    20
100
AcDbCircle
 10
101.6171626126575
 20
240.2336124160304
 30
0.0
 40
2.0
100
AcDbArc
 50
0.0
 51
90.0
  0
LINE
  5
AA7
330
18
100
AcDbEntity
  8
1
370
    20
100
AcDbLine
 10
96.11716261265758
 20
237.2336124160304
 30
0.0
 11
104.1171626126575
 21
237.2336124160304
 31
0.0
  0
LINE
  5
AA8
330
18
100
AcDbEntity
  8
1
370
    20
100
AcDbLine
 10
96.11716261265758
 20
236.2336124160304
 30
0.0
 11
104.1171626126575
 21
236.2336124160304
 31
0.0
  0
LINE
  5
AA9
330
18
100
AcDbEntity
  8
1
370
    20
100
AcDbLine
 10
96.11716261265758
 20
238.7336124160304
 30
0.0
 11
104.1171626126575
 21
238.7336124160304
 31
0.0
  0
ARC
  5
AAA
330
18
100
AcDbEntity
  8
1
370
    20
100
AcDbCircle
 10
98.61716261265758
 20
240.2336124160304
 30
0.0
 40
2.0
100
AcDbArc
 50
90.0
 51
180.0
  0
LINE
  5
AAB
330
18
100
AcDbEntity
  8
1
370
    20
100
AcDbLine
 10
96.61716261265759
 20
239.2336124160304
 30
0.0
 11
103.6171626126575
 21
239.2336124160304
 31
0.0
  0
LINE
  5
AAC
330
18
100
AcDbEntity
  8
1
370
    20
100
AcDbLine
 10
97.11716261265758
 20
237.2336124160304
 30
0.0
 11
97.11716261265758
 21
236.2336124160304
 31
0.0
  0
LINE
  5
AAD
330
18
100
AcDbEntity
  8
1
370
    20
100
AcDbLine
 10
96.61716261265759
 20
240.2336124160304
 30
0.0
 11
96.61716261265759
 21
238.7336124160304
 31
0.0
  0
LINE
  5
AAE
330
18
100
AcDbEntity
  8
1
370
    20
100
AcDbLine
 10
103.1171626126575
 20
237.2336124160304
 30
0.0
 11
103.1171626126575
 21
236.2336124160304
 31
0.0
  0
LINE
  5
AAF
330
18
100
AcDbEntity
  8
1
370
    20
100
AcDbLine
 10
103.6171626126575
 20
240.2336124160304
 30
0.0
 11
103.6171626126575
 21
238.7336124160304
 31
0.0
  0
ARC
  5
AB0
330
18
100
AcDbEntity
  8
1
370
    20
100
AcDbCircle
 10
100.1171626126575
 20
242.2336124160304
 30
0.0
 40
0.5
100
AcDbArc
 50
180.0
 51
0.0
  0
LINE
  5
AB1
330
18
100
AcDbEntity
  8
1
370
    20
100
AcDbLine
 10
98.61716261265758
 20
242.2336124160304
 30
0.0
 11
101.6171626126575
 21
242.2336124160304
 31
0.0
  0
ARC
  5
AB2
330
18
100
AcDbEntity
  8
1
370
    20
100
AcDbCircle
 10
108.6171626126575
 20
240.2336124160304
 30
0.0
 40
2.0
100
AcDbArc
 50
90.0
 51
180.0
  0
LINE
  5
AB3
330
18
100
AcDbEntity
  8
1
370
    20
100
AcDbLine
 10
107.1171626126575
 20
237.2336124160304
 30
0.0
 11
107.1171626126575
 21
236.2336124160304
 31
0.0
  0
LINE
  5
AB4
330
18
100
AcDbEntity
  8
1
370
    20
100
AcDbLine
 10
106.6171626126575
 20
240.2336124160304
 30
0.0
 11
106.6171626126575
 21
238.7336124160304
 31
0.0
  0
LINE
  5
AB5
330
18
100
AcDbEntity
  8
1
370
    20
100
AcDbLine
 10
104.1171626126575
 20
242.2336124160304
 30
0.0
 11
106.1171626126575
 21
242.2336124160304
 31
0.0
  0
ARC
  5
AB6
330
18
100
AcDbEntity
  8
1
370
    20
100
AcDbCircle
 10
110.1171626126575
 20
242.2336124160304
 30
0.0
 40
0.5
100
AcDbArc
 50
180.0
 51
0.0
  0
LINE
  5
AB7
330
18
100
AcDbEntity
  8
1
370
    20
100
AcDbLine
 10
108.6171626126575
 20
242.2336124160304
 30
0.0
 11
111.6171626126575
 21
242.2336124160304
 31
0.0
  0
ARC
  5
AB8
330
18
100
AcDbEntity
  8
1
370
    20
100
AcDbCircle
 10
120.1171626126575
 20
242.2336124160304
 30
0.0
 40
0.5
100
AcDbArc
 50
180.0
 51
0.0
  0
LINE
  5
AB9
330
18
100
AcDbEntity
  8
1
370
    20
100
AcDbLine
 10
118.6171626126575
 20
242.2336124160304
 30
0.0
 11
121.6171626126575
 21
242.2336124160304
 31
0.0
  0
LINE
  5
ABA
330
18
100
AcDbEntity
  8
1
370
    20
100
AcDbLine
 10
116.1171626126575
 20
236.2336124160304
 30
0.0
 11
124.1171626126575
 21
236.2336124160304
 31
0.0
  0
LINE
  5
ABB
330
18
100
AcDbEntity
  8
1
370
    20
100
AcDbLine
 10
116.1171626126575
 20
237.2336124160304
 30
0.0
 11
124.1171626126575
 21
237.2336124160304
 31
0.0
  0
LINE
  5
ABC
330
18
100
AcDbEntity
  8
1
370
    20
100
AcDbLine
 10
116.1171626126575
 20
238.7336124160304
 30
0.0
 11
124.1171626126575
 21
238.7336124160304
 31
0.0
  0
LINE
  5
ABD
330
18
100
AcDbEntity
  8
1
370
    20
100
AcDbLine
 10
116.6171626126575
 20
239.2336124160304
 30
0.0
 11
123.6171626126575
 21
239.2336124160304
 31
0.0
  0
ARC
  5
ABE
330
18
100
AcDbEntity
  8
1
370
    20
100
AcDbCircle
 10
118.6171626126575
 20
240.2336124160304
 30
0.0
 40
2.0
100
AcDbArc
 50
90.0
 51
180.0
  0
LINE
  5
ABF
330
18
100
AcDbEntity
  8
1
370
    20
100
AcDbLine
 10
113.1171626126575
 20
237.2336124160304
 30
0.0
 11
113.1171626126575
 21
236.2336124160304
 31
0.0
  0
LINE
  5
AC0
330
18
100
AcDbEntity
  8
1
370
    20
100
AcDbLine
 10
113.6171626126575
 20
240.2336124160304
 30
0.0
 11
113.6171626126575
 21
238.7336124160304
 31
0.0
  0
LINE
  5
AC1
330
18
100
AcDbEntity
  8
1
370
    20
100
AcDbLine
 10
117.1171626126575
 20
237.2336124160304
 30
0.0
 11
117.1171626126575
 21
236.2336124160304
 31
0.0
  0
LINE
  5
AC2
330
18
100
AcDbEntity
  8
1
370
    20
100
AcDbLine
 10
116.6171626126575
 20
240.2336124160304
 30
0.0
 11
116.6171626126575
 21
238.7336124160304
 31
0.0
  0
LINE
  5
AC3
330
18
100
AcDbEntity
  8
1
370
    20
100
AcDbLine
 10
114.1171626126575
 20
242.2336124160304
 30
0.0
 11
116.1171626126575
 21
242.2336124160304
 31
0.0
  0
ARC
  5
AC4
330
18
100
AcDbEntity
  8
1
370
    20
100
AcDbCircle
 10
121.6171626126575
 20
240.2336124160304
 30
0.0
 40
2.0
100
AcDbArc
 50
0.0
 51
90.0
  0
LINE
  5
AC5
330
18
100
AcDbEntity
  8
1
370
    20
100
AcDbLine
 10
123.1171626126575
 20
237.2336124160304
 30
0.0
 11
123.1171626126575
 21
236.2336124160304
 31
0.0
  0
LINE
  5
AC6
330
18
100
AcDbEntity
  8
1
370
    20
100
AcDbLine
 10
123.6171626126575
 20
240.2336124160304
 30
0.0
 11
123.6171626126575
 21
238.7336124160304
 31
0.0
  0
LINE
  5
AC7
330
18
100
AcDbEntity
  8
1
370
    20
100
AcDbLine
 10
127.1171626126575
 20
237.2336124160304
 30
0.0
 11
127.1171626126575
 21
236.2336124160304
 31
0.0
  0
LINE
  5
AC8
330
18
100
AcDbEntity
  8
1
370
    20
100
AcDbLine
 10
126.6171626126575
 20
240.2336124160304
 30
0.0
 11
126.6171626126575
 21
238.7336124160304
 31
0.0
  0
LINE
  5
AC9
330
18
100
AcDbEntity
  8
1
370
    20
100
AcDbLine
 10
124.1171626126575
 20
242.2336124160304
 30
0.0
 11
126.1171626126575
 21
242.2336124160304
 31
0.0
  0
LINE
  5
ACA
330
18
100
AcDbEntity
  8
1
370
    20
100
AcDbLine
 10
160.1171626126575
 20
235.7336124160304
 30
0.0
 11
160.1171626126575
 21
236.5616124160303
 31
0.0
  0
LINE
  5
ACB
330
18
100
AcDbEntity
  8
1
370
    20
100
AcDbLine
 10
157.1011626126576
 20
235.7336124160304
 30
0.0
 11
157.1011626126576
 21
236.5616124160303
 31
0.0
  0
LINE
  5
ACC
330
18
100
AcDbEntity
  8
1
370
    20
100
AcDbLine
 10
144.1171626126575
 20
242.2336124160304
 30
0.0
 11
144.1171626126575
 21
230.2336124160304
 31
0.0
  0
LINE
  5
ACD
330
18
100
AcDbEntity
  8
1
370
    20
100
AcDbLine
 10
154.1171626126575
 20
242.2336124160304
 30
0.0
 11
154.1171626126575
 21
230.2336124160304
 31
0.0
  0
LINE
  5
ACE
330
18
100
AcDbEntity
  8
1
370
    20
100
AcDbLine
 10
146.1171626126575
 20
242.2336124160304
 30
0.0
 11
146.1171626126575
 21
230.2336124160304
 31
0.0
  0
LINE
  5
ACF
330
18
100
AcDbEntity
  8
1
370
    20
100
AcDbLine
 10
156.1171626126575
 20
242.2336124160304
 30
0.0
 11
156.1171626126575
 21
230.2336124160304
 31
0.0
  0
LINE
  5
AD0
330
18
100
AcDbEntity
  8
1
370
    20
100
AcDbLine
 10
144.1171626126575
 20
242.2336124160304
 30
0.0
 11
144.1171626126575
 21
230.2336124160304
 31
0.0
  0
LINE
  5
AD1
330
18
100
AcDbEntity
  8
1
370
    20
100
AcDbLine
 10
136.1171626126575
 20
242.2336124160304
 30
0.0
 11
136.1171626126575
 21
230.2336124160304
 31
0.0
  0
LINE
  5
AD2
330
18
100
AcDbEntity
  8
1
370
    20
100
AcDbLine
 10
146.1171626126575
 20
242.2336124160304
 30
0.0
 11
146.1171626126575
 21
230.2336124160304
 31
0.0
  0
LINE
  5
AD3
330
18
100
AcDbEntity
  8
1
370
    20
100
AcDbLine
 10
136.1171626126575
 20
242.2336124160304
 30
0.0
 11
136.1171626126575
 21
230.2336124160304
 31
0.0
  0
LINE
  5
AD4
330
18
100
AcDbEntity
  8
1
370
    20
100
AcDbLine
 10
156.1171626126575
 20
242.2336124160304
 30
0.0
 11
156.1171626126575
 21
230.2336124160304
 31
0.0
  0
LINE
  5
AD5
330
18
100
AcDbEntity
  8
1
370
    20
100
AcDbLine
 10
156.1171626126575
 20
242.2336124160304
 30
0.0
 11
156.1171626126575
 21
230.2336124160304
 31
0.0
  0
LINE
  5
AD6
330
18
100
AcDbEntity
  8
1
370
    20
100
AcDbLine
 10
154.1171626126575
 20
242.2336124160304
 30
0.0
 11
154.1171626126575
 21
230.2336124160304
 31
0.0
  0
LINE
  5
AD7
330
18
100
AcDbEntity
  8
1
370
    20
100
AcDbLine
 10
154.1171626126575
 20
242.2336124160304
 30
0.0
 11
154.1171626126575
 21
230.2336124160304
 31
0.0
  0
LINE
  5
AD8
330
18
100
AcDbEntity
  8
1
370
    20
100
AcDbLine
 10
134.1171626126575
 20
242.2336124160304
 30
0.0
 11
134.1171626126575
 21
230.2336124160304
 31
0.0
  0
LINE
  5
AD9
330
18
100
AcDbEntity
  8
1
370
    20
100
AcDbLine
 10
134.1171626126575
 20
242.2336124160304
 30
0.0
 11
134.1171626126575
 21
230.2336124160304
 31
0.0
  0
LINE
  5
ADA
330
18
100
AcDbEntity
  8
1
370
    20
100
AcDbLine
 10
143.8485117840682
 20
215.8697518771357
 30
0.0
 11
144.8511601230842
 21
215.8697518771357
 31
0.0
  0
LINE
  5
ADB
330
18
100
AcDbEntity
  8
1
370
    20
100
AcDbLine
 10
143.8485117840682
 20
215.7697518771357
 30
0.0
 11
144.8511601230842
 21
215.7697518771357
 31
0.0
  0
CIRCLE
  5
ADC
330
18
100
AcDbEntity
  8
1
370
    20
100
AcDbCircle
 10
143.0985212692872
 20
215.9125406628709
 30
0.0
 40
0.65
  0
CIRCLE
  5
ADD
330
18
100
AcDbEntity
  8
1
370
    20
100
AcDbCircle
 10
143.0985212692872
 20
215.9125406628709
 30
0.0
 40
0.75
  0
LINE
  5
ADE
330
18
100
AcDbEntity
  8
1
370
    20
100
AcDbLine
 10
136.1171626126575
 20
235.7336124160304
 30
0.0
 11
144.1171626126575
 21
235.7336124160304
 31
0.0
  0
LINE
  5
ADF
330
18
100
AcDbEntity
  8
1
370
    20
100
AcDbLine
 10
136.1171626126575
 20
230.2336124160304
 30
0.0
 11
144.1171626126575
 21
230.2336124160304
 31
0.0
  0
CIRCLE
  5
AE0
330
18
100
AcDbEntity
  8
1
370
    20
100
AcDbCircle
 10
153.1418537195675
 20
215.9456110412553
 30
0.0
 40
0.75
  0
CIRCLE
  5
AE1
330
18
100
AcDbEntity
  8
1
370
    20
100
AcDbCircle
 10
153.1418537195675
 20
215.9456110412553
 30
0.0
 40
0.65
  0
LINE
  5
AE2
330
18
100
AcDbEntity
  8
1
370
    20
100
AcDbLine
 10
150.6667832180337
 20
214.8630824966265
 30
0.0
 11
145.6666705700219
 21
214.8630824966265
 31
0.0
  0
LINE
  5
AE3
330
18
100
AcDbEntity
  8
1
370
    20
100
AcDbLine
 10
145.6666705700219
 20
216.8678027407467
 30
0.0
 11
150.6667832180337
 21
216.8678027407467
 31
0.0
  0
LINE
  5
AE4
330
18
100
AcDbEntity
  8
1
370
    20
100
AcDbLine
 10
151.1667832180338
 20
214.3630824966265
 30
0.0
 11
145.1666705700219
 21
214.3630824966265
 31
0.0
  0
LINE
  5
AE5
330
18
100
AcDbEntity
  8
1
370
    20
100
AcDbLine
 10
145.1666705700219
 20
217.3678027407467
 30
0.0
 11
151.1667832180338
 21
217.3678027407467
 31
0.0
  0
LINE
  5
AE6
330
18
100
AcDbEntity
  8
1
370
    20
100
AcDbLine
 10
144.8511601230842
 20
215.7697518771357
 30
0.0
 11
144.8511601230842
 21
215.8697518771357
 31
0.0
  0
LINE
  5
AE7
330
18
100
AcDbEntity
  8
1
370
    20
100
AcDbLine
 10
145.1666705700219
 20
215.7630824966265
 30
0.0
 11
145.6666705700219
 21
215.7630824966265
 31
0.0
  0
LINE
  5
AE8
330
18
100
AcDbEntity
  8
1
370
    20
100
AcDbLine
 10
145.1666705700219
 20
215.8630824966266
 30
0.0
 11
145.6666705700219
 21
215.8630824966266
 31
0.0
  0
LINE
  5
AE9
330
18
100
AcDbEntity
  8
1
370
    20
100
AcDbLine
 10
145.6666705700219
 20
214.8630824966265
 30
0.0
 11
145.6666705700219
 21
215.7630824966265
 31
0.0
  0
LINE
  5
AEA
330
18
100
AcDbEntity
  8
1
370
    20
100
AcDbLine
 10
145.6666705700219
 20
215.8630824966266
 30
0.0
 11
145.6666705700219
 21
216.8678027407467
 31
0.0
  0
LINE
  5
AEB
330
18
100
AcDbEntity
  8
1
370
    20
100
AcDbLine
 10
145.1666705700219
 20
215.8630824966266
 30
0.0
 11
145.1666705700219
 21
217.3678027407467
 31
0.0
  0
LINE
  5
AEC
330
18
100
AcDbEntity
  8
1
370
    20
100
AcDbLine
 10
145.1666705700219
 20
214.3630824966265
 30
0.0
 11
145.1666705700219
 21
215.7630824966265
 31
0.0
  0
LINE
  5
AED
330
18
100
AcDbEntity
  8
1
370
    20
100
AcDbLine
 10
151.400521491488
 20
215.7697518771357
 30
0.0
 11
152.4031698305039
 21
215.7697518771357
 31
0.0
  0
LINE
  5
AEE
330
18
100
AcDbEntity
  8
1
370
    20
100
AcDbLine
 10
151.400521491488
 20
215.8697518771357
 30
0.0
 11
152.4031698305039
 21
215.8697518771357
 31
0.0
  0
LINE
  5
AEF
330
18
100
AcDbEntity
  8
1
370
    20
100
AcDbLine
 10
151.400521491488
 20
215.8697518771357
 30
0.0
 11
151.400521491488
 21
215.7697518771357
 31
0.0
  0
LINE
  5
AF0
330
18
100
AcDbEntity
  8
1
370
    20
100
AcDbLine
 10
150.6667832180337
 20
215.7630824966265
 30
0.0
 11
151.1667832180338
 21
215.7630824966265
 31
0.0
  0
LINE
  5
AF1
330
18
100
AcDbEntity
  8
1
370
    20
100
AcDbLine
 10
150.6667832180337
 20
215.8630824966266
 30
0.0
 11
151.1667832180338
 21
215.8630824966266
 31
0.0
  0
LINE
  5
AF2
330
18
100
AcDbEntity
  8
1
370
    20
100
AcDbLine
 10
150.6667832180337
 20
215.7630824966265
 30
0.0
 11
150.6667832180337
 21
214.8630824966265
 31
0.0
  0
LINE
  5
AF3
330
18
100
AcDbEntity
  8
1
370
    20
100
AcDbLine
 10
150.6667832180337
 20
216.8678027407467
 30
0.0
 11
150.6667832180337
 21
215.8630824966266
 31
0.0
  0
LINE
  5
AF4
330
18
100
AcDbEntity
  8
1
370
    20
100
AcDbLine
 10
151.1667832180338
 20
215.7630824966265
 30
0.0
 11
151.1667832180338
 21
214.3630824966265
 31
0.0
  0
LINE
  5
AF5
330
18
100
AcDbEntity
  8
1
370
    20
100
AcDbLine
 10
151.1667832180338
 20
217.3678027407467
 30
0.0
 11
151.1667832180338
 21
215.8630824966266
 31
0.0
  0
LINE
  5
AF6
330
18
100
AcDbEntity
  8
1
370
    20
100
AcDbLine
 10
146.1171626126575
 20
235.7336124160304
 30
0.0
 11
154.1171626126575
 21
235.7336124160304
 31
0.0
  0
LINE
  5
AF7
330
18
100
AcDbEntity
  8
1
370
    20
100
AcDbLine
 10
146.1171626126575
 20
230.2336124160304
 30
0.0
 11
154.1171626126575
 21
230.2336124160304
 31
0.0
  0
LINE
  5
AF8
330
18
100
AcDbEntity
  8
1
370
    20
100
AcDbLine
 10
144.1171626126575
 20
242.2336124160304
 30
0.0
 11
146.1171626126575
 21
242.2336124160304
 31
0.0
  0
ARC
  5
AF9
330
18
100
AcDbEntity
  8
1
370
    20
100
AcDbCircle
 10
138.6171626126575
 20
240.2336124160304
 30
0.0
 40
2.0
100
AcDbArc
 50
90.0
 51
180.0
  0
LINE
  5
AFA
330
18
100
AcDbEntity
  8
1
370
    20
100
AcDbLine
 10
136.1171626126575
 20
236.2336124160304
 30
0.0
 11
144.1171626126575
 21
236.2336124160304
 31
0.0
  0
LINE
  5
AFB
330
18
100
AcDbEntity
  8
1
370
    20
100
AcDbLine
 10
136.1171626126575
 20
237.2336124160304
 30
0.0
 11
144.1171626126575
 21
237.2336124160304
 31
0.0
  0
LINE
  5
AFC
330
18
100
AcDbEntity
  8
1
370
    20
100
AcDbLine
 10
136.1171626126575
 20
238.7336124160304
 30
0.0
 11
144.1171626126575
 21
238.7336124160304
 31
0.0
  0
ARC
  5
AFD
330
18
100
AcDbEntity
  8
1
370
    20
100
AcDbCircle
 10
131.6171626126575
 20
240.2336124160304
 30
0.0
 40
2.0
100
AcDbArc
 50
0.0
 51
90.0
  0
LINE
  5
AFE
330
18
100
AcDbEntity
  8
1
370
    20
100
AcDbLine
 10
133.1171626126575
 20
237.2336124160304
 30
0.0
 11
133.1171626126575
 21
236.2336124160304
 31
0.0
  0
LINE
  5
AFF
330
18
100
AcDbEntity
  8
1
370
    20
100
AcDbLine
 10
133.6171626126575
 20
240.2336124160304
 30
0.0
 11
133.6171626126575
 21
238.7336124160304
 31
0.0
  0
ARC
  5
B00
330
18
100
AcDbEntity
  8
1
370
    20
100
AcDbCircle
 10
130.1171626126575
 20
242.2336124160304
 30
0.0
 40
0.5
100
AcDbArc
 50
180.0
 51
0.0
  0
LINE
  5
B01
330
18
100
AcDbEntity
  8
1
370
    20
100
AcDbLine
 10
128.6171626126575
 20
242.2336124160304
 30
0.0
 11
131.6171626126575
 21
242.2336124160304
 31
0.0
  0
LINE
  5
B02
330
18
100
AcDbEntity
  8
1
370
    20
100
AcDbLine
 10
134.1171626126575
 20
242.2336124160304
 30
0.0
 11
136.1171626126575
 21
242.2336124160304
 31
0.0
  0
ARC
  5
B03
330
18
100
AcDbEntity
  8
1
370
    20
100
AcDbCircle
 10
141.6171626126575
 20
240.2336124160304
 30
0.0
 40
2.0
100
AcDbArc
 50
0.0
 51
90.0
  0
LINE
  5
B04
330
18
100
AcDbEntity
  8
1
370
    20
100
AcDbLine
 10
136.6171626126575
 20
239.2336124160304
 30
0.0
 11
143.6171626126575
 21
239.2336124160304
 31
0.0
  0
LINE
  5
B05
330
18
100
AcDbEntity
  8
1
370
    20
100
AcDbLine
 10
137.1171626126575
 20
237.2336124160304
 30
0.0
 11
137.1171626126575
 21
236.2336124160304
 31
0.0
  0
LINE
  5
B06
330
18
100
AcDbEntity
  8
1
370
    20
100
AcDbLine
 10
136.6171626126575
 20
240.2336124160304
 30
0.0
 11
136.6171626126575
 21
238.7336124160304
 31
0.0
  0
LINE
  5
B07
330
18
100
AcDbEntity
  8
1
370
    20
100
AcDbLine
 10
143.1171626126575
 20
237.2336124160304
 30
0.0
 11
143.1171626126575
 21
236.2336124160304
 31
0.0
  0
LINE
  5
B08
330
18
100
AcDbEntity
  8
1
370
    20
100
AcDbLine
 10
143.6171626126575
 20
240.2336124160304
 30
0.0
 11
143.6171626126575
 21
238.7336124160304
 31
0.0
  0
LINE
  5
B09
330
18
100
AcDbEntity
  8
1
370
    20
100
AcDbLine
 10
138.6171626126575
 20
242.2336124160304
 30
0.0
 11
141.6171626126575
 21
242.2336124160304
 31
0.0
  0
ARC
  5
B0A
330
18
100
AcDbEntity
  8
1
370
    20
100
AcDbCircle
 10
140.1171626126575
 20
242.2336124160304
 30
0.0
 40
0.5
100
AcDbArc
 50
180.0
 51
0.0
  0
ARC
  5
B0B
330
18
100
AcDbEntity
  8
1
370
    20
100
AcDbCircle
 10
151.6171626126575
 20
240.2336124160304
 30
0.0
 40
2.0
100
AcDbArc
 50
0.0
 51
90.0
  0
LINE
  5
B0C
330
18
100
AcDbEntity
  8
1
370
    20
100
AcDbLine
 10
146.1171626126575
 20
236.2336124160304
 30
0.0
 11
154.1171626126575
 21
236.2336124160304
 31
0.0
  0
LINE
  5
B0D
330
18
100
AcDbEntity
  8
1
370
    20
100
AcDbLine
 10
146.1171626126575
 20
237.2336124160304
 30
0.0
 11
154.1171626126575
 21
237.2336124160304
 31
0.0
  0
LINE
  5
B0E
330
18
100
AcDbEntity
  8
1
370
    20
100
AcDbLine
 10
146.1171626126575
 20
238.7336124160304
 30
0.0
 11
154.1171626126575
 21
238.7336124160304
 31
0.0
  0
LINE
  5
B0F
330
18
100
AcDbEntity
  8
1
370
    20
100
AcDbLine
 10
146.6171626126575
 20
239.2336124160304
 30
0.0
 11
153.6171626126575
 21
239.2336124160304
 31
0.0
  0
ARC
  5
B10
330
18
100
AcDbEntity
  8
1
370
    20
100
AcDbCircle
 10
148.6171626126575
 20
240.2336124160304
 30
0.0
 40
2.0
100
AcDbArc
 50
90.0
 51
180.0
  0
LINE
  5
B11
330
18
100
AcDbEntity
  8
1
370
    20
100
AcDbLine
 10
147.1171626126575
 20
237.2336124160304
 30
0.0
 11
147.1171626126575
 21
236.2336124160304
 31
0.0
  0
LINE
  5
B12
330
18
100
AcDbEntity
  8
1
370
    20
100
AcDbLine
 10
146.6171626126575
 20
240.2336124160304
 30
0.0
 11
146.6171626126575
 21
238.7336124160304
 31
0.0
  0
LINE
  5
B13
330
18
100
AcDbEntity
  8
1
370
    20
100
AcDbLine
 10
148.6171626126575
 20
242.2336124160304
 30
0.0
 11
151.6171626126575
 21
242.2336124160304
 31
0.0
  0
ARC
  5
B14
330
18
100
AcDbEntity
  8
1
370
    20
100
AcDbCircle
 10
150.1171626126575
 20
242.2336124160304
 30
0.0
 40
0.5
100
AcDbArc
 50
180.0
 51
0.0
  0
ARC
  5
B15
330
18
100
AcDbEntity
  8
1
370
    20
100
AcDbCircle
 10
157.6811626126576
 20
237.1416124160304
 30
0.0
 40
0.58
100
AcDbArc
 50
180.0
 51
270.0
  0
ARC
  5
B16
330
18
100
AcDbEntity
  8
1
370
    20
100
AcDbCircle
 10
158.8411626126575
 20
237.4736124160304
 30
0.0
 40
1.739999999999999
100
AcDbArc
 50
89.9999999999992
 51
180.0
  0
LINE
  5
B17
330
18
100
AcDbEntity
  8
1
370
    20
100
AcDbLine
 10
157.1011626126576
 20
237.1416124160304
 30
0.0
 11
157.1011626126576
 21
237.4736124160304
 31
0.0
  0
LINE
  5
B18
330
18
100
AcDbEntity
  8
1
370
    20
100
AcDbLine
 10
153.1171626126575
 20
237.2336124160304
 30
0.0
 11
153.1171626126575
 21
236.2336124160304
 31
0.0
  0
LINE
  5
B19
330
18
100
AcDbEntity
  8
1
370
    20
100
AcDbLine
 10
153.6171626126575
 20
240.2336124160304
 30
0.0
 11
153.6171626126575
 21
238.7336124160304
 31
0.0
  0
LINE
  5
B1A
330
18
100
AcDbEntity
  8
1
370
    20
100
AcDbLine
 10
156.1171626126575
 20
242.2336124160304
 30
0.0
 11
154.1171626126575
 21
242.2336124160304
 31
0.0
  0
DIMENSION
  5
B1B
330
18
100
AcDbEntity
  8
2
100
AcDbDimension
  2
*D6
 10
203.1171626126575
 20
227.2313911925601
 30
0.0
 11
200.9885911840861
 21
234.7313911925602
 31
0.0
 70
    32
  1
(<>)
 71
     5
 42
15.0
  3
STANDARD
100
AcDbAlignedDimension
 13
183.1171626126575
 23
242.2313911925602
 33
0.0
 14
192.1171626126575
 24
227.2313911925601
 34
0.0
 50
90.0
100
AcDbRotatedDimension
1001
ACAD
1000
DSTYLE
1002
{
1070
    40
1040
1.0
1002
}
  0
LINE
  5
B1C
330
18
100
AcDbEntity
  8
1
370
    20
100
AcDbLine
 10
163.1331626126575
 20
235.7336124160304
 30
0.0
 11
163.1331626126575
 21
236.5616124160303
 31
0.0
  0
LINE
  5
B1D
330
18
100
AcDbEntity
  8
1
100
AcDbLine
 10
183.1171626126575
 20
241.2313911925601
 30
0.0
 11
183.1171626126575
 21
229.2313911925601
 31
0.0
  0
LINE
  5
B1E
330
18
100
AcDbEntity
  8
1
100
AcDbLine
 10
167.1171626126575
 20
229.2313911925601
 30
0.0
 11
167.1171626126575
 21
241.2313911925601
 31
0.0
  0
LINE
  5
B1F
330
18
100
AcDbEntity
  8
1
100
AcDbLine
 10
183.1171626126575
 20
229.2313911925601
 30
0.0
 11
167.1171626126575
 21
229.2313911925601
 31
0.0
  0
LINE
  5
B20
330
18
100
AcDbEntity
  8
1
100
AcDbLine
 10
164.1171626126575
 20
229.2313911925601
 30
0.0
 11
179.1171626126575
 21
229.2313911925601
 31
0.0
  0
LINE
  5
B21
330
18
100
AcDbEntity
  8
1
100
AcDbLine
 10
164.1171626126575
 20
229.2313911925601
 30
0.0
 11
178.1171626126575
 21
229.2313911925601
 31
0.0
  0
SOLID
  5
B22
330
18
100
AcDbEntity
  8
1
370
    20
100
AcDbTrace
 10
166.580782353909
 20
223.5153831811695
 30
0.0
 11
167.2141156872423
 21
223.5153831811695
 31
0.0
 12
166.8974490205756
 22
225.0153831811696
 32
0.0
 13
166.8974490205756
 23
225.0153831811696
 33
0.0
  0
TEXT
  5
B23
330
18
100
AcDbEntity
  8
1
100
AcDbText
 10
165.9106780324257
 20
224.7252562265471
 30
0.0
 40
1.199999999999999
  1
H.ADJ
 50
180.0
  7
ＭＳゴシック
100
AcDbText
  0
TEXT
  5
B24
330
18
100
AcDbEntity
  8
1
100
AcDbText
 10
164.1171626126575
 20
216.4798388901658
 30
0.0
 40
1.199999999999999
  1
TH.
 50
180.0
  7
ＭＳゴシック
100
AcDbText
  0
LINE
  5
B25
330
18
100
AcDbEntity
  8
1
370
    20
100
AcDbLine
 10
166.8974490205756
 20
223.5153831811695
 30
0.0
 11
166.8974490205756
 21
220.7313911925601
 31
0.0
  0
LINE
  5
B26
330
18
100
AcDbEntity
  8
1
370
    20
100
AcDbLine
 10
164.1171626126575
 20
235.7336124160304
 30
0.0
 11
164.1171626126575
 21
229.2336124160304
 31
0.0
  0
ARC
  5
B27
330
18
100
AcDbEntity
  8
1
100
AcDbCircle
 10
191.1171626126575
 20
228.2313911925601
 30
0.0
 40
1.0
100
AcDbArc
 50
0.0
 51
90.0
  0
LINE
  5
B28
330
18
100
AcDbEntity
  8
1
100
AcDbLine
 10
168.1171626126575
 20
242.2313911925602
 30
0.0
 11
182.1171626126575
 21
242.2313911925602
 31
0.0
  0
ARC
  5
B29
330
18
100
AcDbEntity
  8
1
100
AcDbCircle
 10
168.1171626126575
 20
241.2313911925601
 30
0.0
 40
1.0
100
AcDbArc
 50
90.0
 51
180.0
  0
LINE
  5
B2A
330
18
100
AcDbEntity
  8
1
370
    20
100
AcDbLine
 10
163.1331626126575
 20
237.1416124160304
 30
0.0
 11
163.1331626126575
 21
237.4736124160303
 31
0.0
  0
ARC
  5
B2B
330
18
100
AcDbEntity
  8
1
370
    20
100
AcDbCircle
 10
161.3931626126575
 20
237.4736124160303
 30
0.0
 40
1.739999999999999
100
AcDbArc
 50
0.0
 51
90.0
  0
ARC
  5
B2C
330
18
100
AcDbEntity
  8
1
370
    20
100
AcDbCircle
 10
162.5531626126575
 20
237.1416124160304
 30
0.0
 40
0.58
100
AcDbArc
 50
270.0
 51
0.0
  0
ARC
  5
B2D
330
18
100
AcDbEntity
  8
1
100
AcDbCircle
 10
182.1171626126575
 20
241.2313911925601
 30
0.0
 40
1.0
100
AcDbArc
 50
0.0
 51
90.0
  0
LEADER
  5
B2E
330
18
100
AcDbEntity
  8
2
100
AcDbLeader
  3
STANDARD
 73
     0
 40
3.959999999999999
 41
17.28
 76
     3
 10
312.0000001151456
 20
90.52310117297968
 30
0.0
 10
332.0000001151456
 20
125.1641173243572
 30
0.0
 10
334.0000001151456
 20
125.1641173243572
 30
0.0
213
-0.5
223
-1.25
233
0.0
1001
ACAD
1000
DSTYLE
1002
{
1070
    40
1040
1.0
1070
    77
1070
     0
1070
   271
1070
     4
1002
}
  0
MTEXT
  5
B2F
102
{ACAD_REACTORS
330
B2E
102
}
330
18
100
AcDbEntity
  8
2
100
AcDbMText
 10
335.5000001151456
 20
126.4141173243572
 30
0.0
 40
3.0
 41
0.0
 71
     1
 72
     1
  1
取付金具
  7
ＭＳ明朝
 73
     1
 44
1.0
  0
DIMENSION
  5
B30
330
18
100
AcDbEntity
  8
2
100
AcDbDimension
  2
*D7
 10
232.0000001151456
 20
54.52310117297967
 30
0.0
 11
230.2500001151456
 21
89.52310117297972
 31
0.0
 70
    32
 71
     5
 42
70.00000000000003
  3
STANDARD
100
AcDbAlignedDimension
 13
242.0000001151456
 23
124.5231011729796
 33
0.0
 14
242.0000001151456
 24
54.52310117297966
 34
0.0
 50
90.0
100
AcDbRotatedDimension
1001
ACAD
1000
DSTYLE
1002
{
1070
    40
1040
1.0
1002
}
  0
LINE
  5
B31
330
18
100
AcDbEntity
  8
1
100
AcDbLine
 10
242.0000001151456
 20
123.5216212666685
 30
0.0
 11
242.0000001151456
 21
55.52310117297972
 31
0.0
  0
LINE
  5
B32
330
18
100
AcDbEntity
  8
1
100
AcDbLine
 10
252.0000001151456
 20
124.5231011729796
 30
0.0
 11
252.0000001151456
 21
54.52310117297966
 31
0.0
  0
MTEXT
  5
B33
102
{ACAD_REACTORS
330
B54
102
}
330
18
100
AcDbEntity
  8
2
100
AcDbMText
 10
339.5000001151456
 20
51.45259309729088
 30
0.0
 40
3.0
 41
0.0
 71
     1
 72
     1
  1
基準接点補償器\P(熱電対入力の場合のみ)
  7
ＭＳ明朝
 73
     1
 44
1.0
  0
LWPOLYLINE
  5
B34
330
18
100
AcDbEntity
  8
1
370
    15
100
AcDbPolyline
 90
        4
 70
     1
 43
0.0
 10
291.5703624795913
 20
84.51567528261675
 10
311.5703624795913
 20
84.51567528261675
 10
311.5703624795913
 20
59.51567528261674
 10
291.5703624795913
 20
59.51567528261674
  0
TEXT
  5
B35
330
18
100
AcDbEntity
  8
1
100
AcDbText
 10
276.7578646627178
 20
100.3856374244167
 30
0.0
 40
2.0
  1
端子部に覆いを付けて下さい。
  7
ＭＳゴシック
100
AcDbText
  0
TEXT
  5
B36
330
18
100
AcDbEntity
  8
1
100
AcDbText
 10
276.6668708786482
 20
103.6726075075183
 30
0.0
 40
2.0
  1
人が触れるおそれがある場合は
  7
ＭＳゴシック
100
AcDbText
  0
TEXT
  5
B37
330
18
100
AcDbEntity
  8
1
100
AcDbText
 10
276.9292029138688
 20
107.0416898378458
 30
0.0
 40
2.0
  1
端子カバーは付いていません。
  7
ＭＳゴシック
100
AcDbText
  0
TEXT
  5
B38
330
18
100
AcDbEntity
  8
1
100
AcDbText
 10
285.0291738351058
 20
111.4026430602604
 30
0.0
 40
5.0
  1
盤内専用
  7
ＭＳゴシック
100
AcDbText
  0
LINE
  5
B39
330
18
100
AcDbEntity
  8
1
370
    20
100
AcDbLine
 10
275.5313060116348
 20
117.5465311675722
 30
0.0
 11
313.5313060116347
 21
117.5465311675722
 31
0.0
  0
LINE
  5
B3A
330
18
100
AcDbEntity
  8
1
370
    20
100
AcDbLine
 10
313.5313060116347
 20
99.54653116757222
 30
0.0
 11
275.5313060116348
 21
99.54653116757228
 31
0.0
  0
LINE
  5
B3B
330
18
100
AcDbEntity
  8
1
370
    15
100
AcDbLine
 10
314.5313060116348
 20
98.54653116757223
 30
0.0
 11
274.5313060116348
 21
98.54653116757223
 31
0.0
  0
LINE
  5
B3C
330
18
100
AcDbEntity
  8
1
370
    15
100
AcDbLine
 10
274.5313060116348
 20
118.5465311675723
 30
0.0
 11
314.5313060116348
 21
118.5465311675722
 31
0.0
  0
LINE
  5
B3D
330
18
100
AcDbEntity
  8
1
100
AcDbLine
 10
320.0000001151456
 20
59.52310117297966
 30
0.0
 11
252.0000001151456
 21
59.52310117297966
 31
0.0
  0
LINE
  5
B3E
330
18
100
AcDbEntity
  8
1
100
AcDbLine
 10
252.0000001151456
 20
119.5231011729797
 30
0.0
 11
320.0000001151456
 21
119.5231011729796
 31
0.0
  0
LINE
  5
B3F
330
18
100
AcDbEntity
  8
1
 48
0.5
100
AcDbLine
 10
252.0000001151456
 20
96.52310117297966
 30
0.0
 11
322.0000001151456
 21
96.52310117297966
 31
0.0
  0
LINE
  5
B40
330
18
100
AcDbEntity
  8
1
 48
0.5
100
AcDbLine
 10
252.0000001151456
 20
84.52310117297967
 30
0.0
 11
322.0000001151456
 21
84.52310117297967
 31
0.0
  0
LINE
  5
B41
330
18
100
AcDbEntity
  8
1
100
AcDbLine
 10
252.0000001151456
 20
54.52310117297966
 30
0.0
 11
242.0000001151456
 21
55.52310117297967
 31
0.0
  0
LWPOLYLINE
  5
B42
330
18
100
AcDbEntity
  8
1
370
    15
100
AcDbPolyline
 90
        8
 70
     1
 43
0.0
 10
271.8909988663244
 20
60.63145697915539
 10
285.8909988663244
 20
60.63145697915539
 42
0.4142135623730951
 10
287.3909988663244
 20
62.13145697915539
 10
287.3909988663244
 20
66.13145697915538
 42
0.4142135623730951
 10
285.8909988663244
 20
67.63145697915539
 10
271.8909988663244
 20
67.63145697915539
 42
0.4142135623730951
 10
270.3909988663244
 20
66.13145697915538
 10
270.3909988663244
 20
62.13145697915539
 42
0.4142135623730951
  0
TEXT
  5
B43
330
18
100
AcDbEntity
  8
1
100
AcDbText
 10
271.5813541962736
 20
62.66445190301325
 30
0.0
 40
3.0
  1
*****
 41
1.5
  7
ＭＳゴシック
 72
     4
 11
278.8909988663244
 21
63.63145697915538
 31
0.0
100
AcDbText
  0
LEADER
  5
B44
330
18
100
AcDbEntity
  8
2
100
AcDbLeader
  3
STANDARD
 73
     0
 40
3.651428571428571
 41
13.88571428571428
 76
     3
 10
278.8909988663244
 20
61.63145697915538
 30
0.0
 10
289.4976005841226
 20
51.02485526135717
 30
0.0
 10
291.4976005841226
 20
51.02485526135717
 30
0.0
213
-0.5
223
-1.25
233
0.0
1001
ACAD
1000
DSTYLE
1002
{
1070
    40
1040
1.0
1070
    77
1070
     0
1070
   271
1070
     4
1002
}
  0
MTEXT
  5
B45
102
{ACAD_REACTORS
330
B44
102
}
330
18
100
AcDbEntity
  8
2
100
AcDbMText
 10
292.9976005841226
 20
52.27485526135717
 30
0.0
 40
3.0
 41
0.0
 71
     1
 72
     1
  1
ｼﾘｱﾙNo.
  7
ＭＳ明朝
 73
     1
 44
1.0
  0
LINE
  5
B46
330
18
100
AcDbEntity
  8
1
370
    20
100
AcDbLine
 10
275.5313060116348
 20
99.54653116757228
 30
0.0
 11
275.5313060116348
 21
117.5465311675722
 31
0.0
  0
LINE
  5
B47
330
18
100
AcDbEntity
  8
1
370
    15
100
AcDbLine
 10
274.5313060116348
 20
98.54653116757223
 30
0.0
 11
274.5313060116348
 21
118.5465311675723
 31
0.0
  0
TEXT
  5
B48
330
18
100
AcDbEntity
  8
1
100
AcDbText
 10
276.1917637586885
 20
111.9066876976585
 30
0.0
 40
3.0
  1
！
 41
1.5
  7
ＭＳ明朝
 72
     1
 11
279.4831923301171
 21
111.9066876976585
 31
0.0
100
AcDbText
  0
LWPOLYLINE
  5
B49
330
18
100
AcDbEntity
  8
1
100
AcDbPolyline
 90
        3
 70
     1
 43
0.0
 10
279.5805650798468
 20
116.4993622276762
 10
276.4848819833338
 20
111.4066876976584
 10
282.4815026769004
 20
111.4066876976584
  0
LWPOLYLINE
  5
B4A
330
18
100
AcDbEntity
  8
1
370
    20
100
AcDbPolyline
 90
        4
 70
     1
 43
0.0
 10
292.5703624795913
 20
83.51567528261673
 10
310.5703624795913
 20
83.51567528261673
 10
310.5703624795913
 20
60.51567528261674
 10
292.5703624795913
 20
60.51567528261674
  0
LWPOLYLINE
  5
B4B
330
18
100
AcDbEntity
  8
1
370
    20
100
AcDbPolyline
 90
        4
 70
     1
 43
0.0
 10
293.5703624795913
 20
78.51567528261674
 10
309.5703624795913
 20
78.51567528261674
 10
309.5703624795913
 20
64.51567528261674
 10
293.5703624795913
 20
64.51567528261674
  0
LINE
  5
B4C
330
18
100
AcDbEntity
  8
1
370
    15
100
AcDbLine
 10
315.4000001151456
 20
73.32310117297968
 30
0.0
 11
315.4000001151456
 21
73.72310117297965
 31
0.0
  0
LINE
  5
B4D
330
18
100
AcDbEntity
  8
1
370
    15
100
AcDbLine
 10
314.6000001151456
 20
73.72310117297965
 30
0.0
 11
314.6000001151456
 21
73.32310117297968
 31
0.0
  0
CIRCLE
  5
B4E
330
18
100
AcDbEntity
  8
1
370
    15
100
AcDbCircle
 10
315.0000001151456
 20
74.52310117297966
 30
0.0
 40
2.08
  0
DIMENSION
  5
B4F
330
18
100
AcDbEntity
  8
2
100
AcDbDimension
  2
*D8
 10
341.8008501821454
 20
59.52310117297965
 30
0.0
 11
340.0508501821454
 21
89.52310117297972
 31
0.0
 70
    32
 71
     5
 42
60.0
  3
STANDARD
100
AcDbAlignedDimension
 13
320.0000001151456
 23
119.5231011729796
 33
0.0
 14
320.0000001151456
 24
59.52310117297966
 34
0.0
 50
90.0
100
AcDbRotatedDimension
1001
ACAD
1000
DSTYLE
1002
{
1070
    40
1040
1.0
1002
}
  0
LINE
  5
B50
330
18
100
AcDbEntity
  8
1
100
AcDbLine
 10
333.0000001151456
 20
82.52310117297966
 30
0.0
 11
333.0000001151457
 21
68.52310117297965
 31
0.0
  0
LINE
  5
B51
330
18
100
AcDbEntity
  8
1
100
AcDbLine
 10
320.0000001151456
 20
84.52310117297967
 30
0.0
 11
320.0000001151456
 21
59.52310117297966
 31
0.0
  0
LINE
  5
B52
330
18
100
AcDbEntity
  8
1
100
AcDbLine
 10
332.0000001151457
 20
67.52310117297965
 30
0.0
 11
320.0000001151456
 21
67.52310117297966
 31
0.0
  0
LINE
  5
B53
330
18
100
AcDbEntity
  8
1
370
    15
100
AcDbLine
 10
314.6000001151456
 20
73.32310117297968
 30
0.0
 11
315.4000001151456
 21
73.32310117297968
 31
0.0
  0
LEADER
  5
B54
330
18
100
AcDbEntity
  8
2
100
AcDbLeader
  3
STANDARD
 73
     0
 40
9.697142857142857
 41
46.37142857142857
 76
     3
 10
326.0000001151456
 20
67.52310117297966
 30
0.0
 10
336.0000001151456
 20
50.20259309729088
 30
0.0
 10
338.0000001151456
 20
50.20259309729088
 30
0.0
213
-0.5
223
-1.25
233
0.0
1001
ACAD
1000
DSTYLE
1002
{
1070
    40
1040
1.0
1070
    77
1070
     0
1070
   271
1070
     4
1002
}
  0
ARC
  5
B55
330
18
100
AcDbEntity
  8
1
100
AcDbCircle
 10
332.0000001151457
 20
68.52310117297965
 30
0.0
 40
1.0
100
AcDbArc
 50
270.0
 51
0.0
  0
LINE
  5
B56
330
18
100
AcDbEntity
  8
1
370
    20
100
AcDbLine
 10
324.4008501821454
 20
87.32796092707166
 30
0.0
 11
325.3008501821454
 21
87.32796092707165
 31
0.0
  0
LINE
  5
B57
330
18
100
AcDbEntity
  8
1
370
    20
100
AcDbLine
 10
324.4008501821454
 20
93.92796092707166
 30
0.0
 11
325.3008501821454
 21
93.92796092707166
 31
0.0
  0
LINE
  5
B58
330
18
100
AcDbEntity
  8
1
100
AcDbLine
 10
320.0000001151456
 20
83.52310117297966
 30
0.0
 11
332.0000001151456
 21
83.52310117297966
 31
0.0
  0
LINE
  5
B59
330
18
100
AcDbEntity
  8
1
100
AcDbLine
 10
320.0000001151456
 20
119.5231011729796
 30
0.0
 11
320.0000001151456
 21
96.52310117297966
 31
0.0
  0
MTEXT
  5
B5A
330
18
100
AcDbEntity
  8
1
100
AcDbMText
 10
293.5703624795913
 20
83.01567528261674
 30
0.0
 40
3.0
 41
16.5
 71
     1
 72
     5
  1
\fＭＳ Ｐゴシック|b0|i0|c128|p50;合 格 証
 73
     1
 44
1.0
  0
LINE
  5
B5B
330
18
100
AcDbEntity
  8
1
100
AcDbLine
 10
322.0000001151456
 20
96.52310117297966
 30
0.0
 11
322.0000001151456
 21
84.52310117297967
 31
0.0
  0
LINE
  5
B5C
330
18
100
AcDbEntity
  8
1
370
    15
100
AcDbLine
 10
315.4000001151456
 20
75.72310117297965
 30
0.0
 11
314.6000001151456
 21
75.72310117297965
 31
0.0
  0
ARC
  5
B5D
330
18
100
AcDbEntity
  8
1
370
    15
100
AcDbCircle
 10
315.8000001151456
 20
73.72310117297965
 30
0.0
 40
0.4
100
AcDbArc
 50
90.0
 51
180.0
  0
ARC
  5
B5E
330
18
100
AcDbEntity
  8
1
370
    15
100
AcDbCircle
 10
314.2000001151456
 20
73.72310117297965
 30
0.0
 40
0.4
100
AcDbArc
 50
0.0
 51
90.0
  0
ARC
  5
B5F
330
18
100
AcDbEntity
  8
1
370
    15
100
AcDbCircle
 10
315.8000001151456
 20
75.32310117297967
 30
0.0
 40
0.4
100
AcDbArc
 50
180.0
 51
270.0
  0
LINE
  5
B60
330
18
100
AcDbEntity
  8
1
370
    15
100
AcDbLine
 10
316.2000001151456
 20
74.92310117297967
 30
0.0
 11
315.8000001151456
 21
74.92310117297967
 31
0.0
  0
LINE
  5
B61
330
18
100
AcDbEntity
  8
1
370
    15
100
AcDbLine
 10
315.8000001151456
 20
74.12310117297966
 30
0.0
 11
316.2000001151456
 21
74.12310117297966
 31
0.0
  0
LINE
  5
B62
330
18
100
AcDbEntity
  8
1
370
    15
100
AcDbLine
 10
313.8000001151456
 20
74.12310117297966
 30
0.0
 11
314.2000001151456
 21
74.12310117297966
 31
0.0
  0
LINE
  5
B63
330
18
100
AcDbEntity
  8
1
370
    15
100
AcDbLine
 10
314.2000001151456
 20
74.92310117297967
 30
0.0
 11
313.8000001151456
 21
74.92310117297967
 31
0.0
  0
LINE
  5
B64
330
18
100
AcDbEntity
  8
1
370
    15
100
AcDbLine
 10
316.2000001151456
 20
74.12310117297966
 30
0.0
 11
316.2000001151456
 21
74.92310117297967
 31
0.0
  0
LINE
  5
B65
330
18
100
AcDbEntity
  8
1
370
    15
100
AcDbLine
 10
313.8000001151456
 20
74.92310117297967
 30
0.0
 11
313.8000001151456
 21
74.12310117297966
 31
0.0
  0
LINE
  5
B66
330
18
100
AcDbEntity
  8
1
370
    15
100
AcDbLine
 10
315.4000001151456
 20
75.32310117297967
 30
0.0
 11
315.4000001151456
 21
75.72310117297965
 31
0.0
  0
LINE
  5
B67
330
18
100
AcDbEntity
  8
1
370
    15
100
AcDbLine
 10
314.6000001151456
 20
75.72310117297965
 30
0.0
 11
314.6000001151456
 21
75.32310117297967
 31
0.0
  0
ARC
  5
B68
330
18
100
AcDbEntity
  8
1
370
    15
100
AcDbCircle
 10
314.2000001151456
 20
75.32310117297967
 30
0.0
 40
0.4
100
AcDbArc
 50
270.0
 51
0.0
  0
LINE
  5
B69
330
18
100
AcDbEntity
  8
1
370
    20
100
AcDbLine
 10
323.9008501821454
 20
93.92796092707166
 30
0.0
 11
323.9008501821454
 21
87.32796092707165
 31
0.0
  0
LINE
  5
B6A
330
18
100
AcDbEntity
  8
1
370
    20
100
AcDbLine
 10
322.8008501821453
 20
95.62796092707165
 30
0.0
 11
322.8008501821453
 21
85.62796092707165
 31
0.0
  0
LINE
  5
B6B
330
18
100
AcDbEntity
  8
1
370
    20
100
AcDbLine
 10
322.8008501821453
 20
90.62796092707165
 30
0.0
 11
323.9008501821454
 21
90.62796092707165
 31
0.0
  0
LINE
  5
B6C
330
18
100
AcDbEntity
  8
1
370
    20
100
AcDbLine
 10
322.0008501821454
 20
85.62796092707165
 30
0.0
 11
322.8008501821454
 21
85.62796092707165
 31
0.0
  0
ARC
  5
B6D
330
18
100
AcDbEntity
  8
1
370
    20
100
AcDbCircle
 10
324.4008501821454
 20
87.82796092707163
 30
0.0
 40
0.5
100
AcDbArc
 50
180.0000000000008
 51
270.0
  0
LINE
  5
B6E
330
18
100
AcDbEntity
  8
1
370
    20
100
AcDbLine
 10
322.8008501821453
 20
87.32796092707165
 30
0.0
 11
323.9008501821454
 21
87.32796092707165
 31
0.0
  0
LINE
  5
B6F
330
18
100
AcDbEntity
  8
1
370
    20
100
AcDbLine
 10
322.0008501821454
 20
95.62796092707165
 30
0.0
 11
322.8008501821453
 21
95.62796092707165
 31
0.0
  0
ARC
  5
B70
330
18
100
AcDbEntity
  8
1
370
    20
100
AcDbCircle
 10
324.4008501821454
 20
93.42796092707166
 30
0.0
 40
0.5
100
AcDbArc
 50
90.0
 51
180.0
  0
LINE
  5
B71
330
18
100
AcDbEntity
  8
1
370
    20
100
AcDbLine
 10
322.8008501821453
 20
93.92796092707168
 30
0.0
 11
323.9008501821454
 21
93.92796092707168
 31
0.0
  0
LINE
  5
B72
330
18
100
AcDbEntity
  8
1
370
    20
100
AcDbLine
 10
313.5313060116347
 20
117.5465311675722
 30
0.0
 11
313.5313060116347
 21
99.54653116757222
 31
0.0
  0
LINE
  5
B73
330
18
100
AcDbEntity
  8
1
370
    15
100
AcDbLine
 10
314.5313060116348
 20
118.5465311675722
 30
0.0
 11
314.5313060116348
 21
98.54653116757223
 31
0.0
  0
ARC
  5
B74
330
18
100
AcDbEntity
  8
1
100
AcDbCircle
 10
332.0000001151456
 20
82.52310117297966
 30
0.0
 40
1.0
100
AcDbArc
 50
0.0
 51
90.0
  0
LINE
  5
B75
330
18
100
AcDbEntity
  8
1
370
    20
100
AcDbLine
 10
326.8008501821455
 20
92.42796092707166
 30
0.0
 11
326.8008501821454
 21
88.82796092707161
 31
0.0
  0
ARC
  5
B76
330
18
100
AcDbEntity
  8
1
370
    20
100
AcDbCircle
 10
325.3008501821454
 20
88.82796092707165
 30
0.0
 40
1.5
100
AcDbArc
 50
270.0
 51
359.9999999999992
  0
ARC
  5
B77
330
18
100
AcDbEntity
  8
1
370
    20
100
AcDbCircle
 10
325.3008501821454
 20
92.42796092707166
 30
0.0
 40
1.5
100
AcDbArc
 50
0.0
 51
90.0
  0
DIMENSION
  5
B78
330
18
100
AcDbEntity
  8
2
100
AcDbDimension
  2
*D9
 10
365.2672752793451
 20
175.8223612198241
 30
0.0
 11
363.517275279345
 21
206.8223612198242
 31
0.0
 70
    32
  1
<>
 71
     5
 42
62.0
  3
STANDARD
100
AcDbAlignedDimension
 13
354.0000001151456
 23
237.8223612198241
 33
0.0
 14
354.0000001151456
 24
175.8223612198241
 34
0.0
 50
90.0
100
AcDbRotatedDimension
1001
ACAD
1000
DSTYLE
1002
{
1070
    40
1040
1.0
1002
}
  0
LINE
  5
B79
330
18
100
AcDbEntity
  8
1
 48
5.0
100
AcDbLine
 10
242.0000001151456
 20
178.5223612198241
 30
0.0
 11
242.0000001151456
 21
240.5223612198241
 31
0.0
  0
LINE
  5
B7A
330
18
100
AcDbEntity
  8
1
 48
5.0
100
AcDbLine
 10
354.0000001151456
 20
240.5223612198241
 30
0.0
 11
354.0000001151456
 21
178.5223612198241
 31
0.0
  0
LINE
  5
B7B
330
18
100
AcDbEntity
  8
2
100
AcDbLine
 10
242.0000001151456
 20
240.5223612198241
 30
0.0
 11
354.0000001151456
 21
178.5223612198241
 31
0.0
  0
LINE
  5
B7C
330
18
100
AcDbEntity
  8
2
100
AcDbLine
 10
354.0000001151456
 20
240.5223612198241
 30
0.0
 11
242.0000001151456
 21
178.5223612198241
 31
0.0
  0
LINE
  5
B7D
330
18
100
AcDbEntity
  8
1
 48
5.0
100
AcDbLine
 10
354.0000001151456
 20
178.5223612198241
 30
0.0
 11
242.0000001151456
 21
178.5223612198241
 31
0.0
  0
TEXT
  5
B7E
330
18
100
AcDbEntity
  8
1
100
AcDbText
 10
277.5200001151456
 20
152.0223612198241
 30
0.0
 40
4.0
  1
パネルカット図
  7
ＭＳ明朝
 72
     1
 11
298.0000001151456
 21
152.0223612198241
 31
0.0
100
AcDbText
  0
LINE
  5
B7F
330
18
100
AcDbEntity
  8
1
100
AcDbLine
 10
275.5000001151456
 20
151.0223612198241
 30
0.0
 11
320.5000001151456
 21
151.0223612198241
 31
0.0
  0
DIMENSION
  5
B80
330
18
100
AcDbEntity
  8
2
100
AcDbDimension
  2
*D10
 10
354.0000001151456
 20
165.8530643533093
 30
0.0
 11
295.3062853749186
 21
167.6160160273953
 31
0.0
 70
   160
  1
<>
 71
     5
 42
112.0
  3
STANDARD
100
AcDbAlignedDimension
 13
242.0000001151456
 23
178.5223612198241
 33
0.0
 14
354.0000001151456
 24
178.5223612198241
 34
0.0
100
AcDbRotatedDimension
1001
ACAD
1000
DSTYLE
1002
{
1070
    40
1040
1.0
1070
   279
1070
     2
1002
}
  0
LINE
  5
B81
330
18
100
AcDbEntity
  8
1
100
AcDbLine
 10
252.0000001151456
 20
124.5231011729796
 30
0.0
 11
242.0000001151456
 21
123.5216212666685
 31
0.0
  0
LINE
  5
B82
330
18
100
AcDbEntity
  8
1
 48
5.0
100
AcDbLine
 10
242.0000001151456
 20
240.5223612198241
 30
0.0
 11
354.0000001151456
 21
240.5223612198241
 31
0.0
  0
TEXT
  5
C7A
330
18
100
AcDbEntity
  8
2
100
AcDbText
 10
297.9412632475023
 20
166.868579484022
 30
0.0
 40
2.5
  1
±1
  7
ＭＳ明朝
100
AcDbText
  0
TEXT
  5
C97
330
18
100
AcDbEntity
  8
2
100
AcDbText
 10
364.2338662923285
 20
208.7295372409007
 30
0.0
 40
2.5
  1
±1
 50
90.0
  7
ＭＳ明朝
100
AcDbText
  0
VIEWPORT
  5
699
330
692
100
AcDbEntity
 67
     1
  8
0
100
AcDbViewport
 10
177.8442340053819
 20
102.4481040529119
 30
0.0
 40
316.0884011543662
 41
202.4264760817345
 68
     1
 69
     1
 12
177.8442340053819
 22
102.4481040529119
 13
0.0
 23
0.0
 14
1.0
 24
1.0
 15
10.0
 25
10.0
 16
0.0
 26
0.0
 36
1.0
 17
0.0
 27
0.0
 37
0.0
 42
50.0
 43
0.0
 44
0.0
 45
202.4264760817345
 50
0.0
 51
0.0
 72
   100
 90
    33056
  1

281
     0
 71
     1
 74
     0
110
0.0
120
0.0
130
0.0
111
1.0
121
0.0
131
0.0
112
0.0
122
1.0
132
0.0
 79
     0
146
0.0
  0
VIEWPORT
  5
69B
330
692
100
AcDbEntity
 67
     1
  8
X ﾋﾞｭｰ
100
AcDbViewport
 10
142.5
 20
99.0
 30
0.0
 40
285.0
 41
198.0
 68
     2
 69
     2
 12
209.8309668882559
 22
148.28614582635
 13
0.0
 23
0.0
 14
1.0
 24
1.0
 15
10.0
 25
10.0
 16
0.0
 26
0.0
 36
1.0
 17
0.0
 27
0.0
 37
0.0
 42
50.0
 43
0.0
 44
0.0
 45
375.0014661367525
 50
0.0
 51
0.0
 72
   100
 90
    33056
  1

281
     0
 71
     1
 74
     0
110
0.0
120
0.0
130
0.0
111
1.0
121
0.0
131
0.0
112
0.0
122
1.0
132
0.0
 79
     0
146
0.0
  0
ENDSEC
  0
SECTION
  2
OBJECTS
  0
DICTIONARY
  5
C
330
0
100
AcDbDictionary
281
     1
  3
ACAD_GROUP
350
D
  3
ACAD_LAYOUT
350
5E1
  3
ACAD_MLINESTYLE
350
1B
  3
ACAD_PLOTSETTINGS
350
5E2
  3
ACAD_PLOTSTYLENAME
350
5DF
  3
AcadDim
350
662
  3
CONTENTDICTIONARY
350
20
  0
DICTIONARY
  5
D
102
{ACAD_REACTORS
330
C
102
}
330
C
100
AcDbDictionary
281
     1
  0
DICTIONARY
  5
5E1
102
{ACAD_REACTORS
330
C
102
}
330
C
100
AcDbDictionary
281
     1
  3
Model
350
5E3
  3
ﾚｲｱｳﾄ1
350
693
  0
DICTIONARY
  5
1B
102
{ACAD_REACTORS
330
C
102
}
330
C
100
AcDbDictionary
281
     1
  3
STANDARD
350
1C
  0
DICTIONARY
  5
5E2
102
{ACAD_REACTORS
330
C
102
}
330
C
100
AcDbDictionary
281
     1
  0
ACDBDICTIONARYWDFLT
  5
5DF
102
{ACAD_REACTORS
330
C
102
}
330
C
100
AcDbDictionary
281
     1
  3
Normal
350
5E0
100
AcDbDictionaryWithDefault
340
5E0
  0
XRECORD
  5
662
102
{ACAD_REACTORS
330
C
102
}
330
C
100
AcDbXrecord
280
     1
 90
   990106
  3

 60
     0
 61
     0
 62
     4
 63
     4
 64
     1
 65
     0
 66
     0
 67
     3
 68
     1
 69
     0
 70
     0
 71
     0
 72
     0
 40
0.0
170
     2
340
0
  0
DICTIONARY
  5
20
102
{ACAD_REACTORS
330
C
102
}
330
C
100
AcDbDictionary
281
     1
1001
CONTENTTABDATA
1070
     6
1000
ビス.dwg
1000
C:\Program Files\AutoCAD LT 97\SYMBOLS\ビス.dwg
1070
     0
1070
     0
1070
     1
1000
ｺﾈｸﾀ.dwg
1000
C:\Program Files\AutoCAD LT 97\SYMBOLS\ｺﾈｸﾀ.dwg
1070
     0
1070
     0
1070
     1
1000
表示器.dwg
1000
C:\Program Files\AutoCAD LT 97\SYMBOLS\表示器.dwg
1070
     0
1070
     0
1070
     1
1000
ﾄﾗﾝｽ.dwg
1000
C:\Program Files\AutoCAD LT 97\SYMBOLS\ﾄﾗﾝｽ.dwg
1070
     0
1070
     0
1070
     1
1000
ﾘﾚｰ.dwg
1000
C:\Program Files\AutoCAD LT 97\SYMBOLS\ﾘﾚｰ.dwg
1070
     0
1070
     0
1070
     1
1000
汎用.dwg
1000
C:\Program Files\AutoCAD LT 97\SYMBOLS\汎用.dwg
1070
     0
1070
     0
1070
     1
1001
CONTENTCURRENTTAB
1070
     2
  0
LAYOUT
  5
5E3
102
{ACAD_REACTORS
330
5E1
102
}
330
5E1
100
AcDbPlotSettings
  1

  2
RICOH imagio MP C3000 RPCS.pc3
  4
A3
  6

 40
5.873749732971191
 41
5.873747825622558
 42
5.873748779296875
 43
5.873748779296875
 44
419.9466552734374
 45
296.9259948730469
 46
0.0
 47
0.0
 48
0.0
 49
0.0
140
0.0
141
0.0
142
1.0
143
1.286122978510651
 70
 11952
 72
     1
 73
     0
 74
     0
  7
monochrome.ctb
 75
     0
147
0.7775306224277355
148
0.0
149
0.0
100
AcDbLayout
  1
Model
 70
     1
 71
     0
 10
0.0
 20
0.0
 11
12.0
 21
9.0
 12
0.0
 22
0.0
 32
0.0
 14
0.0
 24
0.0
 34
0.0
 15
0.0
 25
0.0
 35
0.0
146
0.0
 13
0.0
 23
0.0
 33
0.0
 16
1.0
 26
0.0
 36
0.0
 17
0.0
 27
1.0
 37
0.0
 76
     0
330
18
  0
LAYOUT
  5
693
102
{ACAD_REACTORS
330
5E1
102
}
330
5E1
100
AcDbPlotSettings
  1

  2
RICOH imagio MP C3000 RPCS
  4
A4
  6

 40
5.873749732971191
 41
5.873747825622558
 42
5.873748779296875
 43
5.873748779296875
 44
209.9733276367187
 45
296.9259948730469
 46
0.0
 47
0.0
 48
0.0
 49
0.0
140
0.0
141
0.0
142
1.0
143
1.0
 70
   688
 72
     1
 73
     1
 74
     5
  7
monochrome.ctb
 75
    16
147
1.0
148
0.0
149
0.0
100
AcDbLayout
  1
ﾚｲｱｳﾄ1
 70
     1
 71
     1
 10
-5.873748779296875
 20
-5.873749732971191
 11
291.05224609375
 21
204.0995779037475
 12
0.0
 22
0.0
 32
0.0
 14
0.0
 24
0.0
 34
0.0
 15
285.0
 25
198.0
 35
0.0
146
0.0
 13
0.0
 23
0.0
 33
0.0
 16
1.0
 26
0.0
 36
0.0
 17
0.0
 27
1.0
 37
0.0
 76
     0
330
692
331
699
  0
MLINESTYLE
  5
1C
102
{ACAD_REACTORS
330
1B
102
}
330
1B
100
AcDbMlineStyle
  2
STANDARD
 70
     0
  3

 62
   256
 51
90.0
 52
90.0
 71
     2
 49
0.5
 62
   256
  6
BYLAYER
 49
-0.5
 62
   256
  6
BYLAYER
  0
ACDBPLACEHOLDER
  5
5E0
102
{ACAD_REACTORS
330
5DF
102
}
330
5DF
  0
ENDSEC
  0
EOF
