  0
SECTION
  2
HEADER
  9
$ACADVER
  1
AC1015
  9
$ACADMAINTVER
 70
    11
  9
$DWGCODEPAGE
  3
ANSI_932
  9
$INSBASE
 10
0.0
 20
0.0
 30
0.0
  9
$EXTMIN
 10
82.07314233270578
 20
-14.92670500639032
 30
0.0
  9
$EXTMAX
 10
344.8553609625723
 20
293.9171229547426
 30
7.129032258064506
  9
$LIMMIN
 10
0.0
 20
0.0
  9
$LIMMAX
 10
420.0
 20
297.0
  9
$ORTHOMODE
 70
     0
  9
$REGENMODE
 70
     1
  9
$FILLMODE
 70
     1
  9
$QTEXTMODE
 70
     0
  9
$MIRRTEXT
 70
     1
  9
$LTSCALE
 40
1.0
  9
$ATTMODE
 70
     1
  9
$TEXTSIZE
 40
2.5
  9
$TRACEWID
 40
1.0
  9
$TEXTSTYLE
  7
MSPゴシック
  9
$CLAYER
  8
0
  9
$CELTYPE
  6
BYLAYER
  9
$CECOLOR
 62
   256
  9
$CELTSCALE
 40
1.0
  9
$DISPSILH
 70
     0
  9
$DIMSCALE
 40
0.0
  9
$DIMASZ
 40
2.5
  9
$DIMEXO
 40
1.5
  9
$DIMDLI
 40
5.0
  9
$DIMRND
 40
0.0
  9
$DIMDLE
 40
0.0
  9
$DIMEXE
 40
1.25
  9
$DIMTP
 40
0.0
  9
$DIMTM
 40
0.0
  9
$DIMTXT
 40
2.5
  9
$DIMCEN
 40
-5.0
  9
$DIMTSZ
 40
0.0
  9
$DIMTOL
 70
     0
  9
$DIMLIM
 70
     0
  9
$DIMTIH
 70
     0
  9
$DIMTOH
 70
     0
  9
$DIMSE1
 70
     0
  9
$DIMSE2
 70
     0
  9
$DIMTAD
 70
     1
  9
$DIMZIN
 70
     8
  9
$DIMBLK
  1

  9
$DIMASO
 70
     1
  9
$DIMSHO
 70
     1
  9
$DIMPOST
  1

  9
$DIMAPOST
  1

  9
$DIMALT
 70
     0
  9
$DIMALTD
 70
     4
  9
$DIMALTF
 40
0.0394
  9
$DIMLFAC
 40
1.0
  9
$DIMTOFL
 70
     1
  9
$DIMTVP
 40
0.0
  9
$DIMTIX
 70
     0
  9
$DIMSOXD
 70
     0
  9
$DIMSAH
 70
     0
  9
$DIMBLK1
  1

  9
$DIMBLK2
  1

  9
$DIMSTYLE
  2
STANDARD
  9
$DIMCLRD
 70
     0
  9
$DIMCLRE
 70
     0
  9
$DIMCLRT
 70
     0
  9
$DIMTFAC
 40
1.0
  9
$DIMGAP
 40
0.5
  9
$DIMJUST
 70
     0
  9
$DIMSD1
 70
     0
  9
$DIMSD2
 70
     0
  9
$DIMTOLJ
 70
     1
  9
$DIMTZIN
 70
     0
  9
$DIMALTZ
 70
     0
  9
$DIMALTTZ
 70
     0
  9
$DIMUPT
 70
     0
  9
$DIMDEC
 70
     3
  9
$DIMTDEC
 70
     3
  9
$DIMALTU
 70
     8
  9
$DIMALTTD
 70
     4
  9
$DIMTXSTY
  7
ＭＳ明朝
  9
$DIMAUNIT
 70
     0
  9
$DIMADEC
 70
     0
  9
$DIMALTRND
 40
0.0
  9
$DIMAZIN
 70
     0
  9
$DIMDSEP
 70
    46
  9
$DIMATFIT
 70
     3
  9
$DIMFRAC
 70
     0
  9
$DIMLDRBLK
  1

  9
$DIMLUNIT
 70
     6
  9
$DIMLWD
 70
    -2
  9
$DIMLWE
 70
    -2
  9
$DIMTMOVE
 70
     0
  9
$LUNITS
 70
     2
  9
$LUPREC
 70
     2
  9
$SKETCHINC
 40
1.0
  9
$FILLETRAD
 40
2.0
  9
$AUNITS
 70
     0
  9
$AUPREC
 70
     0
  9
$MENU
  1
acad
  9
$ELEVATION
 40
0.0
  9
$PELEVATION
 40
0.0
  9
$THICKNESS
 40
0.0
  9
$LIMCHECK
 70
     0
  9
$CHAMFERA
 40
10.0
  9
$CHAMFERB
 40
10.0
  9
$CHAMFERC
 40
20.0
  9
$CHAMFERD
 40
0.0
  9
$SKPOLY
 70
     0
  9
$TDCREATE
 40
2455957.594655949
  9
$TDUCREATE
 40
2455957.219655949
  9
$TDUPDATE
 40
2456029.629957094
  9
$TDUUPDATE
 40
2456029.254957095
  9
$TDINDWG
 40
0.0225246065
  9
$TDUSRTIMER
 40
0.0225246065
  9
$USRTIMER
 70
     1
  9
$ANGBASE
 50
0.0
  9
$ANGDIR
 70
     0
  9
$PDMODE
 70
     0
  9
$PDSIZE
 40
0.0
  9
$PLINEWID
 40
0.0
  9
$SPLFRAME
 70
     0
  9
$SPLINETYPE
 70
     6
  9
$SPLINESEGS
 70
     8
  9
$HANDSEED
  5
12CE
  9
$SURFTAB1
 70
     6
  9
$SURFTAB2
 70
     6
  9
$SURFTYPE
 70
     6
  9
$SURFU
 70
     6
  9
$SURFV
 70
     6
  9
$UCSBASE
  2

  9
$UCSNAME
  2

  9
$UCSORG
 10
0.0
 20
0.0
 30
0.0
  9
$UCSXDIR
 10
1.0
 20
0.0
 30
0.0
  9
$UCSYDIR
 10
0.0
 20
1.0
 30
0.0
  9
$UCSORTHOREF
  2

  9
$UCSORTHOVIEW
 70
     0
  9
$UCSORGTOP
 10
0.0
 20
0.0
 30
0.0
  9
$UCSORGBOTTOM
 10
0.0
 20
0.0
 30
0.0
  9
$UCSORGLEFT
 10
0.0
 20
0.0
 30
0.0
  9
$UCSORGRIGHT
 10
0.0
 20
0.0
 30
0.0
  9
$UCSORGFRONT
 10
0.0
 20
0.0
 30
0.0
  9
$UCSORGBACK
 10
0.0
 20
0.0
 30
0.0
  9
$PUCSBASE
  2

  9
$PUCSNAME
  2

  9
$PUCSORG
 10
0.0
 20
0.0
 30
0.0
  9
$PUCSXDIR
 10
1.0
 20
0.0
 30
0.0
  9
$PUCSYDIR
 10
0.0
 20
1.0
 30
0.0
  9
$PUCSORTHOREF
  2

  9
$PUCSORTHOVIEW
 70
     0
  9
$PUCSORGTOP
 10
0.0
 20
0.0
 30
0.0
  9
$PUCSORGBOTTOM
 10
0.0
 20
0.0
 30
0.0
  9
$PUCSORGLEFT
 10
0.0
 20
0.0
 30
0.0
  9
$PUCSORGRIGHT
 10
0.0
 20
0.0
 30
0.0
  9
$PUCSORGFRONT
 10
0.0
 20
0.0
 30
0.0
  9
$PUCSORGBACK
 10
0.0
 20
0.0
 30
0.0
  9
$USERI1
 70
     0
  9
$USERI2
 70
     0
  9
$USERI3
 70
     0
  9
$USERI4
 70
     0
  9
$USERI5
 70
     0
  9
$USERR1
 40
0.0
  9
$USERR2
 40
0.0
  9
$USERR3
 40
0.0
  9
$USERR4
 40
0.0
  9
$USERR5
 40
0.0
  9
$WORLDVIEW
 70
     1
  9
$SHADEDGE
 70
     3
  9
$SHADEDIF
 70
    70
  9
$TILEMODE
 70
     0
  9
$MAXACTVP
 70
    48
  9
$PINSBASE
 10
0.0
 20
0.0
 30
0.0
  9
$PLIMCHECK
 70
     0
  9
$PEXTMIN
 10
0.0
 20
0.0
 30
0.0
  9
$PEXTMAX
 10
285.0
 20
198.0
 30
0.0
  9
$PLIMMIN
 10
-5.873748779296875
 20
-5.873749732971191
  9
$PLIMMAX
 10
291.05224609375
 20
204.0995779037475
  9
$UNITMODE
 70
     0
  9
$VISRETAIN
 70
     1
  9
$PLINEGEN
 70
     0
  9
$PSLTSCALE
 70
     1
  9
$TREEDEPTH
 70
  3020
  9
$CMLSTYLE
  2
STANDARD
  9
$CMLJUST
 70
     0
  9
$CMLSCALE
 40
20.0
  9
$PROXYGRAPHICS
 70
     1
  9
$MEASUREMENT
 70
     1
  9
$CELWEIGHT
370
    -1
  9
$ENDCAPS
280
     0
  9
$JOINSTYLE
280
     0
  9
$LWDISPLAY
290
     0
  9
$INSUNITS
 70
     0
  9
$HYPERLINKBASE
  1

  9
$STYLESHEET
  1

  9
$XEDIT
290
     1
  9
$CEPSNTYPE
380
     0
  9
$PSTYLEMODE
290
     1
  9
$FINGERPRINTGUID
  2
{778B7AA4-961B-11D4-A809-0000F45A11F6}
  9
$VERSIONGUID
  2
{3EE5AF74-543A-4159-BA58-116C451FA46A}
  9
$EXTNAMES
290
     1
  9
$PSVPSCALE
 40
0.0
  9
$OLESTARTUP
290
     0
  0
ENDSEC
  0
SECTION
  2
CLASSES
  0
CLASS
  1
LWPOLYLINE
  2
AcDbPolyline
  3
AutoCAD 2000
 90
    32768
280
     0
281
     1
  0
CLASS
  1
ACDBDICTIONARYWDFLT
  2
AcDbDictionaryWithDefault
  3
AutoCAD 2000
 90
        0
280
     0
281
     0
  0
CLASS
  1
ACDBPLACEHOLDER
  2
AcDbPlaceHolder
  3
AutoCAD 2000
 90
        0
280
     0
281
     0
  0
CLASS
  1
LAYOUT
  2
AcDbLayout
  3
AutoCAD 2000
 90
        0
280
     0
281
     0
  0
ENDSEC
  0
SECTION
  2
TABLES
  0
TABLE
  2
VPORT
  5
8
330
0
100
AcDbSymbolTable
 70
     1
  0
VPORT
  5
12C5
330
8
100
AcDbSymbolTableRecord
100
AcDbViewportTableRecord
  2
*Active
 70
     0
 10
0.0
 20
0.0
 11
1.0
 21
1.0
 12
213.4606943412924
 22
139.4929282322909
 13
0.0
 23
0.0
 14
1.0
 24
1.0
 15
10.0
 25
10.0
 16
0.0
 26
0.0
 36
1.0
 17
0.0
 27
0.0
 37
0.0
 40
311.3431928134744
 41
1.561497326203208
 42
50.0
 43
0.0
 44
0.0
 50
0.0
 51
0.0
 71
     0
 72
   100
 73
     1
 74
     1
 75
     1
 76
     1
 77
     0
 78
     0
281
     0
 65
     1
110
0.0
120
0.0
130
0.0
111
1.0
121
0.0
131
0.0
112
0.0
122
1.0
132
0.0
 79
     0
146
0.0
  0
ENDTAB
  0
TABLE
  2
LTYPE
  5
5
330
0
100
AcDbSymbolTable
 70
     1
  0
LTYPE
  5
12
330
5
100
AcDbSymbolTableRecord
100
AcDbLinetypeTableRecord
  2
BYBLOCK
 70
     0
  3

 72
    65
 73
     0
 40
0.0
  0
LTYPE
  5
13
330
5
100
AcDbSymbolTableRecord
100
AcDbLinetypeTableRecord
  2
BYLAYER
 70
     0
  3

 72
    65
 73
     0
 40
0.0
  0
LTYPE
  5
14
330
5
100
AcDbSymbolTableRecord
100
AcDbLinetypeTableRecord
  2
CONTINUOUS
 70
     0
  3
Solid line
 72
    65
 73
     0
 40
0.0
  0
ENDTAB
  0
TABLE
  2
LAYER
  5
2
330
0
100
AcDbSymbolTable
 70
     5
  0
LAYER
  5
E
330
2
100
AcDbSymbolTableRecord
100
AcDbLayerTableRecord
  2
0
 70
     0
 62
     4
  6
CONTINUOUS
370
    -3
390
5E0
  0
LAYER
  5
21F
330
2
100
AcDbSymbolTableRecord
100
AcDbLayerTableRecord
  2
DEFPOINTS
 70
     0
 62
     9
  6
CONTINUOUS
290
     0
370
    -3
390
5E0
  0
LAYER
  5
508
330
2
100
AcDbSymbolTableRecord
100
AcDbLayerTableRecord
  2
X ﾋﾞｭｰ
 70
     0
 62
     2
  6
CONTINUOUS
290
     0
370
    35
390
5E0
  0
LAYER
  5
CF6
330
2
100
AcDbSymbolTableRecord
100
AcDbLayerTableRecord
  2
1
 70
     0
 62
     5
  6
CONTINUOUS
370
    30
390
5E0
  0
LAYER
  5
CF7
330
2
100
AcDbSymbolTableRecord
100
AcDbLayerTableRecord
  2
2
 70
     0
 62
     6
  6
CONTINUOUS
370
     9
390
5E0
  0
ENDTAB
  0
TABLE
  2
STYLE
  5
3
330
0
100
AcDbSymbolTable
 70
     5
  0
STYLE
  5
F
330
3
100
AcDbSymbolTableRecord
100
AcDbTextStyleTableRecord
  2
STANDARD
 70
     0
 40
0.0
 41
1.0
 50
0.0
 71
     0
 42
2.5
  3
txt.shx
  4
bigfont.shx
  0
STYLE
  5
4B4
330
3
100
AcDbSymbolTableRecord
100
AcDbTextStyleTableRecord
  2
ＭＳ明朝
 70
     0
 40
0.0
 41
1.0
 50
0.0
 71
     0
 42
2.5
  3
MS Mincho.ttf
  4

1001
ACAD
1000
MS Mincho
1071
    32785
  0
STYLE
  5
CF8
330
3
100
AcDbSymbolTableRecord
100
AcDbTextStyleTableRecord
  2
MSゴシック
 70
     0
 40
0.0
 41
1.0
 50
0.0
 71
     0
 42
2.5
  3
MS Gothic.ttf
  4

1001
ACAD
1000
MS Gothic
1071
    32817
  0
STYLE
  5
CFA
330
3
100
AcDbSymbolTableRecord
100
AcDbTextStyleTableRecord
  2
MSPゴシック
 70
     0
 40
0.0
 41
1.0
 50
0.0
 71
     0
 42
2.5
  3
MS PGothic.ttf
  4

1001
ACAD
1000
MS PGothic
1071
    32818
  0
STYLE
  5
CFB
330
3
100
AcDbSymbolTableRecord
100
AcDbTextStyleTableRecord
  2
丸ゴシック
 70
     0
 40
0.0
 41
1.0
 50
0.0
 71
     0
 42
2.5
  3
HGRSMP.TTF
  4

1001
ACAD
1000
HGMaruGothicMPRO
1071
    32817
  0
ENDTAB
  0
TABLE
  2
VIEW
  5
6
330
0
100
AcDbSymbolTable
 70
     0
  0
ENDTAB
  0
TABLE
  2
UCS
  5
7
330
0
100
AcDbSymbolTable
 70
     0
  0
ENDTAB
  0
TABLE
  2
APPID
  5
9
330
0
100
AcDbSymbolTable
 70
     5
  0
APPID
  5
10
330
9
100
AcDbSymbolTableRecord
100
AcDbRegAppTableRecord
  2
ACAD
 70
     0
  0
APPID
  5
21
330
9
100
AcDbSymbolTableRecord
100
AcDbRegAppTableRecord
  2
CONTENTTABDATA
 70
     0
  0
APPID
  5
22
330
9
100
AcDbSymbolTableRecord
100
AcDbRegAppTableRecord
  2
CONTENTCURRENTTAB
 70
     0
  0
APPID
  5
137
330
9
100
AcDbSymbolTableRecord
100
AcDbRegAppTableRecord
  2
CONTENTBLOCKDESCRIPTION
 70
     0
  0
APPID
  5
186
330
9
100
AcDbSymbolTableRecord
100
AcDbRegAppTableRecord
  2
CONTENTBLOCKICON
 70
     0
  0
ENDTAB
  0
TABLE
  2
DIMSTYLE
  5
A
330
0
100
AcDbSymbolTable
 70
     2
100
AcDbDimStyleTable
 71
     1
340
1D
  0
DIMSTYLE
105
1D
102
{ACAD_REACTORS
330
F74
330
F85
330
F9F
330
FA1
330
FA6
330
FA9
330
FAE
330
FCD
330
FCE
330
117F
102
}
330
A
100
AcDbSymbolTableRecord
100
AcDbDimStyleTableRecord
  2
STANDARD
 70
     0
 40
0.0
 41
2.5
 42
1.5
 43
5.0
 44
1.25
 73
     0
 74
     0
 77
     1
 78
     8
140
2.5
141
-5.0
143
0.0394
147
0.5
171
     4
172
     1
271
     3
272
     3
273
     8
274
     4
277
     6
340
4B4
  0
DIMSTYLE
105
CFC
102
{ACAD_REACTORS
330
F94
102
}
330
A
100
AcDbSymbolTableRecord
100
AcDbDimStyleTableRecord
  2
STANDARD$3
 70
     0
 40
0.0
 41
2.5
 42
3.0
 43
5.0
 44
1.25
 73
     0
 74
     0
 77
     1
 78
     8
140
4.0
141
0.0
143
0.0394
147
0.5
171
     4
271
     2
272
     2
273
     8
274
     4
277
     6
340
4B4
  0
ENDTAB
  0
TABLE
  2
BLOCK_RECORD
  5
1
330
0
100
AcDbSymbolTable
 70
    22
  0
BLOCK_RECORD
  5
18
330
1
100
AcDbSymbolTableRecord
100
AcDbBlockTableRecord
  2
*MODEL_SPACE
340
5E3
  0
BLOCK_RECORD
  5
692
330
1
100
AcDbSymbolTableRecord
100
AcDbBlockTableRecord
  2
*Paper_Space
340
693
  0
BLOCK_RECORD
  5
11E1
330
1
100
AcDbSymbolTableRecord
100
AcDbBlockTableRecord
  2
*D11
340
0
  0
BLOCK_RECORD
  5
11ED
330
1
100
AcDbSymbolTableRecord
100
AcDbBlockTableRecord
  2
*D12
340
0
  0
BLOCK_RECORD
  5
11F9
330
1
100
AcDbSymbolTableRecord
100
AcDbBlockTableRecord
  2
*D13
340
0
  0
BLOCK_RECORD
  5
1201
330
1
100
AcDbSymbolTableRecord
100
AcDbBlockTableRecord
  2
*D14
340
0
  0
BLOCK_RECORD
  5
120D
330
1
100
AcDbSymbolTableRecord
100
AcDbBlockTableRecord
  2
*D15
340
0
  0
BLOCK_RECORD
  5
1219
330
1
100
AcDbSymbolTableRecord
100
AcDbBlockTableRecord
  2
*D16
340
0
  0
BLOCK_RECORD
  5
1225
330
1
100
AcDbSymbolTableRecord
100
AcDbBlockTableRecord
  2
*D17
340
0
  0
BLOCK_RECORD
  5
1231
330
1
100
AcDbSymbolTableRecord
100
AcDbBlockTableRecord
  2
*D18
340
0
  0
BLOCK_RECORD
  5
123D
330
1
100
AcDbSymbolTableRecord
100
AcDbBlockTableRecord
  2
*D19
340
0
  0
BLOCK_RECORD
  5
124B
330
1
100
AcDbSymbolTableRecord
100
AcDbBlockTableRecord
  2
*D20
340
0
  0
BLOCK_RECORD
  5
1257
330
1
100
AcDbSymbolTableRecord
100
AcDbBlockTableRecord
  2
*D21
340
0
  0
ENDTAB
  0
ENDSEC
  0
SECTION
  2
BLOCKS
  0
BLOCK
  5
19
330
18
100
AcDbEntity
  8
0
100
AcDbBlockBegin
  2
*MODEL_SPACE
 70
     0
 10
0.0
 20
0.0
 30
0.0
  3
*MODEL_SPACE
  1

  0
ENDBLK
  5
1A
330
18
100
AcDbEntity
  8
0
100
AcDbBlockEnd
  0
BLOCK
  5
694
330
692
100
AcDbEntity
 67
     1
  8
0
100
AcDbBlockBegin
  2
*Paper_Space
 70
     0
 10
0.0
 20
0.0
 30
0.0
  3
*Paper_Space
  1

  0
ENDBLK
  5
695
330
692
100
AcDbEntity
 67
     1
  8
0
100
AcDbBlockEnd
  0
BLOCK
  5
11EB
330
11E1
100
AcDbEntity
  8
0
100
AcDbBlockBegin
  2
*D11
 70
     1
 10
0.0
 20
0.0
 30
0.0
  3
*D11
  1

  0
LINE
  5
1263
330
11E1
100
AcDbEntity
  8
2
 62
     0
370
    -2
100
AcDbLine
 10
96.91599947556303
 20
158.4032950792169
 30
0.0
 11
84.46599947556297
 21
158.4032950792169
 31
0.0
  0
LINE
  5
1264
330
11E1
100
AcDbEntity
  8
2
 62
     0
370
    -2
100
AcDbLine
 10
97.34599947556308
 20
123.4032950792168
 30
0.0
 11
84.46599947556297
 21
123.4032950792168
 31
0.0
  0
LINE
  5
1265
330
11E1
100
AcDbEntity
  8
2
 62
     0
370
    -2
100
AcDbLine
 10
85.71599947556297
 20
155.9032950792169
 30
0.0
 11
85.71599947556297
 21
125.9032950792168
 31
0.0
  0
SOLID
  5
1266
330
11E1
100
AcDbEntity
  8
2
 62
     0
100
AcDbTrace
 10
85.29933280889629
 20
155.9032950792169
 30
0.0
 11
86.13266614222963
 21
155.9032950792169
 31
0.0
 12
85.71599947556297
 22
158.4032950792169
 32
0.0
 13
85.71599947556297
 23
158.4032950792169
 33
0.0
  0
SOLID
  5
1267
330
11E1
100
AcDbEntity
  8
2
 62
     0
100
AcDbTrace
 10
85.29933280889629
 20
125.9032950792168
 30
0.0
 11
86.13266614222963
 21
125.9032950792168
 31
0.0
 12
85.71599947556297
 22
123.4032950792168
 32
0.0
 13
85.71599947556297
 23
123.4032950792168
 33
0.0
  0
MTEXT
  5
1268
330
11E1
100
AcDbEntity
  8
2
 62
     0
100
AcDbMText
 10
83.96599947556294
 20
140.9032950792169
 30
0.0
 40
2.5
 41
0.0
 71
     5
 72
     1
  1
\A1;35
  7
ＭＳ明朝
 11
0.0000000000000001
 21
1.0
 31
0.0
 73
     1
 44
1.0
  0
POINT
  5
1269
330
11E1
100
AcDbEntity
  8
DEFPOINTS
 62
     0
100
AcDbPoint
 10
98.41599947556304
 20
158.4032950792169
 30
0.0
  0
POINT
  5
126A
330
11E1
100
AcDbEntity
  8
DEFPOINTS
 62
     0
100
AcDbPoint
 10
98.84599947556308
 20
123.4032950792168
 30
0.0
  0
POINT
  5
126B
330
11E1
100
AcDbEntity
  8
DEFPOINTS
 62
     0
100
AcDbPoint
 10
85.71599947556297
 20
123.4032950792168
 30
0.0
  0
ENDBLK
  5
11EC
330
11E1
100
AcDbEntity
  8
0
100
AcDbBlockEnd
  0
BLOCK
  5
11F7
330
11ED
100
AcDbEntity
  8
0
100
AcDbBlockBegin
  2
*D12
 70
     1
 10
0.0
 20
0.0
 30
0.0
  3
*D12
  1

  0
LINE
  5
126C
330
11ED
100
AcDbEntity
  8
2
 62
     0
370
    -2
100
AcDbLine
 10
97.10599947556307
 20
259.403295079217
 30
0.0
 11
84.46599947556299
 21
259.403295079217
 31
0.0
  0
LINE
  5
126D
330
11ED
100
AcDbEntity
  8
2
 62
     0
370
    -2
100
AcDbLine
 10
96.91599947556303
 20
158.4032950792169
 30
0.0
 11
84.46599947556297
 21
158.4032950792169
 31
0.0
  0
LINE
  5
126E
330
11ED
100
AcDbEntity
  8
2
 62
     0
370
    -2
100
AcDbLine
 10
85.71599947556299
 20
256.903295079217
 30
0.0
 11
85.71599947556299
 21
160.9032950792169
 31
0.0
  0
SOLID
  5
126F
330
11ED
100
AcDbEntity
  8
2
 62
     0
100
AcDbTrace
 10
85.29933280889633
 20
256.903295079217
 30
0.0
 11
86.13266614222967
 21
256.903295079217
 31
0.0
 12
85.71599947556299
 22
259.403295079217
 32
0.0
 13
85.71599947556299
 23
259.403295079217
 33
0.0
  0
SOLID
  5
1270
330
11ED
100
AcDbEntity
  8
2
 62
     0
100
AcDbTrace
 10
85.29933280889631
 20
160.9032950792169
 30
0.0
 11
86.13266614222965
 21
160.9032950792169
 31
0.0
 12
85.71599947556297
 22
158.4032950792169
 32
0.0
 13
85.71599947556297
 23
158.4032950792169
 33
0.0
  0
MTEXT
  5
1271
330
11ED
100
AcDbEntity
  8
2
 62
     0
100
AcDbMText
 10
83.96599947556294
 20
208.9032950792169
 30
0.0
 40
2.5
 41
0.0
 71
     5
 72
     1
  1
\A1;101
  7
ＭＳ明朝
 11
0.0000000000000001
 21
1.0
 31
0.0
 73
     1
 44
1.0
  0
POINT
  5
1272
330
11ED
100
AcDbEntity
  8
DEFPOINTS
 62
     0
100
AcDbPoint
 10
98.60599947556307
 20
259.403295079217
 30
0.0
  0
POINT
  5
1273
330
11ED
100
AcDbEntity
  8
DEFPOINTS
 62
     0
100
AcDbPoint
 10
98.41599947556304
 20
158.4032950792169
 30
0.0
  0
POINT
  5
1274
330
11ED
100
AcDbEntity
  8
DEFPOINTS
 62
     0
100
AcDbPoint
 10
85.71599947556297
 20
158.4032950792169
 30
0.0
  0
ENDBLK
  5
11F8
330
11ED
100
AcDbEntity
  8
0
100
AcDbBlockEnd
  0
BLOCK
  5
11FF
330
11F9
100
AcDbEntity
  8
0
100
AcDbBlockBegin
  2
*D13
 70
     1
 10
0.0
 20
0.0
 30
0.0
  3
*D13
  1

  0
LINE
  5
1275
330
11F9
100
AcDbEntity
  8
2
 62
     0
370
    -2
100
AcDbLine
 10
157.4382996044242
 20
168.567577649788
 30
0.0
 11
169.263875376674
 21
160.967641928948
 31
0.0
  0
MTEXT
  5
1276
330
11F9
100
AcDbEntity
  8
2
 62
     0
100
AcDbMText
 10
163.2456548134465
 20
166.9156051223701
 30
0.0
 40
2.5
 41
0.0
 71
     5
 72
     1
  1
\A1;2-\U+22054.5
  7
ＭＳ明朝
 11
0.8412503090015125
 21
-0.5406458337995959
 31
0.0
 73
     1
 44
1.0
  0
SOLID
  5
1277
330
11F9
100
AcDbEntity
  8
2
 62
     0
100
AcDbTrace
 10
169.4891444740905
 20
161.3181628910319
 30
0.0
 11
169.0386062792576
 21
160.617120966864
 31
0.0
 12
171.3670011491778
 22
159.616027344449
 32
0.0
 13
171.3670011491778
 23
159.616027344449
 33
0.0
  0
POINT
  5
1278
330
11F9
100
AcDbEntity
  8
DEFPOINTS
 62
     0
100
AcDbPoint
 10
171.3670011491778
 20
159.616027344449
 30
0.0
  0
POINT
  5
1279
330
11F9
100
AcDbEntity
  8
DEFPOINTS
 62
     0
100
AcDbPoint
 10
175.1526275396845
 20
157.1831210923509
 30
0.0
  0
ENDBLK
  5
1200
330
11F9
100
AcDbEntity
  8
0
100
AcDbBlockEnd
  0
BLOCK
  5
120B
330
1201
100
AcDbEntity
  8
0
100
AcDbBlockBegin
  2
*D14
 70
     1
 10
0.0
 20
0.0
 30
0.0
  3
*D14
  1

  0
LINE
  5
127A
330
1201
100
AcDbEntity
  8
2
 62
     0
370
    -2
100
AcDbLine
 10
105.345999475563
 20
265.903295079217
 30
0.0
 11
105.345999475563
 21
279.2233666095648
 31
0.0
  0
LINE
  5
127B
330
1201
100
AcDbEntity
  8
2
 62
     0
370
    -2
100
AcDbLine
 10
173.3459994755628
 20
265.9032950792169
 30
0.0
 11
173.3459994755628
 21
279.2233666095648
 31
0.0
  0
LINE
  5
127C
330
1201
100
AcDbEntity
  8
2
 62
     0
370
    -2
100
AcDbLine
 10
107.845999475563
 20
277.9733666095649
 30
0.0
 11
170.8459994755628
 21
277.9733666095649
 31
0.0
  0
SOLID
  5
127D
330
1201
100
AcDbEntity
  8
2
 62
     0
100
AcDbTrace
 10
107.845999475563
 20
278.3900332762315
 30
0.0
 11
107.845999475563
 21
277.5566999428982
 31
0.0
 12
105.345999475563
 22
277.9733666095649
 32
0.0
 13
105.345999475563
 23
277.9733666095649
 33
0.0
  0
SOLID
  5
127E
330
1201
100
AcDbEntity
  8
2
 62
     0
100
AcDbTrace
 10
170.8459994755628
 20
278.3900332762315
 30
0.0
 11
170.8459994755628
 21
277.5566999428982
 31
0.0
 12
173.3459994755628
 22
277.9733666095649
 32
0.0
 13
173.3459994755628
 23
277.9733666095649
 33
0.0
  0
MTEXT
  5
127F
330
1201
100
AcDbEntity
  8
2
 62
     0
100
AcDbMText
 10
139.3459994755629
 20
279.7233666095649
 30
0.0
 40
2.5
 41
0.0
 71
     5
 72
     1
  1
\A1;68
  7
ＭＳ明朝
 73
     1
 44
1.0
  0
POINT
  5
1280
330
1201
100
AcDbEntity
  8
DEFPOINTS
 62
     0
100
AcDbPoint
 10
105.345999475563
 20
264.403295079217
 30
0.0
  0
POINT
  5
1281
330
1201
100
AcDbEntity
  8
DEFPOINTS
 62
     0
100
AcDbPoint
 10
173.3459994755628
 20
264.4032950792169
 30
0.0
  0
POINT
  5
1282
330
1201
100
AcDbEntity
  8
DEFPOINTS
 62
     0
100
AcDbPoint
 10
173.3459994755628
 20
277.9733666095649
 30
0.0
  0
ENDBLK
  5
120C
330
1201
100
AcDbEntity
  8
0
100
AcDbBlockEnd
  0
BLOCK
  5
1217
330
120D
100
AcDbEntity
  8
0
100
AcDbBlockBegin
  2
*D15
 70
     1
 10
0.0
 20
0.0
 30
0.0
  3
*D15
  1

  0
LINE
  5
1283
330
120D
100
AcDbEntity
  8
2
 62
     0
370
    -2
100
AcDbLine
 10
97.34599947556308
 20
267.403295079217
 30
0.0
 11
84.46599947556297
 21
267.403295079217
 31
0.0
  0
LINE
  5
1284
330
120D
100
AcDbEntity
  8
2
 62
     0
370
    -2
100
AcDbLine
 10
97.10599947556307
 20
259.403295079217
 30
0.0
 11
84.46599947556297
 21
259.403295079217
 31
0.0
  0
LINE
  5
1285
330
120D
100
AcDbEntity
  8
2
 62
     0
370
    -2
100
AcDbLine
 10
85.71599947556297
 20
264.903295079217
 30
0.0
 11
85.71599947556297
 21
261.903295079217
 31
0.0
  0
SOLID
  5
1286
330
120D
100
AcDbEntity
  8
2
 62
     0
100
AcDbTrace
 10
85.29933280889629
 20
264.903295079217
 30
0.0
 11
86.13266614222963
 21
264.903295079217
 31
0.0
 12
85.71599947556297
 22
267.403295079217
 32
0.0
 13
85.71599947556297
 23
267.403295079217
 33
0.0
  0
SOLID
  5
1287
330
120D
100
AcDbEntity
  8
2
 62
     0
100
AcDbTrace
 10
85.29933280889629
 20
261.903295079217
 30
0.0
 11
86.13266614222963
 21
261.903295079217
 31
0.0
 12
85.71599947556297
 22
259.403295079217
 32
0.0
 13
85.71599947556297
 23
259.403295079217
 33
0.0
  0
MTEXT
  5
1288
330
120D
100
AcDbEntity
  8
2
 62
     0
100
AcDbMText
 10
83.96599947556293
 20
263.403295079217
 30
0.0
 40
2.5
 41
0.0
 71
     5
 72
     1
  1
\A1;8
  7
ＭＳ明朝
 11
0.0000000000000001
 21
1.0
 31
0.0
 73
     1
 44
1.0
  0
POINT
  5
1289
330
120D
100
AcDbEntity
  8
DEFPOINTS
 62
     0
100
AcDbPoint
 10
98.84599947556308
 20
267.403295079217
 30
0.0
  0
POINT
  5
128A
330
120D
100
AcDbEntity
  8
DEFPOINTS
 62
     0
100
AcDbPoint
 10
98.60599947556307
 20
259.403295079217
 30
0.0
  0
POINT
  5
128B
330
120D
100
AcDbEntity
  8
DEFPOINTS
 62
     0
100
AcDbPoint
 10
85.71599947556297
 20
259.403295079217
 30
0.0
  0
ENDBLK
  5
1218
330
120D
100
AcDbEntity
  8
0
100
AcDbBlockEnd
  0
BLOCK
  5
1223
330
1219
100
AcDbEntity
  8
0
100
AcDbBlockBegin
  2
*D16
 70
     1
 10
0.0
 20
0.0
 30
0.0
  3
*D16
  1

  0
LINE
  5
128C
330
1219
100
AcDbEntity
  8
2
 62
     0
370
    -2
100
AcDbLine
 10
105.345999475563
 20
265.903295079217
 30
0.0
 11
105.345999475563
 21
279.2233666095648
 31
0.0
  0
LINE
  5
128D
330
1219
100
AcDbEntity
  8
2
 62
     0
370
    -2
100
AcDbLine
 10
96.84599947556286
 20
265.9032950792169
 30
0.0
 11
96.84599947556286
 21
279.2233666095648
 31
0.0
  0
LINE
  5
128E
330
1219
100
AcDbEntity
  8
2
 62
     0
370
    -2
100
AcDbLine
 10
102.845999475563
 20
277.9733666095649
 30
0.0
 11
99.34599947556286
 21
277.9733666095649
 31
0.0
  0
SOLID
  5
128F
330
1219
100
AcDbEntity
  8
2
 62
     0
100
AcDbTrace
 10
102.845999475563
 20
278.3900332762315
 30
0.0
 11
102.845999475563
 21
277.5566999428982
 31
0.0
 12
105.345999475563
 22
277.9733666095649
 32
0.0
 13
105.345999475563
 23
277.9733666095649
 33
0.0
  0
SOLID
  5
1290
330
1219
100
AcDbEntity
  8
2
 62
     0
100
AcDbTrace
 10
99.34599947556286
 20
278.3900332762315
 30
0.0
 11
99.34599947556286
 21
277.5566999428982
 31
0.0
 12
96.84599947556286
 22
277.9733666095649
 32
0.0
 13
96.84599947556286
 23
277.9733666095649
 33
0.0
  0
MTEXT
  5
1291
330
1219
100
AcDbEntity
  8
2
 62
     0
100
AcDbMText
 10
101.0959994755629
 20
279.7233666095649
 30
0.0
 40
2.5
 41
0.0
 71
     5
 72
     1
  1
\A1;8.5
  7
ＭＳ明朝
 73
     1
 44
1.0
  0
POINT
  5
1292
330
1219
100
AcDbEntity
  8
DEFPOINTS
 62
     0
100
AcDbPoint
 10
105.345999475563
 20
264.403295079217
 30
0.0
  0
POINT
  5
1293
330
1219
100
AcDbEntity
  8
DEFPOINTS
 62
     0
100
AcDbPoint
 10
96.84599947556286
 20
264.4032950792169
 30
0.0
  0
POINT
  5
1294
330
1219
100
AcDbEntity
  8
DEFPOINTS
 62
     0
100
AcDbPoint
 10
96.84599947556286
 20
277.9733666095649
 30
0.0
  0
ENDBLK
  5
1224
330
1219
100
AcDbEntity
  8
0
100
AcDbBlockEnd
  0
BLOCK
  5
122F
330
1225
100
AcDbEntity
  8
0
100
AcDbBlockBegin
  2
*D17
 70
     1
 10
0.0
 20
0.0
 30
0.0
  3
*D17
  1

  0
LINE
  5
1295
330
1225
100
AcDbEntity
  8
2
 62
     0
370
    -2
100
AcDbLine
 10
173.3459994755628
 20
265.9032950792169
 30
0.0
 11
173.3459994755628
 21
279.2233666095648
 31
0.0
  0
LINE
  5
1296
330
1225
100
AcDbEntity
  8
2
 62
     0
370
    -2
100
AcDbLine
 10
181.8459846083992
 20
266.9032950792169
 30
0.0
 11
181.8459846083992
 21
279.2233666095648
 31
0.0
  0
LINE
  5
1297
330
1225
100
AcDbEntity
  8
2
 62
     0
370
    -2
100
AcDbLine
 10
175.8459994755628
 20
277.9733666095649
 30
0.0
 11
179.3459846083992
 21
277.9733666095649
 31
0.0
  0
SOLID
  5
1298
330
1225
100
AcDbEntity
  8
2
 62
     0
100
AcDbTrace
 10
175.8459994755628
 20
278.3900332762315
 30
0.0
 11
175.8459994755628
 21
277.5566999428982
 31
0.0
 12
173.3459994755628
 22
277.9733666095649
 32
0.0
 13
173.3459994755628
 23
277.9733666095649
 33
0.0
  0
SOLID
  5
1299
330
1225
100
AcDbEntity
  8
2
 62
     0
100
AcDbTrace
 10
179.3459846083992
 20
278.3900332762315
 30
0.0
 11
179.3459846083992
 21
277.5566999428982
 31
0.0
 12
181.8459846083992
 22
277.9733666095649
 32
0.0
 13
181.8459846083992
 23
277.9733666095649
 33
0.0
  0
MTEXT
  5
129A
330
1225
100
AcDbEntity
  8
2
 62
     0
100
AcDbMText
 10
177.595992041981
 20
279.7233666095649
 30
0.0
 40
2.5
 41
0.0
 71
     5
 72
     1
  1
\A1;8.5
  7
ＭＳ明朝
 73
     1
 44
1.0
  0
POINT
  5
129B
330
1225
100
AcDbEntity
  8
DEFPOINTS
 62
     0
100
AcDbPoint
 10
173.3459994755628
 20
264.4032950792169
 30
0.0
  0
POINT
  5
129C
330
1225
100
AcDbEntity
  8
DEFPOINTS
 62
     0
100
AcDbPoint
 10
181.8459846083992
 20
265.4032950792169
 30
0.0
  0
POINT
  5
129D
330
1225
100
AcDbEntity
  8
DEFPOINTS
 62
     0
100
AcDbPoint
 10
181.8459846083992
 20
277.9733666095649
 30
0.0
  0
ENDBLK
  5
1230
330
1225
100
AcDbEntity
  8
0
100
AcDbBlockEnd
  0
BLOCK
  5
123B
330
1231
100
AcDbEntity
  8
0
100
AcDbBlockBegin
  2
*D18
 70
     1
 10
0.0
 20
0.0
 30
0.0
  3
*D18
  1

  0
LINE
  5
129E
330
1231
100
AcDbEntity
  8
2
 62
     0
370
    -2
100
AcDbLine
 10
240.5555548367017
 20
267.4032950792169
 30
0.0
 11
229.2507771561325
 21
267.4032950792169
 31
0.0
  0
LINE
  5
129F
330
1231
100
AcDbEntity
  8
2
 62
     0
370
    -2
100
AcDbLine
 10
240.0555548367017
 20
123.4032950792169
 30
0.0
 11
229.2507771561324
 21
123.4032950792169
 31
0.0
  0
LINE
  5
12A0
330
1231
100
AcDbEntity
  8
2
 62
     0
370
    -2
100
AcDbLine
 10
230.5007771561324
 20
264.9032950792169
 30
0.0
 11
230.5007771561324
 21
125.9032950792169
 31
0.0
  0
SOLID
  5
12A1
330
1231
100
AcDbEntity
  8
2
 62
     0
100
AcDbTrace
 10
230.0841104894658
 20
264.9032950792169
 30
0.0
 11
230.9174438227991
 21
264.9032950792169
 31
0.0
 12
230.5007771561324
 22
267.4032950792169
 32
0.0
 13
230.5007771561324
 23
267.4032950792169
 33
0.0
  0
SOLID
  5
12A2
330
1231
100
AcDbEntity
  8
2
 62
     0
100
AcDbTrace
 10
230.0841104894657
 20
125.9032950792169
 30
0.0
 11
230.9174438227991
 21
125.9032950792169
 31
0.0
 12
230.5007771561324
 22
123.4032950792169
 32
0.0
 13
230.5007771561324
 23
123.4032950792169
 33
0.0
  0
MTEXT
  5
12A3
330
1231
100
AcDbEntity
  8
2
 62
     0
100
AcDbMText
 10
228.7507771561324
 20
195.403295079217
 30
0.0
 40
2.5
 41
0.0
 71
     5
 72
     1
  1
\A1;144
  7
ＭＳ明朝
 11
0.0000000000000001
 21
1.0
 31
0.0
 73
     1
 44
1.0
  0
POINT
  5
12A4
330
1231
100
AcDbEntity
  8
DEFPOINTS
 62
     0
100
AcDbPoint
 10
242.0555548367017
 20
267.4032950792169
 30
0.0
  0
POINT
  5
12A5
330
1231
100
AcDbEntity
  8
DEFPOINTS
 62
     0
100
AcDbPoint
 10
241.5555548367017
 20
123.4032950792169
 30
0.0
  0
POINT
  5
12A6
330
1231
100
AcDbEntity
  8
DEFPOINTS
 62
     0
100
AcDbPoint
 10
230.5007771561324
 20
123.4032950792169
 30
0.0
  0
ENDBLK
  5
123C
330
1231
100
AcDbEntity
  8
0
100
AcDbBlockEnd
  0
BLOCK
  5
1249
330
123D
100
AcDbEntity
  8
0
100
AcDbBlockBegin
  2
*D19
 70
     1
 10
0.0
 20
0.0
 30
0.0
  3
*D19
  1

  0
LINE
  5
12A7
330
123D
100
AcDbEntity
  8
2
 62
     0
370
    -2
100
AcDbLine
 10
324.0322817821627
 20
3.139604396720443
 30
0.0
 11
344.8553609625723
 21
3.139604396720437
 31
0.0
  0
LINE
  5
12A8
330
123D
100
AcDbEntity
  8
2
 62
     0
370
    -2
100
AcDbLine
 10
322.4485030269383
 20
2.139604396720443
 30
0.0
 11
344.8553609625723
 21
2.139604396720436
 31
0.0
  0
LINE
  5
12A9
330
123D
100
AcDbEntity
  8
2
 62
     0
370
    -2
100
AcDbLine
 10
343.6053609625723
 20
5.639604396720437
 30
0.0
 11
343.6053609625723
 21
8.139604396720438
 31
0.0
  0
LINE
  5
12AA
330
123D
100
AcDbEntity
  8
2
 62
     0
370
    -2
100
AcDbLine
 10
343.6053609625723
 20
-0.3603956032795631
 30
0.0
 11
343.6053609625723
 21
-4.903252746136706
 31
0.0
  0
LINE
  5
12AB
330
123D
100
AcDbEntity
  8
2
 62
     0
370
    -2
100
AcDbLine
 10
343.6053609625723
 20
3.139604396720437
 30
0.0
 11
343.6053609625723
 21
2.139604396720436
 31
0.0
  0
SOLID
  5
12AC
330
123D
100
AcDbEntity
  8
2
 62
     0
100
AcDbTrace
 10
343.1886942959057
 20
5.639604396720437
 30
0.0
 11
344.022027629239
 21
5.639604396720437
 31
0.0
 12
343.6053609625723
 22
3.139604396720437
 32
0.0
 13
343.6053609625723
 23
3.139604396720437
 33
0.0
  0
SOLID
  5
12AD
330
123D
100
AcDbEntity
  8
2
 62
     0
100
AcDbTrace
 10
343.1886942959057
 20
-0.360395603279563
 30
0.0
 11
344.022027629239
 21
-0.3603956032795632
 31
0.0
 12
343.6053609625723
 22
2.139604396720436
 32
0.0
 13
343.6053609625723
 23
2.139604396720436
 33
0.0
  0
MTEXT
  5
12AE
330
123D
100
AcDbEntity
  8
2
 62
     0
100
AcDbMText
 10
341.8553609625723
 20
-3.881824174708079
 30
0.0
 40
2.5
 41
0.0
 71
     5
 72
     1
  1
\A1;1
  7
ＭＳ明朝
 11
0.0000000000000001
 21
1.0
 31
0.0
 73
     1
 44
1.0
  0
POINT
  5
12AF
330
123D
100
AcDbEntity
  8
DEFPOINTS
 62
     0
100
AcDbPoint
 10
322.5322817821627
 20
3.139604396720443
 30
0.0
  0
POINT
  5
12B0
330
123D
100
AcDbEntity
  8
DEFPOINTS
 62
     0
100
AcDbPoint
 10
320.9485030269384
 20
2.139604396720443
 30
0.0
  0
POINT
  5
12B1
330
123D
100
AcDbEntity
  8
DEFPOINTS
 62
     0
100
AcDbPoint
 10
343.6053609625723
 20
2.139604396720436
 30
0.0
  0
ENDBLK
  5
124A
330
123D
100
AcDbEntity
  8
0
100
AcDbBlockEnd
  0
BLOCK
  5
1255
330
124B
100
AcDbEntity
  8
0
100
AcDbBlockBegin
  2
*D20
 70
     1
 10
0.0
 20
0.0
 30
0.0
  3
*D20
  1

  0
LINE
  5
12B2
330
124B
100
AcDbEntity
  8
2
 62
     0
370
    -2
100
AcDbLine
 10
323.985339561322
 20
57.13960439672044
 30
0.0
 11
344.8553609625723
 21
57.13960439672043
 31
0.0
  0
LINE
  5
12B3
330
124B
100
AcDbEntity
  8
2
 62
     0
370
    -2
100
AcDbLine
 10
324.0322817821627
 20
3.139604396720443
 30
0.0
 11
344.8553609625723
 21
3.139604396720437
 31
0.0
  0
LINE
  5
12B4
330
124B
100
AcDbEntity
  8
2
 62
     0
370
    -2
100
AcDbLine
 10
343.6053609625723
 20
54.63960439672043
 30
0.0
 11
343.6053609625723
 21
5.639604396720437
 31
0.0
  0
SOLID
  5
12B5
330
124B
100
AcDbEntity
  8
2
 62
     0
100
AcDbTrace
 10
343.1886942959057
 20
54.63960439672043
 30
0.0
 11
344.022027629239
 21
54.63960439672043
 31
0.0
 12
343.6053609625723
 22
57.13960439672043
 32
0.0
 13
343.6053609625723
 23
57.13960439672043
 33
0.0
  0
SOLID
  5
12B6
330
124B
100
AcDbEntity
  8
2
 62
     0
100
AcDbTrace
 10
343.1886942959057
 20
5.639604396720437
 30
0.0
 11
344.022027629239
 21
5.639604396720437
 31
0.0
 12
343.6053609625723
 22
3.139604396720437
 32
0.0
 13
343.6053609625723
 23
3.139604396720437
 33
0.0
  0
MTEXT
  5
12B7
330
124B
100
AcDbEntity
  8
2
 62
     0
100
AcDbMText
 10
341.8553609625723
 20
30.13960439672049
 30
0.0
 40
2.5
 41
0.0
 71
     5
 72
     1
  1
\A1;54
  7
ＭＳ明朝
 11
0.0000000000000001
 21
1.0
 31
0.0
 73
     1
 44
1.0
  0
POINT
  5
12B8
330
124B
100
AcDbEntity
  8
DEFPOINTS
 62
     0
100
AcDbPoint
 10
322.4853395613219
 20
57.13960439672044
 30
0.0
  0
POINT
  5
12B9
330
124B
100
AcDbEntity
  8
DEFPOINTS
 62
     0
100
AcDbPoint
 10
322.5322817821627
 20
3.139604396720443
 30
0.0
  0
POINT
  5
12BA
330
124B
100
AcDbEntity
  8
DEFPOINTS
 62
     0
100
AcDbPoint
 10
343.6053609625723
 20
3.139604396720437
 30
0.0
  0
ENDBLK
  5
1256
330
124B
100
AcDbEntity
  8
0
100
AcDbBlockEnd
  0
BLOCK
  5
1261
330
1257
100
AcDbEntity
  8
0
100
AcDbBlockBegin
  2
*D21
 70
     1
 10
0.0
 20
0.0
 30
0.0
  3
*D21
  1

  0
LINE
  5
12BB
330
1257
100
AcDbEntity
  8
2
 62
     0
370
    -2
100
AcDbLine
 10
239.5555548367017
 20
266.9032950792169
 30
0.0
 11
239.5555548367017
 21
278.2833666095648
 31
0.0
  0
LINE
  5
12BC
330
1257
100
AcDbEntity
  8
2
 62
     0
370
    -2
100
AcDbLine
 10
325.5555548367017
 20
266.903295079217
 30
0.0
 11
325.5555548367017
 21
278.2833666095648
 31
0.0
  0
LINE
  5
12BD
330
1257
100
AcDbEntity
  8
2
 62
     0
370
    -2
100
AcDbLine
 10
242.0555548367017
 20
277.0333666095648
 30
0.0
 11
323.0555548367017
 21
277.0333666095648
 31
0.0
  0
SOLID
  5
12BE
330
1257
100
AcDbEntity
  8
2
 62
     0
100
AcDbTrace
 10
242.0555548367017
 20
277.4500332762315
 30
0.0
 11
242.0555548367017
 21
276.6166999428981
 31
0.0
 12
239.5555548367017
 22
277.0333666095648
 32
0.0
 13
239.5555548367017
 23
277.0333666095648
 33
0.0
  0
SOLID
  5
12BF
330
1257
100
AcDbEntity
  8
2
 62
     0
100
AcDbTrace
 10
323.0555548367017
 20
277.4500332762315
 30
0.0
 11
323.0555548367017
 21
276.6166999428981
 31
0.0
 12
325.5555548367017
 22
277.0333666095648
 32
0.0
 13
325.5555548367017
 23
277.0333666095648
 33
0.0
  0
MTEXT
  5
12C0
330
1257
100
AcDbEntity
  8
2
 62
     0
100
AcDbMText
 10
282.5555548367017
 20
278.7833666095648
 30
0.0
 40
2.5
 41
0.0
 71
     5
 72
     1
  1
\A1;86
  7
ＭＳ明朝
 73
     1
 44
1.0
  0
POINT
  5
12C1
330
1257
100
AcDbEntity
  8
DEFPOINTS
 62
     0
100
AcDbPoint
 10
239.5555548367017
 20
265.4032950792169
 30
0.0
  0
POINT
  5
12C2
330
1257
100
AcDbEntity
  8
DEFPOINTS
 62
     0
100
AcDbPoint
 10
325.5555548367017
 20
265.403295079217
 30
0.0
  0
POINT
  5
12C3
330
1257
100
AcDbEntity
  8
DEFPOINTS
 62
     0
100
AcDbPoint
 10
325.5555548367017
 20
277.0333666095648
 30
0.0
  0
ENDBLK
  5
1262
330
1257
100
AcDbEntity
  8
0
100
AcDbBlockEnd
  0
ENDSEC
  0
SECTION
  2
ENTITIES
  0
LEADER
  5
F72
330
18
100
AcDbEntity
  8
2
100
AcDbLeader
  3
STANDARD
 76
     3
 10
105.345999475563
 20
259.403295079217
 30
0.0
 10
198.9459994755629
 20
226.1833666095648
 30
0.0
 10
216.8472039070053
 20
226.1833666095648
 30
0.0
1001
ACAD
1000
DSTYLE
1002
{
1070
    40
1040
1.0
1070
    77
1070
     0
1002
}
  0
TEXT
  5
F73
330
18
100
AcDbEntity
  8
2
100
AcDbText
 10
200.0759994755628
 20
226.6833666095648
 30
0.0
 40
2.5
  1
壁取付用穴
  7
MSゴシック
100
AcDbText
  0
DIMENSION
  5
F74
330
18
100
AcDbEntity
  8
2
100
AcDbDimension
  2
*D11
 10
85.71599947556297
 20
123.4032950792168
 30
0.0
 11
83.96599947556294
 21
140.9032950792169
 31
0.0
 70
    32
 71
     5
 42
35.00000000000008
  3
STANDARD
100
AcDbAlignedDimension
 13
98.41599947556304
 23
158.4032950792169
 33
0.0
 14
98.84599947556308
 24
123.4032950792168
 34
0.0
 50
90.0
100
AcDbRotatedDimension
1001
ACAD
1000
DSTYLE
1002
{
1070
    40
1040
1.0
1002
}
  0
LINE
  5
F75
330
18
100
AcDbEntity
  8
1
100
AcDbLine
 10
181.8459846083992
 20
265.4032950792169
 30
0.0
 11
181.8459846083992
 21
125.4032950792168
 31
0.0
  0
LINE
  5
F76
330
18
100
AcDbEntity
  8
1
100
AcDbLine
 10
96.84599947556307
 20
125.4032950792168
 30
0.0
 11
96.84599947556307
 21
265.403295079217
 31
0.0
  0
LINE
  5
F77
330
18
100
AcDbEntity
  8
1
100
AcDbLine
 10
96.84599947556307
 20
125.9032950792168
 30
0.0
 11
96.84599947556307
 21
263.903295079217
 31
0.0
  0
LINE
  5
F78
330
18
100
AcDbEntity
  8
1
100
AcDbLine
 10
97.34599947556308
 20
126.4032950792168
 30
0.0
 11
97.34599947556308
 21
263.903295079217
 31
0.0
  0
LINE
  5
F79
330
18
100
AcDbEntity
  8
1
100
AcDbLine
 10
181.3459846083992
 20
264.4360694715793
 30
0.0
 11
181.3459846083992
 21
126.4360694715793
 31
0.0
  0
LINE
  5
F7A
330
18
100
AcDbEntity
  8
1
100
AcDbLine
 10
97.34599947556308
 20
126.4032950792168
 30
0.0
 11
97.34599947556308
 21
264.403295079217
 31
0.0
  0
LINE
  5
F7B
330
18
100
AcDbEntity
  8
1
100
AcDbLine
 10
140.2759992090536
 20
132.3022021755375
 30
0.0
 11
151.5259992090536
 21
132.3022021755375
 31
0.0
  0
LINE
  5
F7C
330
18
100
AcDbEntity
  8
1
100
AcDbLine
 10
179.8459846083992
 20
123.4032950792168
 30
0.0
 11
98.84599947556308
 21
123.4032950792168
 31
0.0
  0
LINE
  5
F7D
330
18
100
AcDbEntity
  8
1
100
AcDbLine
 10
179.3459994755628
 20
124.4032950792168
 30
0.0
 11
99.34599947556307
 21
124.4032950792168
 31
0.0
  0
ARC
  5
F7E
330
18
100
AcDbEntity
  8
1
100
AcDbCircle
 10
98.84599947556308
 20
125.4032950792168
 30
0.0
 40
2.0
100
AcDbArc
 50
180.0
 51
270.0
  0
ARC
  5
F7F
330
18
100
AcDbEntity
  8
1
100
AcDbCircle
 10
99.34599947556307
 20
126.4032950792168
 30
0.0
 40
2.0
100
AcDbArc
 50
180.0
 51
270.0
  0
LINE
  5
F80
330
18
100
AcDbEntity
  8
1
100
AcDbLine
 10
127.5259992090536
 20
132.3022021755375
 30
0.0
 11
138.7759992090536
 21
132.3022021755375
 31
0.0
  0
ARC
  5
F81
330
18
100
AcDbEntity
  8
1
100
AcDbCircle
 10
127.5259992090536
 20
138.3022021755375
 30
0.0
 40
6.0
100
AcDbArc
 50
187.1807557814572
 51
270.0
  0
ARC
  5
F82
330
18
100
AcDbEntity
  8
1
100
AcDbCircle
 10
151.5259992090536
 20
138.3022021755375
 30
0.0
 40
6.0
100
AcDbArc
 50
270.0
 51
352.8192442185426
  0
ARC
  5
F83
330
18
100
AcDbEntity
  8
1
100
AcDbCircle
 10
179.3459994755628
 20
126.4032950792168
 30
0.0
 40
2.0
100
AcDbArc
 50
270.0
 51
0.0
  0
ARC
  5
F84
330
18
100
AcDbEntity
  8
1
100
AcDbCircle
 10
179.8459846083992
 20
125.4032950792168
 30
0.0
 40
2.0
100
AcDbArc
 50
270.0
 51
0.0
  0
DIMENSION
  5
F85
330
18
100
AcDbEntity
  8
2
100
AcDbDimension
  2
*D12
 10
85.71599947556297
 20
158.4032950792169
 30
0.0
 11
83.96599947556294
 21
208.9032950792169
 31
0.0
 70
    32
  1
<>
 71
     5
 42
101.0
  3
STANDARD
100
AcDbAlignedDimension
 13
98.60599947556307
 23
259.403295079217
 33
0.0
 14
98.41599947556304
 24
158.4032950792169
 34
0.0
 50
90.0
100
AcDbRotatedDimension
1001
ACAD
1000
DSTYLE
1002
{
1070
    40
1040
1.0
1002
}
  0
LINE
  5
F86
330
18
100
AcDbEntity
  8
2
100
AcDbLine
 10
173.3459994755628
 20
264.4032950792169
 30
0.0
 11
173.3459994755628
 21
150.5433666095648
 31
0.0
  0
LINE
  5
F87
330
18
100
AcDbEntity
  8
2
100
AcDbLine
 10
105.345999475563
 20
150.3333666095648
 30
0.0
 11
105.345999475563
 21
264.403295079217
 31
0.0
  0
LINE
  5
F88
330
18
100
AcDbEntity
  8
1
100
AcDbLine
 10
140.2759992090536
 20
144.3022021755375
 30
0.0
 11
151.5259992090536
 21
144.3022021755374
 31
0.0
  0
LINE
  5
F89
330
18
100
AcDbEntity
  8
2
100
AcDbLine
 10
179.2598143444313
 20
158.4032950792169
 30
0.0
 11
98.41599947556304
 21
158.4032950792169
 31
0.0
  0
CIRCLE
  5
F8A
330
18
100
AcDbEntity
  8
1
100
AcDbCircle
 10
105.2598143444313
 20
158.3995742184002
 30
0.0
 40
5.0
  0
CIRCLE
  5
F8B
330
18
100
AcDbEntity
  8
1
100
AcDbCircle
 10
105.2598143444313
 20
158.3995742184002
 30
0.0
 40
6.0
  0
LINE
  5
F8C
330
18
100
AcDbEntity
  8
1
100
AcDbLine
 10
127.5259992090536
 20
144.3022021755374
 30
0.0
 11
138.7759992090536
 21
144.3022021755375
 31
0.0
  0
ARC
  5
F8D
330
18
100
AcDbEntity
  8
1
100
AcDbCircle
 10
127.5259992090536
 20
138.3022021755375
 30
0.0
 40
6.0
100
AcDbArc
 50
90.0
 51
172.8192442185426
  0
LINE
  5
F8E
330
18
100
AcDbEntity
  8
1
100
AcDbLine
 10
105.8459994755628
 20
210.4032950792169
 30
0.0
 11
105.8459994755628
 21
228.403295079217
 31
0.0
  0
LINE
  5
F8F
330
18
100
AcDbEntity
  8
1
100
AcDbLine
 10
101.8459994755628
 20
210.403295079217
 30
0.0
 11
101.8459994755628
 21
228.403295079217
 31
0.0
  0
LINE
  5
F90
330
18
100
AcDbEntity
  8
1
100
AcDbLine
 10
101.8459994755628
 20
210.403295079217
 30
0.0
 11
105.8459994755628
 21
210.4032950792169
 31
0.0
  0
LINE
  5
F91
330
18
100
AcDbEntity
  8
1
100
AcDbLine
 10
101.8459994755628
 20
228.403295079217
 30
0.0
 11
105.8459994755628
 21
228.4032950792169
 31
0.0
  0
LEADER
  5
F92
330
18
100
AcDbEntity
  8
2
100
AcDbLeader
  3
STANDARD
 76
     2
 10
173.3459994755628
 20
158.4032950792169
 30
0.0
 10
198.9459994755629
 20
226.1833666095648
 30
0.0
1001
ACAD
1000
DSTYLE
1002
{
1070
    40
1040
1.0
1070
    77
1070
     0
1002
}
  0
CIRCLE
  5
F93
330
18
100
AcDbEntity
  8
1
100
AcDbCircle
 10
173.2598143444313
 20
158.3995742184002
 30
0.0
 40
6.0
  0
DIMENSION
  5
F94
330
18
100
AcDbEntity
  8
2
100
AcDbDimension
  2
*D13
 10
175.1526275396845
 20
157.1831210923509
 30
0.0
 11
163.2456548134465
 21
166.9156051223701
 31
0.0
 70
    35
  1
2-<>
 71
     5
 42
4.499999999999786
  3
STANDARD$3
100
AcDbDiametricDimension
 15
171.3670011491778
 25
159.616027344449
 35
0.0
 40
0.0
1001
ACAD
1000
DSTYLE
1002
{
1070
   340
1005
4B4
1070
   140
1040
2.5
1070
    40
1040
1.0
1070
   288
1070
     1
1002
}
  0
CIRCLE
  5
F95
330
18
100
AcDbEntity
  8
1
100
AcDbCircle
 10
173.2598143444313
 20
158.3995742184002
 30
0.0
 40
5.0
  0
ARC
  5
F96
330
18
100
AcDbEntity
  8
1
100
AcDbCircle
 10
151.5259992090536
 20
138.3022021755375
 30
0.0
 40
6.0
100
AcDbArc
 50
7.180755781457346
 51
90.0
  0
CIRCLE
  5
F97
330
18
100
AcDbEntity
  8
1
100
AcDbCircle
 10
173.2598143444313
 20
158.3995742184002
 30
0.0
 40
2.25
  0
LINE
  5
F98
330
18
100
AcDbEntity
  8
1
100
AcDbLine
 10
172.8459994755628
 20
228.4032950792169
 30
0.0
 11
172.8459994755628
 21
210.4032950792169
 31
0.0
  0
LINE
  5
F99
330
18
100
AcDbEntity
  8
1
100
AcDbLine
 10
176.8459994755628
 20
228.4032950792169
 30
0.0
 11
176.8459994755628
 21
210.4032950792169
 31
0.0
  0
LINE
  5
F9A
330
18
100
AcDbEntity
  8
1
100
AcDbLine
 10
172.8459994755628
 20
210.4032950792169
 30
0.0
 11
176.8459994755628
 21
210.4032950792169
 31
0.0
  0
LINE
  5
F9B
330
18
100
AcDbEntity
  8
1
100
AcDbLine
 10
172.8459994755628
 20
228.4032950792169
 30
0.0
 11
176.8459994755628
 21
228.4032950792169
 31
0.0
  0
LINE
  5
F9C
330
18
100
AcDbEntity
  8
1
100
AcDbLine
 10
181.3459994755628
 20
228.4032950792169
 30
0.0
 11
181.3459994755628
 21
210.4032950792169
 31
0.0
  0
LINE
  5
F9D
330
18
100
AcDbEntity
  8
1
100
AcDbLine
 10
98.84599947556308
 20
267.403295079217
 30
0.0
 11
179.8459846083992
 21
267.4032950792169
 31
0.0
  0
LINE
  5
F9E
330
18
100
AcDbEntity
  8
1
100
AcDbLine
 10
99.34599947556307
 20
266.403295079217
 30
0.0
 11
179.3459994755628
 21
266.4032950792169
 31
0.0
  0
DIMENSION
  5
F9F
330
18
100
AcDbEntity
  8
2
100
AcDbDimension
  2
*D14
 10
173.3459994755628
 20
277.9733666095649
 30
0.0
 11
139.3459994755629
 21
279.7233666095649
 31
0.0
 70
    32
 71
     5
 42
67.99999999999977
  3
STANDARD
100
AcDbAlignedDimension
 13
105.345999475563
 23
264.403295079217
 33
0.0
 14
173.3459994755628
 24
264.4032950792169
 34
0.0
100
AcDbRotatedDimension
1001
ACAD
1000
DSTYLE
1002
{
1070
    40
1040
1.0
1002
}
  0
LINE
  5
FA0
330
18
100
AcDbEntity
  8
2
100
AcDbLine
 10
98.60599947556307
 20
259.403295079217
 30
0.0
 11
179.3459994755628
 21
259.4032950792169
 31
0.0
  0
DIMENSION
  5
FA1
330
18
100
AcDbEntity
  8
2
100
AcDbDimension
  2
*D15
 10
85.71599947556297
 20
259.403295079217
 30
0.0
 11
83.96599947556293
 21
263.403295079217
 31
0.0
 70
    32
 71
     5
 42
8.0
  3
STANDARD
100
AcDbAlignedDimension
 13
98.84599947556308
 23
267.403295079217
 33
0.0
 14
98.60599947556307
 24
259.403295079217
 34
0.0
 50
90.0
100
AcDbRotatedDimension
1001
ACAD
1000
DSTYLE
1002
{
1070
    40
1040
1.0
1002
}
  0
CIRCLE
  5
FA2
330
18
100
AcDbEntity
  8
1
100
AcDbCircle
 10
105.345999475563
 20
259.403295079217
 30
0.0
 40
5.0
  0
CIRCLE
  5
FA3
330
18
100
AcDbEntity
  8
1
100
AcDbCircle
 10
105.345999475563
 20
259.403295079217
 30
0.0
 40
2.25
  0
CIRCLE
  5
FA4
330
18
100
AcDbEntity
  8
1
100
AcDbCircle
 10
105.345999475563
 20
259.403295079217
 30
0.0
 40
6.0
  0
ARC
  5
FA5
330
18
100
AcDbEntity
  8
1
100
AcDbCircle
 10
98.84599947556308
 20
265.403295079217
 30
0.0
 40
2.0
100
AcDbArc
 50
90.0
 51
180.0
  0
DIMENSION
  5
FA6
330
18
100
AcDbEntity
  8
2
100
AcDbDimension
  2
*D16
 10
96.84599947556286
 20
277.9733666095649
 30
0.0
 11
101.0959994755629
 21
279.7233666095649
 31
0.0
 70
    32
 71
     5
 42
8.500000000000227
  3
STANDARD
100
AcDbAlignedDimension
 13
105.345999475563
 23
264.403295079217
 33
0.0
 14
96.84599947556286
 24
264.4032950792169
 34
0.0
100
AcDbRotatedDimension
1001
ACAD
1000
DSTYLE
1002
{
1070
    40
1040
1.0
1002
}
  0
ARC
  5
FA7
330
18
100
AcDbEntity
  8
1
100
AcDbCircle
 10
99.34599947556307
 20
264.403295079217
 30
0.0
 40
2.0
100
AcDbArc
 50
90.0
 51
180.0
  0
TEXT
  5
FA8
330
18
100
AcDbEntity
  8
2
100
AcDbText
 10
83.03796167651626
 20
288.3333666095649
 30
0.0
 40
5.0
  1
裏面
  7
MSゴシック
100
AcDbText
  0
DIMENSION
  5
FA9
330
18
100
AcDbEntity
  8
2
100
AcDbDimension
  2
*D17
 10
181.8459846083992
 20
277.9733666095649
 30
0.0
 11
177.595992041981
 21
279.7233666095649
 31
0.0
 70
    32
 71
     5
 42
8.4999851328364
  3
STANDARD
100
AcDbAlignedDimension
 13
173.3459994755628
 23
264.4032950792169
 33
0.0
 14
181.8459846083992
 24
265.4032950792169
 34
0.0
100
AcDbRotatedDimension
1001
ACAD
1000
DSTYLE
1002
{
1070
    40
1040
1.0
1002
}
  0
CIRCLE
  5
FAA
330
18
100
AcDbEntity
  8
1
100
AcDbCircle
 10
173.3459994755628
 20
259.4032950792169
 30
0.0
 40
6.0
  0
CIRCLE
  5
FAB
330
18
100
AcDbEntity
  8
1
100
AcDbCircle
 10
173.3459994755628
 20
259.4032950792169
 30
0.0
 40
5.0
  0
ARC
  5
FAC
330
18
100
AcDbEntity
  8
1
100
AcDbCircle
 10
179.3459994755628
 20
264.4032950792169
 30
0.0
 40
2.0
100
AcDbArc
 50
0.0
 51
90.0
  0
ARC
  5
FAD
330
18
100
AcDbEntity
  8
1
100
AcDbCircle
 10
179.8459846083992
 20
265.4032950792169
 30
0.0
 40
2.0
100
AcDbArc
 50
0.0
 51
90.0
  0
DIMENSION
  5
FAE
330
18
100
AcDbEntity
  8
2
100
AcDbDimension
  2
*D18
 10
230.5007771561324
 20
123.4032950792169
 30
0.0
 11
228.7507771561324
 21
195.403295079217
 31
0.0
 70
    32
  1
<>
 71
     5
 42
143.9999999999999
  3
STANDARD
100
AcDbAlignedDimension
 13
242.0555548367017
 23
267.4032950792169
 33
0.0
 14
241.5555548367017
 24
123.4032950792169
 34
0.0
 50
90.0
100
AcDbRotatedDimension
1001
ACAD
1000
DSTYLE
1002
{
1070
   340
1005
4B4
1070
   140
1040
2.5
1070
    40
1040
1.0
1002
}
  0
CIRCLE
  5
FAF
102
{ACAD_REACTORS
330
FB1
102
}
330
18
100
AcDbEntity
  8
1
100
AcDbCircle
 10
312.3013021689807
 20
138.8121539519902
 30
0.0
 40
1.05000000000003
  0
SPLINE
  5
FB0
102
{ACAD_REACTORS
330
FB1
102
}
330
18
100
AcDbEntity
  8
1
100
AcDbSpline
210
0.0
220
0.0
230
1.0
 70
    11
 71
     3
 72
    28
 73
    24
 74
     0
 42
0.0000000001
 43
0.0000000001
 40
0.0
 40
0.0
 40
0.0
 40
0.0
 40
0.3467348210459692
 40
0.3467348210459692
 40
1.047730455207954
 40
1.047730455207954
 40
1.748726089369939
 40
1.748726089369939
 40
2.353465496161411
 40
2.353465496161411
 40
2.958204902952883
 40
2.958204902952883
 40
3.457019432708336
 40
3.457019432708336
 40
3.955833962463788
 40
3.955833962463788
 40
4.454648492219241
 40
4.454648492219241
 40
5.335655799539567
 40
5.335655799539567
 40
5.887747702008969
 40
5.887747702008969
 40
6.283185307179586
 40
6.283185307179586
 40
6.283185307179586
 40
6.283185307179586
 10
310.3452611078783
 20
138.8121539519902
 30
0.0
 10
310.3452611078783
 20
138.5937031942683
 30
0.0
 10
310.3914168340861
 20
138.3757225610463
 30
0.0
 10
310.6505197329417
 20
137.7738033425287
 30
0.0
 10
310.9816074406073
 20
137.4554484072043
 30
0.0
 10
311.7568202871266
 20
137.0802173167101
 30
0.0
 10
312.2022403329972
 20
137.0172089098235
 30
0.0
 10
312.9952068269033
 20
137.1369088226386
 30
0.0
 10
313.3491540079646
 20
137.2874610226067
 30
0.0
 10
313.9214556833019
 20
137.7652407950741
 30
0.0
 10
314.1377441561576
 20
138.0973467660863
 30
0.0
 10
314.2874104616389
 20
138.7747069687595
 30
0.0
 10
314.2608825272025
 20
139.1022809143531
 30
0.0
 10
314.034542764467
 20
139.6845023064899
 30
0.0
 10
313.8387135814009
 20
139.937576659737
 30
0.0
 10
313.3569919616284
 20
140.3192594001504
 30
0.0
 10
313.0715844294647
 20
140.4497967030947
 30
0.0
 10
312.2442389164418
 20
140.6328642435245
 30
0.0
 10
311.6706210421091
 20
140.5483262575583
 30
0.0
 10
310.9162388963007
 20
140.0931241841413
 30
0.0
 10
310.6690377995107
 20
139.8392515126237
 30
0.0
 10
310.4056235992459
 20
139.3095475305739
 30
0.0
 10
310.3452611078783
 20
139.0612885621826
 30
0.0
 10
310.3452611078783
 20
138.8121539519902
 30
0.0
  0
HATCH
  5
FB1
330
18
100
AcDbEntity
  8
1
100
AcDbHatch
 10
0.0
 20
0.0
 30
0.0
210
0.0
220
0.0
230
1.0
  2
SOLID,_O
 70
     1
 71
     1
 91
        2
 92
        5
 93
        1
 72
     4
 94
        3
 73
     0
 74
     0
 95
       28
 96
       24
 40
0.0
 40
0.0
 40
0.0
 40
0.0
 40
0.3467348210459692
 40
0.3467348210459692
 40
1.047730455207954
 40
1.047730455207954
 40
1.748726089369939
 40
1.748726089369939
 40
2.353465496161411
 40
2.353465496161411
 40
2.958204902952883
 40
2.958204902952883
 40
3.457019432708336
 40
3.457019432708336
 40
3.955833962463788
 40
3.955833962463788
 40
4.454648492219241
 40
4.454648492219241
 40
5.335655799539567
 40
5.335655799539567
 40
5.887747702008969
 40
5.887747702008969
 40
6.283185307179586
 40
6.283185307179586
 40
6.283185307179586
 40
6.283185307179586
 10
310.3452611078783
 20
138.8121539519902
 10
310.3452611078783
 20
138.5937031942683
 10
310.3914168340861
 20
138.3757225610463
 10
310.6505197329417
 20
137.7738033425287
 10
310.9816074406073
 20
137.4554484072043
 10
311.7568202871266
 20
137.08021731671
 10
312.2022403329972
 20
137.0172089098235
 10
312.9952068269033
 20
137.1369088226386
 10
313.3491540079646
 20
137.2874610226066
 10
313.9214556833019
 20
137.7652407950741
 10
314.1377441561576
 20
138.0973467660863
 10
314.2874104616389
 20
138.7747069687595
 10
314.2608825272025
 20
139.102280914353
 10
314.034542764467
 20
139.6845023064899
 10
313.8387135814009
 20
139.937576659737
 10
313.3569919616284
 20
140.3192594001504
 10
313.0715844294647
 20
140.4497967030947
 10
312.2442389164418
 20
140.6328642435245
 10
311.6706210421091
 20
140.5483262575583
 10
310.9162388963007
 20
140.0931241841412
 10
310.6690377995107
 20
139.8392515126236
 10
310.4056235992459
 20
139.3095475305739
 10
310.3452611078783
 20
139.0612885621825
 10
310.3452611078783
 20
138.8121539519902
 97
        1
330
FB0
 92
       22
 72
     1
 73
     1
 93
        2
 10
313.3513021689807
 20
138.8121539519902
 42
-1.0
 10
311.2513021689808
 20
138.8121539519902
 42
-1.0
 97
        1
330
FAF
 75
     1
 76
     1
 47
0.0333333333333333
 98
        2
 10
311.1026666088426
 20
139.6518253478957
 10
311.1026666088426
 20
139.6518253478957
  0
LINE
  5
FB2
330
18
100
AcDbEntity
  8
1
100
AcDbLine
 10
297.9121133888454
 20
139.7121539519902
 30
0.0
 11
297.9121133888454
 21
137.0871539519901
 31
0.0
  0
LINE
  5
FB3
330
18
100
AcDbEntity
  8
1
100
AcDbLine
 10
299.7909830561548
 20
139.2621539519902
 30
0.0
 11
299.7909830561548
 21
137.0871539519901
 31
0.0
  0
LINE
  5
FB4
330
18
100
AcDbEntity
  8
1
100
AcDbLine
 10
300.540983056155
 20
139.2621539519902
 30
0.0
 11
300.540983056155
 21
137.0871539519901
 31
0.0
  0
ARC
  5
FB5
330
18
100
AcDbEntity
  8
1
100
AcDbCircle
 10
308.1557347322454
 20
138.8121539519902
 30
0.0
 40
1.050000000000036
100
AcDbArc
 50
264.85413389031
 51
95.14586610967695
  0
LINE
  5
FB6
330
18
100
AcDbEntity
  8
1
100
AcDbLine
 10
307.2724325016709
 20
139.7085265785711
 30
0.0
 11
307.2724325016709
 21
137.9157813254091
 31
0.0
  0
LINE
  5
FB7
330
18
100
AcDbEntity
  8
1
100
AcDbLine
 10
303.2935628343614
 20
139.7085265785711
 30
0.0
 11
303.2935628343614
 21
137.9157813254091
 31
0.0
  0
ARC
  5
FB8
330
18
100
AcDbEntity
  8
1
100
AcDbCircle
 10
304.1768650649359
 20
138.8121539519902
 30
0.0
 40
1.050000000000036
100
AcDbArc
 50
264.85413389031
 51
95.14586610967695
  0
TEXT
  5
FB9
330
18
100
AcDbEntity
  8
1
100
AcDbText
 10
251.2422227869726
 20
137.0533664045296
 30
0.0
 40
3.0
  1
対応温度　０～5０℃
 41
0.9
  7
丸ゴシック
100
AcDbText
  0
LINE
  5
FBA
330
18
100
AcDbEntity
  8
1
100
AcDbLine
 10
297.1621133888454
 20
140.5371539519902
 30
0.0
 11
297.1621133888454
 21
137.0871539519901
 31
0.0
  0
LINE
  5
FBB
330
18
100
AcDbEntity
  8
1
100
AcDbLine
 10
301.9172729452582
 20
140.5371539519902
 30
0.0
 11
301.9172729452582
 21
137.0871539519901
 31
0.0
  0
LINE
  5
FBC
330
18
100
AcDbEntity
  8
1
100
AcDbLine
 10
301.1672729452582
 20
140.5371539519902
 30
0.0
 11
301.1672729452582
 21
137.0871539519901
 31
0.0
  0
ARC
  5
FBD
330
18
100
AcDbEntity
  8
1
100
AcDbCircle
 10
308.1557347322454
 20
138.8121539519902
 30
0.0
 40
1.800000000000062
100
AcDbArc
 50
267.6274985647525
 51
90.0
  0
LINE
  5
FBE
330
18
100
AcDbEntity
  8
1
100
AcDbLine
 10
306.5224325016708
 20
140.4621539519902
 30
0.0
 11
306.5224325016708
 21
134.722931424097
 31
0.0
  0
LINE
  5
FBF
330
18
100
AcDbEntity
  8
1
100
AcDbLine
 10
302.5435628343614
 20
140.4621539519902
 30
0.0
 11
302.5435628343614
 21
134.722931424097
 31
0.0
  0
ARC
  5
FC0
330
18
100
AcDbEntity
  8
1
100
AcDbCircle
 10
304.1768650649359
 20
138.8121539519902
 30
0.0
 40
1.800000000000062
100
AcDbArc
 50
267.6274985647525
 51
90.0
  0
HATCH
  5
FC1
330
18
100
AcDbEntity
  8
1
100
AcDbHatch
 10
0.0
 20
0.0
 30
0.0
210
0.0
220
0.0
230
1.0
  2
SOLID,_O
 70
     1
 71
     0
 91
        1
 92
        7
 72
     1
 73
     1
 93
       16
 10
297.9121133888454
 20
139.7121539519899
 42
-0.4142135623729545
 10
298.0621133888453
 20
139.8621539519899
 42
0.0
 10
299.1909830561549
 20
139.8621539519899
 42
-0.4142135623730776
 10
299.7909830561548
 20
139.2621539519899
 42
0.0
 10
299.7909830561548
 20
137.0871539519898
 42
0.4142135623729545
 10
299.8659830561548
 20
137.0121539519899
 42
0.0
 10
300.4659830561549
 20
137.0121539519899
 42
0.4142135623730951
 10
300.540983056155
 20
137.0871539519901
 42
0.0
 10
300.540983056155
 20
139.2621539519899
 42
0.4142135623730871
 10
299.1909830561549
 20
140.61215395199
 42
0.0
 10
297.2371133888454
 20
140.61215395199
 42
0.4142135623728139
 10
297.1621133888454
 20
140.5371539519901
 42
0.0
 10
297.1621133888454
 20
137.0871539519898
 42
0.4142135623729545
 10
297.2371133888454
 20
137.0121539519899
 42
0.0
 10
297.8371133888454
 20
137.0121539519899
 42
0.4142135623732357
 10
297.9121133888454
 20
137.0871539519901
 42
0.0
 97
        0
 75
     1
 76
     1
 47
0.0333333333333333
 98
        1
 10
297.664682942868
 20
139.2717125681639
  0
HATCH
  5
FC2
330
18
100
AcDbEntity
  8
1
100
AcDbHatch
 10
0.0
 20
0.0
 30
0.0
210
0.0
220
0.0
230
1.0
  2
SOLID,_O
 70
     1
 71
     0
 91
        2
 92
        7
 72
     1
 73
     1
 93
        8
 10
302.019570022674
 20
141.6363172944892
 42
0.4142135621207331
 10
302.0195700225895
 20
141.7423833116215
 42
0.0
 10
301.5953059547218
 20
142.1666473791793
 42
0.4142135619753129
 10
301.489239937616
 20
142.1666473792125
 42
0.0
 10
301.0649758680628
 20
141.7423833105003
 42
0.4142135626670704
 10
301.0649758680108
 20
141.6363172932694
 42
0.0
 10
301.4892399366697
 20
141.2120532246188
 42
0.4142135627302904
 10
301.5953059539124
 20
141.2120532246845
 42
0.0
 97
        0
 92
        7
 72
     1
 73
     1
 93
        8
 10
301.9172729452582
 20
140.5371539519901
 42
0.4142135623742444
 10
301.8422729452581
 20
140.6121539519902
 42
0.0
 10
301.242272945258
 20
140.6121539519902
 42
0.4142135623728078
 10
301.1672729452582
 20
140.5371539519903
 42
0.0
 10
301.1672729452582
 20
137.0871539519901
 42
0.4142135623728078
 10
301.242272945258
 20
137.0121539519902
 42
0.0
 10
301.8422729452581
 20
137.0121539519902
 42
0.4142135623730951
 10
301.9172729452582
 20
137.0871539519901
 42
0.0
 97
        0
 75
     1
 76
     1
 47
0.0333333333333333
 98
        2
 10
301.5524012614698
 20
141.6790930400269
 10
301.679174483788
 20
139.5251212045944
  0
HATCH
  5
FC3
330
18
100
AcDbEntity
  8
1
100
AcDbHatch
 10
0.0
 20
0.0
 30
0.0
210
0.0
220
0.0
230
1.0
  2
SOLID,_O
 70
     1
 71
     0
 91
        2
 92
        7
 72
     1
 73
     1
 93
       10
 10
302.5435628343614
 20
134.722931424097
 42
0.5305984520670164
 10
302.6464171350878
 20
134.6532956722805
 42
0.0
 10
303.246417135088
 20
134.8932956722806
 42
0.306678441558718
 10
303.2935628343614
 20
134.962931424097
 42
0.0
 10
303.2935628343614
 20
136.8638254669334
 42
-0.4263943390086821
 10
303.4497722537744
 20
137.0136968888609
 42
0.0
 10
304.1023520319813
 20
137.0136968888609
 42
1.020921305267867
 10
304.1768650649364
 20
140.6121539519902
 42
0.0
 10
302.6935628343615
 20
140.6121539519902
 42
0.4142135623726641
 10
302.5435628343614
 20
140.4621539519905
 42
0.0
 97
        0
 92
       22
 72
     1
 73
     1
 93
        6
 10
303.2935628343614
 20
137.9157813254092
 42
0.0
 10
303.2935628343614
 20
139.7085265785712
 42
-0.4407704295155255
 10
303.4570165764225
 20
139.8579220163346
 42
0.0
 10
304.0826888705046
 20
139.8579220163346
 42
-1.094101295919555
 10
304.0826888705062
 20
137.7663858876458
 42
0.0
 10
303.4570165764241
 20
137.7663858876458
 42
-0.4407704295187575
 97
        0
 75
     1
 76
     1
 47
0.0325782479628634
 98
        2
 10
302.9126096264988
 20
137.9986521795501
 10
302.9126096264988
 20
137.9986521795501
  0
HATCH
  5
FC4
330
18
100
AcDbEntity
  8
1
100
AcDbHatch
 10
0.0
 20
0.0
 30
0.0
210
0.0
220
0.0
230
1.0
  2
SOLID,_O
 70
     1
 71
     0
 91
        2
 92
        7
 72
     1
 73
     1
 93
       10
 10
306.6724325016709
 20
140.6121539519902
 42
0.4142135623729514
 10
306.5224325016708
 20
140.4621539519905
 42
0.0
 10
306.5224325016708
 20
134.722931424097
 42
0.5305984520675181
 10
306.6252868023975
 20
134.6532956722805
 42
0.0
 10
307.2252868023974
 20
134.8932956722806
 42
0.306678441558718
 10
307.2724325016709
 20
134.962931424097
 42
0.0
 10
307.2724325016709
 20
136.8638254669334
 42
-0.4263943390086821
 10
307.4286419210839
 20
137.0136968888609
 42
0.0
 10
308.0812216992908
 20
137.0136968888609
 42
1.020921305267867
 10
308.1557347322459
 20
140.6121539519902
 42
0.0
 97
        0
 92
       22
 72
     1
 73
     1
 93
        6
 10
308.061558537814
 20
139.8579220163346
 42
-1.094101295919555
 10
308.0615585378156
 20
137.7663858876458
 42
0.0
 10
307.4358862437339
 20
137.7663858876458
 42
-0.4407704295189176
 10
307.2724325016709
 20
137.9157813254092
 42
0.0
 10
307.2724325016709
 20
139.7085265785712
 42
-0.4407704295155256
 10
307.435886243732
 20
139.8579220163346
 42
0.0
 97
        0
 75
     1
 76
     1
 47
0.0325782479628634
 98
        2
 10
307.5382727647609
 20
140.3927774193271
 10
307.5382727647609
 20
140.3927774193271
  0
LINE
  5
FC5
330
18
100
AcDbEntity
  8
1
100
AcDbLine
 10
247.7555548367017
 20
256.3032950792169
 30
0.0
 11
247.7555548367017
 21
134.5032950792168
 31
0.0
  0
LINE
  5
FC6
330
18
100
AcDbEntity
  8
1
100
AcDbLine
 10
325.5555548367017
 20
125.4032950792168
 30
0.0
 11
325.5555548367017
 21
265.403295079217
 31
0.0
  0
LINE
  5
FC7
330
18
100
AcDbEntity
  8
1
100
AcDbLine
 10
325.0555548367017
 20
126.4032950792168
 30
0.0
 11
325.0555548367017
 21
264.403295079217
 31
0.0
  0
LINE
  5
FC8
330
18
100
AcDbEntity
  8
1
100
AcDbLine
 10
239.5555548367017
 20
265.4032950792169
 30
0.0
 11
239.5555548367017
 21
125.4032950792169
 31
0.0
  0
LINE
  5
FC9
330
18
100
AcDbEntity
  8
1
100
AcDbLine
 10
240.0555548367017
 20
264.4032950792169
 30
0.0
 11
240.0555548367017
 21
126.4032950792168
 31
0.0
  0
LINE
  5
FCA
330
18
100
AcDbEntity
  8
1
100
AcDbLine
 10
247.5555548367017
 20
256.403295079217
 30
0.0
 11
247.5555548367017
 21
134.4032950792169
 31
0.0
  0
LINE
  5
FCB
330
18
100
AcDbEntity
  8
1
100
AcDbLine
 10
317.3555548367019
 20
134.5032950792168
 30
0.0
 11
317.3555548367019
 21
256.3032950792169
 31
0.0
  0
LINE
  5
FCC
330
18
100
AcDbEntity
  8
1
100
AcDbLine
 10
317.5555548367017
 20
134.4032950792169
 30
0.0
 11
317.5555548367017
 21
256.4032950792169
 31
0.0
  0
DIMENSION
  5
FCD
330
18
100
AcDbEntity
  8
2
100
AcDbDimension
  2
*D19
 10
343.6053609625723
 20
2.139604396720436
 30
0.0
 11
341.8553609625723
 21
-3.881824174708079
 31
0.0
 70
    32
 71
     5
 42
1.0
  3
STANDARD
100
AcDbAlignedDimension
 13
322.5322817821627
 23
3.139604396720443
 33
0.0
 14
320.9485030269384
 24
2.139604396720443
 34
0.0
 50
90.0
100
AcDbRotatedDimension
1001
ACAD
1000
DSTYLE
1002
{
1070
   340
1005
4B4
1070
    40
1040
1.0
1002
}
  0
DIMENSION
  5
FCE
330
18
100
AcDbEntity
  8
2
100
AcDbDimension
  2
*D20
 10
343.6053609625723
 20
3.139604396720437
 30
0.0
 11
341.8553609625723
 21
30.13960439672049
 31
0.0
 70
    32
 71
     5
 42
54.0
  3
STANDARD
100
AcDbAlignedDimension
 13
322.4853395613219
 23
57.13960439672044
 33
0.0
 14
322.5322817821627
 24
3.139604396720443
 34
0.0
 50
90.0
100
AcDbRotatedDimension
1001
ACAD
1000
DSTYLE
1002
{
1070
   340
1005
4B4
1070
   140
1040
2.5
1070
    40
1040
1.0
1002
}
  0
LINE
  5
FCF
330
18
100
AcDbEntity
  8
1
100
AcDbLine
 10
268.860575589018
 20
51.12960441450926
 30
0.0
 11
268.860575589018
 21
26.13960441450925
 31
0.0
  0
LINE
  5
FD0
330
18
100
AcDbEntity
  8
1
100
AcDbLine
 10
248.8685755890178
 20
51.12960441450926
 30
0.0
 11
248.8685755890178
 21
26.13960441450925
 31
0.0
  0
LINE
  5
FD1
330
18
100
AcDbEntity
  8
1
100
AcDbLine
 10
266.3645755890179
 20
30.63460441450925
 30
0.0
 11
266.3645755890179
 21
45.63460441450925
 31
0.0
  0
LINE
  5
FD2
330
18
100
AcDbEntity
  8
1
100
AcDbLine
 10
267.8645755890179
 20
27.13460441450925
 30
0.0
 11
267.8645755890179
 21
50.13460441450925
 31
0.0
  0
LINE
  5
FD3
330
18
100
AcDbEntity
  8
1
100
AcDbLine
 10
251.3645755890179
 20
45.63460441450925
 30
0.0
 11
251.3645755890179
 21
30.63460441450925
 31
0.0
  0
LINE
  5
FD4
330
18
100
AcDbEntity
  8
1
100
AcDbLine
 10
249.8645755890179
 20
50.13460441450925
 30
0.0
 11
249.8645755890179
 21
27.13460441450925
 31
0.0
  0
CIRCLE
  5
FD5
330
18
100
AcDbEntity
  8
1
100
AcDbCircle
 10
258.8645755890179
 20
38.13460441450925
 30
0.0
 40
6.5
  0
TEXT
  5
FD6
330
18
100
AcDbEntity
  8
1
100
AcDbText
 10
255.4805755890179
 20
40.65940244341075
 30
0.0
 40
2.299999999999999
  1
検査
  7
ＭＳ明朝
100
AcDbText
  0
LINE
  5
FD7
330
18
100
AcDbEntity
  8
1
100
AcDbLine
 10
323.9848760071952
 20
55.67689310141216
 30
0.0
 11
324.8685754115688
 21
20.13960439672044
 31
0.0
  0
LINE
  5
FD8
330
18
100
AcDbEntity
  8
1
100
AcDbLine
 10
239.905999475563
 20
55.68336660956496
 30
0.0
 11
238.8685754115688
 21
20.13960439672044
 31
0.0
  0
LEADER
  5
FD9
330
18
100
AcDbEntity
  8
2
100
AcDbLeader
  3
STANDARD
 76
     3
 10
281.7159997282919
 20
9.97329507921691
 30
0.0
 10
265.2259997282919
 20
-14.50670492078299
 30
0.0
 10
235.1650191358682
 20
-14.50670492078299
 30
0.0
1001
ACAD
1000
DSTYLE
1002
{
1070
    40
1040
1.0
1070
    77
1070
     0
1002
}
  0
LINE
  5
FDA
330
18
100
AcDbEntity
  8
1
100
AcDbLine
 10
241.350672659946
 20
3.139604396720443
 30
0.0
 11
322.5322817821627
 21
3.139604396720443
 31
0.0
  0
LINE
  5
FDB
330
18
100
AcDbEntity
  8
1
100
AcDbLine
 10
238.8685754115688
 20
19.13960439672044
 30
0.0
 11
324.8685754115688
 21
19.13960439672044
 31
0.0
  0
LINE
  5
FDC
330
18
100
AcDbEntity
  8
1
100
AcDbLine
 10
238.8685754115688
 20
20.13960439672044
 30
0.0
 11
324.8685754115688
 21
20.13960439672044
 31
0.0
  0
TEXT
  5
FDD
330
18
100
AcDbEntity
  8
2
100
AcDbText
 10
235.9328901883573
 20
-13.95670492078304
 30
0.0
 40
2.5
  1
配線用ノックアウト
  7
MSゴシック
100
AcDbText
  0
LINE
  5
FDE
330
18
100
AcDbEntity
  8
1
100
AcDbLine
 10
242.9485030269384
 20
2.13960439672045
 30
0.0
 11
252.9485030269384
 21
2.13960439672045
 31
0.0
  0
LINE
  5
FDF
330
18
100
AcDbEntity
  8
1
100
AcDbLine
 10
238.8685754115688
 20
19.13960439672044
 30
0.0
 11
239.8540777595051
 21
4.538591011594945
 31
0.0
  0
ARC
  5
FE0
330
18
100
AcDbEntity
  8
1
100
AcDbCircle
 10
241.350672659946
 20
4.639604396720443
 30
0.0
 40
1.5
100
AcDbArc
 50
183.8613493768934
 51
270.0
  0
LINE
  5
FE1
330
18
100
AcDbEntity
  8
1
100
AcDbLine
 10
242.9485030269384
 20
2.13960439672045
 30
0.0
 11
241.9485030269384
 21
3.141179257594131
 31
0.0
  0
LINE
  5
FE2
330
18
100
AcDbEntity
  8
1
100
AcDbLine
 10
263.4453502619471
 20
3.139604396720443
 30
0.0
 11
263.4453502619471
 21
19.13960439672044
 31
0.0
  0
LINE
  5
FE3
330
18
100
AcDbEntity
  8
1
100
AcDbLine
 10
253.9485030269383
 20
3.139604396720443
 30
0.0
 11
252.9485030269384
 21
2.13960439672045
 31
0.0
  0
LINE
  5
FE4
330
18
100
AcDbEntity
  8
1
100
AcDbLine
 10
248.341043743293
 20
14.63960439672044
 30
0.0
 11
260.341043743293
 21
14.63960439672044
 31
0.0
  0
LINE
  5
FE5
330
18
100
AcDbEntity
  8
1
100
AcDbLine
 10
248.341043743293
 20
12.13960439672044
 30
0.0
 11
260.341043743293
 21
12.13960439672044
 31
0.0
  0
LINE
  5
FE6
330
18
100
AcDbEntity
  8
1
100
AcDbLine
 10
248.341043743293
 20
14.63960439672044
 30
0.0
 11
248.341043743293
 21
12.13960439672044
 31
0.0
  0
LINE
  5
FE7
330
18
100
AcDbEntity
  8
1
100
AcDbLine
 10
260.341043743293
 20
14.63960439672044
 30
0.0
 11
260.341043743293
 21
12.13960439672044
 31
0.0
  0
LINE
  5
FE8
330
18
100
AcDbEntity
  8
1
100
AcDbLine
 10
268.860575589018
 20
26.13960441450925
 30
0.0
 11
248.8685755890178
 21
26.13960441450925
 31
0.0
  0
LINE
  5
FE9
330
18
100
AcDbEntity
  8
1
100
AcDbLine
 10
249.8645755890179
 20
27.13460441450925
 30
0.0
 11
267.8645755890179
 21
27.13460441450925
 31
0.0
  0
LINE
  5
FEA
330
18
100
AcDbEntity
  8
1
100
AcDbLine
 10
251.3645755890179
 20
30.63460441450925
 30
0.0
 11
266.3645755890179
 21
30.63460441450925
 31
0.0
  0
TEXT
  5
FEB
330
18
100
AcDbEntity
  8
1
100
AcDbText
 10
254.610575589018
 20
32.88225958626791
 30
0.0
 40
3.0
  1
＊＊
  7
ＭＳ明朝
100
AcDbText
  0
LINE
  5
FEC
330
18
100
AcDbEntity
  8
1
100
AcDbLine
 10
252.8645755890179
 20
40.13460441450925
 30
0.0
 11
264.8645755890179
 21
40.13460441450925
 31
0.0
  0
LINE
  5
FED
330
18
100
AcDbEntity
  8
1
100
AcDbLine
 10
252.8645755890179
 20
36.13460441450925
 30
0.0
 11
264.8645755890179
 21
36.13460441450925
 31
0.0
  0
TEXT
  5
FEE
330
18
100
AcDbEntity
  8
1
100
AcDbText
 10
253.360575589018
 20
36.77083101483927
 30
0.0
 40
3.0
  1
*****
  7
ＭＳ明朝
100
AcDbText
  0
LEADER
  5
FEF
330
18
100
AcDbEntity
  8
2
100
AcDbLeader
  3
STANDARD
 76
     3
 10
299.2209982592157
 20
23.20329491307415
 30
0.0
 10
288.8909982592156
 20
-14.92670500639032
 30
0.0
 10
306.0595015716316
 20
-14.92670500639032
 30
0.0
1001
ACAD
1000
DSTYLE
1002
{
1070
    40
1040
1.0
1070
    77
1070
     0
1002
}
  0
TEXT
  5
FF0
330
18
100
AcDbEntity
  8
2
100
AcDbText
 10
292.3859997282918
 20
-14.37670500639036
 30
0.0
 40
2.5
  1
形式銘板
  7
MSゴシック
100
AcDbText
  0
TEXT
  5
FF1
330
18
100
AcDbEntity
  8
1
100
AcDbText
 10
292.1309982977827
 20
24.75329491307416
 30
0.0
 40
3.0
  1
HCD121-□□□
  7
MSゴシック
100
AcDbText
  0
LINE
  5
FF2
330
18
100
AcDbEntity
  8
1
100
AcDbLine
 10
319.6909982977826
 20
29.20329491307415
 30
0.0
 11
289.6909982977827
 21
29.20329491307415
 31
0.0
  0
LINE
  5
FF3
330
18
100
AcDbEntity
  8
1
100
AcDbLine
 10
315.3961070798445
 20
12.13960439672044
 30
0.0
 11
303.3961070798445
 21
12.13960439672044
 31
0.0
  0
LINE
  5
FF4
330
18
100
AcDbEntity
  8
1
100
AcDbLine
 10
315.3961070798445
 20
14.63960439672044
 30
0.0
 11
303.3961070798445
 21
14.63960439672044
 31
0.0
  0
LINE
  5
FF5
330
18
100
AcDbEntity
  8
1
100
AcDbLine
 10
289.6909982977827
 20
23.20329491307415
 30
0.0
 11
319.6909982977826
 21
23.20329491307415
 31
0.0
  0
LINE
  5
FF6
330
18
100
AcDbEntity
  8
1
100
AcDbLine
 10
300.4453502619471
 20
3.139604396720443
 30
0.0
 11
300.4453502619471
 21
19.13960439672044
 31
0.0
  0
LINE
  5
FF7
330
18
100
AcDbEntity
  8
1
100
AcDbLine
 10
303.3961070798445
 20
14.63960439672044
 30
0.0
 11
303.3961070798445
 21
12.13960439672044
 31
0.0
  0
LINE
  5
FF8
330
18
100
AcDbEntity
  8
1
100
AcDbLine
 10
289.6909982977827
 20
29.20329491307415
 30
0.0
 11
289.6909982977827
 21
23.20329491307415
 31
0.0
  0
LINE
  5
FF9
330
18
100
AcDbEntity
  8
1
100
AcDbLine
 10
324.8685754115688
 20
19.13960439672044
 30
0.0
 11
324.0298078383341
 21
4.553489873623703
 31
0.0
  0
ARC
  5
FFA
330
18
100
AcDbEntity
  8
1
100
AcDbCircle
 10
322.5322817821627
 20
4.639604396720443
 30
0.0
 40
1.5
100
AcDbArc
 50
270.0
 51
356.7088579598238
  0
LINE
  5
FFB
330
18
100
AcDbEntity
  8
1
100
AcDbLine
 10
310.9485030269384
 20
2.139604396720443
 30
0.0
 11
320.9485030269384
 21
2.139604396720443
 31
0.0
  0
LINE
  5
FFC
330
18
100
AcDbEntity
  8
1
100
AcDbLine
 10
310.9485030269384
 20
2.139604396720443
 30
0.0
 11
309.9485030269383
 21
3.141179257594131
 31
0.0
  0
LINE
  5
FFD
330
18
100
AcDbEntity
  8
1
100
AcDbLine
 10
321.9485030269384
 20
3.139604396720443
 30
0.0
 11
320.9485030269384
 21
2.139604396720443
 31
0.0
  0
LINE
  5
FFE
330
18
100
AcDbEntity
  8
1
100
AcDbLine
 10
315.3961070798445
 20
14.63960439672044
 30
0.0
 11
315.3961070798445
 21
12.13960439672044
 31
0.0
  0
LINE
  5
FFF
330
18
100
AcDbEntity
  8
1
100
AcDbLine
 10
319.6909982977826
 20
29.20329491307415
 30
0.0
 11
319.6909982977826
 21
23.20329491307415
 31
0.0
  0
LINE
  5
1000
330
18
100
AcDbEntity
  8
1
100
AcDbLine
 10
248.7555548367017
 20
133.5032950792168
 30
0.0
 11
316.3555548367019
 21
133.5032950792168
 31
0.0
  0
LINE
  5
1001
330
18
100
AcDbEntity
  8
1
100
AcDbLine
 10
248.5555548367017
 20
133.4032950792169
 30
0.0
 11
316.5555548367017
 21
133.4032950792169
 31
0.0
  0
LINE
  5
1002
330
18
100
AcDbEntity
  8
1
100
AcDbLine
 10
241.4053609625723
 20
57.13960439672044
 30
0.0
 11
322.4853395613219
 21
57.13960439672044
 31
0.0
  0
LINE
  5
1003
330
18
100
AcDbEntity
  8
1
100
AcDbLine
 10
241.5555548367017
 20
123.4032950792169
 30
0.0
 11
323.5555548367017
 21
123.4032950792168
 31
0.0
  0
LINE
  5
1004
330
18
100
AcDbEntity
  8
1
100
AcDbLine
 10
242.0555548367017
 20
124.4032950792168
 30
0.0
 11
323.0555548367017
 21
124.4032950792168
 31
0.0
  0
ARC
  5
1005
330
18
100
AcDbEntity
  8
1
100
AcDbCircle
 10
241.4053609625723
 20
55.63960439672044
 30
0.0
 40
1.5
100
AcDbArc
 50
90.0
 51
178.3281693754911
  0
LINE
  5
1006
330
18
100
AcDbEntity
  8
1
100
AcDbLine
 10
267.8645755890179
 20
50.13460441450925
 30
0.0
 11
249.8645755890179
 21
50.13460441450925
 31
0.0
  0
LINE
  5
1007
330
18
100
AcDbEntity
  8
1
100
AcDbLine
 10
266.3645755890179
 20
45.63460441450925
 30
0.0
 11
251.3645755890179
 21
45.63460441450925
 31
0.0
  0
TEXT
  5
1008
330
18
100
AcDbEntity
  8
1
100
AcDbText
 10
252.4385755890179
 20
46.43174020714494
 30
0.0
 40
2.856
  1
合格証
  7
ＭＳ明朝
100
AcDbText
  0
LINE
  5
1009
330
18
100
AcDbEntity
  8
1
100
AcDbLine
 10
268.860575589018
 20
51.12960441450926
 30
0.0
 11
248.8685755890178
 21
51.12960441450926
 31
0.0
  0
ARC
  5
100A
330
18
100
AcDbEntity
  8
1
100
AcDbCircle
 10
242.0555548367017
 20
126.4032950792168
 30
0.0
 40
2.0
100
AcDbArc
 50
180.0
 51
270.0
  0
ARC
  5
100B
330
18
100
AcDbEntity
  8
1
100
AcDbCircle
 10
241.5555548367017
 20
125.4032950792169
 30
0.0
 40
2.0
100
AcDbArc
 50
180.0
 51
270.0
  0
ARC
  5
100C
330
18
100
AcDbEntity
  8
1
100
AcDbCircle
 10
248.7555548367017
 20
134.5032950792168
 30
0.0
 40
1.0
100
AcDbArc
 50
180.0
 51
270.0
  0
ARC
  5
100D
330
18
100
AcDbEntity
  8
1
100
AcDbCircle
 10
248.5555548367017
 20
134.4032950792169
 30
0.0
 40
1.0
100
AcDbArc
 50
180.0
 51
270.0
  0
ARC
  5
100E
330
18
100
AcDbEntity
  8
1
100
AcDbCircle
 10
322.4853395613219
 20
55.63960439672044
 30
0.0
 40
1.5
100
AcDbArc
 50
1.42447034216578
 51
90.0
  0
LINE
  5
100F
330
18
100
AcDbEntity
  8
1
100
AcDbLine
 10
301.2422729452582
 20
137.0121539519902
 30
0.0
 11
301.8422729452581
 21
137.0121539519902
 31
0.0
  0
LINE
  5
1010
330
18
100
AcDbEntity
  8
1
100
AcDbLine
 10
297.2371133888454
 20
137.0121539519902
 30
0.0
 11
297.8371133888454
 21
137.0121539519902
 31
0.0
  0
ARC
  5
1011
330
18
100
AcDbEntity
  8
1
100
AcDbCircle
 10
297.2371133888454
 20
137.0871539519901
 30
0.0
 40
0.0750000000000026
100
AcDbArc
 50
180.0
 51
270.0
  0
LINE
  5
1012
330
18
100
AcDbEntity
  8
1
100
AcDbLine
 10
299.865983056155
 20
137.0121539519902
 30
0.0
 11
300.4659830561549
 21
137.0121539519902
 31
0.0
  0
ARC
  5
1013
330
18
100
AcDbEntity
  8
1
100
AcDbCircle
 10
301.2422729452582
 20
137.0871539519901
 30
0.0
 40
0.0750000000000026
100
AcDbArc
 50
180.0
 51
270.0
  0
ARC
  5
1014
330
18
100
AcDbEntity
  8
1
100
AcDbCircle
 10
300.4659830561549
 20
137.0871539519901
 30
0.0
 40
0.0750000000000026
100
AcDbArc
 50
270.0
 51
0.0
  0
ARC
  5
1015
330
18
100
AcDbEntity
  8
1
100
AcDbCircle
 10
299.865983056155
 20
137.0871539519901
 30
0.0
 40
0.0750000000000026
100
AcDbArc
 50
180.0
 51
270.0
  0
ARC
  5
1016
330
18
100
AcDbEntity
  8
1
100
AcDbCircle
 10
297.8371133888454
 20
137.0871539519901
 30
0.0
 40
0.0750000000000026
100
AcDbArc
 50
270.0
 51
0.0
  0
LINE
  5
1017
330
18
100
AcDbEntity
  8
1
100
AcDbLine
 10
303.4497722537744
 20
137.0136968888608
 30
0.0
 11
304.1023520319809
 21
137.0136968888608
 31
0.0
  0
LINE
  5
1018
330
18
100
AcDbEntity
  8
1
100
AcDbLine
 10
303.4301090923002
 20
137.7663858876458
 30
0.0
 11
304.0826888705062
 21
137.7663858876458
 31
0.0
  0
ARC
  5
1019
330
18
100
AcDbEntity
  8
1
100
AcDbCircle
 10
303.4435628343615
 20
136.8638254669334
 30
0.0
 40
0.1500000000000051
100
AcDbArc
 50
87.62749856475251
 51
180.0
  0
ARC
  5
101A
330
18
100
AcDbEntity
  8
1
100
AcDbCircle
 10
303.4435628343615
 20
137.9157813254091
 30
0.0
 40
0.1500000000000051
100
AcDbArc
 50
180.0
 51
264.854133890323
  0
LINE
  5
101B
330
18
100
AcDbEntity
  8
1
100
AcDbLine
 10
303.2935628343614
 20
136.8638254669334
 30
0.0
 11
303.2935628343614
 21
134.9629314240971
 31
0.0
  0
LINE
  5
101C
330
18
100
AcDbEntity
  8
1
100
AcDbLine
 10
302.6464171350878
 20
134.6532956722807
 30
0.0
 11
303.246417135088
 21
134.8932956722806
 31
0.0
  0
ARC
  5
101D
330
18
100
AcDbEntity
  8
1
100
AcDbCircle
 10
303.2185628343613
 20
134.9629314240971
 30
0.0
 40
0.0750000000000026
100
AcDbArc
 50
291.8014094863548
 51
0.0
  0
ARC
  5
101E
330
18
100
AcDbEntity
  8
1
100
AcDbCircle
 10
302.6185628343614
 20
134.722931424097
 30
0.0
 40
0.0750000000000026
100
AcDbArc
 50
180.0
 51
291.8014094863548
  0
ARC
  5
101F
330
18
100
AcDbEntity
  8
1
100
AcDbCircle
 10
301.8422729452581
 20
137.0871539519901
 30
0.0
 40
0.0750000000000026
100
AcDbArc
 50
270.0
 51
0.0
  0
LINE
  5
1020
330
18
100
AcDbEntity
  8
1
100
AcDbLine
 10
306.6252868023975
 20
134.6532956722807
 30
0.0
 11
307.2252868023974
 21
134.8932956722806
 31
0.0
  0
LINE
  5
1021
330
18
100
AcDbEntity
  8
1
100
AcDbLine
 10
307.2724325016709
 20
136.8638254669334
 30
0.0
 11
307.2724325016709
 21
134.9629314240971
 31
0.0
  0
ARC
  5
1022
330
18
100
AcDbEntity
  8
1
100
AcDbCircle
 10
307.422432501671
 20
137.9157813254091
 30
0.0
 40
0.1500000000000051
100
AcDbArc
 50
180.0
 51
264.854133890323
  0
ARC
  5
1023
330
18
100
AcDbEntity
  8
1
100
AcDbCircle
 10
307.422432501671
 20
136.8638254669334
 30
0.0
 40
0.1500000000000051
100
AcDbArc
 50
87.62749856475251
 51
180.0
  0
LINE
  5
1024
330
18
100
AcDbEntity
  8
1
100
AcDbLine
 10
307.4089787596097
 20
137.7663858876458
 30
0.0
 11
308.0615585378156
 21
137.7663858876458
 31
0.0
  0
LINE
  5
1025
330
18
100
AcDbEntity
  8
1
100
AcDbLine
 10
307.4286419210839
 20
137.0136968888608
 30
0.0
 11
308.0812216992906
 21
137.0136968888608
 31
0.0
  0
ARC
  5
1026
330
18
100
AcDbEntity
  8
1
100
AcDbCircle
 10
307.197432501671
 20
134.9629314240971
 30
0.0
 40
0.0750000000000026
100
AcDbArc
 50
291.8014094863548
 51
0.0
  0
ARC
  5
1027
330
18
100
AcDbEntity
  8
1
100
AcDbCircle
 10
306.5974325016709
 20
134.722931424097
 30
0.0
 40
0.0750000000000026
100
AcDbArc
 50
180.0
 51
291.8014094863557
  0
ARC
  5
1028
330
18
100
AcDbEntity
  8
1
100
AcDbCircle
 10
323.0555548367017
 20
126.4032950792168
 30
0.0
 40
2.0
100
AcDbArc
 50
270.0
 51
0.0
  0
ARC
  5
1029
330
18
100
AcDbEntity
  8
1
100
AcDbCircle
 10
323.5555548367017
 20
125.4032950792168
 30
0.0
 40
2.0
100
AcDbArc
 50
270.0
 51
0.0
  0
ARC
  5
102A
330
18
100
AcDbEntity
  8
1
100
AcDbCircle
 10
316.3555548367019
 20
134.5032950792168
 30
0.0
 40
1.0
100
AcDbArc
 50
270.0
 51
0.0
  0
ARC
  5
102B
330
18
100
AcDbEntity
  8
1
100
AcDbCircle
 10
316.5555548367017
 20
134.4032950792169
 30
0.0
 40
1.0
100
AcDbArc
 50
270.0
 51
0.0
  0
LINE
  5
102C
330
18
100
AcDbEntity
  8
1
  6
Continuous
100
AcDbLine
 39
7.129032258064506
 10
296.689164575773
 20
221.7126871270211
 30
0.0
 11
295.9049138245175
 21
220.9384935786339
 31
0.0
  0
LINE
  5
102D
330
18
100
AcDbEntity
  8
1
  6
Continuous
100
AcDbLine
 39
7.129032258064506
 10
296.5532163727441
 20
221.9032950792169
 30
0.0
 11
295.7689656214883
 21
221.1291015308298
 31
0.0
  0
LINE
  5
102E
330
18
100
AcDbEntity
  8
1
  6
Continuous
100
AcDbLine
 39
7.129032258064506
 10
300.1229512987176
 20
221.9032950792169
 30
0.0
 11
303.8032163727441
 21
221.9032950792169
 31
0.0
  0
LINE
  5
102F
330
18
100
AcDbEntity
  8
1
  6
Continuous
100
AcDbLine
 39
7.129032258064506
 10
303.939164575773
 20
221.7126871270211
 30
0.0
 11
303.1549138245175
 21
220.9384935786339
 31
0.0
  0
LINE
  5
1030
330
18
100
AcDbEntity
  8
1
  6
Continuous
100
AcDbLine
 39
7.129032258064506
 10
303.8032163727441
 20
221.9032950792169
 30
0.0
 11
303.0189656214884
 21
221.1291015308298
 31
0.0
  0
LINE
  5
1031
330
18
100
AcDbEntity
  8
1
  6
Continuous
100
AcDbLine
 39
7.129032258064506
 10
300.1229512987176
 20
221.9032950792169
 30
0.0
 11
300.6751329914925
 21
221.1291015308298
 31
0.0
  0
LINE
  5
1032
330
18
100
AcDbEntity
  8
1
  6
Continuous
100
AcDbLine
 39
7.129032258064506
 10
299.9298672436821
 20
221.7126871270211
 30
0.0
 11
300.4820489364569
 21
220.9384935786339
 31
0.0
  0
LINE
  5
1033
330
18
100
AcDbEntity
  8
1
  6
Continuous
100
AcDbLine
 39
7.129032258064506
 10
300.6751329914925
 20
221.1291015308298
 30
0.0
 11
303.0189656214884
 21
221.1291015308298
 31
0.0
  0
LINE
  5
1034
330
18
100
AcDbEntity
  8
1
  6
Continuous
100
AcDbLine
 39
7.129032258064506
 10
311.189164575773
 20
221.7126871270211
 30
0.0
 11
310.4049138245175
 21
220.9384935786339
 31
0.0
  0
LINE
  5
1035
330
18
100
AcDbEntity
  8
1
  6
Continuous
100
AcDbLine
 39
7.129032258064506
 10
307.9251329914925
 20
221.1291015308298
 30
0.0
 11
310.2689656214884
 21
221.1291015308298
 31
0.0
  0
LINE
  5
1036
330
18
100
AcDbEntity
  8
1
  6
Continuous
100
AcDbLine
 39
7.129032258064506
 10
307.3729512987176
 20
221.9032950792169
 30
0.0
 11
307.9251329914925
 21
221.1291015308298
 31
0.0
  0
LINE
  5
1037
330
18
100
AcDbEntity
  8
1
  6
Continuous
100
AcDbLine
 39
7.129032258064506
 10
307.1798672436823
 20
221.7126871270211
 30
0.0
 11
307.732048936457
 21
220.9384935786339
 31
0.0
  0
LINE
  5
1038
330
18
100
AcDbEntity
  8
1
  6
Continuous
100
AcDbLine
 39
7.129032258064506
 10
311.0532163727441
 20
221.9032950792169
 30
0.0
 11
310.2689656214884
 21
221.1291015308298
 31
0.0
  0
LINE
  5
1039
330
18
100
AcDbEntity
  8
1
  6
Continuous
100
AcDbLine
 39
7.129032258064506
 10
293.4251329914925
 20
221.1291015308298
 30
0.0
 11
295.7689656214883
 21
221.1291015308298
 31
0.0
  0
LINE
  5
103A
330
18
100
AcDbEntity
  8
1
  6
Continuous
100
AcDbLine
 39
7.129032258064506
 10
292.8729512987176
 20
221.9032950792169
 30
0.0
 11
296.5532163727441
 21
221.9032950792169
 31
0.0
  0
LINE
  5
103B
330
18
100
AcDbEntity
  8
1
  6
Continuous
100
AcDbLine
 39
7.129032258064506
 10
289.439164575773
 20
221.7126871270211
 30
0.0
 11
288.6549138245175
 21
220.9384935786339
 31
0.0
  0
LINE
  5
103C
330
18
100
AcDbEntity
  8
1
  6
Continuous
100
AcDbLine
 39
7.129032258064506
 10
289.3032163727441
 20
221.9032950792169
 30
0.0
 11
288.5189656214884
 21
221.1291015308298
 31
0.0
  0
LINE
  5
103D
330
18
100
AcDbEntity
  8
1
  6
Continuous
100
AcDbLine
 39
7.129032258064506
 10
285.6229512987176
 20
221.9032950792169
 30
0.0
 11
286.1751329914925
 21
221.1291015308298
 31
0.0
  0
LINE
  5
103E
330
18
100
AcDbEntity
  8
1
  6
Continuous
100
AcDbLine
 39
7.129032258064506
 10
285.4298672436821
 20
221.7126871270211
 30
0.0
 11
285.9820489364569
 21
220.9384935786339
 31
0.0
  0
LINE
  5
103F
330
18
100
AcDbEntity
  8
1
  6
Continuous
100
AcDbLine
 39
7.129032258064506
 10
286.1751329914925
 20
221.1291015308298
 30
0.0
 11
288.5189656214884
 21
221.1291015308298
 31
0.0
  0
LINE
  5
1040
330
18
100
AcDbEntity
  8
1
  6
Continuous
100
AcDbLine
 39
7.129032258064506
 10
285.6229512987176
 20
221.9032950792169
 30
0.0
 11
289.3032163727441
 21
221.9032950792169
 31
0.0
  0
LINE
  5
1041
330
18
100
AcDbEntity
  8
1
  6
Continuous
100
AcDbLine
 39
7.129032258064506
 10
292.8729512987176
 20
221.9032950792169
 30
0.0
 11
293.4251329914925
 21
221.1291015308298
 31
0.0
  0
LINE
  5
1042
330
18
100
AcDbEntity
  8
1
  6
Continuous
100
AcDbLine
 39
7.129032258064506
 10
292.6798672436821
 20
221.7126871270211
 30
0.0
 11
293.232048936457
 21
220.9384935786339
 31
0.0
  0
LINE
  5
1043
330
18
100
AcDbEntity
  8
1
  6
Continuous
100
AcDbLine
 39
7.129032258064506
 10
307.1901137603615
 20
217.3226499179266
 30
0.0
 11
306.8222303781267
 21
214.8680965797999
 31
0.0
  0
LINE
  5
1044
330
18
100
AcDbEntity
  8
1
  6
Continuous
100
AcDbLine
 39
7.129032258064506
 10
295.7551040240498
 20
217.7097466921201
 30
0.0
 11
295.362978648422
 21
217.3226499179266
 31
0.0
  0
LINE
  5
1045
330
18
100
AcDbEntity
  8
1
  6
Continuous
100
AcDbLine
 39
7.129032258064506
 10
295.7551040240498
 20
217.7097466921201
 30
0.0
 11
296.0311948704372
 21
217.3226499179266
 31
0.0
  0
LINE
  5
1046
330
18
100
AcDbEntity
  8
1
  6
Continuous
100
AcDbLine
 39
7.129032258064506
 10
295.5370304422826
 20
218.4839402405073
 30
0.0
 11
295.8131212886701
 21
218.0968434663137
 31
0.0
  0
LINE
  5
1047
330
18
100
AcDbEntity
  8
1
  6
Continuous
100
AcDbLine
 39
7.129032258064506
 10
296.2052466642978
 20
218.4839402405073
 30
0.0
 11
295.8131212886701
 21
218.0968434663137
 31
0.0
  0
LINE
  5
1048
330
18
100
AcDbEntity
  8
1
  6
Continuous
100
AcDbLine
 39
7.129032258064506
 10
295.6195965273277
 20
217.9032950792169
 30
0.0
 11
295.2274711517
 21
217.5161983050232
 31
0.0
  0
LINE
  5
1049
330
18
100
AcDbEntity
  8
1
  6
Continuous
100
AcDbLine
 39
7.129032258064506
 10
295.3435056809403
 20
218.2903918534104
 30
0.0
 11
295.6195965273277
 21
217.9032950792169
 31
0.0
  0
LINE
  5
104A
330
18
100
AcDbEntity
  8
1
  6
Continuous
100
AcDbLine
 39
7.129032258064506
 10
295.9049138245175
 20
220.9384935786339
 30
0.0
 11
295.5370304422826
 21
218.4839402405073
 31
0.0
  0
LINE
  5
104B
330
18
100
AcDbEntity
  8
1
  6
Continuous
100
AcDbLine
 39
7.129032258064506
 10
303.0051040240498
 20
217.7097466921201
 30
0.0
 11
302.612978648422
 21
217.3226499179266
 31
0.0
  0
LINE
  5
104C
330
18
100
AcDbEntity
  8
1
  6
Continuous
100
AcDbLine
 39
7.129032258064506
 10
303.0051040240498
 20
217.7097466921201
 30
0.0
 11
303.2811948704372
 21
217.3226499179266
 31
0.0
  0
LINE
  5
104D
330
18
100
AcDbEntity
  8
1
  6
Continuous
100
AcDbLine
 39
7.129032258064506
 10
302.7870304422827
 20
218.4839402405073
 30
0.0
 11
303.0631212886701
 21
218.0968434663137
 31
0.0
  0
LINE
  5
104E
330
18
100
AcDbEntity
  8
1
  6
Continuous
100
AcDbLine
 39
7.129032258064506
 10
303.4552466642978
 20
218.4839402405073
 30
0.0
 11
303.0631212886701
 21
218.0968434663137
 31
0.0
  0
LINE
  5
104F
330
18
100
AcDbEntity
  8
1
  6
Continuous
100
AcDbLine
 39
7.129032258064506
 10
302.8695965273277
 20
217.9032950792169
 30
0.0
 11
302.4774711517
 21
217.5161983050232
 31
0.0
  0
LINE
  5
1050
330
18
100
AcDbEntity
  8
1
  6
Continuous
100
AcDbLine
 39
7.129032258064506
 10
302.5935056809403
 20
218.2903918534104
 30
0.0
 11
302.8695965273277
 21
217.9032950792169
 31
0.0
  0
LINE
  5
1051
330
18
100
AcDbEntity
  8
1
  6
Continuous
100
AcDbLine
 39
7.129032258064506
 10
303.1549138245175
 20
220.9384935786339
 30
0.0
 11
302.7870304422827
 21
218.4839402405073
 31
0.0
  0
LINE
  5
1052
330
18
100
AcDbEntity
  8
1
  6
Continuous
100
AcDbLine
 39
7.129032258064506
 10
299.6640229139741
 20
217.7097466921202
 30
0.0
 11
299.2718975383463
 21
217.3226499179266
 31
0.0
  0
LINE
  5
1053
330
18
100
AcDbEntity
  8
1
  6
Continuous
100
AcDbLine
 39
7.129032258064506
 10
299.4459493322069
 20
218.4839402405074
 30
0.0
 11
299.7340258466808
 21
218.0800388039588
 31
0.0
  0
LINE
  5
1054
330
18
100
AcDbEntity
  8
1
  6
Continuous
100
AcDbLine
 39
7.129032258064506
 10
299.8575476753164
 20
217.9032950792169
 30
0.0
 11
300.1336385217039
 21
217.5161983050232
 31
0.0
  0
LINE
  5
1055
330
18
100
AcDbEntity
  8
1
  6
Continuous
100
AcDbLine
 39
7.129032258064506
 10
300.2496730509442
 20
218.2903918534104
 30
0.0
 11
299.8575476753164
 21
217.9032950792169
 31
0.0
  0
LINE
  5
1056
330
18
100
AcDbEntity
  8
1
  6
Continuous
100
AcDbLine
 39
7.129032258064506
 10
299.6640229139741
 20
217.7097466921202
 30
0.0
 11
299.9401137603615
 21
217.3226499179266
 31
0.0
  0
LINE
  5
1057
330
18
100
AcDbEntity
  8
1
  6
Continuous
100
AcDbLine
 39
7.129032258064506
 10
300.1091282580848
 20
218.4503309157976
 30
0.0
 11
299.7340258466808
 21
218.0800388039589
 31
0.0
  0
LINE
  5
1058
330
18
100
AcDbEntity
  8
1
  6
Continuous
100
AcDbLine
 39
7.129032258064506
 10
299.9298672436821
 20
221.7126871270211
 30
0.0
 11
299.4459493322069
 21
218.4839402405074
 31
0.0
  0
LINE
  5
1059
330
18
100
AcDbEntity
  8
1
  6
Continuous
100
AcDbLine
 39
7.129032258064506
 10
300.4820489364569
 20
220.9384935786339
 30
0.0
 11
300.1091282580848
 21
218.4503309157976
 31
0.0
  0
LINE
  5
105A
330
18
100
AcDbEntity
  8
1
  6
Continuous
100
AcDbLine
 39
7.129032258064506
 10
300.2496730509442
 20
218.2903918534104
 30
0.0
 11
302.5935056809403
 21
218.2903918534106
 31
0.0
  0
LINE
  5
105B
330
18
100
AcDbEntity
  8
1
  6
Continuous
100
AcDbLine
 39
7.129032258064506
 10
300.1336385217039
 20
217.5161983050232
 30
0.0
 11
302.4774711517
 21
217.5161983050232
 31
0.0
  0
LINE
  5
105C
330
18
100
AcDbEntity
  8
1
  6
Continuous
100
AcDbLine
 39
7.129032258064506
 10
307.4996730509442
 20
218.2903918534104
 30
0.0
 11
309.8435056809403
 21
218.2903918534106
 31
0.0
  0
LINE
  5
105D
330
18
100
AcDbEntity
  8
1
  6
Continuous
100
AcDbLine
 39
7.129032258064506
 10
307.3836385217039
 20
217.5161983050232
 30
0.0
 11
309.7274711517
 21
217.5161983050232
 31
0.0
  0
LINE
  5
105E
330
18
100
AcDbEntity
  8
1
  6
Continuous
100
AcDbLine
 39
7.129032258064506
 10
306.9140229139741
 20
217.7097466921202
 30
0.0
 11
306.5218975383463
 21
217.3226499179266
 31
0.0
  0
LINE
  5
105F
330
18
100
AcDbEntity
  8
1
  6
Continuous
100
AcDbLine
 39
7.129032258064506
 10
306.6959493322069
 20
218.4839402405074
 30
0.0
 11
306.9840258466808
 21
218.0800388039588
 31
0.0
  0
LINE
  5
1060
330
18
100
AcDbEntity
  8
1
  6
Continuous
100
AcDbLine
 39
7.129032258064506
 10
307.1075476753164
 20
217.9032950792169
 30
0.0
 11
307.3836385217039
 21
217.5161983050232
 31
0.0
  0
LINE
  5
1061
330
18
100
AcDbEntity
  8
1
  6
Continuous
100
AcDbLine
 39
7.129032258064506
 10
307.4996730509442
 20
218.2903918534104
 30
0.0
 11
307.1075476753164
 21
217.9032950792169
 31
0.0
  0
LINE
  5
1062
330
18
100
AcDbEntity
  8
1
  6
Continuous
100
AcDbLine
 39
7.129032258064506
 10
306.9140229139741
 20
217.7097466921202
 30
0.0
 11
307.1901137603615
 21
217.3226499179266
 31
0.0
  0
LINE
  5
1063
330
18
100
AcDbEntity
  8
1
  6
Continuous
100
AcDbLine
 39
7.129032258064506
 10
307.3591282580848
 20
218.4503309157976
 30
0.0
 11
306.9840258466808
 21
218.0800388039589
 31
0.0
  0
LINE
  5
1064
330
18
100
AcDbEntity
  8
1
  6
Continuous
100
AcDbLine
 39
7.129032258064506
 10
307.1798672436823
 20
221.7126871270211
 30
0.0
 11
306.6959493322069
 21
218.4839402405074
 31
0.0
  0
LINE
  5
1065
330
18
100
AcDbEntity
  8
1
  6
Continuous
100
AcDbLine
 39
7.129032258064506
 10
307.732048936457
 20
220.9384935786339
 30
0.0
 11
307.3591282580848
 21
218.4503309157976
 31
0.0
  0
LINE
  5
1066
330
18
100
AcDbEntity
  8
1
  6
Continuous
100
AcDbLine
 39
7.129032258064506
 10
310.2551040240498
 20
217.7097466921201
 30
0.0
 11
309.862978648422
 21
217.3226499179266
 31
0.0
  0
LINE
  5
1067
330
18
100
AcDbEntity
  8
1
  6
Continuous
100
AcDbLine
 39
7.129032258064506
 10
310.2551040240498
 20
217.7097466921201
 30
0.0
 11
310.5311948704372
 21
217.3226499179266
 31
0.0
  0
LINE
  5
1068
330
18
100
AcDbEntity
  8
1
  6
Continuous
100
AcDbLine
 39
7.129032258064506
 10
310.0370304422826
 20
218.4839402405073
 30
0.0
 11
310.3131212886701
 21
218.0968434663137
 31
0.0
  0
LINE
  5
1069
330
18
100
AcDbEntity
  8
1
  6
Continuous
100
AcDbLine
 39
7.129032258064506
 10
310.7052466642978
 20
218.4839402405073
 30
0.0
 11
310.3131212886701
 21
218.0968434663137
 31
0.0
  0
LINE
  5
106A
330
18
100
AcDbEntity
  8
1
  6
Continuous
100
AcDbLine
 39
7.129032258064506
 10
310.1195965273277
 20
217.9032950792169
 30
0.0
 11
309.7274711517
 21
217.5161983050232
 31
0.0
  0
LINE
  5
106B
330
18
100
AcDbEntity
  8
1
  6
Continuous
100
AcDbLine
 39
7.129032258064506
 10
309.8435056809403
 20
218.2903918534104
 30
0.0
 11
310.1195965273277
 21
217.9032950792169
 31
0.0
  0
LINE
  5
106C
330
18
100
AcDbEntity
  8
1
  6
Continuous
100
AcDbLine
 39
7.129032258064506
 10
310.4049138245175
 20
220.9384935786339
 30
0.0
 11
310.0370304422826
 21
218.4839402405073
 31
0.0
  0
LINE
  5
106D
330
18
100
AcDbEntity
  8
1
  6
Continuous
100
AcDbLine
 39
7.129032258064506
 10
302.612978648422
 20
217.3226499179266
 30
0.0
 11
302.2450952661872
 21
214.8680965798
 31
0.0
  0
LINE
  5
106E
330
18
100
AcDbEntity
  8
1
  6
Continuous
100
AcDbLine
 39
7.129032258064506
 10
299.9401137603615
 20
217.3226499179266
 30
0.0
 11
299.5722303781267
 21
214.8680965797999
 31
0.0
  0
LINE
  5
106F
330
18
100
AcDbEntity
  8
1
  6
Continuous
100
AcDbLine
 39
7.129032258064506
 10
309.862978648422
 20
217.3226499179266
 30
0.0
 11
309.4950952661872
 21
214.8680965798
 31
0.0
  0
LINE
  5
1070
330
18
100
AcDbEntity
  8
1
  6
Continuous
100
AcDbLine
 39
7.129032258064506
 10
292.9996730509442
 20
218.2903918534104
 30
0.0
 11
295.3435056809403
 21
218.2903918534106
 31
0.0
  0
LINE
  5
1071
330
18
100
AcDbEntity
  8
1
  6
Continuous
100
AcDbLine
 39
7.129032258064506
 10
292.8836385217039
 20
217.5161983050232
 30
0.0
 11
295.2274711517
 21
217.5161983050232
 31
0.0
  0
LINE
  5
1072
330
18
100
AcDbEntity
  8
1
  6
Continuous
100
AcDbLine
 39
7.129032258064506
 10
295.362978648422
 20
217.3226499179266
 30
0.0
 11
294.9950952661872
 21
214.8680965798
 31
0.0
  0
LINE
  5
1073
330
18
100
AcDbEntity
  8
1
  6
Continuous
100
AcDbLine
 39
7.129032258064506
 10
288.5051040240498
 20
217.7097466921201
 30
0.0
 11
288.1129786484221
 21
217.3226499179266
 31
0.0
  0
LINE
  5
1074
330
18
100
AcDbEntity
  8
1
  6
Continuous
100
AcDbLine
 39
7.129032258064506
 10
288.5051040240498
 20
217.7097466921201
 30
0.0
 11
288.7811948704372
 21
217.3226499179266
 31
0.0
  0
LINE
  5
1075
330
18
100
AcDbEntity
  8
1
  6
Continuous
100
AcDbLine
 39
7.129032258064506
 10
288.2870304422826
 20
218.4839402405073
 30
0.0
 11
288.5631212886701
 21
218.0968434663137
 31
0.0
  0
LINE
  5
1076
330
18
100
AcDbEntity
  8
1
  6
Continuous
100
AcDbLine
 39
7.129032258064506
 10
288.9552466642978
 20
218.4839402405073
 30
0.0
 11
288.5631212886701
 21
218.0968434663137
 31
0.0
  0
LINE
  5
1077
330
18
100
AcDbEntity
  8
1
  6
Continuous
100
AcDbLine
 39
7.129032258064506
 10
288.3695965273277
 20
217.9032950792169
 30
0.0
 11
287.9774711517
 21
217.5161983050232
 31
0.0
  0
LINE
  5
1078
330
18
100
AcDbEntity
  8
1
  6
Continuous
100
AcDbLine
 39
7.129032258064506
 10
288.0935056809403
 20
218.2903918534104
 30
0.0
 11
288.3695965273277
 21
217.9032950792169
 31
0.0
  0
LINE
  5
1079
330
18
100
AcDbEntity
  8
1
  6
Continuous
100
AcDbLine
 39
7.129032258064506
 10
288.6549138245175
 20
220.9384935786339
 30
0.0
 11
288.2870304422826
 21
218.4839402405073
 31
0.0
  0
LINE
  5
107A
330
18
100
AcDbEntity
  8
1
  6
Continuous
100
AcDbLine
 39
7.129032258064506
 10
289.439164575773
 20
221.7126871270211
 30
0.0
 11
288.9552466642978
 21
218.4839402405073
 31
0.0
  0
LINE
  5
107B
330
18
100
AcDbEntity
  8
1
  6
Continuous
100
AcDbLine
 39
7.129032258064506
 10
285.1640229139741
 20
217.7097466921202
 30
0.0
 11
284.7718975383463
 21
217.3226499179266
 31
0.0
  0
LINE
  5
107C
330
18
100
AcDbEntity
  8
1
  6
Continuous
100
AcDbLine
 39
7.129032258064506
 10
284.9459493322069
 20
218.4839402405074
 30
0.0
 11
285.2340258466808
 21
218.0800388039588
 31
0.0
  0
LINE
  5
107D
330
18
100
AcDbEntity
  8
1
  6
Continuous
100
AcDbLine
 39
7.129032258064506
 10
285.3575476753164
 20
217.9032950792169
 30
0.0
 11
285.6336385217039
 21
217.5161983050232
 31
0.0
  0
LINE
  5
107E
330
18
100
AcDbEntity
  8
1
  6
Continuous
100
AcDbLine
 39
7.129032258064506
 10
285.7496730509442
 20
218.2903918534104
 30
0.0
 11
285.3575476753164
 21
217.9032950792169
 31
0.0
  0
LINE
  5
107F
330
18
100
AcDbEntity
  8
1
  6
Continuous
100
AcDbLine
 39
7.129032258064506
 10
285.1640229139741
 20
217.7097466921202
 30
0.0
 11
285.4401137603615
 21
217.3226499179266
 31
0.0
  0
LINE
  5
1080
330
18
100
AcDbEntity
  8
1
  6
Continuous
100
AcDbLine
 39
7.129032258064506
 10
285.6091282580848
 20
218.4503309157976
 30
0.0
 11
285.2340258466808
 21
218.0800388039589
 31
0.0
  0
LINE
  5
1081
330
18
100
AcDbEntity
  8
1
  6
Continuous
100
AcDbLine
 39
7.129032258064506
 10
285.4298672436821
 20
221.7126871270211
 30
0.0
 11
284.9459493322069
 21
218.4839402405074
 31
0.0
  0
LINE
  5
1082
330
18
100
AcDbEntity
  8
1
  6
Continuous
100
AcDbLine
 39
7.129032258064506
 10
285.9820489364569
 20
220.9384935786339
 30
0.0
 11
285.6091282580848
 21
218.4503309157976
 31
0.0
  0
LINE
  5
1083
330
18
100
AcDbEntity
  8
1
  6
Continuous
100
AcDbLine
 39
7.129032258064506
 10
285.7496730509442
 20
218.2903918534104
 30
0.0
 11
288.0935056809403
 21
218.2903918534106
 31
0.0
  0
LINE
  5
1084
330
18
100
AcDbEntity
  8
1
  6
Continuous
100
AcDbLine
 39
7.129032258064506
 10
285.6336385217039
 20
217.5161983050232
 30
0.0
 11
287.9774711517
 21
217.5161983050232
 31
0.0
  0
LINE
  5
1085
330
18
100
AcDbEntity
  8
1
  6
Continuous
100
AcDbLine
 39
7.129032258064506
 10
292.4140229139741
 20
217.7097466921202
 30
0.0
 11
292.0218975383463
 21
217.3226499179266
 31
0.0
  0
LINE
  5
1086
330
18
100
AcDbEntity
  8
1
  6
Continuous
100
AcDbLine
 39
7.129032258064506
 10
292.1959493322069
 20
218.4839402405074
 30
0.0
 11
292.4840258466808
 21
218.0800388039588
 31
0.0
  0
LINE
  5
1087
330
18
100
AcDbEntity
  8
1
  6
Continuous
100
AcDbLine
 39
7.129032258064506
 10
292.6075476753164
 20
217.9032950792169
 30
0.0
 11
292.8836385217039
 21
217.5161983050232
 31
0.0
  0
LINE
  5
1088
330
18
100
AcDbEntity
  8
1
  6
Continuous
100
AcDbLine
 39
7.129032258064506
 10
292.9996730509442
 20
218.2903918534104
 30
0.0
 11
292.6075476753164
 21
217.9032950792169
 31
0.0
  0
LINE
  5
1089
330
18
100
AcDbEntity
  8
1
  6
Continuous
100
AcDbLine
 39
7.129032258064506
 10
292.4140229139741
 20
217.7097466921202
 30
0.0
 11
292.6901137603615
 21
217.3226499179266
 31
0.0
  0
LINE
  5
108A
330
18
100
AcDbEntity
  8
1
  6
Continuous
100
AcDbLine
 39
7.129032258064506
 10
292.8591282580848
 20
218.4503309157976
 30
0.0
 11
292.4840258466808
 21
218.0800388039589
 31
0.0
  0
LINE
  5
108B
330
18
100
AcDbEntity
  8
1
  6
Continuous
100
AcDbLine
 39
7.129032258064506
 10
292.6798672436821
 20
221.7126871270211
 30
0.0
 11
292.1959493322069
 21
218.4839402405074
 31
0.0
  0
LINE
  5
108C
330
18
100
AcDbEntity
  8
1
  6
Continuous
100
AcDbLine
 39
7.129032258064506
 10
293.232048936457
 20
220.9384935786339
 30
0.0
 11
292.8591282580848
 21
218.4503309157976
 31
0.0
  0
LINE
  5
108D
330
18
100
AcDbEntity
  8
1
  6
Continuous
100
AcDbLine
 39
7.129032258064506
 10
288.1129786484221
 20
217.3226499179266
 30
0.0
 11
287.7450952661872
 21
214.8680965798
 31
0.0
  0
LINE
  5
108E
330
18
100
AcDbEntity
  8
1
  6
Continuous
100
AcDbLine
 39
7.129032258064506
 10
285.4401137603615
 20
217.3226499179266
 30
0.0
 11
285.0722303781267
 21
214.8680965797999
 31
0.0
  0
LINE
  5
108F
330
18
100
AcDbEntity
  8
1
  6
Continuous
100
AcDbLine
 39
7.129032258064506
 10
292.6901137603615
 20
217.3226499179266
 30
0.0
 11
292.3222303781267
 21
214.8680965797999
 31
0.0
  0
LINE
  5
1090
330
18
100
AcDbEntity
  8
1
  6
Continuous
100
AcDbLine
 39
7.129032258064506
 10
299.7081785811558
 20
214.677488627604
 30
0.0
 11
302.0520112111516
 21
214.6774886276041
 31
0.0
  0
LINE
  5
1091
330
18
100
AcDbEntity
  8
1
  6
Continuous
100
AcDbLine
 39
7.129032258064506
 10
302.0520112111516
 20
214.6774886276041
 30
0.0
 11
302.6041929039265
 21
213.9032950792169
 31
0.0
  0
LINE
  5
1092
330
18
100
AcDbEntity
  8
1
  6
Continuous
100
AcDbLine
 39
7.129032258064506
 10
299.7081785811558
 20
214.677488627604
 30
0.0
 11
298.9239278299003
 21
213.903295079217
 31
0.0
  0
LINE
  5
1093
330
18
100
AcDbEntity
  8
1
  6
Continuous
100
AcDbLine
 39
7.129032258064506
 10
298.9239278299003
 20
213.903295079217
 30
0.0
 11
302.6041929039265
 21
213.9032950792169
 31
0.0
  0
LINE
  5
1094
330
18
100
AcDbEntity
  8
1
  6
Continuous
100
AcDbLine
 39
7.129032258064506
 10
306.1739278299003
 20
213.903295079217
 30
0.0
 11
309.8541929039265
 21
213.9032950792169
 31
0.0
  0
LINE
  5
1095
330
18
100
AcDbEntity
  8
1
  6
Continuous
100
AcDbLine
 39
7.129032258064506
 10
309.3020112111517
 20
214.6774886276041
 30
0.0
 11
309.8541929039265
 21
213.9032950792169
 31
0.0
  0
LINE
  5
1096
330
18
100
AcDbEntity
  8
1
  6
Continuous
100
AcDbLine
 39
7.129032258064506
 10
306.9581785811558
 20
214.677488627604
 30
0.0
 11
306.1739278299003
 21
213.903295079217
 31
0.0
  0
LINE
  5
1097
330
18
100
AcDbEntity
  8
1
  6
Continuous
100
AcDbLine
 39
7.129032258064506
 10
306.9581785811558
 20
214.677488627604
 30
0.0
 11
309.3020112111517
 21
214.6774886276041
 31
0.0
  0
LINE
  5
1098
330
18
100
AcDbEntity
  8
1
  6
Continuous
100
AcDbLine
 39
7.129032258064506
 10
291.6739278299003
 20
213.903295079217
 30
0.0
 11
295.3541929039265
 21
213.9032950792169
 31
0.0
  0
LINE
  5
1099
330
18
100
AcDbEntity
  8
1
  6
Continuous
100
AcDbLine
 39
7.129032258064506
 10
294.8020112111517
 20
214.6774886276041
 30
0.0
 11
295.3541929039265
 21
213.9032950792169
 31
0.0
  0
LINE
  5
109A
330
18
100
AcDbEntity
  8
1
  6
Continuous
100
AcDbLine
 39
7.129032258064506
 10
285.2081785811558
 20
214.677488627604
 30
0.0
 11
284.4239278299003
 21
213.903295079217
 31
0.0
  0
LINE
  5
109B
330
18
100
AcDbEntity
  8
1
  6
Continuous
100
AcDbLine
 39
7.129032258064506
 10
284.4239278299003
 20
213.903295079217
 30
0.0
 11
288.1041929039265
 21
213.9032950792169
 31
0.0
  0
LINE
  5
109C
330
18
100
AcDbEntity
  8
1
  6
Continuous
100
AcDbLine
 39
7.129032258064506
 10
287.5520112111516
 20
214.6774886276041
 30
0.0
 11
288.1041929039265
 21
213.9032950792169
 31
0.0
  0
LINE
  5
109D
330
18
100
AcDbEntity
  8
1
  6
Continuous
100
AcDbLine
 39
7.129032258064506
 10
285.2081785811558
 20
214.677488627604
 30
0.0
 11
287.5520112111516
 21
214.6774886276041
 31
0.0
  0
LINE
  5
109E
330
18
100
AcDbEntity
  8
1
  6
Continuous
100
AcDbLine
 39
7.129032258064506
 10
292.4581785811558
 20
214.677488627604
 30
0.0
 11
291.6739278299003
 21
213.903295079217
 31
0.0
  0
LINE
  5
109F
330
18
100
AcDbEntity
  8
1
  6
Continuous
100
AcDbLine
 39
7.129032258064506
 10
292.4581785811558
 20
214.677488627604
 30
0.0
 11
294.8020112111517
 21
214.6774886276041
 31
0.0
  0
LINE
  5
10A0
330
18
100
AcDbEntity
  8
1
  6
Continuous
100
AcDbLine
 39
7.129032258064506
 10
310.5311948704372
 20
217.3226499179264
 30
0.0
 11
310.0472769589621
 21
214.0939030314128
 31
0.0
  0
LINE
  5
10A1
330
18
100
AcDbEntity
  8
1
  6
Continuous
100
AcDbLine
 39
7.129032258064506
 10
302.2450952661872
 20
214.8680965798
 30
0.0
 11
302.7972769589621
 21
214.0939030314128
 31
0.0
  0
LINE
  5
10A2
330
18
100
AcDbEntity
  8
1
  6
Continuous
100
AcDbLine
 39
7.129032258064506
 10
299.5722303781267
 20
214.8680965797999
 30
0.0
 11
298.7879796268712
 21
214.0939030314128
 31
0.0
  0
LINE
  5
10A3
330
18
100
AcDbEntity
  8
1
  6
Continuous
100
AcDbLine
 39
7.129032258064506
 10
309.4950952661872
 20
214.8680965798
 30
0.0
 11
310.0472769589621
 21
214.0939030314128
 31
0.0
  0
LINE
  5
10A4
330
18
100
AcDbEntity
  8
1
  6
Continuous
100
AcDbLine
 39
7.129032258064506
 10
306.8222303781267
 20
214.8680965797999
 30
0.0
 11
306.0379796268712
 21
214.0939030314128
 31
0.0
  0
LINE
  5
10A5
330
18
100
AcDbEntity
  8
1
  6
Continuous
100
AcDbLine
 39
7.129032258064506
 10
296.0311948704372
 20
217.3226499179264
 30
0.0
 11
295.5472769589619
 21
214.0939030314128
 31
0.0
  0
LINE
  5
10A6
330
18
100
AcDbEntity
  8
1
  6
Continuous
100
AcDbLine
 39
7.129032258064506
 10
303.2811948704372
 20
217.3226499179264
 30
0.0
 11
302.7972769589621
 21
214.0939030314128
 31
0.0
  0
LINE
  5
10A7
330
18
100
AcDbEntity
  8
1
  6
Continuous
100
AcDbLine
 39
7.129032258064506
 10
299.2718975383463
 20
217.3226499179266
 30
0.0
 11
298.7879796268712
 21
214.0939030314128
 31
0.0
  0
LINE
  5
10A8
330
18
100
AcDbEntity
  8
1
  6
Continuous
100
AcDbLine
 39
7.129032258064506
 10
306.5218975383463
 20
217.3226499179266
 30
0.0
 11
306.0379796268712
 21
214.0939030314128
 31
0.0
  0
LINE
  5
10A9
330
18
100
AcDbEntity
  8
1
  6
Continuous
100
AcDbLine
 39
7.129032258064506
 10
294.9950952661872
 20
214.8680965798
 30
0.0
 11
295.5472769589619
 21
214.0939030314128
 31
0.0
  0
LINE
  5
10AA
330
18
100
AcDbEntity
  8
1
  6
Continuous
100
AcDbLine
 39
7.129032258064506
 10
287.7450952661872
 20
214.8680965798
 30
0.0
 11
288.2972769589619
 21
214.0939030314128
 31
0.0
  0
LINE
  5
10AB
330
18
100
AcDbEntity
  8
1
  6
Continuous
100
AcDbLine
 39
7.129032258064506
 10
285.0722303781267
 20
214.8680965797999
 30
0.0
 11
284.2879796268712
 21
214.0939030314128
 31
0.0
  0
LINE
  5
10AC
330
18
100
AcDbEntity
  8
1
  6
Continuous
100
AcDbLine
 39
7.129032258064506
 10
292.3222303781267
 20
214.8680965797999
 30
0.0
 11
291.5379796268712
 21
214.0939030314128
 31
0.0
  0
LINE
  5
10AD
330
18
100
AcDbEntity
  8
1
  6
Continuous
100
AcDbLine
 39
7.129032258064506
 10
288.7811948704372
 20
217.3226499179264
 30
0.0
 11
288.2972769589619
 21
214.0939030314128
 31
0.0
  0
LINE
  5
10AE
330
18
100
AcDbEntity
  8
1
  6
Continuous
100
AcDbLine
 39
7.129032258064506
 10
284.7718975383463
 20
217.3226499179266
 30
0.0
 11
284.2879796268712
 21
214.0939030314128
 31
0.0
  0
LINE
  5
10AF
330
18
100
AcDbEntity
  8
1
  6
Continuous
100
AcDbLine
 39
7.129032258064506
 10
292.0218975383463
 20
217.3226499179266
 30
0.0
 11
291.5379796268712
 21
214.0939030314128
 31
0.0
  0
LINE
  5
10B0
330
18
100
AcDbEntity
  8
1
100
AcDbLine
 10
312.6555548367018
 20
242.9032950792168
 30
0.0
 11
312.6555548367018
 21
228.9032950792168
 31
0.0
  0
LINE
  5
10B1
330
18
100
AcDbEntity
  8
1
100
AcDbLine
 10
315.6555548367018
 20
245.4032950792168
 30
0.0
 11
315.6555548367018
 21
213.9032950792168
 31
0.0
  0
LINE
  5
10B2
330
18
100
AcDbEntity
  8
1
100
AcDbLine
 10
296.471843115245
 20
235.655282069727
 30
0.0
 11
297.0792494861985
 21
234.9466413036148
 31
0.0
  0
LINE
  5
10B3
330
18
100
AcDbEntity
  8
1
100
AcDbLine
 10
296.471843115245
 20
235.655282069727
 30
0.0
 11
295.6561182765162
 21
234.9415228358393
 31
0.0
  0
LINE
  5
10B4
330
18
100
AcDbEntity
  8
1
100
AcDbLine
 10
296.43878119235
 20
235.6938543131047
 30
0.0
 11
295.6230563536212
 21
234.9800950792169
 31
0.0
  0
LINE
  5
10B5
330
18
100
AcDbEntity
  8
1
100
AcDbLine
 10
302.4662431152451
 20
235.655282069727
 30
0.0
 11
303.0736494861985
 21
234.9466413036148
 31
0.0
  0
LINE
  5
10B6
330
18
100
AcDbEntity
  8
1
100
AcDbLine
 10
302.4662431152451
 20
235.655282069727
 30
0.0
 11
301.6505182765163
 21
234.9415228358393
 31
0.0
  0
LINE
  5
10B7
330
18
100
AcDbEntity
  8
1
100
AcDbLine
 10
302.5044760016476
 20
235.6887358453292
 30
0.0
 11
303.111882372601
 21
234.9800950792169
 31
0.0
  0
LINE
  5
10B8
330
18
100
AcDbEntity
  8
1
100
AcDbLine
 10
309.1718431152451
 20
235.655282069727
 30
0.0
 11
308.3561182765163
 21
234.9415228358393
 31
0.0
  0
LINE
  5
10B9
330
18
100
AcDbEntity
  8
1
100
AcDbLine
 10
309.13878119235
 20
235.6938543131047
 30
0.0
 11
308.3230563536212
 21
234.9800950792169
 31
0.0
  0
LINE
  5
10BA
330
18
100
AcDbEntity
  8
1
100
AcDbLine
 10
309.1718431152451
 20
235.655282069727
 30
0.0
 11
309.7792494861985
 21
234.9466413036148
 31
0.0
  0
LINE
  5
10BB
330
18
100
AcDbEntity
  8
1
100
AcDbLine
 10
283.771843115245
 20
235.655282069727
 30
0.0
 11
284.3792494861986
 21
234.9466413036148
 31
0.0
  0
LINE
  5
10BC
330
18
100
AcDbEntity
  8
1
100
AcDbLine
 10
283.771843115245
 20
235.655282069727
 30
0.0
 11
282.9561182765162
 21
234.9415228358393
 31
0.0
  0
LINE
  5
10BD
330
18
100
AcDbEntity
  8
1
100
AcDbLine
 10
283.7387811923499
 20
235.6938543131047
 30
0.0
 11
282.9230563536211
 21
234.9800950792169
 31
0.0
  0
LINE
  5
10BE
330
18
100
AcDbEntity
  8
1
100
AcDbLine
 10
277.1044760016477
 20
235.6887358453292
 30
0.0
 11
277.7118823726009
 21
234.9800950792169
 31
0.0
  0
LINE
  5
10BF
330
18
100
AcDbEntity
  8
1
100
AcDbLine
 10
277.066243115245
 20
235.655282069727
 30
0.0
 11
277.6736494861984
 21
234.9466413036148
 31
0.0
  0
LINE
  5
10C0
330
18
100
AcDbEntity
  8
1
100
AcDbLine
 10
289.766243115245
 20
235.655282069727
 30
0.0
 11
290.3736494861984
 21
234.9466413036148
 31
0.0
  0
LINE
  5
10C1
330
18
100
AcDbEntity
  8
1
100
AcDbLine
 10
289.8044760016475
 20
235.6887358453292
 30
0.0
 11
290.411882372601
 21
234.9800950792169
 31
0.0
  0
LINE
  5
10C2
330
18
100
AcDbEntity
  8
1
100
AcDbLine
 10
289.766243115245
 20
235.655282069727
 30
0.0
 11
288.9505182765162
 21
234.9415228358393
 31
0.0
  0
LINE
  5
10C3
330
18
100
AcDbEntity
  8
1
100
AcDbLine
 10
264.3662431152451
 20
235.655282069727
 30
0.0
 11
263.5505182765161
 21
234.9415228358393
 31
0.0
  0
LINE
  5
10C4
330
18
100
AcDbEntity
  8
1
100
AcDbLine
 10
271.0718431152451
 20
235.655282069727
 30
0.0
 11
271.6792494861986
 21
234.9466413036148
 31
0.0
  0
LINE
  5
10C5
330
18
100
AcDbEntity
  8
1
100
AcDbLine
 10
271.0718431152451
 20
235.655282069727
 30
0.0
 11
270.2561182765161
 21
234.9415228358393
 31
0.0
  0
LINE
  5
10C6
330
18
100
AcDbEntity
  8
1
100
AcDbLine
 10
264.3662431152451
 20
235.655282069727
 30
0.0
 11
264.9736494861986
 21
234.9466413036148
 31
0.0
  0
LINE
  5
10C7
330
18
100
AcDbEntity
  8
1
100
AcDbLine
 10
264.4044760016476
 20
235.6887358453292
 30
0.0
 11
265.0118823726009
 21
234.9800950792169
 31
0.0
  0
LINE
  5
10C8
330
18
100
AcDbEntity
  8
1
100
AcDbLine
 10
271.0387811923501
 20
235.6938543131047
 30
0.0
 11
270.2230563536211
 21
234.9800950792169
 31
0.0
  0
LINE
  5
10C9
330
18
100
AcDbEntity
  8
1
100
AcDbLine
 10
257.6555548367018
 20
229.9032950792168
 30
0.0
 11
257.6555548367018
 21
245.4032950792168
 31
0.0
  0
LINE
  5
10CA
330
18
100
AcDbEntity
  8
1
100
AcDbLine
 10
260.6555548367018
 20
228.9032950792168
 30
0.0
 11
260.6555548367018
 21
242.9032950792168
 31
0.0
  0
LINE
  5
10CB
330
18
100
AcDbEntity
  8
1
100
AcDbLine
 10
277.066243115245
 20
235.655282069727
 30
0.0
 11
276.2505182765162
 21
234.9415228358393
 31
0.0
  0
LINE
  5
10CC
330
18
100
AcDbEntity
  8
1
100
AcDbLine
 10
277.6736494861984
 20
234.9466413036148
 30
0.0
 11
276.9727389174813
 21
230.0402673225946
 31
0.0
  0
ARC
  5
10CD
330
18
100
AcDbEntity
  8
1
100
AcDbCircle
 10
274.6555548367018
 20
219.9240447689952
 30
0.0
 40
5.0
100
AcDbArc
 50
0.0
 51
90.0
  0
LINE
  5
10CE
330
18
100
AcDbEntity
  8
1
100
AcDbLine
 10
277.0058008403764
 20
230.0016950792169
 30
0.0
 11
282.2169748213966
 21
230.0016950792169
 31
0.0
  0
LINE
  5
10CF
330
18
100
AcDbEntity
  8
1
100
AcDbLine
 10
275.4818008403765
 20
228.579295079217
 30
0.0
 11
283.3345748213967
 21
228.579295079217
 31
0.0
  0
LINE
  5
10D0
330
18
100
AcDbEntity
  8
1
100
AcDbLine
 10
259.3055548367017
 20
195.4032950792169
 30
0.0
 11
306.1055548367018
 21
195.4032950792169
 31
0.0
  0
LINE
  5
10D1
330
18
100
AcDbEntity
  8
1
100
AcDbLine
 10
259.3055548367017
 20
208.4032950792169
 30
0.0
 11
306.1055548367018
 21
208.4032950792169
 31
0.0
  0
CIRCLE
  5
10D2
330
18
100
AcDbEntity
  8
1
100
AcDbCircle
 10
274.9055548367018
 20
201.9032950792168
 30
0.0
 40
6.0
  0
LINE
  5
10D3
330
18
100
AcDbEntity
  8
1
100
AcDbLine
 10
311.6555548367018
 20
227.9032950792168
 30
0.0
 11
261.6555548367018
 21
227.9032950792168
 31
0.0
  0
TEXT
  5
10D4
330
18
100
AcDbEntity
  8
1
100
AcDbText
 10
251.2422227869726
 20
142.8333664045296
 30
0.0
 40
3.0
  1
ＨＣＤ１２１
 41
0.9
  7
MSPゴシック
100
AcDbText
  0
TEXT
  5
10D5
330
18
100
AcDbEntity
  8
1
100
AcDbText
 10
255.3467919501037
 20
200.457418790557
 30
0.0
 40
3.0
  1
設定
  7
丸ゴシック
 72
     4
 11
259.3055548367017
 21
201.9032950792168
 31
0.0
100
AcDbText
  0
CIRCLE
  5
10D6
330
18
100
AcDbEntity
  8
1
100
AcDbCircle
 10
259.3055548367017
 20
201.9032950792168
 30
0.0
 40
6.0
  0
ARC
  5
10D7
330
18
100
AcDbEntity
  8
1
100
AcDbCircle
 10
259.3055548367017
 20
201.9032950792168
 30
0.0
 40
6.5
100
AcDbArc
 50
90.0
 51
270.0
  0
LINE
  5
10D8
330
18
100
AcDbEntity
  8
1
100
AcDbLine
 10
274.0588674659018
 20
201.9032950792168
 30
0.0
 11
275.6588674659017
 21
198.7032950792169
 31
0.0
  0
LINE
  5
10D9
330
18
100
AcDbEntity
  8
1
100
AcDbLine
 10
272.9855548367018
 20
201.903295079217
 30
0.0
 11
274.5855548367017
 21
198.7032950792169
 31
0.0
  0
LINE
  5
10DA
330
18
100
AcDbEntity
  8
1
100
AcDbLine
 10
275.6588674659017
 20
198.7032950792169
 30
0.0
 11
276.0881925175815
 21
198.9179576050568
 31
0.0
  0
LINE
  5
10DB
330
18
100
AcDbEntity
  8
1
100
AcDbLine
 10
275.0148798883817
 20
198.9179576050568
 30
0.0
 11
274.5855548367017
 21
198.7032950792169
 31
0.0
  0
LINE
  5
10DC
330
18
100
AcDbEntity
  8
1
100
AcDbLine
 10
274.0588674659018
 20
201.9032950792168
 30
0.0
 11
275.6588674659019
 21
205.1032950792168
 31
0.0
  0
LINE
  5
10DD
330
18
100
AcDbEntity
  8
1
100
AcDbLine
 10
272.9855548367018
 20
201.903295079217
 30
0.0
 11
274.5855548367019
 21
205.1032950792167
 31
0.0
  0
LINE
  5
10DE
330
18
100
AcDbEntity
  8
1
100
AcDbLine
 10
275.6588674659019
 20
205.1032950792168
 30
0.0
 11
276.0881925175815
 21
204.8886325533768
 31
0.0
  0
LINE
  5
10DF
330
18
100
AcDbEntity
  8
1
100
AcDbLine
 10
275.0148798883817
 20
204.8886325533769
 30
0.0
 11
274.5855548367019
 21
205.1032950792167
 31
0.0
  0
LINE
  5
10E0
330
18
100
AcDbEntity
  8
1
100
AcDbLine
 10
273.5222111513019
 20
201.9032950792168
 30
0.0
 11
275.0148798883817
 21
198.9179576050568
 31
0.0
  0
LINE
  5
10E1
330
18
100
AcDbEntity
  8
1
100
AcDbLine
 10
274.5955237805016
 20
201.9032950792168
 30
0.0
 11
276.0881925175815
 21
198.9179576050568
 31
0.0
  0
LINE
  5
10E2
330
18
100
AcDbEntity
  8
1
100
AcDbLine
 10
273.5222111513019
 20
201.9032950792168
 30
0.0
 11
275.0148798883817
 21
204.8886325533769
 31
0.0
  0
LINE
  5
10E3
330
18
100
AcDbEntity
  8
1
100
AcDbLine
 10
274.5955237805016
 20
201.9032950792168
 30
0.0
 11
276.0881925175815
 21
204.8886325533768
 31
0.0
  0
ARC
  5
10E4
330
18
100
AcDbEntity
  8
1
100
AcDbCircle
 10
262.6555548367018
 20
229.9032950792168
 30
0.0
 40
5.0
100
AcDbArc
 50
180.0
 51
275.2216617766618
  0
ARC
  5
10E5
330
18
100
AcDbEntity
  8
1
100
AcDbCircle
 10
261.6555548367018
 20
228.9032950792168
 30
0.0
 40
1.0
100
AcDbArc
 50
180.0
 51
270.0
  0
TEXT
  5
10E6
330
18
100
AcDbEntity
  8
1
100
AcDbText
 10
258.8922227869725
 20
213.1732955102072
 30
0.0
 40
2.5
  1
OUT2
  7
MSゴシック
100
AcDbText
  0
CIRCLE
  5
10E7
330
18
100
AcDbEntity
  8
1
100
AcDbCircle
 10
261.4055548367018
 20
217.9032950792168
 30
0.0
 40
2.0
  0
CIRCLE
  5
10E8
330
18
100
AcDbEntity
  8
1
100
AcDbCircle
 10
261.4055548367018
 20
217.9032950792168
 30
0.0
 40
1.0
  0
TEXT
  5
10E9
330
18
100
AcDbEntity
  8
1
100
AcDbText
 10
250.4522227869727
 20
212.9332955102072
 30
0.0
 40
2.5
  1
OUT1
  7
MSゴシック
100
AcDbText
  0
CIRCLE
  5
10EA
330
18
100
AcDbEntity
  8
1
100
AcDbCircle
 10
253.4055548367018
 20
217.9032950792168
 30
0.0
 40
2.0
  0
CIRCLE
  5
10EB
330
18
100
AcDbEntity
  8
1
100
AcDbCircle
 10
253.4055548367018
 20
217.9032950792168
 30
0.0
 40
1.0
  0
LINE
  5
10EC
330
18
100
AcDbEntity
  8
1
100
AcDbLine
 10
263.1106002719695
 20
224.9240447689952
 30
0.0
 11
274.6555548367018
 21
224.9240447689952
 31
0.0
  0
LINE
  5
10ED
330
18
100
AcDbEntity
  8
1
100
AcDbLine
 10
262.7818008403764
 20
228.579295079217
 30
0.0
 11
270.6345748213966
 21
228.579295079217
 31
0.0
  0
LINE
  5
10EE
330
18
100
AcDbEntity
  8
1
100
AcDbLine
 10
264.3058008403766
 20
230.0016950792169
 30
0.0
 11
269.5169748213966
 21
230.0016950792169
 31
0.0
  0
LINE
  5
10EF
330
18
100
AcDbEntity
  8
1
100
AcDbLine
 10
270.2230563536211
 20
234.9800950792169
 30
0.0
 11
265.0118823726009
 21
234.9800950792169
 31
0.0
  0
LINE
  5
10F0
330
18
100
AcDbEntity
  8
1
100
AcDbLine
 10
262.6615073272751
 20
228.7184461911506
 30
0.0
 11
263.5505182765161
 21
234.9415228358393
 31
0.0
  0
LINE
  5
10F1
330
18
100
AcDbEntity
  8
1
100
AcDbLine
 10
264.2727389174813
 20
230.0402673225946
 30
0.0
 11
262.7236007096635
 21
228.6847713907541
 31
0.0
  0
LINE
  5
10F2
330
18
100
AcDbEntity
  8
1
100
AcDbLine
 10
264.3058008403766
 20
230.0016950792169
 30
0.0
 11
262.7566626325588
 21
228.6461991473765
 31
0.0
  0
LINE
  5
10F3
330
18
100
AcDbEntity
  8
1
100
AcDbLine
 10
262.6615073272751
 20
228.7184461911506
 30
0.0
 11
262.7236007096635
 21
228.6847713907541
 31
0.0
  0
LINE
  5
10F4
330
18
100
AcDbEntity
  8
1
100
AcDbLine
 10
262.7566626325588
 20
228.6461991473765
 30
0.0
 11
262.7818008403764
 21
228.579295079217
 31
0.0
  0
LINE
  5
10F5
330
18
100
AcDbEntity
  8
1
100
AcDbLine
 10
264.9736494861986
 20
234.9466413036148
 30
0.0
 11
264.2727389174813
 21
230.0402673225946
 31
0.0
  0
LINE
  5
10F6
330
18
100
AcDbEntity
  8
1
100
AcDbLine
 10
271.6792494861986
 20
234.9466413036148
 30
0.0
 11
270.7887761175927
 21
228.7133277233751
 31
0.0
  0
LINE
  5
10F7
330
18
100
AcDbEntity
  8
1
100
AcDbLine
 10
275.3615073272749
 20
228.7184461911506
 30
0.0
 11
276.2505182765162
 21
234.9415228358393
 31
0.0
  0
CIRCLE
  5
10F8
330
18
100
AcDbEntity
  8
1
100
AcDbCircle
 10
272.5266285969987
 20
229.2396950792169
 30
0.0
 40
0.6604000000000058
  0
LINE
  5
10F9
330
18
100
AcDbEntity
  8
1
100
AcDbLine
 10
269.5169748213966
 20
230.0016950792169
 30
0.0
 11
270.6700544178536
 21
228.6564355500173
 31
0.0
  0
LINE
  5
10FA
330
18
100
AcDbEntity
  8
1
100
AcDbLine
 10
269.5552077077991
 20
230.0351488548192
 30
0.0
 11
270.7082873042559
 21
228.6898893256195
 31
0.0
  0
LINE
  5
10FB
330
18
100
AcDbEntity
  8
1
100
AcDbLine
 10
276.9727389174813
 20
230.0402673225946
 30
0.0
 11
275.4236007096635
 21
228.6847713907541
 31
0.0
  0
LINE
  5
10FC
330
18
100
AcDbEntity
  8
1
100
AcDbLine
 10
277.0058008403764
 20
230.0016950792169
 30
0.0
 11
275.4566626325588
 21
228.6461991473765
 31
0.0
  0
LINE
  5
10FD
330
18
100
AcDbEntity
  8
1
100
AcDbLine
 10
270.7887761175927
 20
228.7133277233751
 30
0.0
 11
270.7082873042559
 21
228.6898893256195
 31
0.0
  0
LINE
  5
10FE
330
18
100
AcDbEntity
  8
1
100
AcDbLine
 10
270.6700544178536
 20
228.6564355500173
 30
0.0
 11
270.6345748213966
 21
228.579295079217
 31
0.0
  0
LINE
  5
10FF
330
18
100
AcDbEntity
  8
1
100
AcDbLine
 10
275.3615073272749
 20
228.7184461911506
 30
0.0
 11
275.4236007096635
 21
228.6847713907541
 31
0.0
  0
LINE
  5
1100
330
18
100
AcDbEntity
  8
1
100
AcDbLine
 10
275.4566626325588
 20
228.6461991473765
 30
0.0
 11
275.4818008403765
 21
228.579295079217
 31
0.0
  0
LINE
  5
1101
330
18
100
AcDbEntity
  8
1
100
AcDbLine
 10
269.5552077077991
 20
230.0351488548192
 30
0.0
 11
270.2561182765161
 21
234.9415228358393
 31
0.0
  0
LINE
  5
1102
330
18
100
AcDbEntity
  8
1
100
AcDbLine
 10
301.5953059539085
 20
141.2120532246807
 30
0.0
 11
302.0195700226088
 21
141.6363172944241
 31
0.0
  0
LINE
  5
1103
330
18
100
AcDbEntity
  8
1
100
AcDbLine
 10
302.0195700226586
 20
141.7423833115526
 30
0.0
 11
301.5953059547411
 21
142.1666473791597
 31
0.0
  0
LINE
  5
1104
330
18
100
AcDbEntity
  8
1
100
AcDbLine
 10
301.2422729452582
 20
140.6121539519903
 30
0.0
 11
301.8422729452581
 21
140.6121539519903
 31
0.0
  0
LINE
  5
1105
330
18
100
AcDbEntity
  8
1
100
AcDbLine
 10
297.2371133888454
 20
140.6121539519903
 30
0.0
 11
299.1909830561549
 21
140.6121539519903
 31
0.0
  0
ARC
  5
1106
330
18
100
AcDbEntity
  8
1
100
AcDbCircle
 10
297.2371133888454
 20
140.5371539519902
 30
0.0
 40
0.0750000000000026
100
AcDbArc
 50
90.0
 51
180.0
  0
LINE
  5
1107
330
18
100
AcDbEntity
  8
1
100
AcDbLine
 10
301.0649758680138
 20
141.6363172932664
 30
0.0
 11
301.4892399366692
 21
141.2120532246194
 31
0.0
  0
LINE
  5
1108
330
18
100
AcDbEntity
  8
1
100
AcDbLine
 10
301.4892399375633
 20
142.1666473791597
 30
0.0
 11
301.0649758680599
 21
141.7423833104975
 31
0.0
  0
ARC
  5
1109
330
18
100
AcDbEntity
  8
1
100
AcDbCircle
 10
301.2422729452582
 20
140.5371539519902
 30
0.0
 40
0.0750000000000026
100
AcDbArc
 50
90.0
 51
180.0
  0
ARC
  5
110A
330
18
100
AcDbEntity
  8
1
100
AcDbCircle
 10
301.5422729461522
 20
142.1136143705708
 30
0.0
 40
0.0750000000000026
100
AcDbArc
 50
45.00000000000418
 51
134.9999999999958
  0
ARC
  5
110B
330
18
100
AcDbEntity
  8
1
100
AcDbCircle
 10
301.5422729452582
 20
141.2650862332083
 30
0.0
 40
0.0750000000000026
100
AcDbArc
 50
225.0000000000041
 51
315.0000000662982
  0
ARC
  5
110C
330
18
100
AcDbEntity
  8
1
100
AcDbCircle
 10
301.1180088765993
 20
141.6893503018589
 30
0.0
 40
0.0750000000000026
100
AcDbArc
 50
134.9999999463401
 51
225.0000000036796
  0
LINE
  5
110D
330
18
100
AcDbEntity
  8
1
100
AcDbLine
 10
298.0621133888455
 20
139.8621539519903
 30
0.0
 11
299.1909830561549
 21
139.8621539519903
 31
0.0
  0
ARC
  5
110E
330
18
100
AcDbEntity
  8
1
100
AcDbCircle
 10
299.1909830561549
 20
139.2621539519902
 30
0.0
 40
0.6000000000000206
100
AcDbArc
 50
0.0
 51
90.0
  0
ARC
  5
110F
330
18
100
AcDbEntity
  8
1
100
AcDbCircle
 10
298.0621133888455
 20
139.7121539519902
 30
0.0
 40
0.1500000000000051
100
AcDbArc
 50
90.0
 51
180.0
  0
LINE
  5
1110
330
18
100
AcDbEntity
  8
1
100
AcDbLine
 10
298.0621133888455
 20
139.8621539519903
 30
0.0
 11
299.1909830561549
 21
139.8621539519903
 31
0.0
  0
ARC
  5
1111
330
18
100
AcDbEntity
  8
1
100
AcDbCircle
 10
299.1909830561549
 20
139.2621539519902
 30
0.0
 40
1.350000000000046
100
AcDbArc
 50
0.0
 51
90.0
  0
ARC
  5
1112
330
18
100
AcDbEntity
  8
1
100
AcDbCircle
 10
302.6935628343615
 20
140.4621539519902
 30
0.0
 40
0.1500000000000051
100
AcDbArc
 50
90.0
 51
180.0
  0
LINE
  5
1113
330
18
100
AcDbEntity
  8
1
100
AcDbLine
 10
302.6935628343615
 20
140.6121539519903
 30
0.0
 11
304.1768650649359
 21
140.6121539519903
 31
0.0
  0
ARC
  5
1114
330
18
100
AcDbEntity
  8
1
100
AcDbCircle
 10
301.8422729452581
 20
140.5371539519902
 30
0.0
 40
0.0750000000000026
100
AcDbArc
 50
0.0
 51
90.0
  0
ARC
  5
1115
330
18
100
AcDbEntity
  8
1
100
AcDbCircle
 10
301.9665370140198
 20
141.689350303013
 30
0.0
 40
0.0750000000000026
100
AcDbArc
 50
314.9999999999958
 51
44.99999994634042
  0
LINE
  5
1116
330
18
100
AcDbEntity
  8
1
100
AcDbLine
 10
303.4301090923002
 20
139.8579220163346
 30
0.0
 11
304.0826888705062
 21
139.8579220163346
 31
0.0
  0
ARC
  5
1117
330
18
100
AcDbEntity
  8
1
100
AcDbCircle
 10
303.4435628343615
 20
139.7085265785711
 30
0.0
 40
0.1500000000000051
100
AcDbArc
 50
95.14586610967695
 51
180.0
  0
LINE
  5
1118
330
18
100
AcDbEntity
  8
1
100
AcDbLine
 10
306.6724325016709
 20
140.6121539519903
 30
0.0
 11
308.1557347322454
 21
140.6121539519903
 31
0.0
  0
ARC
  5
1119
330
18
100
AcDbEntity
  8
1
100
AcDbCircle
 10
306.6724325016709
 20
140.4621539519902
 30
0.0
 40
0.1500000000000051
100
AcDbArc
 50
90.0
 51
180.0
  0
ARC
  5
111A
330
18
100
AcDbEntity
  8
1
100
AcDbCircle
 10
307.422432501671
 20
139.7085265785711
 30
0.0
 40
0.1500000000000051
100
AcDbArc
 50
95.14586610967695
 51
180.0
  0
LINE
  5
111B
330
18
100
AcDbEntity
  8
1
100
AcDbLine
 10
307.4089787596097
 20
139.8579220163346
 30
0.0
 11
308.0615585378156
 21
139.8579220163346
 31
0.0
  0
LINE
  5
111C
330
18
100
AcDbEntity
  8
1
100
AcDbLine
 10
311.1555548367018
 20
222.8797579692234
 30
0.0
 11
284.1555548367018
 21
222.8797579692234
 31
0.0
  0
TEXT
  5
111D
330
18
100
AcDbEntity
  8
1
100
AcDbText
 10
311.4822227869724
 20
226.2832955102072
 30
0.0
 40
3.0
  1
％
 50
180.0
  7
MSゴシック
100
AcDbText
  0
LINE
  5
111E
330
18
100
AcDbEntity
  8
1
  6
Continuous
100
AcDbLine
 10
307.3729512987176
 20
221.9032950792169
 30
0.0
 11
311.0532163727441
 21
221.9032950792169
 31
0.0
  0
LINE
  5
111F
330
18
100
AcDbEntity
  8
1
100
AcDbLine
 10
282.1555548367019
 20
211.4032950792168
 30
0.0
 11
313.1555548367018
 21
211.4032950792168
 31
0.0
  0
LINE
  5
1120
330
18
100
AcDbEntity
  8
1
100
AcDbLine
 10
311.1555548367018
 20
212.9268321892102
 30
0.0
 11
284.1555548367018
 21
212.9268321892102
 31
0.0
  0
ARC
  5
1121
330
18
100
AcDbEntity
  8
1
100
AcDbCircle
 10
306.1055548367018
 20
201.9032950792168
 30
0.0
 40
6.5
100
AcDbArc
 50
270.0
 51
90.0
  0
CIRCLE
  5
1122
330
18
100
AcDbEntity
  8
1
100
AcDbCircle
 10
306.1055548367018
 20
201.9032950792168
 30
0.0
 40
6.0
  0
ARC
  5
1123
330
18
100
AcDbEntity
  8
1
100
AcDbCircle
 10
282.1555548367019
 20
213.9032950792168
 30
0.0
 40
2.5
100
AcDbArc
 50
180.0
 51
270.0
  0
LINE
  5
1124
330
18
100
AcDbEntity
  8
1
100
AcDbLine
 10
290.5055548367018
 20
201.5932640230166
 30
0.0
 11
293.4908923108618
 21
203.0859327600966
 31
0.0
  0
LINE
  5
1125
330
18
100
AcDbEntity
  8
1
100
AcDbLine
 10
290.5055548367018
 20
200.5199513938168
 30
0.0
 11
293.4908923108618
 21
202.0126201308968
 31
0.0
  0
LINE
  5
1126
330
18
100
AcDbEntity
  8
1
100
AcDbLine
 10
290.5055548367018
 20
201.0566077084167
 30
0.0
 11
293.7055548367018
 21
202.6566077084168
 31
0.0
  0
LINE
  5
1127
330
18
100
AcDbEntity
  8
1
100
AcDbLine
 10
290.5055548367015
 20
199.9832950792168
 30
0.0
 11
293.7055548367018
 21
201.5832950792167
 31
0.0
  0
CIRCLE
  5
1128
330
18
100
AcDbEntity
  8
1
100
AcDbCircle
 10
290.5055548367018
 20
201.9032950792168
 30
0.0
 40
6.0
  0
LINE
  5
1129
330
18
100
AcDbEntity
  8
1
100
AcDbLine
 10
290.5055548367018
 20
201.5932640230166
 30
0.0
 11
287.5202173625418
 21
203.0859327600966
 31
0.0
  0
LINE
  5
112A
330
18
100
AcDbEntity
  8
1
100
AcDbLine
 10
290.5055548367018
 20
200.5199513938168
 30
0.0
 11
287.5202173625416
 21
202.0126201308968
 31
0.0
  0
LINE
  5
112B
330
18
100
AcDbEntity
  8
1
100
AcDbLine
 10
290.5055548367018
 20
201.0566077084167
 30
0.0
 11
287.3055548367017
 21
202.6566077084169
 31
0.0
  0
LINE
  5
112C
330
18
100
AcDbEntity
  8
1
100
AcDbLine
 10
290.5055548367015
 20
199.9832950792168
 30
0.0
 11
287.3055548367019
 21
201.5832950792169
 31
0.0
  0
LINE
  5
112D
330
18
100
AcDbEntity
  8
1
100
AcDbLine
 10
287.5202173625416
 20
202.0126201308968
 30
0.0
 11
287.3055548367019
 21
201.5832950792169
 31
0.0
  0
LINE
  5
112E
330
18
100
AcDbEntity
  8
1
100
AcDbLine
 10
287.3055548367017
 20
202.6566077084169
 30
0.0
 11
287.5202173625418
 21
203.0859327600966
 31
0.0
  0
LINE
  5
112F
330
18
100
AcDbEntity
  8
1
100
AcDbLine
 10
293.4908923108618
 20
202.0126201308968
 30
0.0
 11
293.7055548367018
 21
201.5832950792167
 31
0.0
  0
LINE
  5
1130
330
18
100
AcDbEntity
  8
1
100
AcDbLine
 10
293.7055548367018
 20
202.6566077084168
 30
0.0
 11
293.4908923108618
 21
203.0859327600966
 31
0.0
  0
LINE
  5
1131
330
18
100
AcDbEntity
  8
1
100
AcDbLine
 10
306.1055548367018
 20
202.749982450017
 30
0.0
 11
302.9055548367018
 21
201.1499824500169
 31
0.0
  0
LINE
  5
1132
330
18
100
AcDbEntity
  8
1
100
AcDbLine
 10
306.1055548367018
 20
203.8232950792169
 30
0.0
 11
302.9055548367018
 21
202.2232950792169
 31
0.0
  0
LINE
  5
1133
330
18
100
AcDbEntity
  8
1
100
AcDbLine
 10
306.1055548367018
 20
203.2866387646168
 30
0.0
 11
303.1202173625417
 21
201.7939700275368
 31
0.0
  0
LINE
  5
1134
330
18
100
AcDbEntity
  8
1
100
AcDbLine
 10
306.1055548367018
 20
202.213326135417
 30
0.0
 11
303.1202173625417
 21
200.720657398337
 31
0.0
  0
LINE
  5
1135
330
18
100
AcDbEntity
  8
1
100
AcDbLine
 10
302.9055548367018
 20
201.1499824500169
 30
0.0
 11
303.1202173625417
 21
200.720657398337
 31
0.0
  0
LINE
  5
1136
330
18
100
AcDbEntity
  8
1
100
AcDbLine
 10
303.1202173625417
 20
201.7939700275368
 30
0.0
 11
302.9055548367018
 21
202.2232950792169
 31
0.0
  0
LINE
  5
1137
330
18
100
AcDbEntity
  8
1
100
AcDbLine
 10
306.1055548367018
 20
202.749982450017
 30
0.0
 11
309.3055548367017
 21
201.1499824500168
 31
0.0
  0
LINE
  5
1138
330
18
100
AcDbEntity
  8
1
100
AcDbLine
 10
306.1055548367018
 20
203.2866387646168
 30
0.0
 11
309.0908923108618
 21
201.7939700275368
 31
0.0
  0
LINE
  5
1139
330
18
100
AcDbEntity
  8
1
100
AcDbLine
 10
306.1055548367018
 20
203.8232950792169
 30
0.0
 11
309.3055548367017
 21
202.2232950792167
 31
0.0
  0
LINE
  5
113A
330
18
100
AcDbEntity
  8
1
100
AcDbLine
 10
306.1055548367018
 20
202.213326135417
 30
0.0
 11
309.0908923108618
 21
200.720657398337
 31
0.0
  0
LINE
  5
113B
330
18
100
AcDbEntity
  8
1
100
AcDbLine
 10
309.3055548367017
 20
201.1499824500168
 30
0.0
 11
309.0908923108618
 21
200.720657398337
 31
0.0
  0
LINE
  5
113C
330
18
100
AcDbEntity
  8
1
100
AcDbLine
 10
309.0908923108618
 20
201.7939700275368
 30
0.0
 11
309.3055548367017
 21
202.2232950792167
 31
0.0
  0
LINE
  5
113D
330
18
100
AcDbEntity
  8
1
100
AcDbLine
 10
289.7058008403764
 20
230.0016950792169
 30
0.0
 11
294.9169748213967
 21
230.0016950792169
 31
0.0
  0
LINE
  5
113E
330
18
100
AcDbEntity
  8
1
100
AcDbLine
 10
288.1818008403765
 20
228.579295079217
 30
0.0
 11
296.0345748213967
 21
228.579295079217
 31
0.0
  0
LINE
  5
113F
330
18
100
AcDbEntity
  8
1
100
AcDbLine
 10
295.6230563536209
 20
234.9800950792169
 30
0.0
 11
290.411882372601
 21
234.9800950792169
 31
0.0
  0
TEXT
  5
1140
330
18
100
AcDbEntity
  8
1
100
AcDbText
 10
283.8195134861639
 20
223.6056277561672
 30
0.0
 40
3.0
  1
SV
  7
MSゴシック
100
AcDbText
  0
LINE
  5
1141
330
18
100
AcDbEntity
  8
1
100
AcDbLine
 10
279.6555548367018
 20
219.9240447689952
 30
0.0
 11
279.6555548367018
 21
213.9032950792168
 31
0.0
  0
LINE
  5
1142
330
18
100
AcDbEntity
  8
1
100
AcDbLine
 10
283.1555548367018
 20
221.8797579692235
 30
0.0
 11
283.1555548367018
 21
213.9268321892102
 31
0.0
  0
ARC
  5
1143
330
18
100
AcDbEntity
  8
1
100
AcDbCircle
 10
284.1555548367018
 20
213.9268321892102
 30
0.0
 40
1.0
100
AcDbArc
 50
180.0
 51
270.0
  0
ARC
  5
1144
330
18
100
AcDbEntity
  8
1
100
AcDbCircle
 10
284.1555548367018
 20
221.8797579692235
 30
0.0
 40
1.0
100
AcDbArc
 50
90.0
 51
180.0
  0
ELLIPSE
  5
1145
330
18
100
AcDbEntity
  8
1
  6
Continuous
100
AcDbEllipse
 10
289.3113679231999
 20
214.2903918534104
 30
0.0
 11
0.000000000000039
 21
0.5161290322580499
 31
0.0
210
0.0
220
0.0
230
-1.0
 40
0.8500000000000255
 41
0.0
 42
6.283185307179586
  0
CIRCLE
  5
1146
330
18
100
AcDbEntity
  8
1
100
AcDbCircle
 10
285.2266285969988
 20
229.2396950792169
 30
0.0
 40
0.6604000000000058
  0
LINE
  5
1147
330
18
100
AcDbEntity
  8
1
100
AcDbLine
 10
284.3792494861986
 20
234.9466413036148
 30
0.0
 11
283.4887761175928
 21
228.7133277233751
 31
0.0
  0
LINE
  5
1148
330
18
100
AcDbEntity
  8
1
100
AcDbLine
 10
282.2169748213966
 20
230.0016950792169
 30
0.0
 11
283.3700544178534
 21
228.6564355500173
 31
0.0
  0
LINE
  5
1149
330
18
100
AcDbEntity
  8
1
100
AcDbLine
 10
282.2552077077991
 20
230.0351488548192
 30
0.0
 11
283.4082873042559
 21
228.6898893256195
 31
0.0
  0
LINE
  5
114A
330
18
100
AcDbEntity
  8
1
100
AcDbLine
 10
283.4887761175928
 20
228.7133277233751
 30
0.0
 11
283.4082873042559
 21
228.6898893256195
 31
0.0
  0
LINE
  5
114B
330
18
100
AcDbEntity
  8
1
100
AcDbLine
 10
283.3700544178534
 20
228.6564355500173
 30
0.0
 11
283.3345748213967
 21
228.579295079217
 31
0.0
  0
LINE
  5
114C
330
18
100
AcDbEntity
  8
1
100
AcDbLine
 10
282.9230563536211
 20
234.9800950792169
 30
0.0
 11
277.7118823726009
 21
234.9800950792169
 31
0.0
  0
LINE
  5
114D
330
18
100
AcDbEntity
  8
1
100
AcDbLine
 10
282.2552077077991
 20
230.0351488548192
 30
0.0
 11
282.9561182765162
 21
234.9415228358393
 31
0.0
  0
LINE
  5
114E
330
18
100
AcDbEntity
  8
1
100
AcDbLine
 10
288.0615073272749
 20
228.7184461911506
 30
0.0
 11
288.9505182765162
 21
234.9415228358393
 31
0.0
  0
LINE
  5
114F
330
18
100
AcDbEntity
  8
1
100
AcDbLine
 10
289.6727389174813
 20
230.0402673225946
 30
0.0
 11
288.1236007096635
 21
228.6847713907541
 31
0.0
  0
LINE
  5
1150
330
18
100
AcDbEntity
  8
1
100
AcDbLine
 10
289.7058008403764
 20
230.0016950792169
 30
0.0
 11
288.1566626325586
 21
228.6461991473765
 31
0.0
  0
LINE
  5
1151
330
18
100
AcDbEntity
  8
1
100
AcDbLine
 10
288.0615073272749
 20
228.7184461911506
 30
0.0
 11
288.1236007096635
 21
228.6847713907541
 31
0.0
  0
LINE
  5
1152
330
18
100
AcDbEntity
  8
1
100
AcDbLine
 10
288.1566626325586
 20
228.6461991473765
 30
0.0
 11
288.1818008403765
 21
228.579295079217
 31
0.0
  0
LINE
  5
1153
330
18
100
AcDbEntity
  8
1
100
AcDbLine
 10
290.3736494861984
 20
234.9466413036148
 30
0.0
 11
289.6727389174813
 21
230.0402673225946
 31
0.0
  0
ELLIPSE
  5
1154
330
18
100
AcDbEntity
  8
1
  6
Continuous
100
AcDbEllipse
 10
296.5613679231998
 20
214.2903918534104
 30
0.0
 11
0.0000000000000418
 21
0.5161290322580499
 31
0.0
210
0.0
220
0.0
230
-1.0
 40
0.8500000000000289
 41
0.0
 42
6.283185307179586
  0
LINE
  5
1155
330
18
100
AcDbEntity
  8
1
  6
Continuous
100
AcDbLine
 10
296.689164575773
 20
221.7126871270211
 30
0.0
 11
296.2052466642978
 21
218.4839402405073
 31
0.0
  0
ELLIPSE
  5
1156
330
18
100
AcDbEntity
  8
1
  6
Continuous
100
AcDbEllipse
 10
303.8113679231999
 20
214.2903918534104
 30
0.0
 11
0.0000000000000418
 21
0.5161290322580499
 31
0.0
210
0.0
220
0.0
230
-1.0
 40
0.8500000000000289
 41
0.0
 42
6.283185307179586
  0
LINE
  5
1157
330
18
100
AcDbEntity
  8
1
  6
Continuous
100
AcDbLine
 10
303.939164575773
 20
221.7126871270211
 30
0.0
 11
303.4552466642978
 21
218.4839402405073
 31
0.0
  0
LINE
  5
1158
330
18
100
AcDbEntity
  8
1
100
AcDbLine
 10
300.761507327275
 20
228.7184461911506
 30
0.0
 11
301.6505182765163
 21
234.9415228358393
 31
0.0
  0
LINE
  5
1159
330
18
100
AcDbEntity
  8
1
100
AcDbLine
 10
300.8818008403764
 20
228.579295079217
 30
0.0
 11
308.7345748213965
 21
228.579295079217
 31
0.0
  0
LINE
  5
115A
330
18
100
AcDbEntity
  8
1
100
AcDbLine
 10
302.3727389174812
 20
230.0402673225946
 30
0.0
 11
300.8236007096636
 21
228.6847713907541
 31
0.0
  0
LINE
  5
115B
330
18
100
AcDbEntity
  8
1
100
AcDbLine
 10
302.4058008403765
 20
230.0016950792169
 30
0.0
 11
300.8566626325587
 21
228.6461991473765
 31
0.0
  0
LINE
  5
115C
330
18
100
AcDbEntity
  8
1
100
AcDbLine
 10
297.0792494861985
 20
234.9466413036148
 30
0.0
 11
296.1887761175928
 21
228.7133277233751
 31
0.0
  0
LINE
  5
115D
330
18
100
AcDbEntity
  8
1
100
AcDbLine
 10
294.9169748213967
 20
230.0016950792169
 30
0.0
 11
296.0700544178535
 21
228.6564355500173
 31
0.0
  0
LINE
  5
115E
330
18
100
AcDbEntity
  8
1
100
AcDbLine
 10
294.9552077077989
 20
230.0351488548192
 30
0.0
 11
296.108287304256
 21
228.6898893256195
 31
0.0
  0
CIRCLE
  5
115F
330
18
100
AcDbEntity
  8
1
100
AcDbCircle
 10
297.9266285969988
 20
229.2396950792169
 30
0.0
 40
0.6604000000000058
  0
LINE
  5
1160
330
18
100
AcDbEntity
  8
1
100
AcDbLine
 10
296.1887761175928
 20
228.7133277233751
 30
0.0
 11
296.108287304256
 21
228.6898893256195
 31
0.0
  0
LINE
  5
1161
330
18
100
AcDbEntity
  8
1
100
AcDbLine
 10
296.0700544178535
 20
228.6564355500173
 30
0.0
 11
296.0345748213967
 21
228.579295079217
 31
0.0
  0
LINE
  5
1162
330
18
100
AcDbEntity
  8
1
100
AcDbLine
 10
300.761507327275
 20
228.7184461911506
 30
0.0
 11
300.8236007096636
 21
228.6847713907541
 31
0.0
  0
LINE
  5
1163
330
18
100
AcDbEntity
  8
1
100
AcDbLine
 10
300.8566626325587
 20
228.6461991473765
 30
0.0
 11
300.8818008403764
 21
228.579295079217
 31
0.0
  0
LINE
  5
1164
330
18
100
AcDbEntity
  8
1
100
AcDbLine
 10
294.9552077077989
 20
230.0351488548192
 30
0.0
 11
295.6561182765162
 21
234.9415228358393
 31
0.0
  0
LINE
  5
1165
330
18
100
AcDbEntity
  8
1
100
AcDbLine
 10
309.7792494861985
 20
234.9466413036148
 30
0.0
 11
308.8887761175929
 21
228.7133277233751
 31
0.0
  0
LINE
  5
1166
330
18
100
AcDbEntity
  8
1
100
AcDbLine
 10
307.655207707799
 20
230.0351488548192
 30
0.0
 11
308.808287304256
 21
228.6898893256195
 31
0.0
  0
LINE
  5
1167
330
18
100
AcDbEntity
  8
1
100
AcDbLine
 10
307.6169748213965
 20
230.0016950792169
 30
0.0
 11
308.7700544178535
 21
228.6564355500173
 31
0.0
  0
LINE
  5
1168
330
18
100
AcDbEntity
  8
1
100
AcDbLine
 10
308.8887761175929
 20
228.7133277233751
 30
0.0
 11
308.808287304256
 21
228.6898893256195
 31
0.0
  0
LINE
  5
1169
330
18
100
AcDbEntity
  8
1
100
AcDbLine
 10
308.7700544178535
 20
228.6564355500173
 30
0.0
 11
308.7345748213965
 21
228.579295079217
 31
0.0
  0
LINE
  5
116A
330
18
100
AcDbEntity
  8
1
100
AcDbLine
 10
302.4058008403765
 20
230.0016950792169
 30
0.0
 11
307.6169748213965
 21
230.0016950792169
 31
0.0
  0
LINE
  5
116B
330
18
100
AcDbEntity
  8
1
100
AcDbLine
 10
308.323056353621
 20
234.9800950792169
 30
0.0
 11
303.111882372601
 21
234.9800950792169
 31
0.0
  0
LINE
  5
116C
330
18
100
AcDbEntity
  8
1
100
AcDbLine
 10
303.0736494861985
 20
234.9466413036148
 30
0.0
 11
302.3727389174812
 21
230.0402673225946
 31
0.0
  0
LINE
  5
116D
330
18
100
AcDbEntity
  8
1
100
AcDbLine
 10
307.655207707799
 20
230.0351488548192
 30
0.0
 11
308.3561182765163
 21
234.9415228358393
 31
0.0
  0
ARC
  5
116E
330
18
100
AcDbEntity
  8
1
100
AcDbCircle
 10
313.1555548367018
 20
213.9032950792168
 30
0.0
 40
2.5
100
AcDbArc
 50
270.0
 51
0.0
  0
LINE
  5
116F
330
18
100
AcDbEntity
  8
1
100
AcDbLine
 10
312.1555548367018
 20
221.8797579692235
 30
0.0
 11
312.1555548367018
 21
213.9268321892101
 31
0.0
  0
ARC
  5
1170
330
18
100
AcDbEntity
  8
1
100
AcDbCircle
 10
311.1555548367018
 20
213.9268321892101
 30
0.0
 40
1.0
100
AcDbArc
 50
270.0
 51
0.0
  0
ELLIPSE
  5
1171
330
18
100
AcDbEntity
  8
1
  6
Continuous
100
AcDbEllipse
 10
311.0613679231998
 20
214.2903918534104
 30
0.0
 11
0.000000000000036
 21
0.51612903225805
 31
0.0
210
0.0
220
0.0
230
-1.0
 40
0.8500000000000218
 41
0.0
 42
6.283185307179586
  0
ARC
  5
1172
330
18
100
AcDbEntity
  8
1
100
AcDbCircle
 10
311.1555548367018
 20
221.8797579692235
 30
0.0
 40
1.0
100
AcDbArc
 50
0.0
 51
90.0
  0
LINE
  5
1173
330
18
100
AcDbEntity
  8
1
  6
Continuous
100
AcDbLine
 10
311.189164575773
 20
221.7126871270211
 30
0.0
 11
310.7052466642978
 21
218.4839402405073
 31
0.0
  0
CIRCLE
  5
1174
330
18
100
AcDbEntity
  8
1
100
AcDbCircle
 10
310.6266285969989
 20
229.2396950792169
 30
0.0
 40
0.6604000000000058
  0
ARC
  5
1175
330
18
100
AcDbEntity
  8
1
100
AcDbCircle
 10
311.6555548367018
 20
228.9032950792168
 30
0.0
 40
1.0
100
AcDbArc
 50
270.0
 51
0.0
  0
LINE
  5
1176
330
18
100
AcDbEntity
  8
1
100
AcDbLine
 10
316.5555548367017
 20
257.4032950792169
 30
0.0
 11
248.5555548367017
 21
257.403295079217
 31
0.0
  0
TEXT
  5
1177
330
18
100
AcDbEntity
  8
1
100
AcDbText
 10
260.4755548367017
 20
250.4432950792169
 30
0.0
 40
4.0
  1
Humidity Controller
 41
0.9
  7
MSゴシック
100
AcDbText
  0
LINE
  5
1178
330
18
100
AcDbEntity
  8
1
100
AcDbLine
 10
276.4640077077992
 20
236.4359488548192
 30
0.0
 11
277.3544810764049
 21
242.6692624350589
 31
0.0
  0
LINE
  5
1179
330
18
100
AcDbEntity
  8
1
100
AcDbLine
 10
276.4640077077992
 20
236.4359488548192
 30
0.0
 11
277.0714140787524
 21
235.7273080887069
 31
0.0
  0
LINE
  5
117A
330
18
100
AcDbEntity
  8
1
100
AcDbLine
 10
260.1555548367018
 20
247.9032950792168
 30
0.0
 11
313.1555548367018
 21
247.9032950792168
 31
0.0
  0
LINE
  5
117B
330
18
100
AcDbEntity
  8
1
100
AcDbLine
 10
316.3555548367019
 20
257.3032950792169
 30
0.0
 11
248.7555548367017
 21
257.3032950792169
 31
0.0
  0
LINE
  5
117C
330
18
100
AcDbEntity
  8
1
100
AcDbLine
 10
261.6555548367018
 20
243.9032950792168
 30
0.0
 11
311.6555548367018
 21
243.9032950792168
 31
0.0
  0
LINE
  5
117D
330
18
100
AcDbEntity
  8
1
100
AcDbLine
 10
323.5555548367017
 20
267.403295079217
 30
0.0
 11
241.5555548367017
 21
267.4032950792169
 31
0.0
  0
LINE
  5
117E
330
18
100
AcDbEntity
  8
1
100
AcDbLine
 10
323.0555548367017
 20
266.403295079217
 30
0.0
 11
242.0555548367017
 21
266.4032950792169
 31
0.0
  0
DIMENSION
  5
117F
330
18
100
AcDbEntity
  8
2
100
AcDbDimension
  2
*D21
 10
325.5555548367017
 20
277.0333666095648
 30
0.0
 11
282.5555548367017
 21
278.7833666095648
 31
0.0
 70
    32
 71
     5
 42
86.0
  3
STANDARD
100
AcDbAlignedDimension
 13
239.5555548367017
 23
265.4032950792169
 33
0.0
 14
325.5555548367017
 24
265.403295079217
 34
0.0
100
AcDbRotatedDimension
1001
ACAD
1000
DSTYLE
1002
{
1070
   140
1040
2.5
1070
    40
1040
1.0
1002
}
  0
ARC
  5
1180
330
18
100
AcDbEntity
  8
1
100
AcDbCircle
 10
241.8609008520741
 20
264.5979490638445
 30
0.0
 40
1.815809573978629
100
AcDbArc
 50
83.84609260503998
 51
186.1539073949606
  0
ARC
  5
1181
330
18
100
AcDbEntity
  8
1
100
AcDbCircle
 10
241.5555548367017
 20
265.4032950792169
 30
0.0
 40
2.0
100
AcDbArc
 50
90.0
 51
180.0
  0
ARC
  5
1182
330
18
100
AcDbEntity
  8
1
100
AcDbCircle
 10
261.6555548367018
 20
242.9032950792168
 30
0.0
 40
1.0
100
AcDbArc
 50
90.0
 51
180.0
  0
ARC
  5
1183
330
18
100
AcDbEntity
  8
1
100
AcDbCircle
 10
260.1555548367018
 20
245.4032950792168
 30
0.0
 40
2.5
100
AcDbArc
 50
90.0
 51
180.0
  0
ARC
  5
1184
330
18
100
AcDbEntity
  8
1
100
AcDbCircle
 10
248.7555548367017
 20
256.3032950792169
 30
0.0
 40
1.0
100
AcDbArc
 50
90.0
 51
180.0
  0
ARC
  5
1185
330
18
100
AcDbEntity
  8
1
100
AcDbCircle
 10
248.5555548367017
 20
256.403295079217
 30
0.0
 40
1.0
100
AcDbArc
 50
90.0
 51
180.0
  0
TEXT
  5
1186
330
18
100
AcDbEntity
  8
1
100
AcDbText
 10
262.2395134861637
 20
244.5391648661606
 30
0.0
 40
3.0
  1
PV
  7
MSゴシック
100
AcDbText
  0
LINE
  5
1187
330
18
100
AcDbEntity
  8
1
100
AcDbLine
 10
265.926282372601
 20
241.380895079217
 30
0.0
 11
271.1374563536212
 21
241.380895079217
 31
0.0
  0
LINE
  5
1188
330
18
100
AcDbEntity
  8
1
100
AcDbLine
 10
272.6614563536213
 20
242.8032950792169
 30
0.0
 11
264.8086823726009
 21
242.8032950792169
 31
0.0
  0
LINE
  5
1189
330
18
100
AcDbEntity
  8
1
100
AcDbLine
 10
265.2202008403765
 20
236.402495079217
 30
0.0
 11
270.4313748213964
 21
236.402495079217
 31
0.0
  0
LINE
  5
118A
330
18
100
AcDbEntity
  8
1
100
AcDbLine
 10
264.7349698897417
 20
242.6927008328145
 30
0.0
 11
265.8880494861985
 21
241.3474413036148
 31
0.0
  0
LINE
  5
118B
330
18
100
AcDbEntity
  8
1
100
AcDbLine
 10
264.7732027761442
 20
242.7261546084167
 30
0.0
 11
265.926282372601
 21
241.380895079217
 31
0.0
  0
LINE
  5
118C
330
18
100
AcDbEntity
  8
1
100
AcDbLine
 10
263.7640077077992
 20
236.4359488548192
 30
0.0
 11
264.6544810764048
 21
242.6692624350589
 31
0.0
  0
LINE
  5
118D
330
18
100
AcDbEntity
  8
1
100
AcDbLine
 10
265.2202008403765
 20
236.402495079217
 30
0.0
 11
264.4044760016474
 21
235.6887358453292
 31
0.0
  0
LINE
  5
118E
330
18
100
AcDbEntity
  8
1
100
AcDbLine
 10
265.1871389174812
 20
236.4410673225947
 30
0.0
 11
264.3714140787524
 21
235.7273080887069
 31
0.0
  0
LINE
  5
118F
330
18
100
AcDbEntity
  8
1
100
AcDbLine
 10
263.7640077077992
 20
236.4359488548192
 30
0.0
 11
264.3714140787524
 21
235.7273080887069
 31
0.0
  0
LINE
  5
1190
330
18
100
AcDbEntity
  8
1
100
AcDbLine
 10
265.8880494861985
 20
241.3474413036148
 30
0.0
 11
265.1871389174812
 21
236.4410673225947
 31
0.0
  0
LINE
  5
1191
330
18
100
AcDbEntity
  8
1
100
AcDbLine
 10
264.7349698897417
 20
242.6927008328145
 30
0.0
 11
264.6544810764048
 21
242.6692624350589
 31
0.0
  0
LINE
  5
1192
330
18
100
AcDbEntity
  8
1
100
AcDbLine
 10
264.8086823726009
 20
242.8032950792169
 30
0.0
 11
264.7732027761442
 21
242.7261546084167
 31
0.0
  0
LINE
  5
1193
330
18
100
AcDbEntity
  8
1
100
AcDbLine
 10
272.686594561439
 20
242.7363910110575
 30
0.0
 11
271.1374563536212
 21
241.380895079217
 31
0.0
  0
LINE
  5
1194
330
18
100
AcDbEntity
  8
1
100
AcDbLine
 10
272.7196564843341
 20
242.6978187676799
 30
0.0
 11
271.1705182765163
 21
241.3423228358394
 31
0.0
  0
LINE
  5
1195
330
18
100
AcDbEntity
  8
1
100
AcDbLine
 10
272.7817498667225
 20
242.6641439672834
 30
0.0
 11
271.8927389174812
 21
236.4410673225946
 31
0.0
  0
LINE
  5
1196
330
18
100
AcDbEntity
  8
1
100
AcDbLine
 10
271.8927389174812
 20
236.4410673225947
 30
0.0
 11
271.0770140787524
 21
235.7273080887069
 31
0.0
  0
LINE
  5
1197
330
18
100
AcDbEntity
  8
1
100
AcDbLine
 10
270.4313748213964
 20
236.402495079217
 30
0.0
 11
271.0387811923501
 21
235.6938543131047
 31
0.0
  0
LINE
  5
1198
330
18
100
AcDbEntity
  8
1
100
AcDbLine
 10
270.4696077077992
 20
236.4359488548192
 30
0.0
 11
271.0770140787524
 21
235.7273080887069
 31
0.0
  0
LINE
  5
1199
330
18
100
AcDbEntity
  8
1
100
AcDbLine
 10
270.4696077077992
 20
236.4359488548192
 30
0.0
 11
271.1705182765163
 21
241.3423228358394
 31
0.0
  0
LINE
  5
119A
330
18
100
AcDbEntity
  8
1
100
AcDbLine
 10
272.7817498667225
 20
242.6641439672834
 30
0.0
 11
272.7196564843341
 21
242.6978187676799
 31
0.0
  0
LINE
  5
119B
330
18
100
AcDbEntity
  8
1
100
AcDbLine
 10
272.686594561439
 20
242.7363910110575
 30
0.0
 11
272.6614563536213
 21
242.8032950792169
 31
0.0
  0
TEXT
  5
119C
330
18
100
AcDbEntity
  8
2
100
AcDbText
 10
224.4579616765161
 20
288.3333666095649
 30
0.0
 40
5.0
  1
正面
  7
MSゴシック
100
AcDbText
  0
LINE
  5
119D
330
18
100
AcDbEntity
  8
1
100
AcDbLine
 10
309.9927389174813
 20
236.4410673225947
 30
0.0
 11
309.1770140787525
 21
235.7273080887069
 31
0.0
  0
LINE
  5
119E
330
18
100
AcDbEntity
  8
1
100
AcDbLine
 10
310.7614563536212
 20
242.8032950792169
 30
0.0
 11
302.9086823726011
 21
242.8032950792169
 31
0.0
  0
LINE
  5
119F
330
18
100
AcDbEntity
  8
1
100
AcDbLine
 10
310.8196564843342
 20
242.6978187676799
 30
0.0
 11
309.2705182765162
 21
241.3423228358394
 31
0.0
  0
LINE
  5
11A0
330
18
100
AcDbEntity
  8
1
100
AcDbLine
 10
310.7865945614389
 20
242.7363910110575
 30
0.0
 11
309.2374563536214
 21
241.380895079217
 31
0.0
  0
TEXT
  5
11A1
330
18
100
AcDbEntity
  8
1
100
AcDbText
 10
311.9222227869725
 20
247.4232955102071
 30
0.0
 40
3.0
  1
％
 50
180.0
  7
MSゴシック
100
AcDbText
  0
LINE
  5
11A2
330
18
100
AcDbEntity
  8
1
100
AcDbLine
 10
291.3262823726008
 20
241.380895079217
 30
0.0
 11
296.5374563536211
 21
241.380895079217
 31
0.0
  0
LINE
  5
11A3
330
18
100
AcDbEntity
  8
1
100
AcDbLine
 10
298.0614563536212
 20
242.8032950792169
 30
0.0
 11
290.208682372601
 21
242.8032950792169
 31
0.0
  0
LINE
  5
11A4
330
18
100
AcDbEntity
  8
1
100
AcDbLine
 10
290.6202008403766
 20
236.402495079217
 30
0.0
 11
295.8313748213965
 21
236.402495079217
 31
0.0
  0
LINE
  5
11A5
330
18
100
AcDbEntity
  8
1
100
AcDbLine
 10
285.3865945614391
 20
242.7363910110575
 30
0.0
 11
283.8374563536212
 21
241.380895079217
 31
0.0
  0
LINE
  5
11A6
330
18
100
AcDbEntity
  8
1
100
AcDbLine
 10
285.4196564843341
 20
242.6978187676799
 30
0.0
 11
283.8705182765163
 21
241.3423228358394
 31
0.0
  0
LINE
  5
11A7
330
18
100
AcDbEntity
  8
1
100
AcDbLine
 10
285.3614563536213
 20
242.8032950792169
 30
0.0
 11
277.508682372601
 21
242.8032950792169
 31
0.0
  0
LINE
  5
11A8
330
18
100
AcDbEntity
  8
1
100
AcDbLine
 10
285.4817498667225
 20
242.6641439672834
 30
0.0
 11
284.5927389174812
 21
236.4410673225946
 31
0.0
  0
LINE
  5
11A9
330
18
100
AcDbEntity
  8
1
100
AcDbLine
 10
277.4732027761442
 20
242.7261546084167
 30
0.0
 11
278.626282372601
 21
241.380895079217
 31
0.0
  0
LINE
  5
11AA
330
18
100
AcDbEntity
  8
1
100
AcDbLine
 10
277.4349698897417
 20
242.6927008328145
 30
0.0
 11
278.5880494861985
 21
241.3474413036148
 31
0.0
  0
LINE
  5
11AB
330
18
100
AcDbEntity
  8
1
100
AcDbLine
 10
278.626282372601
 20
241.380895079217
 30
0.0
 11
283.837456353621
 21
241.380895079217
 31
0.0
  0
LINE
  5
11AC
330
18
100
AcDbEntity
  8
1
100
AcDbLine
 10
277.9202008403765
 20
236.402495079217
 30
0.0
 11
283.1313748213965
 21
236.402495079217
 31
0.0
  0
LINE
  5
11AD
330
18
100
AcDbEntity
  8
1
100
AcDbLine
 10
277.8871389174812
 20
236.4410673225947
 30
0.0
 11
277.0714140787524
 21
235.7273080887069
 31
0.0
  0
LINE
  5
11AE
330
18
100
AcDbEntity
  8
1
100
AcDbLine
 10
277.9202008403765
 20
236.402495079217
 30
0.0
 11
277.1044760016475
 21
235.6887358453292
 31
0.0
  0
LINE
  5
11AF
330
18
100
AcDbEntity
  8
1
100
AcDbLine
 10
278.5880494861985
 20
241.3474413036148
 30
0.0
 11
277.8871389174812
 21
236.4410673225947
 31
0.0
  0
LINE
  5
11B0
330
18
100
AcDbEntity
  8
1
100
AcDbLine
 10
284.5927389174812
 20
236.4410673225947
 30
0.0
 11
283.7770140787524
 21
235.7273080887069
 31
0.0
  0
LINE
  5
11B1
330
18
100
AcDbEntity
  8
1
100
AcDbLine
 10
283.1696077077992
 20
236.4359488548192
 30
0.0
 11
283.7770140787524
 21
235.7273080887069
 31
0.0
  0
LINE
  5
11B2
330
18
100
AcDbEntity
  8
1
100
AcDbLine
 10
283.1313748213965
 20
236.402495079217
 30
0.0
 11
283.7387811923499
 21
235.6938543131047
 31
0.0
  0
LINE
  5
11B3
330
18
100
AcDbEntity
  8
1
100
AcDbLine
 10
283.1696077077992
 20
236.4359488548192
 30
0.0
 11
283.8705182765163
 21
241.3423228358394
 31
0.0
  0
LINE
  5
11B4
330
18
100
AcDbEntity
  8
1
100
AcDbLine
 10
277.508682372601
 20
242.8032950792169
 30
0.0
 11
277.4732027761442
 21
242.7261546084167
 31
0.0
  0
LINE
  5
11B5
330
18
100
AcDbEntity
  8
1
100
AcDbLine
 10
277.4349698897417
 20
242.6927008328145
 30
0.0
 11
277.3544810764049
 21
242.6692624350589
 31
0.0
  0
LINE
  5
11B6
330
18
100
AcDbEntity
  8
1
100
AcDbLine
 10
290.1349698897415
 20
242.6927008328145
 30
0.0
 11
291.2880494861983
 21
241.3474413036148
 31
0.0
  0
LINE
  5
11B7
330
18
100
AcDbEntity
  8
1
100
AcDbLine
 10
290.173202776144
 20
242.7261546084167
 30
0.0
 11
291.3262823726008
 21
241.380895079217
 31
0.0
  0
LINE
  5
11B8
330
18
100
AcDbEntity
  8
1
100
AcDbLine
 10
289.164007707799
 20
236.4359488548192
 30
0.0
 11
290.0544810764047
 21
242.6692624350589
 31
0.0
  0
LINE
  5
11B9
330
18
100
AcDbEntity
  8
1
100
AcDbLine
 10
289.164007707799
 20
236.4359488548192
 30
0.0
 11
289.7714140787525
 21
235.7273080887069
 31
0.0
  0
LINE
  5
11BA
330
18
100
AcDbEntity
  8
1
100
AcDbLine
 10
290.6202008403766
 20
236.402495079217
 30
0.0
 11
289.8044760016475
 21
235.6887358453292
 31
0.0
  0
LINE
  5
11BB
330
18
100
AcDbEntity
  8
1
100
AcDbLine
 10
290.5871389174813
 20
236.4410673225947
 30
0.0
 11
289.7714140787525
 21
235.7273080887069
 31
0.0
  0
LINE
  5
11BC
330
18
100
AcDbEntity
  8
1
100
AcDbLine
 10
291.2880494861983
 20
241.3474413036148
 30
0.0
 11
290.5871389174813
 21
236.4410673225947
 31
0.0
  0
LINE
  5
11BD
330
18
100
AcDbEntity
  8
1
100
AcDbLine
 10
285.4817498667225
 20
242.6641439672834
 30
0.0
 11
285.4196564843341
 21
242.6978187676799
 31
0.0
  0
LINE
  5
11BE
330
18
100
AcDbEntity
  8
1
100
AcDbLine
 10
285.3865945614391
 20
242.7363910110575
 30
0.0
 11
285.3614563536213
 21
242.8032950792169
 31
0.0
  0
LINE
  5
11BF
330
18
100
AcDbEntity
  8
1
100
AcDbLine
 10
290.208682372601
 20
242.8032950792169
 30
0.0
 11
290.173202776144
 21
242.7261546084167
 31
0.0
  0
LINE
  5
11C0
330
18
100
AcDbEntity
  8
1
100
AcDbLine
 10
290.1349698897415
 20
242.6927008328145
 30
0.0
 11
290.0544810764047
 21
242.6692624350589
 31
0.0
  0
LINE
  5
11C1
330
18
100
AcDbEntity
  8
1
100
AcDbLine
 10
298.0865945614391
 20
242.7363910110575
 30
0.0
 11
296.5374563536213
 21
241.380895079217
 31
0.0
  0
LINE
  5
11C2
330
18
100
AcDbEntity
  8
1
100
AcDbLine
 10
298.1196564843342
 20
242.6978187676799
 30
0.0
 11
296.5705182765161
 21
241.3423228358394
 31
0.0
  0
LINE
  5
11C3
330
18
100
AcDbEntity
  8
1
100
AcDbLine
 10
298.1817498667226
 20
242.6641439672834
 30
0.0
 11
297.2927389174813
 21
236.4410673225946
 31
0.0
  0
LINE
  5
11C4
330
18
100
AcDbEntity
  8
1
100
AcDbLine
 10
297.2927389174813
 20
236.4410673225947
 30
0.0
 11
296.4770140787525
 21
235.7273080887069
 31
0.0
  0
LINE
  5
11C5
330
18
100
AcDbEntity
  8
1
100
AcDbLine
 10
295.8696077077991
 20
236.4359488548192
 30
0.0
 11
296.4770140787525
 21
235.7273080887069
 31
0.0
  0
LINE
  5
11C6
330
18
100
AcDbEntity
  8
1
100
AcDbLine
 10
295.8313748213965
 20
236.402495079217
 30
0.0
 11
296.43878119235
 21
235.6938543131047
 31
0.0
  0
LINE
  5
11C7
330
18
100
AcDbEntity
  8
1
100
AcDbLine
 10
295.8696077077991
 20
236.4359488548192
 30
0.0
 11
296.5705182765164
 21
241.3423228358394
 31
0.0
  0
LINE
  5
11C8
330
18
100
AcDbEntity
  8
1
100
AcDbLine
 10
298.1817498667226
 20
242.6641439672834
 30
0.0
 11
298.1196564843342
 21
242.6978187676799
 31
0.0
  0
LINE
  5
11C9
330
18
100
AcDbEntity
  8
1
100
AcDbLine
 10
298.0865945614391
 20
242.7363910110575
 30
0.0
 11
298.0614563536212
 21
242.8032950792169
 31
0.0
  0
LINE
  5
11CA
330
18
100
AcDbEntity
  8
1
100
AcDbLine
 10
302.8732027761441
 20
242.7261546084167
 30
0.0
 11
304.0262823726009
 21
241.380895079217
 31
0.0
  0
LINE
  5
11CB
330
18
100
AcDbEntity
  8
1
100
AcDbLine
 10
302.8349698897416
 20
242.6927008328145
 30
0.0
 11
303.9880494861983
 21
241.3474413036148
 31
0.0
  0
LINE
  5
11CC
330
18
100
AcDbEntity
  8
1
100
AcDbLine
 10
301.8640077077991
 20
236.4359488548192
 30
0.0
 11
302.7544810764047
 21
242.6692624350589
 31
0.0
  0
LINE
  5
11CD
330
18
100
AcDbEntity
  8
1
100
AcDbLine
 10
304.0262823726009
 20
241.380895079217
 30
0.0
 11
309.2374563536211
 21
241.380895079217
 31
0.0
  0
LINE
  5
11CE
330
18
100
AcDbEntity
  8
1
100
AcDbLine
 10
303.3202008403764
 20
236.402495079217
 30
0.0
 11
308.5313748213966
 21
236.402495079217
 31
0.0
  0
LINE
  5
11CF
330
18
100
AcDbEntity
  8
1
100
AcDbLine
 10
301.8640077077991
 20
236.4359488548192
 30
0.0
 11
302.4714140787525
 21
235.7273080887069
 31
0.0
  0
LINE
  5
11D0
330
18
100
AcDbEntity
  8
1
100
AcDbLine
 10
303.2871389174813
 20
236.4410673225947
 30
0.0
 11
302.4714140787525
 21
235.7273080887069
 31
0.0
  0
LINE
  5
11D1
330
18
100
AcDbEntity
  8
1
100
AcDbLine
 10
303.3202008403764
 20
236.402495079217
 30
0.0
 11
302.5044760016476
 21
235.6887358453292
 31
0.0
  0
LINE
  5
11D2
330
18
100
AcDbEntity
  8
1
100
AcDbLine
 10
303.9880494861983
 20
241.3474413036148
 30
0.0
 11
303.2871389174813
 21
236.4410673225947
 31
0.0
  0
LINE
  5
11D3
330
18
100
AcDbEntity
  8
1
100
AcDbLine
 10
308.5313748213966
 20
236.402495079217
 30
0.0
 11
309.13878119235
 21
235.6938543131047
 31
0.0
  0
LINE
  5
11D4
330
18
100
AcDbEntity
  8
1
100
AcDbLine
 10
308.5696077077991
 20
236.4359488548192
 30
0.0
 11
309.1770140787525
 21
235.7273080887069
 31
0.0
  0
LINE
  5
11D5
330
18
100
AcDbEntity
  8
1
100
AcDbLine
 10
308.5696077077991
 20
236.4359488548192
 30
0.0
 11
309.2705182765164
 21
241.3423228358394
 31
0.0
  0
LINE
  5
11D6
330
18
100
AcDbEntity
  8
1
100
AcDbLine
 10
302.9086823726011
 20
242.8032950792169
 30
0.0
 11
302.8732027761441
 21
242.7261546084167
 31
0.0
  0
LINE
  5
11D7
330
18
100
AcDbEntity
  8
1
100
AcDbLine
 10
302.8349698897416
 20
242.6927008328145
 30
0.0
 11
302.7544810764047
 21
242.6692624350589
 31
0.0
  0
ARC
  5
11D8
330
18
100
AcDbEntity
  8
1
100
AcDbCircle
 10
313.1555548367018
 20
245.4032950792168
 30
0.0
 40
2.5
100
AcDbArc
 50
0.0
 51
90.0
  0
LINE
  5
11D9
330
18
100
AcDbEntity
  8
1
100
AcDbLine
 10
310.8817498667226
 20
242.6641439672834
 30
0.0
 11
309.9927389174813
 21
236.4410673225946
 31
0.0
  0
ARC
  5
11DA
330
18
100
AcDbEntity
  8
1
100
AcDbCircle
 10
311.6555548367018
 20
242.9032950792168
 30
0.0
 40
1.0
100
AcDbArc
 50
0.0
 51
90.0
  0
LINE
  5
11DB
330
18
100
AcDbEntity
  8
1
100
AcDbLine
 10
310.7865945614389
 20
242.7363910110575
 30
0.0
 11
310.7614563536212
 21
242.8032950792169
 31
0.0
  0
LINE
  5
11DC
330
18
100
AcDbEntity
  8
1
100
AcDbLine
 10
310.8817498667226
 20
242.6641439672834
 30
0.0
 11
310.8196564843342
 21
242.6978187676799
 31
0.0
  0
ARC
  5
11DD
330
18
100
AcDbEntity
  8
1
100
AcDbCircle
 10
316.3555548367019
 20
256.3032950792169
 30
0.0
 40
1.0
100
AcDbArc
 50
0.0
 51
90.0
  0
ARC
  5
11DE
330
18
100
AcDbEntity
  8
1
100
AcDbCircle
 10
316.5555548367017
 20
256.4032950792169
 30
0.0
 40
1.0
100
AcDbArc
 50
0.0
 51
90.0
  0
ARC
  5
11DF
330
18
100
AcDbEntity
  8
1
100
AcDbCircle
 10
323.0555548367017
 20
264.403295079217
 30
0.0
 40
2.0
100
AcDbArc
 50
0.0
 51
90.0
  0
ARC
  5
11E0
330
18
100
AcDbEntity
  8
1
100
AcDbCircle
 10
323.5555548367017
 20
265.403295079217
 30
0.0
 40
2.0
100
AcDbArc
 50
0.0
 51
90.0
  0
VIEWPORT
  5
699
330
692
100
AcDbEntity
 67
     1
  8
0
100
AcDbViewport
 10
176.1193351233462
 20
99.00077671910931
 30
0.0
 40
311.7058758396825
 41
199.6198588425364
 68
     1
 69
     1
 12
176.1193351233462
 22
99.00077671910931
 13
0.0
 23
0.0
 14
1.0
 24
1.0
 15
10.0
 25
10.0
 16
0.0
 26
0.0
 36
1.0
 17
0.0
 27
0.0
 37
0.0
 42
50.0
 43
0.0
 44
0.0
 45
199.6198588425364
 50
0.0
 51
0.0
 72
   100
 90
    33056
  1

281
     0
 71
     1
 74
     0
110
0.0
120
0.0
130
0.0
111
1.0
121
0.0
131
0.0
112
0.0
122
1.0
132
0.0
 79
     0
146
0.0
  0
VIEWPORT
  5
69B
330
692
100
AcDbEntity
 67
     1
  8
X ﾋﾞｭｰ
100
AcDbViewport
 10
142.5
 20
99.0
 30
0.0
 40
285.0
 41
198.0
 68
     2
 69
     2
 12
209.8309668882559
 22
148.28614582635
 13
0.0
 23
0.0
 14
1.0
 24
1.0
 15
10.0
 25
10.0
 16
0.0
 26
0.0
 36
1.0
 17
0.0
 27
0.0
 37
0.0
 42
50.0
 43
0.0
 44
0.0
 45
375.0014661367525
 50
0.0
 51
0.0
 72
   100
 90
    33056
  1

281
     0
 71
     1
 74
     0
110
0.0
120
0.0
130
0.0
111
1.0
121
0.0
131
0.0
112
0.0
122
1.0
132
0.0
 79
     0
146
0.0
  0
ENDSEC
  0
SECTION
  2
OBJECTS
  0
DICTIONARY
  5
C
330
0
100
AcDbDictionary
281
     1
  3
ACAD_GROUP
350
D
  3
ACAD_LAYOUT
350
5E1
  3
ACAD_MLINESTYLE
350
1B
  3
ACAD_PLOTSETTINGS
350
5E2
  3
ACAD_PLOTSTYLENAME
350
5DF
  3
AcadDim
350
662
  3
CONTENTDICTIONARY
350
20
  0
DICTIONARY
  5
D
102
{ACAD_REACTORS
330
C
102
}
330
C
100
AcDbDictionary
281
     1
  0
DICTIONARY
  5
5E1
102
{ACAD_REACTORS
330
C
102
}
330
C
100
AcDbDictionary
281
     1
  3
Model
350
5E3
  3
ﾚｲｱｳﾄ1
350
693
  0
DICTIONARY
  5
1B
102
{ACAD_REACTORS
330
C
102
}
330
C
100
AcDbDictionary
281
     1
  3
STANDARD
350
1C
  0
DICTIONARY
  5
5E2
102
{ACAD_REACTORS
330
C
102
}
330
C
100
AcDbDictionary
281
     1
  0
ACDBDICTIONARYWDFLT
  5
5DF
102
{ACAD_REACTORS
330
C
102
}
330
C
100
AcDbDictionary
281
     1
  3
Normal
350
5E0
100
AcDbDictionaryWithDefault
340
5E0
  0
XRECORD
  5
662
102
{ACAD_REACTORS
330
C
102
}
330
C
100
AcDbXrecord
280
     1
 90
   990106
  3

 60
     0
 61
     0
 62
     4
 63
     4
 64
     1
 65
     0
 66
     0
 67
     3
 68
     1
 69
     0
 70
     0
 71
     0
 72
     0
 40
0.0
170
     2
340
0
  0
DICTIONARY
  5
20
102
{ACAD_REACTORS
330
C
102
}
330
C
100
AcDbDictionary
281
     1
1001
CONTENTTABDATA
1070
     6
1000
ビス.dwg
1000
C:\Program Files\AutoCAD LT 97\SYMBOLS\ビス.dwg
1070
     0
1070
     0
1070
     1
1000
ｺﾈｸﾀ.dwg
1000
C:\Program Files\AutoCAD LT 97\SYMBOLS\ｺﾈｸﾀ.dwg
1070
     0
1070
     0
1070
     1
1000
表示器.dwg
1000
C:\Program Files\AutoCAD LT 97\SYMBOLS\表示器.dwg
1070
     0
1070
     0
1070
     1
1000
ﾄﾗﾝｽ.dwg
1000
C:\Program Files\AutoCAD LT 97\SYMBOLS\ﾄﾗﾝｽ.dwg
1070
     0
1070
     0
1070
     1
1000
ﾘﾚｰ.dwg
1000
C:\Program Files\AutoCAD LT 97\SYMBOLS\ﾘﾚｰ.dwg
1070
     0
1070
     0
1070
     1
1000
汎用.dwg
1000
C:\Program Files\AutoCAD LT 97\SYMBOLS\汎用.dwg
1070
     0
1070
     0
1070
     1
1001
CONTENTCURRENTTAB
1070
     2
  0
LAYOUT
  5
5E3
102
{ACAD_REACTORS
330
5E1
102
}
330
5E1
100
AcDbPlotSettings
  1

  2
RICOH imagio MP C3000 RPCS.pc3
  4
A3
  6

 40
5.873749732971191
 41
5.873747825622558
 42
5.873748779296875
 43
5.873748779296875
 44
419.9466552734374
 45
296.9259948730469
 46
0.0
 47
0.0
 48
0.0
 49
0.0
140
0.0
141
0.0
142
1.0
143
1.286122978510651
 70
 11952
 72
     1
 73
     0
 74
     0
  7
monochrome.ctb
 75
     0
147
0.7775306224277355
148
0.0
149
0.0
100
AcDbLayout
  1
Model
 70
     1
 71
     0
 10
0.0
 20
0.0
 11
12.0
 21
9.0
 12
0.0
 22
0.0
 32
0.0
 14
0.0
 24
0.0
 34
0.0
 15
0.0
 25
0.0
 35
0.0
146
0.0
 13
0.0
 23
0.0
 33
0.0
 16
1.0
 26
0.0
 36
0.0
 17
0.0
 27
1.0
 37
0.0
 76
     0
330
18
  0
LAYOUT
  5
693
102
{ACAD_REACTORS
330
5E1
102
}
330
5E1
100
AcDbPlotSettings
  1

  2
RICOH imagio MP C3000 RPCS
  4
A4
  6

 40
5.873749732971191
 41
5.873747825622558
 42
5.873748779296875
 43
5.873748779296875
 44
209.9733276367187
 45
296.9259948730469
 46
0.0
 47
0.0
 48
0.0
 49
0.0
140
0.0
141
0.0
142
1.0
143
1.0
 70
   688
 72
     1
 73
     1
 74
     5
  7
monochrome.ctb
 75
    16
147
1.0
148
0.0
149
0.0
100
AcDbLayout
  1
ﾚｲｱｳﾄ1
 70
     1
 71
     1
 10
-5.873748779296875
 20
-5.873749732971191
 11
291.05224609375
 21
204.0995779037475
 12
0.0
 22
0.0
 32
0.0
 14
0.0
 24
0.0
 34
0.0
 15
285.0
 25
198.0
 35
0.0
146
0.0
 13
0.0
 23
0.0
 33
0.0
 16
1.0
 26
0.0
 36
0.0
 17
0.0
 27
1.0
 37
0.0
 76
     0
330
692
331
699
  0
MLINESTYLE
  5
1C
102
{ACAD_REACTORS
330
1B
102
}
330
1B
100
AcDbMlineStyle
  2
STANDARD
 70
     0
  3

 62
   256
 51
90.0
 52
90.0
 71
     2
 49
0.5
 62
   256
  6
BYLAYER
 49
-0.5
 62
   256
  6
BYLAYER
  0
ACDBPLACEHOLDER
  5
5E0
102
{ACAD_REACTORS
330
5DF
102
}
330
5DF
  0
ENDSEC
  0
EOF
