  0
SECTION
  2
HEADER
  9
$ACADVER
  1
AC1015
  9
$ACADMAINTVER
 70
    11
  9
$DWGCODEPAGE
  3
ANSI_932
  9
$INSBASE
 10
0.0
 20
0.0
 30
0.0
  9
$EXTMIN
 10
-135.7977440443116
 20
-37.76964380439372
 30
0.0
  9
$EXTMAX
 10
612.4522559556883
 20
302.2993876995061
 30
0.0
  9
$LIMMIN
 10
0.0
 20
0.0
  9
$LIMMAX
 10
420.0
 20
297.0
  9
$ORTHOMODE
 70
     0
  9
$REGENMODE
 70
     1
  9
$FILLMODE
 70
     1
  9
$QTEXTMODE
 70
     0
  9
$MIRRTEXT
 70
     1
  9
$LTSCALE
 40
1.0
  9
$ATTMODE
 70
     1
  9
$TEXTSIZE
 40
2.5
  9
$TRACEWID
 40
1.0
  9
$TEXTSTYLE
  7
ＭＳ明朝
  9
$CLAYER
  8
0
  9
$CELTYPE
  6
BYLAYER
  9
$CECOLOR
 62
   256
  9
$CELTSCALE
 40
1.0
  9
$DISPSILH
 70
     0
  9
$DIMSCALE
 40
0.0
  9
$DIMASZ
 40
5.0
  9
$DIMEXO
 40
1.5
  9
$DIMDLI
 40
5.0
  9
$DIMRND
 40
0.0
  9
$DIMDLE
 40
0.0
  9
$DIMEXE
 40
1.25
  9
$DIMTP
 40
0.0
  9
$DIMTM
 40
0.0
  9
$DIMTXT
 40
5.0
  9
$DIMCEN
 40
-5.0
  9
$DIMTSZ
 40
0.0
  9
$DIMTOL
 70
     0
  9
$DIMLIM
 70
     0
  9
$DIMTIH
 70
     0
  9
$DIMTOH
 70
     0
  9
$DIMSE1
 70
     0
  9
$DIMSE2
 70
     0
  9
$DIMTAD
 70
     1
  9
$DIMZIN
 70
     8
  9
$DIMBLK
  1

  9
$DIMASO
 70
     1
  9
$DIMSHO
 70
     1
  9
$DIMPOST
  1

  9
$DIMAPOST
  1

  9
$DIMALT
 70
     0
  9
$DIMALTD
 70
     4
  9
$DIMALTF
 40
0.0394
  9
$DIMLFAC
 40
1.0
  9
$DIMTOFL
 70
     1
  9
$DIMTVP
 40
0.0
  9
$DIMTIX
 70
     0
  9
$DIMSOXD
 70
     0
  9
$DIMSAH
 70
     0
  9
$DIMBLK1
  1

  9
$DIMBLK2
  1

  9
$DIMSTYLE
  2
STANDARD
  9
$DIMCLRD
 70
     0
  9
$DIMCLRE
 70
     0
  9
$DIMCLRT
 70
     0
  9
$DIMTFAC
 40
1.0
  9
$DIMGAP
 40
0.5
  9
$DIMJUST
 70
     0
  9
$DIMSD1
 70
     0
  9
$DIMSD2
 70
     0
  9
$DIMTOLJ
 70
     1
  9
$DIMTZIN
 70
     0
  9
$DIMALTZ
 70
     0
  9
$DIMALTTZ
 70
     0
  9
$DIMUPT
 70
     0
  9
$DIMDEC
 70
     3
  9
$DIMTDEC
 70
     3
  9
$DIMALTU
 70
     8
  9
$DIMALTTD
 70
     4
  9
$DIMTXSTY
  7
ＭＳ明朝
  9
$DIMAUNIT
 70
     0
  9
$DIMADEC
 70
     0
  9
$DIMALTRND
 40
0.0
  9
$DIMAZIN
 70
     0
  9
$DIMDSEP
 70
    46
  9
$DIMATFIT
 70
     3
  9
$DIMFRAC
 70
     0
  9
$DIMLDRBLK
  1

  9
$DIMLUNIT
 70
     6
  9
$DIMLWD
 70
    -2
  9
$DIMLWE
 70
    -2
  9
$DIMTMOVE
 70
     0
  9
$LUNITS
 70
     2
  9
$LUPREC
 70
     2
  9
$SKETCHINC
 40
1.0
  9
$FILLETRAD
 40
2.0
  9
$AUNITS
 70
     0
  9
$AUPREC
 70
     0
  9
$MENU
  1
acad
  9
$ELEVATION
 40
0.0
  9
$PELEVATION
 40
0.0
  9
$THICKNESS
 40
0.0
  9
$LIMCHECK
 70
     0
  9
$CHAMFERA
 40
10.0
  9
$CHAMFERB
 40
10.0
  9
$CHAMFERC
 40
20.0
  9
$CHAMFERD
 40
0.0
  9
$SKPOLY
 70
     0
  9
$TDCREATE
 40
2455957.594655949
  9
$TDUCREATE
 40
2455957.219655949
  9
$TDUPDATE
 40
2456160.807135845
  9
$TDUUPDATE
 40
2456160.432135845
  9
$TDINDWG
 40
0.0288474306
  9
$TDUSRTIMER
 40
0.0288474306
  9
$USRTIMER
 70
     1
  9
$ANGBASE
 50
0.0
  9
$ANGDIR
 70
     0
  9
$PDMODE
 70
     0
  9
$PDSIZE
 40
0.0
  9
$PLINEWID
 40
0.0
  9
$SPLFRAME
 70
     0
  9
$SPLINETYPE
 70
     6
  9
$SPLINESEGS
 70
     8
  9
$HANDSEED
  5
19AF
  9
$SURFTAB1
 70
     6
  9
$SURFTAB2
 70
     6
  9
$SURFTYPE
 70
     6
  9
$SURFU
 70
     6
  9
$SURFV
 70
     6
  9
$UCSBASE
  2

  9
$UCSNAME
  2

  9
$UCSORG
 10
0.0
 20
0.0
 30
0.0
  9
$UCSXDIR
 10
1.0
 20
0.0
 30
0.0
  9
$UCSYDIR
 10
0.0
 20
1.0
 30
0.0
  9
$UCSORTHOREF
  2

  9
$UCSORTHOVIEW
 70
     0
  9
$UCSORGTOP
 10
0.0
 20
0.0
 30
0.0
  9
$UCSORGBOTTOM
 10
0.0
 20
0.0
 30
0.0
  9
$UCSORGLEFT
 10
0.0
 20
0.0
 30
0.0
  9
$UCSORGRIGHT
 10
0.0
 20
0.0
 30
0.0
  9
$UCSORGFRONT
 10
0.0
 20
0.0
 30
0.0
  9
$UCSORGBACK
 10
0.0
 20
0.0
 30
0.0
  9
$PUCSBASE
  2

  9
$PUCSNAME
  2

  9
$PUCSORG
 10
0.0
 20
0.0
 30
0.0
  9
$PUCSXDIR
 10
1.0
 20
0.0
 30
0.0
  9
$PUCSYDIR
 10
0.0
 20
1.0
 30
0.0
  9
$PUCSORTHOREF
  2

  9
$PUCSORTHOVIEW
 70
     0
  9
$PUCSORGTOP
 10
0.0
 20
0.0
 30
0.0
  9
$PUCSORGBOTTOM
 10
0.0
 20
0.0
 30
0.0
  9
$PUCSORGLEFT
 10
0.0
 20
0.0
 30
0.0
  9
$PUCSORGRIGHT
 10
0.0
 20
0.0
 30
0.0
  9
$PUCSORGFRONT
 10
0.0
 20
0.0
 30
0.0
  9
$PUCSORGBACK
 10
0.0
 20
0.0
 30
0.0
  9
$USERI1
 70
     0
  9
$USERI2
 70
     0
  9
$USERI3
 70
     0
  9
$USERI4
 70
     0
  9
$USERI5
 70
     0
  9
$USERR1
 40
0.0
  9
$USERR2
 40
0.0
  9
$USERR3
 40
0.0
  9
$USERR4
 40
0.0
  9
$USERR5
 40
0.0
  9
$WORLDVIEW
 70
     1
  9
$SHADEDGE
 70
     3
  9
$SHADEDIF
 70
    70
  9
$TILEMODE
 70
     0
  9
$MAXACTVP
 70
    48
  9
$PINSBASE
 10
0.0
 20
0.0
 30
0.0
  9
$PLIMCHECK
 70
     0
  9
$PEXTMIN
 10
-0.015512739179826
 20
-0.0009295723639866
 30
-0.0015258207003583
  9
$PEXTMAX
 10
285.0127821911737
 20
198.0024830105826
 30
0.0000000349246037
  9
$PLIMMIN
 10
-5.873748779296875
 20
-5.873749732971191
  9
$PLIMMAX
 10
291.05224609375
 20
204.0995779037475
  9
$UNITMODE
 70
     0
  9
$VISRETAIN
 70
     1
  9
$PLINEGEN
 70
     0
  9
$PSLTSCALE
 70
     1
  9
$TREEDEPTH
 70
  3020
  9
$CMLSTYLE
  2
STANDARD
  9
$CMLJUST
 70
     0
  9
$CMLSCALE
 40
20.0
  9
$PROXYGRAPHICS
 70
     1
  9
$MEASUREMENT
 70
     1
  9
$CELWEIGHT
370
    -1
  9
$ENDCAPS
280
     0
  9
$JOINSTYLE
280
     0
  9
$LWDISPLAY
290
     0
  9
$INSUNITS
 70
     0
  9
$HYPERLINKBASE
  1

  9
$STYLESHEET
  1

  9
$XEDIT
290
     1
  9
$CEPSNTYPE
380
     0
  9
$PSTYLEMODE
290
     1
  9
$FINGERPRINTGUID
  2
{778B7AA4-961B-11D4-A809-0000F45A11F6}
  9
$VERSIONGUID
  2
{1CF84A1D-DFDD-4A1C-AFB8-AFA020E1F6DB}
  9
$EXTNAMES
290
     1
  9
$PSVPSCALE
 40
0.0
  9
$OLESTARTUP
290
     0
  0
ENDSEC
  0
SECTION
  2
CLASSES
  0
CLASS
  1
LWPOLYLINE
  2
AcDbPolyline
  3
AutoCAD 2000
 90
    32768
280
     0
281
     1
  0
CLASS
  1
ACDBDICTIONARYWDFLT
  2
AcDbDictionaryWithDefault
  3
AutoCAD 2000
 90
        0
280
     0
281
     0
  0
CLASS
  1
ACDBPLACEHOLDER
  2
AcDbPlaceHolder
  3
AutoCAD 2000
 90
        0
280
     0
281
     0
  0
CLASS
  1
LAYOUT
  2
AcDbLayout
  3
AutoCAD 2000
 90
        0
280
     0
281
     0
  0
ENDSEC
  0
SECTION
  2
TABLES
  0
TABLE
  2
VPORT
  5
8
330
0
100
AcDbSymbolTable
 70
     8
  0
VPORT
  5
19AE
330
8
100
AcDbSymbolTableRecord
100
AcDbViewportTableRecord
  2
*Active
 70
     0
 10
0.0
 20
0.0
 11
1.0
 21
1.0
 12
238.3272576978435
 22
132.2714321575981
 13
0.0
 23
0.0
 14
1.0
 24
1.0
 15
10.0
 25
10.0
 16
0.0
 26
0.0
 36
1.0
 17
0.0
 27
0.0
 37
0.0
 40
482.0900454230887
 41
1.560160427807486
 42
50.0
 43
0.0
 44
0.0
 50
0.0
 51
0.0
 71
     0
 72
   100
 73
     1
 74
     1
 75
     0
 76
     0
 77
     0
 78
     0
281
     0
 65
     1
110
0.0
120
0.0
130
0.0
111
1.0
121
0.0
131
0.0
112
0.0
122
1.0
132
0.0
 79
     0
146
0.0
  0
ENDTAB
  0
TABLE
  2
LTYPE
  5
5
330
0
100
AcDbSymbolTable
 70
     1
  0
LTYPE
  5
12
330
5
100
AcDbSymbolTableRecord
100
AcDbLinetypeTableRecord
  2
BYBLOCK
 70
     0
  3

 72
    65
 73
     0
 40
0.0
  0
LTYPE
  5
13
330
5
100
AcDbSymbolTableRecord
100
AcDbLinetypeTableRecord
  2
BYLAYER
 70
     0
  3

 72
    65
 73
     0
 40
0.0
  0
LTYPE
  5
14
330
5
100
AcDbSymbolTableRecord
100
AcDbLinetypeTableRecord
  2
CONTINUOUS
 70
     0
  3
Solid line
 72
    65
 73
     0
 40
0.0
  0
ENDTAB
  0
TABLE
  2
LAYER
  5
2
330
0
100
AcDbSymbolTable
 70
     5
  0
LAYER
  5
E
330
2
100
AcDbSymbolTableRecord
100
AcDbLayerTableRecord
  2
0
 70
     0
 62
     4
  6
CONTINUOUS
370
    -3
390
5E0
  0
LAYER
  5
21F
330
2
100
AcDbSymbolTableRecord
100
AcDbLayerTableRecord
  2
DEFPOINTS
 70
     0
 62
     9
  6
CONTINUOUS
290
     0
370
    -3
390
5E0
  0
LAYER
  5
508
330
2
100
AcDbSymbolTableRecord
100
AcDbLayerTableRecord
  2
X ﾋﾞｭｰ
 70
     0
 62
     2
  6
CONTINUOUS
290
     0
370
    35
390
5E0
  0
LAYER
  5
CD4
330
2
100
AcDbSymbolTableRecord
100
AcDbLayerTableRecord
  2
1
 70
     0
 62
     5
  6
CONTINUOUS
370
    30
390
5E0
  0
LAYER
  5
CD5
330
2
100
AcDbSymbolTableRecord
100
AcDbLayerTableRecord
  2
2
 70
     0
 62
     6
  6
CONTINUOUS
370
     9
390
5E0
  0
ENDTAB
  0
TABLE
  2
STYLE
  5
3
330
0
100
AcDbSymbolTable
 70
     4
  0
STYLE
  5
F
330
3
100
AcDbSymbolTableRecord
100
AcDbTextStyleTableRecord
  2
STANDARD
 70
     0
 40
0.0
 41
1.0
 50
0.0
 71
     0
 42
2.5
  3
txt.shx
  4
bigfont.shx
  0
STYLE
  5
4B4
330
3
100
AcDbSymbolTableRecord
100
AcDbTextStyleTableRecord
  2
ＭＳ明朝
 70
     0
 40
0.0
 41
1.0
 50
0.0
 71
     0
 42
2.5
  3
MS Mincho.ttf
  4

1001
ACAD
1000
MS Mincho
1071
    32785
  0
STYLE
  5
66E
330
3
100
AcDbSymbolTableRecord
100
AcDbTextStyleTableRecord
  2
MSｺﾞｼｯｸ
 70
     0
 40
0.0
 41
1.0
 50
0.0
 71
     0
 42
2.5
  3
MS Gothic.ttf
  4

1001
ACAD
1000
MS Gothic
1071
    32817
  0
STYLE
  5
CD6
330
3
100
AcDbSymbolTableRecord
100
AcDbTextStyleTableRecord
  2
ＭＳゴシック
 70
     0
 40
0.0
 41
1.0
 50
0.0
 71
     0
 42
2.5
  3
MS Gothic.ttf
  4

1001
ACAD
1000
MS Gothic
1071
    32817
  0
ENDTAB
  0
TABLE
  2
VIEW
  5
6
330
0
100
AcDbSymbolTable
 70
     0
  0
ENDTAB
  0
TABLE
  2
UCS
  5
7
330
0
100
AcDbSymbolTable
 70
     0
  0
ENDTAB
  0
TABLE
  2
APPID
  5
9
330
0
100
AcDbSymbolTable
 70
     5
  0
APPID
  5
10
330
9
100
AcDbSymbolTableRecord
100
AcDbRegAppTableRecord
  2
ACAD
 70
     0
  0
APPID
  5
21
330
9
100
AcDbSymbolTableRecord
100
AcDbRegAppTableRecord
  2
CONTENTTABDATA
 70
     0
  0
APPID
  5
22
330
9
100
AcDbSymbolTableRecord
100
AcDbRegAppTableRecord
  2
CONTENTCURRENTTAB
 70
     0
  0
APPID
  5
137
330
9
100
AcDbSymbolTableRecord
100
AcDbRegAppTableRecord
  2
CONTENTBLOCKDESCRIPTION
 70
     0
  0
APPID
  5
186
330
9
100
AcDbSymbolTableRecord
100
AcDbRegAppTableRecord
  2
CONTENTBLOCKICON
 70
     0
  0
ENDTAB
  0
TABLE
  2
DIMSTYLE
  5
A
330
0
100
AcDbSymbolTable
 70
     1
100
AcDbDimStyleTable
 71
     1
340
1D
  0
DIMSTYLE
105
1D
102
{ACAD_REACTORS
330
144E
330
144F
330
1450
330
15A7
330
12C2
330
12C3
330
1308
330
1885
102
}
330
A
100
AcDbSymbolTableRecord
100
AcDbDimStyleTableRecord
  2
STANDARD
 70
     0
 40
0.0
 41
5.0
 42
1.5
 43
5.0
 44
1.25
 73
     0
 74
     0
 77
     1
 78
     8
140
5.0
141
-5.0
143
0.0394
147
0.5
171
     4
172
     1
271
     3
272
     3
273
     8
274
     4
277
     6
340
4B4
  0
ENDTAB
  0
TABLE
  2
BLOCK_RECORD
  5
1
330
0
100
AcDbSymbolTable
 70
     9
  0
BLOCK_RECORD
  5
18
330
1
100
AcDbSymbolTableRecord
100
AcDbBlockTableRecord
  2
*MODEL_SPACE
340
5E3
  0
BLOCK_RECORD
  5
692
330
1
100
AcDbSymbolTableRecord
100
AcDbBlockTableRecord
  2
*Paper_Space
340
693
  0
BLOCK_RECORD
  5
189D
330
1
100
AcDbSymbolTableRecord
100
AcDbBlockTableRecord
  2
*D0
340
0
  0
BLOCK_RECORD
  5
18A9
330
1
100
AcDbSymbolTableRecord
100
AcDbBlockTableRecord
  2
*D1
340
0
  0
BLOCK_RECORD
  5
18B5
330
1
100
AcDbSymbolTableRecord
100
AcDbBlockTableRecord
  2
*D2
340
0
  0
BLOCK_RECORD
  5
18C1
330
1
100
AcDbSymbolTableRecord
100
AcDbBlockTableRecord
  2
*D3
340
0
  0
BLOCK_RECORD
  5
18CD
330
1
100
AcDbSymbolTableRecord
100
AcDbBlockTableRecord
  2
*D4
340
0
  0
BLOCK_RECORD
  5
18D9
330
1
100
AcDbSymbolTableRecord
100
AcDbBlockTableRecord
  2
*D5
340
0
  0
BLOCK_RECORD
  5
18E5
330
1
100
AcDbSymbolTableRecord
100
AcDbBlockTableRecord
  2
*D6
340
0
  0
BLOCK_RECORD
  5
18F1
330
1
100
AcDbSymbolTableRecord
100
AcDbBlockTableRecord
  2
*D7
340
0
  0
ENDTAB
  0
ENDSEC
  0
SECTION
  2
BLOCKS
  0
BLOCK
  5
19
330
18
100
AcDbEntity
  8
0
100
AcDbBlockBegin
  2
*MODEL_SPACE
 70
     0
 10
0.0
 20
0.0
 30
0.0
  3
*MODEL_SPACE
  1

  0
ENDBLK
  5
1A
330
18
100
AcDbEntity
  8
0
100
AcDbBlockEnd
  0
BLOCK
  5
694
330
692
100
AcDbEntity
 67
     1
  8
0
100
AcDbBlockBegin
  2
*Paper_Space
 70
     0
 10
0.0
 20
0.0
 30
0.0
  3
*Paper_Space
  1

  0
ENDBLK
  5
695
330
692
100
AcDbEntity
 67
     1
  8
0
100
AcDbBlockEnd
  0
BLOCK
  5
18A7
330
189D
100
AcDbEntity
  8
0
100
AcDbBlockBegin
  2
*D0
 70
     1
 10
0.0
 20
0.0
 30
0.0
  3
*D0
  1

  0
LINE
  5
194D
330
189D
100
AcDbEntity
  8
2
 62
     0
370
    -2
100
AcDbLine
 10
-20.29774404431168
 20
140.889494447143
 30
0.0
 11
-20.29774404431168
 21
102.039494447143
 31
0.0
  0
LINE
  5
194E
330
189D
100
AcDbEntity
  8
2
 62
     0
370
    -2
100
AcDbLine
 10
445.7022559556882
 20
140.889494447143
 30
0.0
 11
445.7022559556882
 21
102.039494447143
 31
0.0
  0
LINE
  5
194F
330
189D
100
AcDbEntity
  8
2
 62
     0
370
    -2
100
AcDbLine
 10
-15.29774404431169
 20
103.289494447143
 30
0.0
 11
440.7022559556883
 21
103.289494447143
 31
0.0
  0
SOLID
  5
1950
330
189D
100
AcDbEntity
  8
2
 62
     0
100
AcDbTrace
 10
-15.29774404431169
 20
104.1228277804763
 30
0.0
 11
-15.29774404431169
 21
102.4561611138097
 31
0.0
 12
-20.29774404431168
 22
103.289494447143
 32
0.0
 13
-20.29774404431168
 23
103.289494447143
 33
0.0
  0
SOLID
  5
1951
330
189D
100
AcDbEntity
  8
2
 62
     0
100
AcDbTrace
 10
440.7022559556883
 20
104.1228277804763
 30
0.0
 11
440.7022559556883
 21
102.4561611138097
 31
0.0
 12
445.7022559556882
 22
103.289494447143
 32
0.0
 13
445.7022559556882
 23
103.289494447143
 33
0.0
  0
MTEXT
  5
1952
330
189D
100
AcDbEntity
  8
2
 62
     0
100
AcDbMText
 10
212.7022559556883
 20
106.289494447143
 30
0.0
 40
5.0
 41
0.0
 71
     5
 72
     1
  1
\A1;466
  7
ＭＳ明朝
 73
     1
 44
1.0
  0
POINT
  5
1953
330
189D
100
AcDbEntity
  8
DEFPOINTS
 62
     0
100
AcDbPoint
 10
-20.29774404431168
 20
142.389494447143
 30
0.0
  0
POINT
  5
1954
330
189D
100
AcDbEntity
  8
DEFPOINTS
 62
     0
100
AcDbPoint
 10
445.7022559556882
 20
142.389494447143
 30
0.0
  0
POINT
  5
1955
330
189D
100
AcDbEntity
  8
DEFPOINTS
 62
     0
100
AcDbPoint
 10
445.7022559556882
 20
103.289494447143
 30
0.0
  0
ENDBLK
  5
18A8
330
189D
100
AcDbEntity
  8
0
100
AcDbBlockEnd
  0
BLOCK
  5
18B3
330
18A9
100
AcDbEntity
  8
0
100
AcDbBlockBegin
  2
*D1
 70
     1
 10
0.0
 20
0.0
 30
0.0
  3
*D1
  1

  0
LINE
  5
1956
330
18A9
100
AcDbEntity
  8
2
 62
     0
370
    -2
100
AcDbLine
 10
-12.29774404431168
 20
123.889494447143
 30
0.0
 11
-12.29774404431168
 21
112.939494447143
 31
0.0
  0
LINE
  5
1957
330
18A9
100
AcDbEntity
  8
2
 62
     0
370
    -2
100
AcDbLine
 10
437.7022559556883
 20
123.889494447143
 30
0.0
 11
437.7022559556883
 21
112.939494447143
 31
0.0
  0
LINE
  5
1958
330
18A9
100
AcDbEntity
  8
2
 62
     0
370
    -2
100
AcDbLine
 10
-7.297744044311684
 20
114.1894944471431
 30
0.0
 11
432.7022559556882
 21
114.1894944471431
 31
0.0
  0
SOLID
  5
1959
330
18A9
100
AcDbEntity
  8
2
 62
     0
100
AcDbTrace
 10
-7.297744044311684
 20
115.0228277804764
 30
0.0
 11
-7.297744044311684
 21
113.3561611138097
 31
0.0
 12
-12.29774404431168
 22
114.1894944471431
 32
0.0
 13
-12.29774404431168
 23
114.1894944471431
 33
0.0
  0
SOLID
  5
195A
330
18A9
100
AcDbEntity
  8
2
 62
     0
100
AcDbTrace
 10
432.7022559556882
 20
115.0228277804764
 30
0.0
 11
432.7022559556882
 21
113.3561611138097
 31
0.0
 12
437.7022559556883
 22
114.1894944471431
 32
0.0
 13
437.7022559556883
 23
114.1894944471431
 33
0.0
  0
MTEXT
  5
195B
330
18A9
100
AcDbEntity
  8
2
 62
     0
100
AcDbMText
 10
212.7022559556883
 20
117.189494447143
 30
0.0
 40
5.0
 41
0.0
 71
     5
 72
     1
  1
\A1;450
  7
ＭＳ明朝
 73
     1
 44
1.0
  0
POINT
  5
195C
330
18A9
100
AcDbEntity
  8
DEFPOINTS
 62
     0
100
AcDbPoint
 10
-12.29774404431168
 20
125.389494447143
 30
0.0
  0
POINT
  5
195D
330
18A9
100
AcDbEntity
  8
DEFPOINTS
 62
     0
100
AcDbPoint
 10
437.7022559556883
 20
125.389494447143
 30
0.0
  0
POINT
  5
195E
330
18A9
100
AcDbEntity
  8
DEFPOINTS
 62
     0
100
AcDbPoint
 10
437.7022559556883
 20
114.1894944471431
 30
0.0
  0
ENDBLK
  5
18B4
330
18A9
100
AcDbEntity
  8
0
100
AcDbBlockEnd
  0
BLOCK
  5
18BF
330
18B5
100
AcDbEntity
  8
0
100
AcDbBlockBegin
  2
*D2
 70
     1
 10
0.0
 20
0.0
 30
0.0
  3
*D2
  1

  0
LINE
  5
195F
330
18B5
100
AcDbEntity
  8
2
 62
     0
370
    -2
100
AcDbLine
 10
-27.29774404431168
 20
131.389494447143
 30
0.0
 11
-27.29774404431168
 21
91.68949444714309
 31
0.0
  0
LINE
  5
1960
330
18B5
100
AcDbEntity
  8
2
 62
     0
370
    -2
100
AcDbLine
 10
452.7022559556883
 20
131.389494447143
 30
0.0
 11
452.7022559556883
 21
91.68949444714309
 31
0.0
  0
LINE
  5
1961
330
18B5
100
AcDbEntity
  8
2
 62
     0
370
    -2
100
AcDbLine
 10
-22.29774404431168
 20
92.93949444714309
 30
0.0
 11
447.7022559556883
 21
92.93949444714309
 31
0.0
  0
SOLID
  5
1962
330
18B5
100
AcDbEntity
  8
2
 62
     0
100
AcDbTrace
 10
-22.29774404431168
 20
93.77282778047641
 30
0.0
 11
-22.29774404431168
 21
92.10616111380977
 31
0.0
 12
-27.29774404431168
 22
92.93949444714309
 32
0.0
 13
-27.29774404431168
 23
92.93949444714309
 33
0.0
  0
SOLID
  5
1963
330
18B5
100
AcDbEntity
  8
2
 62
     0
100
AcDbTrace
 10
447.7022559556883
 20
93.77282778047641
 30
0.0
 11
447.7022559556883
 21
92.10616111380977
 31
0.0
 12
452.7022559556883
 22
92.93949444714309
 32
0.0
 13
452.7022559556883
 23
92.93949444714309
 33
0.0
  0
MTEXT
  5
1964
330
18B5
100
AcDbEntity
  8
2
 62
     0
100
AcDbMText
 10
212.7022559556883
 20
95.9394944471431
 30
0.0
 40
5.0
 41
0.0
 71
     5
 72
     1
  1
\A1;480
  7
ＭＳ明朝
 73
     1
 44
1.0
  0
POINT
  5
1965
330
18B5
100
AcDbEntity
  8
DEFPOINTS
 62
     0
100
AcDbPoint
 10
-27.29774404431168
 20
132.889494447143
 30
0.0
  0
POINT
  5
1966
330
18B5
100
AcDbEntity
  8
DEFPOINTS
 62
     0
100
AcDbPoint
 10
452.7022559556883
 20
132.889494447143
 30
0.0
  0
POINT
  5
1967
330
18B5
100
AcDbEntity
  8
DEFPOINTS
 62
     0
100
AcDbPoint
 10
452.7022559556883
 20
92.93949444714309
 30
0.0
  0
ENDBLK
  5
18C0
330
18B5
100
AcDbEntity
  8
0
100
AcDbBlockEnd
  0
BLOCK
  5
18CB
330
18C1
100
AcDbEntity
  8
0
100
AcDbBlockBegin
  2
*D3
 70
     1
 10
0.0
 20
0.0
 30
0.0
  3
*D3
  1

  0
LINE
  5
1968
330
18C1
100
AcDbEntity
  8
2
 62
     0
370
    -2
100
AcDbLine
 10
451.7022559556883
 20
145.389494447143
 30
0.0
 11
479.852255955688
 21
145.389494447143
 31
0.0
  0
LINE
  5
1969
330
18C1
100
AcDbEntity
  8
2
 62
     0
370
    -2
100
AcDbLine
 10
439.2022559556883
 20
125.389494447143
 30
0.0
 11
479.8522559556879
 21
125.389494447143
 31
0.0
  0
LINE
  5
196A
330
18C1
100
AcDbEntity
  8
2
 62
     0
370
    -2
100
AcDbLine
 10
478.6022559556879
 20
140.389494447143
 30
0.0
 11
478.6022559556879
 21
130.389494447143
 31
0.0
  0
SOLID
  5
196B
330
18C1
100
AcDbEntity
  8
2
 62
     0
100
AcDbTrace
 10
477.7689226223547
 20
140.389494447143
 30
0.0
 11
479.4355892890213
 21
140.389494447143
 31
0.0
 12
478.6022559556879
 22
145.389494447143
 32
0.0
 13
478.6022559556879
 23
145.389494447143
 33
0.0
  0
SOLID
  5
196C
330
18C1
100
AcDbEntity
  8
2
 62
     0
100
AcDbTrace
 10
477.7689226223547
 20
130.389494447143
 30
0.0
 11
479.4355892890213
 21
130.389494447143
 31
0.0
 12
478.6022559556879
 22
125.389494447143
 32
0.0
 13
478.6022559556879
 23
125.389494447143
 33
0.0
  0
MTEXT
  5
196D
330
18C1
100
AcDbEntity
  8
2
 62
     0
100
AcDbMText
 10
475.6022559556879
 20
135.3894944471431
 30
0.0
 40
5.0
 41
0.0
 71
     5
 72
     1
  1
\A1;20
  7
ＭＳ明朝
 11
0.0000000000000001
 21
1.0
 31
0.0
 73
     1
 44
1.0
  0
POINT
  5
196E
330
18C1
100
AcDbEntity
  8
DEFPOINTS
 62
     0
100
AcDbPoint
 10
450.2022559556883
 20
145.389494447143
 30
0.0
  0
POINT
  5
196F
330
18C1
100
AcDbEntity
  8
DEFPOINTS
 62
     0
100
AcDbPoint
 10
437.7022559556883
 20
125.389494447143
 30
0.0
  0
POINT
  5
1970
330
18C1
100
AcDbEntity
  8
DEFPOINTS
 62
     0
100
AcDbPoint
 10
478.6022559556879
 20
125.389494447143
 30
0.0
  0
ENDBLK
  5
18CC
330
18C1
100
AcDbEntity
  8
0
100
AcDbBlockEnd
  0
BLOCK
  5
18D7
330
18CD
100
AcDbEntity
  8
0
100
AcDbBlockBegin
  2
*D4
 70
     1
 10
0.0
 20
0.0
 30
0.0
  3
*D4
  1

  0
LINE
  5
1971
330
18CD
100
AcDbEntity
  8
2
 62
     0
370
    -2
100
AcDbLine
 10
449.7022559556882
 20
265.3894944471431
 30
0.0
 11
479.8522559556879
 21
265.3894944471431
 31
0.0
  0
LINE
  5
1972
330
18CD
100
AcDbEntity
  8
2
 62
     0
370
    -2
100
AcDbLine
 10
450.2022559556883
 20
145.389494447143
 30
0.0
 11
479.8522559556879
 21
145.389494447143
 31
0.0
  0
LINE
  5
1973
330
18CD
100
AcDbEntity
  8
2
 62
     0
370
    -2
100
AcDbLine
 10
478.6022559556879
 20
260.389494447143
 30
0.0
 11
478.6022559556879
 21
150.389494447143
 31
0.0
  0
SOLID
  5
1974
330
18CD
100
AcDbEntity
  8
2
 62
     0
100
AcDbTrace
 10
477.7689226223546
 20
260.389494447143
 30
0.0
 11
479.4355892890212
 21
260.389494447143
 31
0.0
 12
478.6022559556879
 22
265.3894944471431
 32
0.0
 13
478.6022559556879
 23
265.3894944471431
 33
0.0
  0
SOLID
  5
1975
330
18CD
100
AcDbEntity
  8
2
 62
     0
100
AcDbTrace
 10
477.7689226223546
 20
150.389494447143
 30
0.0
 11
479.4355892890212
 21
150.389494447143
 31
0.0
 12
478.6022559556879
 22
145.389494447143
 32
0.0
 13
478.6022559556879
 23
145.389494447143
 33
0.0
  0
MTEXT
  5
1976
330
18CD
100
AcDbEntity
  8
2
 62
     0
100
AcDbMText
 10
475.6022559556878
 20
205.3894944471431
 30
0.0
 40
5.0
 41
0.0
 71
     5
 72
     1
  1
\A1;120
  7
ＭＳ明朝
 11
0.0000000000000001
 21
1.0
 31
0.0
 73
     1
 44
1.0
  0
POINT
  5
1977
330
18CD
100
AcDbEntity
  8
DEFPOINTS
 62
     0
100
AcDbPoint
 10
448.2022559556883
 20
265.3894944471431
 30
0.0
  0
POINT
  5
1978
330
18CD
100
AcDbEntity
  8
DEFPOINTS
 62
     0
100
AcDbPoint
 10
448.7022559556883
 20
145.389494447143
 30
0.0
  0
POINT
  5
1979
330
18CD
100
AcDbEntity
  8
DEFPOINTS
 62
     0
100
AcDbPoint
 10
478.6022559556879
 20
145.389494447143
 30
0.0
  0
ENDBLK
  5
18D8
330
18CD
100
AcDbEntity
  8
0
100
AcDbBlockEnd
  0
BLOCK
  5
18E3
330
18D9
100
AcDbEntity
  8
0
100
AcDbBlockBegin
  2
*D5
 70
     1
 10
0.0
 20
0.0
 30
0.0
  3
*D5
  1

  0
LINE
  5
197A
330
18D9
100
AcDbEntity
  8
2
 62
     0
370
    -2
100
AcDbLine
 10
439.2022559556883
 20
285.389494447143
 30
0.0
 11
502.4022559556882
 21
285.389494447143
 31
0.0
  0
LINE
  5
197B
330
18D9
100
AcDbEntity
  8
2
 62
     0
370
    -2
100
AcDbLine
 10
439.2022559556883
 20
125.389494447143
 30
0.0
 11
502.4022559556881
 21
125.389494447143
 31
0.0
  0
LINE
  5
197C
330
18D9
100
AcDbEntity
  8
2
 62
     0
370
    -2
100
AcDbLine
 10
501.1522559556881
 20
280.389494447143
 30
0.0
 11
501.1522559556881
 21
130.389494447143
 31
0.0
  0
SOLID
  5
197D
330
18D9
100
AcDbEntity
  8
2
 62
     0
100
AcDbTrace
 10
500.3189226223549
 20
280.389494447143
 30
0.0
 11
501.9855892890214
 21
280.389494447143
 31
0.0
 12
501.1522559556881
 22
285.389494447143
 32
0.0
 13
501.1522559556881
 23
285.389494447143
 33
0.0
  0
SOLID
  5
197E
330
18D9
100
AcDbEntity
  8
2
 62
     0
100
AcDbTrace
 10
500.3189226223549
 20
130.389494447143
 30
0.0
 11
501.9855892890214
 21
130.389494447143
 31
0.0
 12
501.1522559556881
 22
125.389494447143
 32
0.0
 13
501.1522559556881
 23
125.389494447143
 33
0.0
  0
MTEXT
  5
197F
330
18D9
100
AcDbEntity
  8
2
 62
     0
100
AcDbMText
 10
498.1522559556881
 20
205.3894944471431
 30
0.0
 40
5.0
 41
0.0
 71
     5
 72
     1
  1
\A1;160
  7
ＭＳ明朝
 11
0.0000000000000001
 21
1.0
 31
0.0
 73
     1
 44
1.0
  0
POINT
  5
1980
330
18D9
100
AcDbEntity
  8
DEFPOINTS
 62
     0
100
AcDbPoint
 10
437.7022559556883
 20
285.389494447143
 30
0.0
  0
POINT
  5
1981
330
18D9
100
AcDbEntity
  8
DEFPOINTS
 62
     0
100
AcDbPoint
 10
437.7022559556883
 20
125.389494447143
 30
0.0
  0
POINT
  5
1982
330
18D9
100
AcDbEntity
  8
DEFPOINTS
 62
     0
100
AcDbPoint
 10
501.1522559556881
 20
125.389494447143
 30
0.0
  0
ENDBLK
  5
18E4
330
18D9
100
AcDbEntity
  8
0
100
AcDbBlockEnd
  0
BLOCK
  5
18EF
330
18E5
100
AcDbEntity
  8
0
100
AcDbBlockBegin
  2
*D6
 70
     1
 10
0.0
 20
0.0
 30
0.0
  3
*D6
  1

  0
LINE
  5
1983
330
18E5
100
AcDbEntity
  8
2
 62
     0
370
    -2
100
AcDbLine
 10
612.4522559556883
 20
126.389494447143
 30
0.0
 11
612.4522559556883
 21
100.139494447143
 31
0.0
  0
LINE
  5
1984
330
18E5
100
AcDbEntity
  8
2
 62
     0
370
    -2
100
AcDbLine
 10
517.4522559556883
 20
123.889494447143
 30
0.0
 11
517.4522559556883
 21
100.139494447143
 31
0.0
  0
LINE
  5
1985
330
18E5
100
AcDbEntity
  8
2
 62
     0
370
    -2
100
AcDbLine
 10
607.4522559556883
 20
101.389494447143
 30
0.0
 11
522.4522559556882
 21
101.389494447143
 31
0.0
  0
SOLID
  5
1986
330
18E5
100
AcDbEntity
  8
2
 62
     0
100
AcDbTrace
 10
607.4522559556883
 20
102.2228277804763
 30
0.0
 11
607.4522559556883
 21
100.5561611138097
 31
0.0
 12
612.4522559556883
 22
101.389494447143
 32
0.0
 13
612.4522559556883
 23
101.389494447143
 33
0.0
  0
SOLID
  5
1987
330
18E5
100
AcDbEntity
  8
2
 62
     0
100
AcDbTrace
 10
522.4522559556882
 20
102.2228277804763
 30
0.0
 11
522.4522559556882
 21
100.5561611138097
 31
0.0
 12
517.4522559556883
 22
101.389494447143
 32
0.0
 13
517.4522559556883
 23
101.389494447143
 33
0.0
  0
MTEXT
  5
1988
330
18E5
100
AcDbEntity
  8
2
 62
     0
100
AcDbMText
 10
564.9522559556883
 20
104.389494447143
 30
0.0
 40
5.0
 41
0.0
 71
     5
 72
     1
  1
\A1;95
  7
ＭＳ明朝
 73
     1
 44
1.0
  0
POINT
  5
1989
330
18E5
100
AcDbEntity
  8
DEFPOINTS
 62
     0
100
AcDbPoint
 10
612.4522559556883
 20
127.889494447143
 30
0.0
  0
POINT
  5
198A
330
18E5
100
AcDbEntity
  8
DEFPOINTS
 62
     0
100
AcDbPoint
 10
517.4522559556883
 20
125.389494447143
 30
0.0
  0
POINT
  5
198B
330
18E5
100
AcDbEntity
  8
DEFPOINTS
 62
     0
100
AcDbPoint
 10
517.4522559556883
 20
101.389494447143
 30
0.0
  0
ENDBLK
  5
18F0
330
18E5
100
AcDbEntity
  8
0
100
AcDbBlockEnd
  0
BLOCK
  5
18FB
330
18F1
100
AcDbEntity
  8
0
100
AcDbBlockBegin
  2
*D7
 70
     1
 10
0.0
 20
0.0
 30
0.0
  3
*D7
  1

  0
LINE
  5
198C
330
18F1
100
AcDbEntity
  8
2
 62
     0
370
    -2
100
AcDbLine
 10
450.2022559556883
 20
265.3894944471431
 30
0.0
 11
479.8522559556879
 21
265.3894944471431
 31
0.0
  0
LINE
  5
198D
330
18F1
100
AcDbEntity
  8
2
 62
     0
370
    -2
100
AcDbLine
 10
439.2022559556883
 20
285.389494447143
 30
0.0
 11
479.8522559556879
 21
285.389494447143
 31
0.0
  0
LINE
  5
198E
330
18F1
100
AcDbEntity
  8
2
 62
     0
370
    -2
100
AcDbLine
 10
478.6022559556879
 20
270.389494447143
 30
0.0
 11
478.6022559556879
 21
280.389494447143
 31
0.0
  0
SOLID
  5
198F
330
18F1
100
AcDbEntity
  8
2
 62
     0
100
AcDbTrace
 10
477.7689226223546
 20
270.389494447143
 30
0.0
 11
479.4355892890212
 21
270.389494447143
 31
0.0
 12
478.6022559556879
 22
265.3894944471431
 32
0.0
 13
478.6022559556879
 23
265.3894944471431
 33
0.0
  0
SOLID
  5
1990
330
18F1
100
AcDbEntity
  8
2
 62
     0
100
AcDbTrace
 10
477.7689226223546
 20
280.389494447143
 30
0.0
 11
479.4355892890212
 21
280.389494447143
 31
0.0
 12
478.6022559556879
 22
285.389494447143
 32
0.0
 13
478.6022559556879
 23
285.389494447143
 33
0.0
  0
MTEXT
  5
1991
330
18F1
100
AcDbEntity
  8
2
 62
     0
100
AcDbMText
 10
475.6022559556878
 20
275.3894944471431
 30
0.0
 40
5.0
 41
0.0
 71
     5
 72
     1
  1
\A1;20
  7
ＭＳ明朝
 11
0.0000000000000001
 21
1.0
 31
0.0
 73
     1
 44
1.0
  0
POINT
  5
1992
330
18F1
100
AcDbEntity
  8
DEFPOINTS
 62
     0
100
AcDbPoint
 10
448.7022559556883
 20
265.3894944471431
 30
0.0
  0
POINT
  5
1993
330
18F1
100
AcDbEntity
  8
DEFPOINTS
 62
     0
100
AcDbPoint
 10
437.7022559556883
 20
285.389494447143
 30
0.0
  0
POINT
  5
1994
330
18F1
100
AcDbEntity
  8
DEFPOINTS
 62
     0
100
AcDbPoint
 10
478.6022559556879
 20
285.389494447143
 30
0.0
  0
ENDBLK
  5
18FC
330
18F1
100
AcDbEntity
  8
0
100
AcDbBlockEnd
  0
ENDSEC
  0
SECTION
  2
ENTITIES
  0
LINE
  5
12BC
330
18
100
AcDbEntity
  8
1
100
AcDbLine
 10
-40.79774404431169
 20
285.389494447143
 30
0.0
 11
-134.7977440443116
 21
285.389494447143
 31
0.0
  0
LINE
  5
12BD
330
18
100
AcDbEntity
  8
1
100
AcDbLine
 10
-40.79774404431169
 20
125.389494447143
 30
0.0
 11
-134.7977440443116
 21
125.389494447143
 31
0.0
  0
LINE
  5
12BE
330
18
100
AcDbEntity
  8
1
100
AcDbLine
 10
-135.7977440443116
 20
282.8894944471431
 30
0.0
 11
-135.7977440443116
 21
127.889494447143
 31
0.0
  0
LINE
  5
12BF
330
18
100
AcDbEntity
  8
1
100
AcDbLine
 10
-134.7977440443116
 20
285.389494447143
 30
0.0
 11
-134.7977440443116
 21
125.389494447143
 31
0.0
  0
LINE
  5
12C0
330
18
100
AcDbEntity
  8
1
100
AcDbLine
 10
-134.7977440443116
 20
127.889494447143
 30
0.0
 11
-135.7977440443116
 21
127.889494447143
 31
0.0
  0
LINE
  5
12C1
330
18
100
AcDbEntity
  8
1
100
AcDbLine
 10
-134.7977440443116
 20
282.8894944471431
 30
0.0
 11
-135.7977440443116
 21
282.8894944471431
 31
0.0
  0
DIMENSION
  5
12C2
330
18
100
AcDbEntity
  8
2
100
AcDbDimension
  2
*D4
 10
478.6022559556879
 20
145.389494447143
 30
0.0
 11
475.6022559556878
 21
205.3894944471431
 31
0.0
 70
    32
 71
     5
 42
120.0
  3
STANDARD
100
AcDbAlignedDimension
 13
448.2022559556883
 23
265.3894944471431
 33
0.0
 14
448.7022559556883
 24
145.389494447143
 34
0.0
 50
90.0
100
AcDbRotatedDimension
1001
ACAD
1000
DSTYLE
1002
{
1070
    40
1040
1.0
1002
}
  0
DIMENSION
  5
12C3
330
18
100
AcDbEntity
  8
2
100
AcDbDimension
  2
*D5
 10
501.1522559556881
 20
125.389494447143
 30
0.0
 11
498.1522559556881
 21
205.3894944471431
 31
0.0
 70
    32
 71
     5
 42
160.0
  3
STANDARD
100
AcDbAlignedDimension
 13
437.7022559556883
 23
285.389494447143
 33
0.0
 14
437.7022559556883
 24
125.389494447143
 34
0.0
 50
90.0
100
AcDbRotatedDimension
1001
ACAD
1000
DSTYLE
1002
{
1070
    40
1040
1.0
1002
}
  0
LINE
  5
12C4
330
18
100
AcDbEntity
  8
1
100
AcDbLine
 10
596.7130889057028
 20
171.9272799966941
 30
0.0
 11
588.1837278510868
 21
176.8517088975921
 31
0.0
  0
HATCH
  5
12C5
330
18
100
AcDbEntity
  8
1
100
AcDbHatch
 10
0.0
 20
0.0
 30
0.0
210
0.0
220
0.0
230
1.0
  2
SOLID
 70
     1
 71
     1
 91
        2
 92
        7
 72
     1
 73
     1
 93
        4
 10
544.6587135423726
 20
172.9574226808364
 42
0.031280577328688
 10
543.7348340098608
 20
172.5747392484713
 42
0.0
 10
544.5022020562894
 20
170.7221489034528
 42
-0.041739256898602
 10
545.4260815888003
 20
171.1048323358179
 42
0.0
 97
        4
330
1305
330
15E9
330
15E0
330
12C6
 92
        7
 72
     1
 73
     1
 93
        4
 10
545.8103696839836
 20
170.177078804569
 42
0.0
 10
545.4260815888003
 20
171.1048323358179
 42
0.041739256898602
 10
544.5022020562894
 20
170.7221489034528
 42
0.0
 10
544.8864901514728
 20
169.7943953722039
 42
-0.0501256289338005
 97
        4
330
15E0
330
15E9
330
15E1
330
12C6
 75
     0
 76
     1
 47
0.0457807095923215
 98
        2
 10
544.5669061194523
 20
172.3951276274508
 10
545.208182497375
 20
170.0630117197142
  0
LINE
  5
12C6
102
{ACAD_REACTORS
330
12C5
102
}
330
18
100
AcDbEntity
  8
1
100
AcDbLine
 10
545.8103696839836
 20
170.1770788045689
 30
0.0
 11
544.6587135423726
 21
172.9574226808364
 31
0.0
  0
LINE
  5
12C7
330
18
100
AcDbEntity
  8
1
100
AcDbLine
 10
586.3207840602893
 20
176.8517088975921
 30
0.0
 11
577.7914230056733
 21
171.9272799966941
 31
0.0
  0
ARC
  5
12C8
330
18
100
AcDbEntity
  8
1
100
AcDbCircle
 10
562.2522559556885
 20
171.889494447143
 30
0.0
 40
2.5
100
AcDbArc
 50
0.0
 51
180.0
  0
LINE
  5
12C9
330
18
100
AcDbEntity
  8
1
100
AcDbLine
 10
450.3022559556877
 20
173.2394944471432
 30
0.0
 11
450.8022559556877
 21
171.2394944471432
 31
0.0
  0
ARC
  5
12CA
330
18
100
AcDbEntity
  8
1
100
AcDbCircle
 10
448.9322559556878
 20
170.5144944471432
 30
0.0
 40
6.814214921764653
100
AcDbArc
 50
327.8609253969063
 51
32.1390746030936
  0
LINE
  5
12CB
330
18
100
AcDbEntity
  8
1
100
AcDbLine
 10
450.7022559556883
 20
174.8894944471432
 30
0.0
 11
450.7022559556883
 21
171.6394944471434
 31
0.0
  0
SPLINE
  5
12CC
330
18
100
AcDbEntity
  8
1
100
AcDbSpline
210
0.0
220
0.0
230
1.0
 70
     8
 71
     3
 72
     9
 73
     5
 74
     3
 42
0.0000000001
 43
0.0000000001
 44
0.0000000001
 40
0.0
 40
0.0
 40
0.0
 40
0.0
 40
1.118033988749894
 40
2.236067977499789
 40
2.236067977499789
 40
2.236067977499789
 40
2.236067977499789
 10
443.2022559556883
 20
172.8894944471432
 30
0.0
 10
443.7022559556883
 20
172.7228277804765
 30
0.0
 10
444.7022559556883
 20
172.3894944471432
 30
0.0
 10
443.7022559556883
 20
172.0561611138099
 30
0.0
 10
443.2022559556883
 20
171.8894944471432
 30
0.0
 11
443.2022559556883
 21
172.8894944471432
 31
0.0
 11
444.2022559556883
 21
172.3894944471432
 31
0.0
 11
443.2022559556883
 21
171.8894944471432
 31
0.0
  0
ARC
  5
12CD
330
18
100
AcDbEntity
  8
1
100
AcDbCircle
 10
285.2022559556883
 20
173.389494447143
 30
0.0
 40
3.0
100
AcDbArc
 50
270.0
 51
90.0
  0
ARC
  5
12CE
330
18
100
AcDbEntity
  8
1
100
AcDbCircle
 10
261.2022559556883
 20
173.389494447143
 30
0.0
 40
3.0
100
AcDbArc
 50
90.0
 51
270.0
  0
ARC
  5
12CF
330
18
100
AcDbEntity
  8
1
100
AcDbCircle
 10
226.2022559556883
 20
173.389494447143
 30
0.0
 40
3.0
100
AcDbArc
 50
90.0
 51
270.0
  0
ARC
  5
12D0
330
18
100
AcDbEntity
  8
1
100
AcDbCircle
 10
250.2022559556883
 20
173.389494447143
 30
0.0
 40
3.0
100
AcDbArc
 50
270.0
 51
90.0
  0
ARC
  5
12D1
330
18
100
AcDbEntity
  8
1
100
AcDbCircle
 10
191.2022559556883
 20
173.389494447143
 30
0.0
 40
3.0
100
AcDbArc
 50
90.0
 51
270.0
  0
ARC
  5
12D2
330
18
100
AcDbEntity
  8
1
100
AcDbCircle
 10
179.7022559556883
 20
173.389494447143
 30
0.0
 40
3.0
100
AcDbArc
 50
270.0
 51
90.0
  0
ARC
  5
12D3
330
18
100
AcDbEntity
  8
1
100
AcDbCircle
 10
173.7022559556883
 20
173.389494447143
 30
0.0
 40
3.0
100
AcDbArc
 50
90.0
 51
270.0
  0
ARC
  5
12D4
330
18
100
AcDbEntity
  8
1
100
AcDbCircle
 10
215.2022559556883
 20
173.389494447143
 30
0.0
 40
3.0
100
AcDbArc
 50
270.0
 51
90.0
  0
ARC
  5
12D5
330
18
100
AcDbEntity
  8
1
100
AcDbCircle
 10
127.7022559556883
 20
173.389494447143
 30
0.0
 40
3.0
100
AcDbArc
 50
270.0
 51
90.0
  0
ARC
  5
12D6
330
18
100
AcDbEntity
  8
1
100
AcDbCircle
 10
121.7022559556883
 20
173.389494447143
 30
0.0
 40
3.0
100
AcDbArc
 50
90.0
 51
270.0
  0
ARC
  5
12D7
330
18
100
AcDbEntity
  8
1
100
AcDbCircle
 10
86.20225595568831
 20
173.389494447143
 30
0.0
 40
3.0
100
AcDbArc
 50
90.0
 51
270.0
  0
ARC
  5
12D8
330
18
100
AcDbEntity
  8
1
100
AcDbCircle
 10
110.2022559556883
 20
173.389494447143
 30
0.0
 40
3.0
100
AcDbArc
 50
270.0
 51
90.0
  0
ARC
  5
12D9
330
18
100
AcDbEntity
  8
1
100
AcDbCircle
 10
51.20225595568832
 20
173.389494447143
 30
0.0
 40
3.0
100
AcDbArc
 50
90.0
 51
270.0
  0
ARC
  5
12DA
330
18
100
AcDbEntity
  8
1
100
AcDbCircle
 10
40.20225595568831
 20
173.389494447143
 30
0.0
 40
3.0
100
AcDbArc
 50
270.0
 51
90.0
  0
ARC
  5
12DB
330
18
100
AcDbEntity
  8
1
100
AcDbCircle
 10
16.20225595568831
 20
173.389494447143
 30
0.0
 40
3.0
100
AcDbArc
 50
90.0
 51
270.0
  0
ARC
  5
12DC
330
18
100
AcDbEntity
  8
1
100
AcDbCircle
 10
4.702255955688315
 20
173.389494447143
 30
0.0
 40
3.0
100
AcDbArc
 50
270.0
 51
90.0
  0
ARC
  5
12DD
330
18
100
AcDbEntity
  8
1
100
AcDbCircle
 10
-1.297744044311684
 20
173.389494447143
 30
0.0
 40
3.0
100
AcDbArc
 50
90.0
 51
270.0
  0
ARC
  5
12DE
330
18
100
AcDbEntity
  8
1
100
AcDbCircle
 10
75.20225595568831
 20
173.389494447143
 30
0.0
 40
3.0
100
AcDbArc
 50
270.0
 51
90.0
  0
LINE
  5
12DF
330
18
100
AcDbEntity
  8
1
100
AcDbLine
 10
-45.79774404431169
 20
192.389494447143
 30
0.0
 11
-45.79774404431169
 21
168.389494447143
 31
0.0
  0
LINE
  5
12E0
330
18
100
AcDbEntity
  8
1
100
AcDbLine
 10
-51.79774404431168
 20
168.389494447143
 30
0.0
 11
-51.79774404431168
 21
192.389494447143
 31
0.0
  0
LINE
  5
12E1
330
18
100
AcDbEntity
  8
1
100
AcDbLine
 10
-61.79774404431168
 20
192.389494447143
 30
0.0
 11
-61.79774404431168
 21
168.389494447143
 31
0.0
  0
LINE
  5
12E2
330
18
100
AcDbEntity
  8
1
100
AcDbLine
 10
-67.79774404431169
 20
168.389494447143
 30
0.0
 11
-67.79774404431169
 21
192.389494447143
 31
0.0
  0
LINE
  5
12E3
330
18
100
AcDbEntity
  8
1
100
AcDbLine
 10
-77.79774404431169
 20
192.389494447143
 30
0.0
 11
-77.79774404431169
 21
168.389494447143
 31
0.0
  0
LINE
  5
12E4
330
18
100
AcDbEntity
  8
1
100
AcDbLine
 10
-83.79774404431168
 20
168.389494447143
 30
0.0
 11
-83.79774404431168
 21
192.389494447143
 31
0.0
  0
LINE
  5
12E5
330
18
100
AcDbEntity
  8
1
100
AcDbLine
 10
-93.79774404431168
 20
192.389494447143
 30
0.0
 11
-93.79774404431168
 21
168.389494447143
 31
0.0
  0
LINE
  5
12E6
330
18
100
AcDbEntity
  8
1
100
AcDbLine
 10
-99.79774404431168
 20
168.389494447143
 30
0.0
 11
-99.79774404431168
 21
192.389494447143
 31
0.0
  0
LINE
  5
12E7
330
18
100
AcDbEntity
  8
1
100
AcDbLine
 10
-115.7977440443116
 20
168.889494447143
 30
0.0
 11
-115.7977440443116
 21
174.889494447143
 31
0.0
  0
LINE
  5
12E8
330
18
100
AcDbEntity
  8
1
100
AcDbLine
 10
-109.7977440443116
 20
174.889494447143
 30
0.0
 11
-109.7977440443116
 21
168.889494447143
 31
0.0
  0
LINE
  5
12E9
330
18
100
AcDbEntity
  8
1
100
AcDbLine
 10
611.4522559556883
 20
285.389494447143
 30
0.0
 11
611.4522559556883
 21
125.389494447143
 31
0.0
  0
LINE
  5
12EA
330
18
100
AcDbEntity
  8
1
100
AcDbLine
 10
612.4522559556883
 20
282.8894944471431
 30
0.0
 11
612.4522559556883
 21
127.889494447143
 31
0.0
  0
LINE
  5
12EB
330
18
100
AcDbEntity
  8
1
100
AcDbLine
 10
517.4522559556883
 20
285.389494447143
 30
0.0
 11
517.4522559556883
 21
125.389494447143
 31
0.0
  0
LINE
  5
12EC
330
18
100
AcDbEntity
  8
1
100
AcDbLine
 10
437.7022559556883
 20
285.389494447143
 30
0.0
 11
437.7022559556883
 21
125.389494447143
 31
0.0
  0
LINE
  5
12ED
330
18
100
AcDbEntity
  8
1
100
AcDbLine
 10
-53.79774404431168
 20
174.889494447143
 30
0.0
 11
-53.79774404431168
 21
150.889494447143
 31
0.0
  0
LINE
  5
12EE
330
18
100
AcDbEntity
  8
1
100
AcDbLine
 10
-59.79774404431168
 20
150.889494447143
 30
0.0
 11
-59.79774404431168
 21
174.889494447143
 31
0.0
  0
LINE
  5
12EF
330
18
100
AcDbEntity
  8
1
100
AcDbLine
 10
-101.7977440443116
 20
174.889494447143
 30
0.0
 11
-101.7977440443116
 21
150.889494447143
 31
0.0
  0
LINE
  5
12F0
330
18
100
AcDbEntity
  8
1
100
AcDbLine
 10
-107.7977440443116
 20
150.889494447143
 30
0.0
 11
-107.7977440443116
 21
174.889494447143
 31
0.0
  0
LINE
  5
12F1
330
18
100
AcDbEntity
  8
1
100
AcDbLine
 10
-69.79774404431168
 20
174.889494447143
 30
0.0
 11
-69.79774404431168
 21
150.889494447143
 31
0.0
  0
LINE
  5
12F2
330
18
100
AcDbEntity
  8
1
100
AcDbLine
 10
-75.79774404431169
 20
150.889494447143
 30
0.0
 11
-75.79774404431169
 21
174.889494447143
 31
0.0
  0
LINE
  5
12F3
330
18
100
AcDbEntity
  8
1
100
AcDbLine
 10
-85.79774404431168
 20
174.889494447143
 30
0.0
 11
-85.79774404431168
 21
150.889494447143
 31
0.0
  0
LINE
  5
12F4
330
18
100
AcDbEntity
  8
1
100
AcDbLine
 10
-91.79774404431169
 20
150.889494447143
 30
0.0
 11
-91.79774404431169
 21
174.889494447143
 31
0.0
  0
LINE
  5
12F5
330
18
100
AcDbEntity
  8
1
100
AcDbLine
 10
-40.79774404431169
 20
285.389494447143
 30
0.0
 11
-40.79774404431169
 21
125.389494447143
 31
0.0
  0
LINE
  5
12F6
330
18
100
AcDbEntity
  8
1
100
AcDbLine
 10
-12.29774404431168
 20
125.389494447143
 30
0.0
 11
-12.29774404431168
 21
285.389494447143
 31
0.0
  0
LINE
  5
12F7
330
18
100
AcDbEntity
  8
1
100
AcDbLine
 10
-27.29774404431168
 20
132.889494447143
 30
0.0
 11
-27.29774404431168
 21
277.8894944471431
 31
0.0
  0
LINE
  5
12F8
330
18
100
AcDbEntity
  8
1
100
AcDbLine
 10
437.7022559556883
 20
176.3894944471432
 30
0.0
 11
437.7022559556883
 21
154.3894944471432
 31
0.0
  0
LINE
  5
12F9
330
18
100
AcDbEntity
  8
1
100
AcDbLine
 10
455.7022559556883
 20
173.8894944471432
 30
0.0
 11
455.7022559556883
 21
156.8894944471432
 31
0.0
  0
LINE
  5
12FA
330
18
100
AcDbEntity
  8
1
100
AcDbLine
 10
450.3022559556877
 20
173.2394944471432
 30
0.0
 11
450.3022559556877
 21
157.5394944471432
 31
0.0
  0
LINE
  5
12FB
330
18
100
AcDbEntity
  8
1
100
AcDbLine
 10
441.2022559556882
 20
174.7894944471432
 30
0.0
 11
441.2022559556882
 21
155.9894944471432
 31
0.0
  0
LINE
  5
12FC
330
18
100
AcDbEntity
  8
1
100
AcDbLine
 10
439.7022559556883
 20
174.7894944471432
 30
0.0
 11
439.7022559556883
 21
155.9894944471432
 31
0.0
  0
HATCH
  5
12FD
330
18
100
AcDbEntity
  8
1
100
AcDbHatch
 10
0.0
 20
0.0
 30
0.0
210
0.0
220
0.0
230
1.0
  2
SOLID
 70
     1
 71
     1
 91
        4
 92
        7
 72
     1
 73
     1
 93
        2
 10
543.7340799158548
 20
175.0902295385117
 42
1.0
 10
542.7340799158549
 20
175.0902295385117
 42
1.0
 97
        1
330
1850
 92
        7
 72
     1
 73
     1
 93
        2
 10
538.0515208643194
 20
169.4076704869767
 42
1.0
 10
537.0515208643194
 20
169.4076704869767
 42
1.0
 97
        1
330
15E8
 92
        7
 72
     1
 73
     1
 93
        2
 10
538.0515208643194
 20
161.3713184073097
 42
1.0
 10
537.0515208643194
 20
161.3713184073097
 42
1.0
 97
        1
330
15E5
 92
        7
 72
     1
 73
     1
 93
        2
 10
543.7340799158548
 20
155.6887593557747
 42
1.0
 10
542.7340799158549
 20
155.6887593557747
 42
1.0
 97
        1
330
15E7
 75
     0
 76
     1
 47
0.0380664384789997
 98
        4
 10
543.2522559556884
 20
174.9894944471431
 10
537.6522559556881
 20
169.289494447143
 10
537.6522559556881
 20
161.439494447143
 10
543.3022559556877
 20
155.589494447143
  0
LINE
  5
12FE
330
18
100
AcDbEntity
  8
1
100
AcDbLine
 10
604.2522559556885
 20
185.389494447143
 30
0.0
 11
604.2522559556885
 21
145.389494447143
 31
0.0
  0
LINE
  5
12FF
330
18
100
AcDbEntity
  8
1
100
AcDbLine
 10
605.4522559556883
 20
265.3894944471431
 30
0.0
 11
605.4522559556883
 21
145.389494447143
 31
0.0
  0
LINE
  5
1300
330
18
100
AcDbEntity
  8
1
100
AcDbLine
 10
527.4522559556883
 20
180.3894944471431
 30
0.0
 11
527.4522559556883
 21
150.389494447143
 31
0.0
  0
CIRCLE
  5
1301
330
18
100
AcDbEntity
  8
1
100
AcDbCircle
 10
587.2522559556885
 20
165.3894944471431
 30
0.0
 40
11.5
  0
LWPOLYLINE
  5
1302
330
18
100
AcDbEntity
  8
1
100
AcDbPolyline
 90
        6
 70
     1
 43
0.0
 10
587.2522559556885
 20
175.8894944471431
 10
578.1589892159511
 20
170.6394944471431
 10
578.1589892159511
 20
160.1394944471431
 10
587.2522559556885
 20
154.8894944471431
 10
596.3455226954249
 20
160.139494447143
 10
596.3455226954249
 20
170.639494447143
  0
CIRCLE
  5
1303
330
18
100
AcDbEntity
  8
1
100
AcDbCircle
 10
587.2522559556885
 20
165.3894944471431
 30
0.0
 40
9.0
  0
CIRCLE
  5
1304
330
18
100
AcDbEntity
  8
1
100
AcDbCircle
 10
587.2522559556885
 20
165.3894944471431
 30
0.0
 40
10.5
  0
CIRCLE
  5
1305
102
{ACAD_REACTORS
330
12C5
102
}
330
18
100
AcDbEntity
  8
1
100
AcDbCircle
 10
547.2522559556884
 20
165.389494447143
 30
0.0
 40
8.0
  0
LINE
  5
1306
330
18
100
AcDbEntity
  8
1
100
AcDbLine
 10
569.7522559556885
 20
175.389494447143
 30
0.0
 11
569.7522559556885
 21
155.389494447143
 31
0.0
  0
LINE
  5
1307
330
18
100
AcDbEntity
  8
1
100
AcDbLine
 10
574.7522559556885
 20
175.389494447143
 30
0.0
 11
574.7522559556885
 21
155.389494447143
 31
0.0
  0
DIMENSION
  5
1308
330
18
100
AcDbEntity
  8
2
100
AcDbDimension
  2
*D6
 10
517.4522559556883
 20
101.389494447143
 30
0.0
 11
564.9522559556883
 21
104.389494447143
 31
0.0
 70
    32
 71
     5
 42
95.0
  3
STANDARD
100
AcDbAlignedDimension
 13
612.4522559556883
 23
127.889494447143
 33
0.0
 14
517.4522559556883
 24
125.389494447143
 34
0.0
100
AcDbRotatedDimension
1001
ACAD
1000
DSTYLE
1002
{
1070
    40
1040
1.0
1002
}
  0
LINE
  5
1309
330
18
100
AcDbEntity
  8
1
100
AcDbLine
 10
612.4522559556883
 20
127.889494447143
 30
0.0
 11
611.4522559556883
 21
127.889494447143
 31
0.0
  0
LINE
  5
130A
330
18
100
AcDbEntity
  8
1
100
AcDbLine
 10
437.7022561442802
 20
19.33949444714306
 30
0.0
 11
437.7022561442802
 21
40.33949444714306
 31
0.0
  0
LINE
  5
130B
330
18
100
AcDbEntity
  8
1
100
AcDbLine
 10
439.7022561442802
 20
39.83949444714307
 30
0.0
 11
439.7022561442802
 21
19.83949444714306
 31
0.0
  0
LINE
  5
130C
330
18
100
AcDbEntity
  8
1
100
AcDbLine
 10
443.2022559556883
 20
32.83949444714318
 30
0.0
 11
443.2022559556883
 21
31.33949444714307
 31
0.0
  0
LINE
  5
130D
330
18
100
AcDbEntity
  8
1
100
AcDbLine
 10
437.7022559556883
 20
59.63949444714308
 30
0.0
 11
437.7022559556883
 21
-34.36050555285692
 31
0.0
  0
LINE
  5
130E
330
18
100
AcDbEntity
  8
1
100
AcDbLine
 10
441.2022559556882
 20
39.23949444714304
 30
0.0
 11
441.2022559556882
 21
20.43949444714308
 31
0.0
  0
LINE
  5
130F
330
18
100
AcDbEntity
  8
1
100
AcDbLine
 10
439.7022559556883
 20
39.23949444714304
 30
0.0
 11
439.7022559556883
 21
20.43949444714308
 31
0.0
  0
LINE
  5
1310
330
18
100
AcDbEntity
  8
1
100
AcDbLine
 10
450.8022559556877
 20
35.68949444714309
 30
0.0
 11
450.8022559556877
 21
23.98949444714304
 31
0.0
  0
LINE
  5
1311
330
18
100
AcDbEntity
  8
1
100
AcDbLine
 10
450.3022559556877
 20
37.68949444714309
 30
0.0
 11
450.3022559556877
 21
21.98949444714304
 31
0.0
  0
LINE
  5
1312
330
18
100
AcDbEntity
  8
1
100
AcDbLine
 10
-12.29774404431168
 20
59.63949444714308
 30
0.0
 11
-12.29774404431168
 21
-34.36050555285692
 31
0.0
  0
LINE
  5
1313
330
18
100
AcDbEntity
  8
1
100
AcDbLine
 10
250.2022559556883
 20
30.63949444714308
 30
0.0
 11
226.2022559556883
 21
30.63949444714308
 31
0.0
  0
LINE
  5
1314
330
18
100
AcDbEntity
  8
1
100
AcDbLine
 10
226.2022559556883
 20
24.63949444714307
 30
0.0
 11
250.2022559556883
 21
24.63949444714307
 31
0.0
  0
LINE
  5
1315
330
18
100
AcDbEntity
  8
1
100
AcDbLine
 10
250.2022559556883
 20
14.63949444714307
 30
0.0
 11
226.2022559556883
 21
14.63949444714307
 31
0.0
  0
LINE
  5
1316
330
18
100
AcDbEntity
  8
1
100
AcDbLine
 10
226.2022559556883
 20
8.639494447143079
 30
0.0
 11
250.2022559556883
 21
8.639494447143079
 31
0.0
  0
LINE
  5
1317
330
18
100
AcDbEntity
  8
1
100
AcDbLine
 10
250.2022559556883
 20
-1.36050555285692
 30
0.0
 11
226.2022559556883
 21
-1.36050555285692
 31
0.0
  0
LINE
  5
1318
330
18
100
AcDbEntity
  8
1
100
AcDbLine
 10
226.2022559556883
 20
-7.36050555285692
 30
0.0
 11
250.2022559556883
 21
-7.36050555285692
 31
0.0
  0
LINE
  5
1319
330
18
100
AcDbEntity
  8
1
100
AcDbLine
 10
452.7022559556883
 20
-34.36050555285692
 30
0.0
 11
-27.29774404431168
 21
-34.36050555285692
 31
0.0
  0
LINE
  5
131A
330
18
100
AcDbEntity
  8
1
100
AcDbLine
 10
75.20225595568831
 20
30.63949444714308
 30
0.0
 11
51.20225595568832
 21
30.63949444714308
 31
0.0
  0
LINE
  5
131B
330
18
100
AcDbEntity
  8
1
100
AcDbLine
 10
51.20225595568832
 20
24.63949444714307
 30
0.0
 11
75.20225595568831
 21
24.63949444714307
 31
0.0
  0
LINE
  5
131C
330
18
100
AcDbEntity
  8
1
100
AcDbLine
 10
57.70225595568831
 20
22.63949444714307
 30
0.0
 11
33.70225595568831
 21
22.63949444714307
 31
0.0
  0
LINE
  5
131D
330
18
100
AcDbEntity
  8
1
100
AcDbLine
 10
33.70225595568831
 20
16.63949444714307
 30
0.0
 11
57.70225595568831
 21
16.63949444714307
 31
0.0
  0
LINE
  5
131E
330
18
100
AcDbEntity
  8
1
100
AcDbLine
 10
75.20225595568831
 20
14.63949444714307
 30
0.0
 11
51.20225595568832
 21
14.63949444714307
 31
0.0
  0
LINE
  5
131F
330
18
100
AcDbEntity
  8
1
100
AcDbLine
 10
51.20225595568832
 20
8.639494447143079
 30
0.0
 11
75.20225595568831
 21
8.639494447143079
 31
0.0
  0
LINE
  5
1320
330
18
100
AcDbEntity
  8
1
100
AcDbLine
 10
75.20225595568831
 20
-1.36050555285692
 30
0.0
 11
51.20225595568832
 21
-1.36050555285692
 31
0.0
  0
LINE
  5
1321
330
18
100
AcDbEntity
  8
1
100
AcDbLine
 10
57.70225595568831
 20
6.639494447143079
 30
0.0
 11
33.70225595568831
 21
6.639494447143079
 31
0.0
  0
LINE
  5
1322
330
18
100
AcDbEntity
  8
1
100
AcDbLine
 10
33.70225595568831
 20
0.6394944471430791
 30
0.0
 11
57.70225595568831
 21
0.6394944471430791
 31
0.0
  0
LINE
  5
1323
330
18
100
AcDbEntity
  8
1
100
AcDbLine
 10
57.70225595568831
 20
-9.36050555285692
 30
0.0
 11
33.70225595568831
 21
-9.36050555285692
 31
0.0
  0
LINE
  5
1324
330
18
100
AcDbEntity
  8
1
100
AcDbLine
 10
51.20225595568832
 20
-7.36050555285692
 30
0.0
 11
75.20225595568831
 21
-7.36050555285692
 31
0.0
  0
LINE
  5
1325
330
18
100
AcDbEntity
  8
1
100
AcDbLine
 10
33.70225595568831
 20
-15.36050555285692
 30
0.0
 11
57.70225595568831
 21
-15.36050555285692
 31
0.0
  0
ARC
  5
1326
330
18
100
AcDbEntity
  8
1
100
AcDbCircle
 10
51.20225595568832
 20
-4.36050555285692
 30
0.0
 40
3.0
100
AcDbArc
 50
90.0
 51
270.0
  0
ARC
  5
1327
330
18
100
AcDbEntity
  8
1
100
AcDbCircle
 10
40.20225595568831
 20
-4.36050555285692
 30
0.0
 40
3.0
100
AcDbArc
 50
270.0
 51
90.0
  0
ARC
  5
1328
330
18
100
AcDbEntity
  8
1
100
AcDbCircle
 10
16.20225595568831
 20
-4.36050555285692
 30
0.0
 40
3.0
100
AcDbArc
 50
90.0
 51
270.0
  0
ARC
  5
1329
330
18
100
AcDbEntity
  8
1
100
AcDbCircle
 10
4.702255955688315
 20
-4.36050555285692
 30
0.0
 40
3.0
100
AcDbArc
 50
270.0
 51
90.0
  0
ARC
  5
132A
330
18
100
AcDbEntity
  8
1
100
AcDbCircle
 10
-1.297744044311684
 20
-4.36050555285692
 30
0.0
 40
3.0
100
AcDbArc
 50
90.0
 51
270.0
  0
LINE
  5
132B
330
18
100
AcDbEntity
  8
1
100
AcDbLine
 10
-1.297744044311684
 20
-35.36050555285692
 30
0.0
 11
-27.29774404431168
 21
-35.36050555285692
 31
0.0
  0
LINE
  5
132C
330
18
100
AcDbEntity
  8
1
100
AcDbLine
 10
-27.29774404431168
 20
-35.36050555285692
 30
0.0
 11
-27.29774404431168
 21
-34.36050555285692
 31
0.0
  0
ARC
  5
132D
330
18
100
AcDbEntity
  8
1
100
AcDbCircle
 10
-1.297744044311684
 20
-34.36050555285692
 30
0.0
 40
1.0
100
AcDbArc
 50
270.0
 51
0.0
  0
LINE
  5
132E
330
18
100
AcDbEntity
  8
1
100
AcDbLine
 10
-0.2977440443116848
 20
-34.36050555285692
 30
0.0
 11
-0.2977440443116848
 21
-34.36050555285692
 31
0.0
  0
LINE
  5
132F
330
18
100
AcDbEntity
  8
1
100
AcDbLine
 10
22.70225595568831
 20
-9.36050555285692
 30
0.0
 11
-1.297744044311684
 21
-9.36050555285692
 31
0.0
  0
LINE
  5
1330
330
18
100
AcDbEntity
  8
1
100
AcDbLine
 10
-1.297744044311684
 20
-15.36050555285692
 30
0.0
 11
22.70225595568831
 21
-15.36050555285692
 31
0.0
  0
ARC
  5
1331
330
18
100
AcDbEntity
  8
1
100
AcDbCircle
 10
-1.297744044311684
 20
-12.36050555285692
 30
0.0
 40
3.0
100
AcDbArc
 50
90.0
 51
270.0
  0
LINE
  5
1332
330
18
100
AcDbEntity
  8
1
100
AcDbLine
 10
-1.297744044311684
 20
-7.36050555285692
 30
0.0
 11
4.702255955688315
 21
-7.36050555285692
 31
0.0
  0
ARC
  5
1333
330
18
100
AcDbEntity
  8
1
100
AcDbCircle
 10
33.70225595568831
 20
-12.36050555285692
 30
0.0
 40
3.0
100
AcDbArc
 50
90.0
 51
270.0
  0
ARC
  5
1334
330
18
100
AcDbEntity
  8
1
100
AcDbCircle
 10
22.70225595568831
 20
-12.36050555285692
 30
0.0
 40
3.0
100
AcDbArc
 50
270.0
 51
90.0
  0
LINE
  5
1335
330
18
100
AcDbEntity
  8
1
100
AcDbLine
 10
16.20225595568831
 20
-7.36050555285692
 30
0.0
 11
40.20225595568831
 21
-7.36050555285692
 31
0.0
  0
ARC
  5
1336
330
18
100
AcDbEntity
  8
1
100
AcDbCircle
 10
51.20225595568832
 20
11.63949444714307
 30
0.0
 40
3.0
100
AcDbArc
 50
90.0
 51
270.0
  0
ARC
  5
1337
330
18
100
AcDbEntity
  8
1
100
AcDbCircle
 10
40.20225595568831
 20
11.63949444714307
 30
0.0
 40
3.0
100
AcDbArc
 50
270.0
 51
90.0
  0
ARC
  5
1338
330
18
100
AcDbEntity
  8
1
100
AcDbCircle
 10
16.20225595568831
 20
11.63949444714307
 30
0.0
 40
3.0
100
AcDbArc
 50
90.0
 51
270.0
  0
ARC
  5
1339
330
18
100
AcDbEntity
  8
1
100
AcDbCircle
 10
-1.297744044311684
 20
11.63949444714307
 30
0.0
 40
3.0
100
AcDbArc
 50
90.0
 51
270.0
  0
ARC
  5
133A
330
18
100
AcDbEntity
  8
1
100
AcDbCircle
 10
4.702255955688315
 20
11.63949444714307
 30
0.0
 40
3.0
100
AcDbArc
 50
270.0
 51
90.0
  0
LINE
  5
133B
330
18
100
AcDbEntity
  8
1
100
AcDbLine
 10
22.70225595568831
 20
6.639494447143079
 30
0.0
 11
-1.297744044311684
 21
6.639494447143079
 31
0.0
  0
LINE
  5
133C
330
18
100
AcDbEntity
  8
1
100
AcDbLine
 10
-1.297744044311684
 20
0.6394944471430791
 30
0.0
 11
22.70225595568831
 21
0.6394944471430791
 31
0.0
  0
ARC
  5
133D
330
18
100
AcDbEntity
  8
1
100
AcDbCircle
 10
-1.297744044311684
 20
3.639494447143079
 30
0.0
 40
3.0
100
AcDbArc
 50
90.0
 51
270.0
  0
LINE
  5
133E
330
18
100
AcDbEntity
  8
1
100
AcDbLine
 10
4.702255955688315
 20
-1.36050555285692
 30
0.0
 11
-1.297744044311684
 21
-1.36050555285692
 31
0.0
  0
LINE
  5
133F
330
18
100
AcDbEntity
  8
1
100
AcDbLine
 10
-1.297744044311684
 20
8.639494447143079
 30
0.0
 11
4.702255955688315
 21
8.639494447143079
 31
0.0
  0
ARC
  5
1340
330
18
100
AcDbEntity
  8
1
100
AcDbCircle
 10
33.70225595568831
 20
3.639494447143079
 30
0.0
 40
3.0
100
AcDbArc
 50
90.0
 51
270.0
  0
ARC
  5
1341
330
18
100
AcDbEntity
  8
1
100
AcDbCircle
 10
22.70225595568831
 20
3.639494447143079
 30
0.0
 40
3.0
100
AcDbArc
 50
270.0
 51
90.0
  0
LINE
  5
1342
330
18
100
AcDbEntity
  8
1
100
AcDbLine
 10
40.20225595568831
 20
-1.36050555285692
 30
0.0
 11
16.20225595568831
 21
-1.36050555285692
 31
0.0
  0
LINE
  5
1343
330
18
100
AcDbEntity
  8
1
100
AcDbLine
 10
16.20225595568831
 20
8.639494447143079
 30
0.0
 11
40.20225595568831
 21
8.639494447143079
 31
0.0
  0
ARC
  5
1344
330
18
100
AcDbEntity
  8
1
100
AcDbCircle
 10
4.702255955688315
 20
27.63949444714308
 30
0.0
 40
3.0
100
AcDbArc
 50
270.0
 51
90.0
  0
LINE
  5
1345
330
18
100
AcDbEntity
  8
1
100
AcDbLine
 10
22.70225595568831
 20
22.63949444714307
 30
0.0
 11
-1.297744044311684
 21
22.63949444714307
 31
0.0
  0
LINE
  5
1346
330
18
100
AcDbEntity
  8
1
100
AcDbLine
 10
-1.297744044311684
 20
16.63949444714307
 30
0.0
 11
22.70225595568831
 21
16.63949444714307
 31
0.0
  0
ARC
  5
1347
330
18
100
AcDbEntity
  8
1
100
AcDbCircle
 10
-1.297744044311684
 20
19.63949444714307
 30
0.0
 40
3.0
100
AcDbArc
 50
90.0
 51
270.0
  0
LINE
  5
1348
330
18
100
AcDbEntity
  8
1
100
AcDbLine
 10
4.702255955688315
 20
14.63949444714307
 30
0.0
 11
-1.297744044311684
 21
14.63949444714307
 31
0.0
  0
ARC
  5
1349
330
18
100
AcDbEntity
  8
1
100
AcDbCircle
 10
-1.297744044311684
 20
27.63949444714308
 30
0.0
 40
3.0
100
AcDbArc
 50
90.0
 51
270.0
  0
LINE
  5
134A
330
18
100
AcDbEntity
  8
1
100
AcDbLine
 10
-1.297744044311684
 20
24.63949444714307
 30
0.0
 11
4.702255955688315
 21
24.63949444714307
 31
0.0
  0
LINE
  5
134B
330
18
100
AcDbEntity
  8
1
100
AcDbLine
 10
4.702255955688315
 20
30.63949444714308
 30
0.0
 11
-1.297744044311684
 21
30.63949444714308
 31
0.0
  0
ARC
  5
134C
330
18
100
AcDbEntity
  8
1
100
AcDbCircle
 10
33.70225595568831
 20
19.63949444714307
 30
0.0
 40
3.0
100
AcDbArc
 50
90.0
 51
270.0
  0
LINE
  5
134D
330
18
100
AcDbEntity
  8
1
100
AcDbLine
 10
40.20225595568831
 20
14.63949444714307
 30
0.0
 11
16.20225595568831
 21
14.63949444714307
 31
0.0
  0
ARC
  5
134E
330
18
100
AcDbEntity
  8
1
100
AcDbCircle
 10
22.70225595568831
 20
19.63949444714307
 30
0.0
 40
3.0
100
AcDbArc
 50
270.0
 51
90.0
  0
LINE
  5
134F
330
18
100
AcDbEntity
  8
1
100
AcDbLine
 10
40.20225595568831
 20
30.63949444714308
 30
0.0
 11
16.20225595568831
 21
30.63949444714308
 31
0.0
  0
LINE
  5
1350
330
18
100
AcDbEntity
  8
1
100
AcDbLine
 10
16.20225595568831
 20
24.63949444714307
 30
0.0
 11
40.20225595568831
 21
24.63949444714307
 31
0.0
  0
ARC
  5
1351
330
18
100
AcDbEntity
  8
1
100
AcDbCircle
 10
16.20225595568831
 20
27.63949444714308
 30
0.0
 40
3.0
100
AcDbArc
 50
90.0
 51
270.0
  0
ARC
  5
1352
330
18
100
AcDbEntity
  8
1
100
AcDbCircle
 10
51.20225595568832
 20
27.63949444714308
 30
0.0
 40
3.0
100
AcDbArc
 50
90.0
 51
270.0
  0
ARC
  5
1353
330
18
100
AcDbEntity
  8
1
100
AcDbCircle
 10
40.20225595568831
 20
27.63949444714308
 30
0.0
 40
3.0
100
AcDbArc
 50
270.0
 51
90.0
  0
ARC
  5
1354
330
18
100
AcDbEntity
  8
1
100
AcDbCircle
 10
226.2022559556883
 20
-4.36050555285692
 30
0.0
 40
3.0
100
AcDbArc
 50
90.0
 51
270.0
  0
ARC
  5
1355
330
18
100
AcDbEntity
  8
1
100
AcDbCircle
 10
191.2022559556883
 20
-4.36050555285692
 30
0.0
 40
3.0
100
AcDbArc
 50
90.0
 51
270.0
  0
ARC
  5
1356
330
18
100
AcDbEntity
  8
1
100
AcDbCircle
 10
179.7022559556883
 20
-4.36050555285692
 30
0.0
 40
3.0
100
AcDbArc
 50
270.0
 51
90.0
  0
ARC
  5
1357
330
18
100
AcDbEntity
  8
1
100
AcDbCircle
 10
173.7022559556883
 20
-4.36050555285692
 30
0.0
 40
3.0
100
AcDbArc
 50
90.0
 51
270.0
  0
ARC
  5
1358
330
18
100
AcDbEntity
  8
1
100
AcDbCircle
 10
215.2022559556883
 20
-4.36050555285692
 30
0.0
 40
3.0
100
AcDbArc
 50
270.0
 51
90.0
  0
ARC
  5
1359
330
18
100
AcDbEntity
  8
1
100
AcDbCircle
 10
127.7022559556883
 20
-4.36050555285692
 30
0.0
 40
3.0
100
AcDbArc
 50
270.0
 51
90.0
  0
ARC
  5
135A
330
18
100
AcDbEntity
  8
1
100
AcDbCircle
 10
121.7022559556883
 20
-4.36050555285692
 30
0.0
 40
3.0
100
AcDbArc
 50
90.0
 51
270.0
  0
ARC
  5
135B
330
18
100
AcDbEntity
  8
1
100
AcDbCircle
 10
86.20225595568831
 20
-4.36050555285692
 30
0.0
 40
3.0
100
AcDbArc
 50
90.0
 51
270.0
  0
ARC
  5
135C
330
18
100
AcDbEntity
  8
1
100
AcDbCircle
 10
110.2022559556883
 20
-4.36050555285692
 30
0.0
 40
3.0
100
AcDbArc
 50
270.0
 51
90.0
  0
ARC
  5
135D
330
18
100
AcDbEntity
  8
1
100
AcDbCircle
 10
75.20225595568831
 20
-4.36050555285692
 30
0.0
 40
3.0
100
AcDbArc
 50
270.0
 51
90.0
  0
LINE
  5
135E
330
18
100
AcDbEntity
  8
1
100
AcDbLine
 10
86.20225595568831
 20
-7.36050555285692
 30
0.0
 11
110.2022559556883
 21
-7.36050555285692
 31
0.0
  0
ARC
  5
135F
330
18
100
AcDbEntity
  8
1
100
AcDbCircle
 10
68.70225595568832
 20
-12.36050555285692
 30
0.0
 40
3.0
100
AcDbArc
 50
90.0
 51
270.0
  0
ARC
  5
1360
330
18
100
AcDbEntity
  8
1
100
AcDbCircle
 10
92.70225595568831
 20
-12.36050555285692
 30
0.0
 40
3.0
100
AcDbArc
 50
270.0
 51
90.0
  0
ARC
  5
1361
330
18
100
AcDbEntity
  8
1
100
AcDbCircle
 10
57.70225595568831
 20
-12.36050555285692
 30
0.0
 40
3.0
100
AcDbArc
 50
270.0
 51
90.0
  0
LINE
  5
1362
330
18
100
AcDbEntity
  8
1
100
AcDbLine
 10
68.70225595568832
 20
-15.36050555285692
 30
0.0
 11
92.70225595568831
 21
-15.36050555285692
 31
0.0
  0
LINE
  5
1363
330
18
100
AcDbEntity
  8
1
100
AcDbLine
 10
92.70225595568831
 20
-9.36050555285692
 30
0.0
 11
68.70225595568832
 21
-9.36050555285692
 31
0.0
  0
ARC
  5
1364
330
18
100
AcDbEntity
  8
1
100
AcDbCircle
 10
103.7022559556883
 20
-12.36050555285692
 30
0.0
 40
3.0
100
AcDbArc
 50
90.0
 51
270.0
  0
ARC
  5
1365
330
18
100
AcDbEntity
  8
1
100
AcDbCircle
 10
127.7022559556883
 20
-12.36050555285692
 30
0.0
 40
3.0
100
AcDbArc
 50
270.0
 51
90.0
  0
LINE
  5
1366
330
18
100
AcDbEntity
  8
1
100
AcDbLine
 10
103.7022559556883
 20
-15.36050555285692
 30
0.0
 11
127.7022559556883
 21
-15.36050555285692
 31
0.0
  0
LINE
  5
1367
330
18
100
AcDbEntity
  8
1
100
AcDbLine
 10
127.7022559556883
 20
-9.36050555285692
 30
0.0
 11
103.7022559556883
 21
-9.36050555285692
 31
0.0
  0
LINE
  5
1368
330
18
100
AcDbEntity
  8
1
100
AcDbLine
 10
121.7022559556883
 20
-7.36050555285692
 30
0.0
 11
127.7022559556883
 21
-7.36050555285692
 31
0.0
  0
LINE
  5
1369
330
18
100
AcDbEntity
  8
1
100
AcDbLine
 10
197.7022559556883
 20
-9.36050555285692
 30
0.0
 11
173.7022559556883
 21
-9.36050555285692
 31
0.0
  0
LINE
  5
136A
330
18
100
AcDbEntity
  8
1
100
AcDbLine
 10
191.2022559556883
 20
-7.36050555285692
 30
0.0
 11
215.2022559556883
 21
-7.36050555285692
 31
0.0
  0
LINE
  5
136B
330
18
100
AcDbEntity
  8
1
100
AcDbLine
 10
173.7022559556883
 20
-15.36050555285692
 30
0.0
 11
197.7022559556883
 21
-15.36050555285692
 31
0.0
  0
ARC
  5
136C
330
18
100
AcDbEntity
  8
1
100
AcDbCircle
 10
173.7022559556883
 20
-12.36050555285692
 30
0.0
 40
3.0
100
AcDbArc
 50
90.0
 51
270.0
  0
LINE
  5
136D
330
18
100
AcDbEntity
  8
1
100
AcDbLine
 10
173.7022559556883
 20
-7.36050555285692
 30
0.0
 11
179.7022559556883
 21
-7.36050555285692
 31
0.0
  0
ARC
  5
136E
330
18
100
AcDbEntity
  8
1
100
AcDbCircle
 10
208.7022559556883
 20
-12.36050555285692
 30
0.0
 40
3.0
100
AcDbArc
 50
90.0
 51
270.0
  0
ARC
  5
136F
330
18
100
AcDbEntity
  8
1
100
AcDbCircle
 10
232.7022559556883
 20
-12.36050555285692
 30
0.0
 40
3.0
100
AcDbArc
 50
270.0
 51
90.0
  0
ARC
  5
1370
330
18
100
AcDbEntity
  8
1
100
AcDbCircle
 10
197.7022559556883
 20
-12.36050555285692
 30
0.0
 40
3.0
100
AcDbArc
 50
270.0
 51
90.0
  0
LINE
  5
1371
330
18
100
AcDbEntity
  8
1
100
AcDbLine
 10
208.7022559556883
 20
-15.36050555285692
 30
0.0
 11
232.7022559556883
 21
-15.36050555285692
 31
0.0
  0
LINE
  5
1372
330
18
100
AcDbEntity
  8
1
100
AcDbLine
 10
232.7022559556883
 20
-9.36050555285692
 30
0.0
 11
208.7022559556883
 21
-9.36050555285692
 31
0.0
  0
ARC
  5
1373
330
18
100
AcDbEntity
  8
1
100
AcDbCircle
 10
127.7022559556883
 20
11.63949444714307
 30
0.0
 40
3.0
100
AcDbArc
 50
270.0
 51
90.0
  0
ARC
  5
1374
330
18
100
AcDbEntity
  8
1
100
AcDbCircle
 10
121.7022559556883
 20
11.63949444714307
 30
0.0
 40
3.0
100
AcDbArc
 50
90.0
 51
270.0
  0
ARC
  5
1375
330
18
100
AcDbEntity
  8
1
100
AcDbCircle
 10
110.2022559556883
 20
11.63949444714307
 30
0.0
 40
3.0
100
AcDbArc
 50
270.0
 51
90.0
  0
ARC
  5
1376
330
18
100
AcDbEntity
  8
1
100
AcDbCircle
 10
86.20225595568831
 20
11.63949444714307
 30
0.0
 40
3.0
100
AcDbArc
 50
90.0
 51
270.0
  0
ARC
  5
1377
330
18
100
AcDbEntity
  8
1
100
AcDbCircle
 10
75.20225595568831
 20
11.63949444714307
 30
0.0
 40
3.0
100
AcDbArc
 50
270.0
 51
90.0
  0
LINE
  5
1378
330
18
100
AcDbEntity
  8
1
100
AcDbLine
 10
86.20225595568831
 20
8.639494447143079
 30
0.0
 11
110.2022559556883
 21
8.639494447143079
 31
0.0
  0
LINE
  5
1379
330
18
100
AcDbEntity
  8
1
100
AcDbLine
 10
110.2022559556883
 20
-1.36050555285692
 30
0.0
 11
86.20225595568831
 21
-1.36050555285692
 31
0.0
  0
ARC
  5
137A
330
18
100
AcDbEntity
  8
1
100
AcDbCircle
 10
92.70225595568831
 20
3.639494447143079
 30
0.0
 40
3.0
100
AcDbArc
 50
270.0
 51
90.0
  0
ARC
  5
137B
330
18
100
AcDbEntity
  8
1
100
AcDbCircle
 10
68.70225595568832
 20
3.639494447143079
 30
0.0
 40
3.0
100
AcDbArc
 50
90.0
 51
270.0
  0
ARC
  5
137C
330
18
100
AcDbEntity
  8
1
100
AcDbCircle
 10
57.70225595568831
 20
3.639494447143079
 30
0.0
 40
3.0
100
AcDbArc
 50
270.0
 51
90.0
  0
LINE
  5
137D
330
18
100
AcDbEntity
  8
1
100
AcDbLine
 10
68.70225595568832
 20
0.6394944471430791
 30
0.0
 11
92.70225595568831
 21
0.6394944471430791
 31
0.0
  0
LINE
  5
137E
330
18
100
AcDbEntity
  8
1
100
AcDbLine
 10
92.70225595568831
 20
6.639494447143079
 30
0.0
 11
68.70225595568832
 21
6.639494447143079
 31
0.0
  0
ARC
  5
137F
330
18
100
AcDbEntity
  8
1
100
AcDbCircle
 10
127.7022559556883
 20
3.639494447143079
 30
0.0
 40
3.0
100
AcDbArc
 50
270.0
 51
90.0
  0
ARC
  5
1380
330
18
100
AcDbEntity
  8
1
100
AcDbCircle
 10
103.7022559556883
 20
3.639494447143079
 30
0.0
 40
3.0
100
AcDbArc
 50
90.0
 51
270.0
  0
LINE
  5
1381
330
18
100
AcDbEntity
  8
1
100
AcDbLine
 10
103.7022559556883
 20
0.6394944471430791
 30
0.0
 11
127.7022559556883
 21
0.6394944471430791
 31
0.0
  0
LINE
  5
1382
330
18
100
AcDbEntity
  8
1
100
AcDbLine
 10
127.7022559556883
 20
-1.36050555285692
 30
0.0
 11
121.7022559556883
 21
-1.36050555285692
 31
0.0
  0
LINE
  5
1383
330
18
100
AcDbEntity
  8
1
100
AcDbLine
 10
121.7022559556883
 20
8.639494447143079
 30
0.0
 11
127.7022559556883
 21
8.639494447143079
 31
0.0
  0
LINE
  5
1384
330
18
100
AcDbEntity
  8
1
100
AcDbLine
 10
127.7022559556883
 20
6.639494447143079
 30
0.0
 11
103.7022559556883
 21
6.639494447143079
 31
0.0
  0
LINE
  5
1385
330
18
100
AcDbEntity
  8
1
100
AcDbLine
 10
110.2022559556883
 20
30.63949444714308
 30
0.0
 11
86.20225595568831
 21
30.63949444714308
 31
0.0
  0
LINE
  5
1386
330
18
100
AcDbEntity
  8
1
100
AcDbLine
 10
86.20225595568831
 20
24.63949444714307
 30
0.0
 11
110.2022559556883
 21
24.63949444714307
 31
0.0
  0
LINE
  5
1387
330
18
100
AcDbEntity
  8
1
100
AcDbLine
 10
110.2022559556883
 20
14.63949444714307
 30
0.0
 11
86.20225595568831
 21
14.63949444714307
 31
0.0
  0
LINE
  5
1388
330
18
100
AcDbEntity
  8
1
100
AcDbLine
 10
92.70225595568831
 20
22.63949444714307
 30
0.0
 11
68.70225595568832
 21
22.63949444714307
 31
0.0
  0
LINE
  5
1389
330
18
100
AcDbEntity
  8
1
100
AcDbLine
 10
68.70225595568832
 20
16.63949444714307
 30
0.0
 11
92.70225595568831
 21
16.63949444714307
 31
0.0
  0
ARC
  5
138A
330
18
100
AcDbEntity
  8
1
100
AcDbCircle
 10
68.70225595568832
 20
19.63949444714307
 30
0.0
 40
3.0
100
AcDbArc
 50
90.0
 51
270.0
  0
ARC
  5
138B
330
18
100
AcDbEntity
  8
1
100
AcDbCircle
 10
57.70225595568831
 20
19.63949444714307
 30
0.0
 40
3.0
100
AcDbArc
 50
270.0
 51
90.0
  0
ARC
  5
138C
330
18
100
AcDbEntity
  8
1
100
AcDbCircle
 10
92.70225595568831
 20
19.63949444714307
 30
0.0
 40
3.0
100
AcDbArc
 50
270.0
 51
90.0
  0
ARC
  5
138D
330
18
100
AcDbEntity
  8
1
100
AcDbCircle
 10
75.20225595568831
 20
27.63949444714308
 30
0.0
 40
3.0
100
AcDbArc
 50
270.0
 51
90.0
  0
ARC
  5
138E
330
18
100
AcDbEntity
  8
1
100
AcDbCircle
 10
86.20225595568831
 20
27.63949444714308
 30
0.0
 40
3.0
100
AcDbArc
 50
90.0
 51
270.0
  0
LINE
  5
138F
330
18
100
AcDbEntity
  8
1
100
AcDbLine
 10
127.7022559556883
 20
22.63949444714307
 30
0.0
 11
103.7022559556883
 21
22.63949444714307
 31
0.0
  0
LINE
  5
1390
330
18
100
AcDbEntity
  8
1
100
AcDbLine
 10
103.7022559556883
 20
16.63949444714307
 30
0.0
 11
127.7022559556883
 21
16.63949444714307
 31
0.0
  0
LINE
  5
1391
330
18
100
AcDbEntity
  8
1
100
AcDbLine
 10
127.7022559556883
 20
14.63949444714307
 30
0.0
 11
121.7022559556883
 21
14.63949444714307
 31
0.0
  0
ARC
  5
1392
330
18
100
AcDbEntity
  8
1
100
AcDbCircle
 10
103.7022559556883
 20
19.63949444714307
 30
0.0
 40
3.0
100
AcDbArc
 50
90.0
 51
270.0
  0
ARC
  5
1393
330
18
100
AcDbEntity
  8
1
100
AcDbCircle
 10
127.7022559556883
 20
19.63949444714307
 30
0.0
 40
3.0
100
AcDbArc
 50
270.0
 51
90.0
  0
LINE
  5
1394
330
18
100
AcDbEntity
  8
1
100
AcDbLine
 10
121.7022559556883
 20
24.63949444714307
 30
0.0
 11
127.7022559556883
 21
24.63949444714307
 31
0.0
  0
LINE
  5
1395
330
18
100
AcDbEntity
  8
1
100
AcDbLine
 10
127.7022559556883
 20
30.63949444714308
 30
0.0
 11
121.7022559556883
 21
30.63949444714308
 31
0.0
  0
ARC
  5
1396
330
18
100
AcDbEntity
  8
1
100
AcDbCircle
 10
121.7022559556883
 20
27.63949444714308
 30
0.0
 40
3.0
100
AcDbArc
 50
90.0
 51
270.0
  0
ARC
  5
1397
330
18
100
AcDbEntity
  8
1
100
AcDbCircle
 10
110.2022559556883
 20
27.63949444714308
 30
0.0
 40
3.0
100
AcDbArc
 50
270.0
 51
90.0
  0
ARC
  5
1398
330
18
100
AcDbEntity
  8
1
100
AcDbCircle
 10
127.7022559556883
 20
27.63949444714308
 30
0.0
 40
3.0
100
AcDbArc
 50
270.0
 51
90.0
  0
ARC
  5
1399
330
18
100
AcDbEntity
  8
1
100
AcDbCircle
 10
226.2022559556883
 20
11.63949444714307
 30
0.0
 40
3.0
100
AcDbArc
 50
90.0
 51
270.0
  0
ARC
  5
139A
330
18
100
AcDbEntity
  8
1
100
AcDbCircle
 10
191.2022559556883
 20
11.63949444714307
 30
0.0
 40
3.0
100
AcDbArc
 50
90.0
 51
270.0
  0
ARC
  5
139B
330
18
100
AcDbEntity
  8
1
100
AcDbCircle
 10
179.7022559556883
 20
11.63949444714307
 30
0.0
 40
3.0
100
AcDbArc
 50
270.0
 51
90.0
  0
ARC
  5
139C
330
18
100
AcDbEntity
  8
1
100
AcDbCircle
 10
173.7022559556883
 20
11.63949444714307
 30
0.0
 40
3.0
100
AcDbArc
 50
90.0
 51
270.0
  0
ARC
  5
139D
330
18
100
AcDbEntity
  8
1
100
AcDbCircle
 10
215.2022559556883
 20
11.63949444714307
 30
0.0
 40
3.0
100
AcDbArc
 50
270.0
 51
90.0
  0
LINE
  5
139E
330
18
100
AcDbEntity
  8
1
100
AcDbLine
 10
191.2022559556883
 20
8.639494447143079
 30
0.0
 11
215.2022559556883
 21
8.639494447143079
 31
0.0
  0
LINE
  5
139F
330
18
100
AcDbEntity
  8
1
100
AcDbLine
 10
215.2022559556883
 20
-1.36050555285692
 30
0.0
 11
191.2022559556883
 21
-1.36050555285692
 31
0.0
  0
LINE
  5
13A0
330
18
100
AcDbEntity
  8
1
100
AcDbLine
 10
197.7022559556883
 20
6.639494447143079
 30
0.0
 11
173.7022559556883
 21
6.639494447143079
 31
0.0
  0
LINE
  5
13A1
330
18
100
AcDbEntity
  8
1
100
AcDbLine
 10
173.7022559556883
 20
0.6394944471430791
 30
0.0
 11
197.7022559556883
 21
0.6394944471430791
 31
0.0
  0
ARC
  5
13A2
330
18
100
AcDbEntity
  8
1
100
AcDbCircle
 10
173.7022559556883
 20
3.639494447143079
 30
0.0
 40
3.0
100
AcDbArc
 50
90.0
 51
270.0
  0
LINE
  5
13A3
330
18
100
AcDbEntity
  8
1
100
AcDbLine
 10
179.7022559556883
 20
-1.36050555285692
 30
0.0
 11
173.7022559556883
 21
-1.36050555285692
 31
0.0
  0
LINE
  5
13A4
330
18
100
AcDbEntity
  8
1
100
AcDbLine
 10
173.7022559556883
 20
8.639494447143079
 30
0.0
 11
179.7022559556883
 21
8.639494447143079
 31
0.0
  0
ARC
  5
13A5
330
18
100
AcDbEntity
  8
1
100
AcDbCircle
 10
232.7022559556883
 20
3.639494447143079
 30
0.0
 40
3.0
100
AcDbArc
 50
270.0
 51
90.0
  0
ARC
  5
13A6
330
18
100
AcDbEntity
  8
1
100
AcDbCircle
 10
208.7022559556883
 20
3.639494447143079
 30
0.0
 40
3.0
100
AcDbArc
 50
90.0
 51
270.0
  0
ARC
  5
13A7
330
18
100
AcDbEntity
  8
1
100
AcDbCircle
 10
197.7022559556883
 20
3.639494447143079
 30
0.0
 40
3.0
100
AcDbArc
 50
270.0
 51
90.0
  0
LINE
  5
13A8
330
18
100
AcDbEntity
  8
1
100
AcDbLine
 10
208.7022559556883
 20
0.6394944471430791
 30
0.0
 11
232.7022559556883
 21
0.6394944471430791
 31
0.0
  0
LINE
  5
13A9
330
18
100
AcDbEntity
  8
1
100
AcDbLine
 10
232.7022559556883
 20
6.639494447143079
 30
0.0
 11
208.7022559556883
 21
6.639494447143079
 31
0.0
  0
LINE
  5
13AA
330
18
100
AcDbEntity
  8
1
100
AcDbLine
 10
215.2022559556883
 20
30.63949444714308
 30
0.0
 11
191.2022559556883
 21
30.63949444714308
 31
0.0
  0
LINE
  5
13AB
330
18
100
AcDbEntity
  8
1
100
AcDbLine
 10
191.2022559556883
 20
24.63949444714307
 30
0.0
 11
215.2022559556883
 21
24.63949444714307
 31
0.0
  0
LINE
  5
13AC
330
18
100
AcDbEntity
  8
1
100
AcDbLine
 10
197.7022559556883
 20
22.63949444714307
 30
0.0
 11
173.7022559556883
 21
22.63949444714307
 31
0.0
  0
LINE
  5
13AD
330
18
100
AcDbEntity
  8
1
100
AcDbLine
 10
173.7022559556883
 20
16.63949444714307
 30
0.0
 11
197.7022559556883
 21
16.63949444714307
 31
0.0
  0
LINE
  5
13AE
330
18
100
AcDbEntity
  8
1
100
AcDbLine
 10
215.2022559556883
 20
14.63949444714307
 30
0.0
 11
191.2022559556883
 21
14.63949444714307
 31
0.0
  0
ARC
  5
13AF
330
18
100
AcDbEntity
  8
1
100
AcDbCircle
 10
173.7022559556883
 20
19.63949444714307
 30
0.0
 40
3.0
100
AcDbArc
 50
90.0
 51
270.0
  0
LINE
  5
13B0
330
18
100
AcDbEntity
  8
1
100
AcDbLine
 10
179.7022559556883
 20
14.63949444714307
 30
0.0
 11
173.7022559556883
 21
14.63949444714307
 31
0.0
  0
ARC
  5
13B1
330
18
100
AcDbEntity
  8
1
100
AcDbCircle
 10
191.2022559556883
 20
27.63949444714308
 30
0.0
 40
3.0
100
AcDbArc
 50
90.0
 51
270.0
  0
ARC
  5
13B2
330
18
100
AcDbEntity
  8
1
100
AcDbCircle
 10
179.7022559556883
 20
27.63949444714308
 30
0.0
 40
3.0
100
AcDbArc
 50
270.0
 51
90.0
  0
ARC
  5
13B3
330
18
100
AcDbEntity
  8
1
100
AcDbCircle
 10
173.7022559556883
 20
27.63949444714308
 30
0.0
 40
3.0
100
AcDbArc
 50
90.0
 51
270.0
  0
LINE
  5
13B4
330
18
100
AcDbEntity
  8
1
100
AcDbLine
 10
173.7022559556883
 20
24.63949444714307
 30
0.0
 11
179.7022559556883
 21
24.63949444714307
 31
0.0
  0
LINE
  5
13B5
330
18
100
AcDbEntity
  8
1
100
AcDbLine
 10
179.7022559556883
 20
30.63949444714308
 30
0.0
 11
173.7022559556883
 21
30.63949444714308
 31
0.0
  0
LINE
  5
13B6
330
18
100
AcDbEntity
  8
1
100
AcDbLine
 10
232.7022559556883
 20
22.63949444714307
 30
0.0
 11
208.7022559556883
 21
22.63949444714307
 31
0.0
  0
LINE
  5
13B7
330
18
100
AcDbEntity
  8
1
100
AcDbLine
 10
208.7022559556883
 20
16.63949444714307
 30
0.0
 11
232.7022559556883
 21
16.63949444714307
 31
0.0
  0
ARC
  5
13B8
330
18
100
AcDbEntity
  8
1
100
AcDbCircle
 10
208.7022559556883
 20
19.63949444714307
 30
0.0
 40
3.0
100
AcDbArc
 50
90.0
 51
270.0
  0
ARC
  5
13B9
330
18
100
AcDbEntity
  8
1
100
AcDbCircle
 10
197.7022559556883
 20
19.63949444714307
 30
0.0
 40
3.0
100
AcDbArc
 50
270.0
 51
90.0
  0
ARC
  5
13BA
330
18
100
AcDbEntity
  8
1
100
AcDbCircle
 10
232.7022559556883
 20
19.63949444714307
 30
0.0
 40
3.0
100
AcDbArc
 50
270.0
 51
90.0
  0
ARC
  5
13BB
330
18
100
AcDbEntity
  8
1
100
AcDbCircle
 10
215.2022559556883
 20
27.63949444714308
 30
0.0
 40
3.0
100
AcDbArc
 50
270.0
 51
90.0
  0
ARC
  5
13BC
330
18
100
AcDbEntity
  8
1
100
AcDbCircle
 10
226.2022559556883
 20
27.63949444714308
 30
0.0
 40
3.0
100
AcDbArc
 50
90.0
 51
270.0
  0
ARC
  5
13BD
330
18
100
AcDbEntity
  8
1
100
AcDbCircle
 10
426.7022559556883
 20
-34.36050555285692
 30
0.0
 40
1.0
100
AcDbArc
 50
180.0
 51
270.0
  0
ARC
  5
13BE
330
18
100
AcDbEntity
  8
1
100
AcDbCircle
 10
285.2022559556883
 20
-4.36050555285692
 30
0.0
 40
3.0
100
AcDbArc
 50
270.0
 51
90.0
  0
ARC
  5
13BF
330
18
100
AcDbEntity
  8
1
100
AcDbCircle
 10
261.2022559556883
 20
-4.36050555285692
 30
0.0
 40
3.0
100
AcDbArc
 50
90.0
 51
270.0
  0
ARC
  5
13C0
330
18
100
AcDbEntity
  8
1
100
AcDbCircle
 10
250.2022559556883
 20
-4.36050555285692
 30
0.0
 40
3.0
100
AcDbArc
 50
270.0
 51
90.0
  0
ARC
  5
13C1
330
18
100
AcDbEntity
  8
1
100
AcDbCircle
 10
285.2022559556883
 20
-12.36050555285692
 30
0.0
 40
3.0
100
AcDbArc
 50
270.0
 51
90.0
  0
ARC
  5
13C2
330
18
100
AcDbEntity
  8
1
100
AcDbCircle
 10
243.7022559556883
 20
-12.36050555285692
 30
0.0
 40
3.0
100
AcDbArc
 50
90.0
 51
270.0
  0
ARC
  5
13C3
330
18
100
AcDbEntity
  8
1
100
AcDbCircle
 10
267.7022559556883
 20
-12.36050555285692
 30
0.0
 40
3.0
100
AcDbArc
 50
270.0
 51
90.0
  0
ARC
  5
13C4
330
18
100
AcDbEntity
  8
1
100
AcDbCircle
 10
279.2022559556883
 20
-12.36050555285692
 30
0.0
 40
3.0
100
AcDbArc
 50
90.0
 51
270.0
  0
LINE
  5
13C5
330
18
100
AcDbEntity
  8
1
100
AcDbLine
 10
243.7022559556883
 20
-15.36050555285692
 30
0.0
 11
267.7022559556883
 21
-15.36050555285692
 31
0.0
  0
LINE
  5
13C6
330
18
100
AcDbEntity
  8
1
100
AcDbLine
 10
279.2022559556883
 20
-15.36050555285692
 30
0.0
 11
285.2022559556883
 21
-15.36050555285692
 31
0.0
  0
LINE
  5
13C7
330
18
100
AcDbEntity
  8
1
100
AcDbLine
 10
267.7022559556883
 20
-9.36050555285692
 30
0.0
 11
243.7022559556883
 21
-9.36050555285692
 31
0.0
  0
LINE
  5
13C8
330
18
100
AcDbEntity
  8
1
100
AcDbLine
 10
261.2022559556883
 20
-7.36050555285692
 30
0.0
 11
285.2022559556883
 21
-7.36050555285692
 31
0.0
  0
LINE
  5
13C9
330
18
100
AcDbEntity
  8
1
100
AcDbLine
 10
285.2022559556883
 20
-9.36050555285692
 30
0.0
 11
279.2022559556883
 21
-9.36050555285692
 31
0.0
  0
LINE
  5
13CA
330
18
100
AcDbEntity
  8
1
100
AcDbLine
 10
425.7022559556883
 20
-34.36050555285692
 30
0.0
 11
425.7022559556883
 21
-34.36050555285692
 31
0.0
  0
ARC
  5
13CB
330
18
100
AcDbEntity
  8
1
100
AcDbCircle
 10
285.2022559556883
 20
11.63949444714307
 30
0.0
 40
3.0
100
AcDbArc
 50
270.0
 51
90.0
  0
ARC
  5
13CC
330
18
100
AcDbEntity
  8
1
100
AcDbCircle
 10
261.2022559556883
 20
11.63949444714307
 30
0.0
 40
3.0
100
AcDbArc
 50
90.0
 51
270.0
  0
ARC
  5
13CD
330
18
100
AcDbEntity
  8
1
100
AcDbCircle
 10
250.2022559556883
 20
11.63949444714307
 30
0.0
 40
3.0
100
AcDbArc
 50
270.0
 51
90.0
  0
ARC
  5
13CE
330
18
100
AcDbEntity
  8
1
100
AcDbCircle
 10
285.2022559556883
 20
3.639494447143079
 30
0.0
 40
3.0
100
AcDbArc
 50
270.0
 51
90.0
  0
ARC
  5
13CF
330
18
100
AcDbEntity
  8
1
100
AcDbCircle
 10
267.7022559556883
 20
3.639494447143079
 30
0.0
 40
3.0
100
AcDbArc
 50
270.0
 51
90.0
  0
ARC
  5
13D0
330
18
100
AcDbEntity
  8
1
100
AcDbCircle
 10
279.2022559556883
 20
3.639494447143079
 30
0.0
 40
3.0
100
AcDbArc
 50
90.0
 51
270.0
  0
ARC
  5
13D1
330
18
100
AcDbEntity
  8
1
100
AcDbCircle
 10
243.7022559556883
 20
3.639494447143079
 30
0.0
 40
3.0
100
AcDbArc
 50
90.0
 51
270.0
  0
LINE
  5
13D2
330
18
100
AcDbEntity
  8
1
100
AcDbLine
 10
285.2022559556883
 20
-1.36050555285692
 30
0.0
 11
261.2022559556883
 21
-1.36050555285692
 31
0.0
  0
LINE
  5
13D3
330
18
100
AcDbEntity
  8
1
100
AcDbLine
 10
243.7022559556883
 20
0.6394944471430791
 30
0.0
 11
267.7022559556883
 21
0.6394944471430791
 31
0.0
  0
LINE
  5
13D4
330
18
100
AcDbEntity
  8
1
100
AcDbLine
 10
279.2022559556883
 20
0.6394944471430791
 30
0.0
 11
285.2022559556883
 21
0.6394944471430791
 31
0.0
  0
LINE
  5
13D5
330
18
100
AcDbEntity
  8
1
100
AcDbLine
 10
261.2022559556883
 20
8.639494447143079
 30
0.0
 11
285.2022559556883
 21
8.639494447143079
 31
0.0
  0
LINE
  5
13D6
330
18
100
AcDbEntity
  8
1
100
AcDbLine
 10
267.7022559556883
 20
6.639494447143079
 30
0.0
 11
243.7022559556883
 21
6.639494447143079
 31
0.0
  0
LINE
  5
13D7
330
18
100
AcDbEntity
  8
1
100
AcDbLine
 10
285.2022559556883
 20
6.639494447143079
 30
0.0
 11
279.2022559556883
 21
6.639494447143079
 31
0.0
  0
ARC
  5
13D8
330
18
100
AcDbEntity
  8
1
100
AcDbCircle
 10
285.2022559556883
 20
27.63949444714308
 30
0.0
 40
3.0
100
AcDbArc
 50
270.0
 51
90.0
  0
ARC
  5
13D9
330
18
100
AcDbEntity
  8
1
100
AcDbCircle
 10
285.2022559556883
 20
19.63949444714307
 30
0.0
 40
3.0
100
AcDbArc
 50
270.0
 51
90.0
  0
LINE
  5
13DA
330
18
100
AcDbEntity
  8
1
100
AcDbLine
 10
285.2022559556883
 20
14.63949444714307
 30
0.0
 11
261.2022559556883
 21
14.63949444714307
 31
0.0
  0
LINE
  5
13DB
330
18
100
AcDbEntity
  8
1
100
AcDbLine
 10
267.7022559556883
 20
22.63949444714307
 30
0.0
 11
243.7022559556883
 21
22.63949444714307
 31
0.0
  0
LINE
  5
13DC
330
18
100
AcDbEntity
  8
1
100
AcDbLine
 10
243.7022559556883
 20
16.63949444714307
 30
0.0
 11
267.7022559556883
 21
16.63949444714307
 31
0.0
  0
ARC
  5
13DD
330
18
100
AcDbEntity
  8
1
100
AcDbCircle
 10
243.7022559556883
 20
19.63949444714307
 30
0.0
 40
3.0
100
AcDbArc
 50
90.0
 51
270.0
  0
ARC
  5
13DE
330
18
100
AcDbEntity
  8
1
100
AcDbCircle
 10
267.7022559556883
 20
19.63949444714307
 30
0.0
 40
3.0
100
AcDbArc
 50
270.0
 51
90.0
  0
ARC
  5
13DF
330
18
100
AcDbEntity
  8
1
100
AcDbCircle
 10
279.2022559556883
 20
19.63949444714307
 30
0.0
 40
3.0
100
AcDbArc
 50
90.0
 51
270.0
  0
LINE
  5
13E0
330
18
100
AcDbEntity
  8
1
100
AcDbLine
 10
279.2022559556883
 20
16.63949444714307
 30
0.0
 11
285.2022559556883
 21
16.63949444714307
 31
0.0
  0
LINE
  5
13E1
330
18
100
AcDbEntity
  8
1
100
AcDbLine
 10
285.2022559556883
 20
22.63949444714307
 30
0.0
 11
279.2022559556883
 21
22.63949444714307
 31
0.0
  0
LINE
  5
13E2
330
18
100
AcDbEntity
  8
1
100
AcDbLine
 10
285.2022559556883
 20
30.63949444714308
 30
0.0
 11
261.2022559556883
 21
30.63949444714308
 31
0.0
  0
LINE
  5
13E3
330
18
100
AcDbEntity
  8
1
100
AcDbLine
 10
261.2022559556883
 20
24.63949444714307
 30
0.0
 11
285.2022559556883
 21
24.63949444714307
 31
0.0
  0
ARC
  5
13E4
330
18
100
AcDbEntity
  8
1
100
AcDbCircle
 10
261.2022559556883
 20
27.63949444714308
 30
0.0
 40
3.0
100
AcDbArc
 50
90.0
 51
270.0
  0
ARC
  5
13E5
330
18
100
AcDbEntity
  8
1
100
AcDbCircle
 10
250.2022559556883
 20
27.63949444714308
 30
0.0
 40
3.0
100
AcDbArc
 50
270.0
 51
90.0
  0
LINE
  5
13E6
330
18
100
AcDbEntity
  8
1
100
AcDbLine
 10
568.4761940679993
 20
-0.7855055528568755
 30
0.0
 11
568.4761940679993
 21
-19.53550555285693
 31
0.0
  0
LINE
  5
13E7
330
18
100
AcDbEntity
  8
1
100
AcDbLine
 10
553.4761940679993
 20
-19.53550555285693
 30
0.0
 11
553.4761940679993
 21
-0.7855055528568755
 31
0.0
  0
LINE
  5
13E8
330
18
100
AcDbEntity
  8
1
100
AcDbLine
 10
548.7886940679993
 20
2.964494447143124
 30
0.0
 11
548.7886940679993
 21
-23.28550555285693
 31
0.0
  0
LINE
  5
13E9
330
18
100
AcDbEntity
  8
1
100
AcDbLine
 10
538.4761940679984
 20
-0.7855055528568755
 30
0.0
 11
538.4761940679984
 21
-3.598005552856875
 31
0.0
  0
ARC
  5
13EA
330
18
100
AcDbEntity
  8
1
100
AcDbCircle
 10
448.9322559556878
 20
-5.035505552856932
 30
0.0
 40
6.814214921764653
100
AcDbArc
 50
327.8609253969063
 51
32.1390746030936
  0
LINE
  5
13EB
330
18
100
AcDbEntity
  8
1
100
AcDbLine
 10
532.8511940679984
 20
-0.7855055528568755
 30
0.0
 11
532.8511940679984
 21
-19.53550555285693
 31
0.0
  0
LINE
  5
13EC
330
18
100
AcDbEntity
  8
1
100
AcDbLine
 10
455.7022559556874
 20
-1.660505552856932
 30
0.0
 11
455.7022559556874
 21
-18.66050555285693
 31
0.0
  0
LINE
  5
13ED
330
18
100
AcDbEntity
  8
1
100
AcDbLine
 10
445.7022559556873
 20
-0.1605055528569323
 30
0.0
 11
445.7022559556873
 21
-20.16050555285693
 31
0.0
  0
LINE
  5
13EE
330
18
100
AcDbEntity
  8
1
100
AcDbLine
 10
450.7022559556873
 20
-0.6605055528569324
 30
0.0
 11
450.7022559556873
 21
-19.66050555285693
 31
0.0
  0
LINE
  5
13EF
330
18
100
AcDbEntity
  8
1
100
AcDbLine
 10
447.7022559556874
 20
-0.1605055528569323
 30
0.0
 11
447.7022559556874
 21
-20.16050555285693
 31
0.0
  0
LINE
  5
13F0
330
18
100
AcDbEntity
  8
1
100
AcDbLine
 10
442.7022559556873
 20
0.8394944471430676
 30
0.0
 11
442.7022559556873
 21
-21.16050555285693
 31
0.0
  0
LINE
  5
13F1
330
18
100
AcDbEntity
  8
1
100
AcDbLine
 10
437.7022559556873
 20
0.8394944471430676
 30
0.0
 11
437.7022559556873
 21
-21.16050555285693
 31
0.0
  0
LINE
  5
13F2
330
18
100
AcDbEntity
  8
1
100
AcDbLine
 10
521.6011940679984
 20
-6.410505552856932
 30
0.0
 11
511.2886940679984
 21
-6.410505552856932
 31
0.0
  0
LINE
  5
13F3
330
18
100
AcDbEntity
  8
1
100
AcDbLine
 10
521.6011940679984
 20
-13.91050555285693
 30
0.0
 11
511.2886940679984
 21
-13.91050555285693
 31
0.0
  0
ARC
  5
13F4
330
18
100
AcDbEntity
  8
1
100
AcDbCircle
 10
524.4136940679984
 20
-29.84800555285699
 30
0.0
 40
4.687500000000008
100
AcDbArc
 50
180.0
 51
270.0
  0
ARC
  5
13F5
330
18
100
AcDbEntity
  8
1
100
AcDbCircle
 10
524.4136940679984
 20
-29.84800555285699
 30
0.0
 40
6.562500000000012
100
AcDbArc
 50
180.0
 51
270.0
  0
ARC
  5
13F6
330
18
100
AcDbEntity
  8
1
100
AcDbCircle
 10
524.4136940679984
 20
-29.80216450431157
 30
0.0
 40
6.562500000000012
100
AcDbArc
 50
143.9726266148807
 51
180.0
  0
LINE
  5
13F7
330
18
100
AcDbEntity
  8
1
100
AcDbLine
 10
442.7022559556873
 20
-21.16050555285693
 30
0.0
 11
445.7022559556873
 21
-20.16050555285693
 31
0.0
  0
LINE
  5
13F8
330
18
100
AcDbEntity
  8
1
100
AcDbLine
 10
452.7022559556883
 20
-35.36050555285692
 30
0.0
 11
426.7022559556883
 21
-35.36050555285692
 31
0.0
  0
LINE
  5
13F9
330
18
100
AcDbEntity
  8
1
100
AcDbLine
 10
452.7022559556883
 20
-35.36050555285692
 30
0.0
 11
452.7022559556883
 21
-34.36050555285692
 31
0.0
  0
LINE
  5
13FA
330
18
100
AcDbEntity
  8
1
100
AcDbLine
 10
437.7022559556873
 20
-21.16050555285693
 30
0.0
 11
442.7022559556873
 21
-21.16050555285693
 31
0.0
  0
LINE
  5
13FB
330
18
100
AcDbEntity
  8
1
100
AcDbLine
 10
517.8511940679984
 20
-29.80216450431157
 30
0.0
 11
517.8511940679984
 21
-29.84800555285699
 31
0.0
  0
LINE
  5
13FC
330
18
100
AcDbEntity
  8
1
100
AcDbLine
 10
455.7022559556883
 20
-6.410505552856932
 30
0.0
 11
491.6022559556879
 21
-6.410505552856932
 31
0.0
  0
LINE
  5
13FD
330
18
100
AcDbEntity
  8
1
100
AcDbLine
 10
455.7022559556883
 20
-13.91050555285693
 30
0.0
 11
491.6022559556879
 21
-13.91050555285693
 31
0.0
  0
ARC
  5
13FE
330
18
100
AcDbEntity
  8
1
100
AcDbCircle
 10
448.8597559556876
 20
-15.28550555285693
 30
0.0
 40
6.87571314483087
100
AcDbArc
 50
328.1823190903685
 51
31.81768090963143
  0
LINE
  5
13FF
330
18
100
AcDbEntity
  8
1
100
AcDbLine
 10
442.7022559556873
 20
-12.66050555285693
 30
0.0
 11
445.7022559556873
 21
-10.16050555285693
 31
0.0
  0
LINE
  5
1400
330
18
100
AcDbEntity
  8
1
100
AcDbLine
 10
447.7022559556874
 20
-19.16050555285693
 30
0.0
 11
450.7022559556873
 21
-19.16050555285693
 31
0.0
  0
LINE
  5
1401
330
18
100
AcDbEntity
  8
1
100
AcDbLine
 10
442.7022559556873
 20
-20.16050555285693
 30
0.0
 11
447.7022559556874
 21
-20.16050555285693
 31
0.0
  0
LINE
  5
1402
330
18
100
AcDbEntity
  8
1
100
AcDbLine
 10
454.7022559556873
 20
-18.91050555285693
 30
0.0
 11
450.7022559556873
 21
-18.91050555285693
 31
0.0
  0
LINE
  5
1403
330
18
100
AcDbEntity
  8
1
100
AcDbLine
 10
454.7022559556873
 20
-19.66050555285693
 30
0.0
 11
450.7022559556873
 21
-19.66050555285693
 31
0.0
  0
LINE
  5
1404
330
18
100
AcDbEntity
  8
1
100
AcDbLine
 10
455.7022559556874
 20
-18.66050555285693
 30
0.0
 11
454.7022559556873
 21
-19.66050555285693
 31
0.0
  0
LINE
  5
1405
330
18
100
AcDbEntity
  8
1
100
AcDbLine
 10
454.7022559556873
 20
-18.91050555285693
 30
0.0
 11
454.7022559556873
 21
-19.66050555285693
 31
0.0
  0
LINE
  5
1406
330
18
100
AcDbEntity
  8
1
100
AcDbLine
 10
437.7022559556873
 20
-8.660505552856932
 30
0.0
 11
442.7022559556873
 21
-8.660505552856932
 31
0.0
  0
LINE
  5
1407
330
18
100
AcDbEntity
  8
1
100
AcDbLine
 10
442.7022559556873
 20
-8.660505552856932
 30
0.0
 11
445.7022559556873
 21
-10.16050555285693
 31
0.0
  0
LINE
  5
1408
330
18
100
AcDbEntity
  8
1
100
AcDbLine
 10
442.7022559556873
 20
-7.660505552856932
 30
0.0
 11
445.7022559556873
 21
-10.16050555285693
 31
0.0
  0
LINE
  5
1409
330
18
100
AcDbEntity
  8
1
100
AcDbLine
 10
437.7022559556873
 20
-11.66050555285693
 30
0.0
 11
442.7022559556873
 21
-11.66050555285693
 31
0.0
  0
LINE
  5
140A
330
18
100
AcDbEntity
  8
1
100
AcDbLine
 10
442.7022559556873
 20
-11.66050555285693
 30
0.0
 11
445.7022559556873
 21
-10.16050555285693
 31
0.0
  0
LINE
  5
140B
330
18
100
AcDbEntity
  8
1
100
AcDbLine
 10
450.7022559556873
 20
-8.660505552856932
 30
0.0
 11
454.7022559556873
 21
-8.660505552856932
 31
0.0
  0
LINE
  5
140C
330
18
100
AcDbEntity
  8
1
100
AcDbLine
 10
450.7022559556873
 20
-11.66050555285693
 30
0.0
 11
454.7022559556873
 21
-11.66050555285693
 31
0.0
  0
LINE
  5
140D
330
18
100
AcDbEntity
  8
1
100
AcDbLine
 10
454.7022559556873
 20
-8.660505552856932
 30
0.0
 11
454.7022559556873
 21
-11.66050555285693
 31
0.0
  0
ELLIPSE
  5
140E
330
18
100
AcDbEntity
  8
1
100
AcDbEllipse
 10
511.2886940679984
 20
-12.03550555285693
 30
0.0
 11
0.0
 21
-1.875000000000003
 31
0.0
210
0.0
220
0.0
230
1.0
 40
0.5
 41
3.141592653589793
 42
6.283185307179586
  0
SPLINE
  5
140F
330
18
100
AcDbEntity
  8
1
100
AcDbSpline
210
0.0
220
0.0
230
1.0
 70
     8
 71
     3
 72
     9
 73
     5
 74
     3
 42
0.0000000001
 43
0.0000000001
 44
0.0000000001
 40
0.0
 40
0.0
 40
0.0
 40
0.0
 40
2.96015202312322
 40
5.34196641869772
 40
5.34196641869772
 40
5.34196641869772
 40
5.34196641869772
 10
491.6022559556879
 20
-13.91050555285693
 30
0.0
 10
492.592183997881
 20
-13.06730957258193
 30
0.0
 10
494.3786335845962
 20
-11.54565643591042
 30
0.0
 10
492.3554777149865
 20
-10.60886266235744
 30
0.0
 10
491.4534163021965
 20
-10.19117585554351
 30
0.0
 11
491.6022559556879
 21
-13.91050555285693
 31
0.0
 11
493.4022559556881
 21
-11.56050555285696
 31
0.0
 11
491.4534163021965
 21
-10.19117585554351
 31
0.0
  0
SPLINE
  5
1410
330
18
100
AcDbEntity
  8
1
100
AcDbSpline
210
0.0
220
0.0
230
1.0
 70
     8
 71
     3
 72
    10
 73
     6
 74
     4
 42
0.0000000001
 43
0.0000000001
 44
0.0000000001
 40
0.0
 40
0.0
 40
0.0
 40
0.0
 40
3.095561338433038
 40
7.145252684696808
 40
10.34876638062516
 40
10.34876638062516
 40
10.34876638062516
 40
10.34876638062516
 10
491.6022559556879
 20
-6.410505552856932
 30
0.0
 10
492.5597825684219
 20
-7.389005496867005
 30
0.0
 10
494.7699696241141
 20
-9.64760372430603
 30
0.0
 10
488.1510550881233
 20
-10.71573049790959
 30
0.0
 10
490.5449482549138
 20
-12.93175630079723
 30
0.0
 10
491.6022559556879
 20
-13.91050555285693
 30
0.0
 11
491.6022559556879
 21
-6.410505552856932
 31
0.0
 11
493.2022559556883
 21
-9.060505552856966
 31
0.0
 11
489.8022559556877
 21
-11.26050555285695
 31
0.0
 11
491.6022559556879
 21
-13.91050555285693
 31
0.0
  0
ELLIPSE
  5
1411
330
18
100
AcDbEntity
  8
1
100
AcDbEllipse
 10
511.2886940679984
 20
-8.285505552856932
 30
0.0
 11
0.0
 21
1.875000000000003
 31
0.0
210
0.0
220
0.0
230
1.0
 40
0.5
 41
0.0
 42
6.283185307179586
  0
LINE
  5
1412
330
18
100
AcDbEntity
  8
1
100
AcDbLine
 10
553.4761940679993
 20
-19.53550555285693
 30
0.0
 11
548.7886940679993
 21
-23.28550555285693
 31
0.0
  0
LINE
  5
1413
330
18
100
AcDbEntity
  8
1
100
AcDbLine
 10
523.8457518430898
 20
-19.42562878686442
 30
0.0
 11
519.1063635147595
 21
-25.94228773831912
 31
0.0
  0
ARC
  5
1414
330
18
100
AcDbEntity
  8
1
100
AcDbCircle
 10
529.1530823963287
 20
-23.28550555285693
 30
0.0
 40
4.687500000000008
100
AcDbArc
 50
90.0
 51
143.9726266148807
  0
LINE
  5
1415
330
18
100
AcDbEntity
  8
1
100
AcDbLine
 10
548.7886940679993
 20
-23.28550555285693
 30
0.0
 11
538.4761940679984
 21
-19.53550555285693
 31
0.0
  0
ARC
  5
1416
330
18
100
AcDbEntity
  8
1
100
AcDbCircle
 10
524.4136940679984
 20
-29.80216450431157
 30
0.0
 40
4.687500000000008
100
AcDbArc
 50
143.9726266148807
 51
180.0
  0
LINE
  5
1417
330
18
100
AcDbEntity
  8
1
100
AcDbLine
 10
524.4136940679984
 20
-36.41050555285699
 30
0.0
 11
539.4136940679984
 21
-36.41050555285699
 31
0.0
  0
LINE
  5
1418
330
18
100
AcDbEntity
  8
1
100
AcDbLine
 10
524.4136940679984
 20
-34.53550555285699
 30
0.0
 11
539.4136940679984
 21
-34.53550555285699
 31
0.0
  0
LINE
  5
1419
330
18
100
AcDbEntity
  8
1
100
AcDbLine
 10
519.7261940679984
 20
-29.80216450431157
 30
0.0
 11
519.7261940679984
 21
-29.84800555285699
 31
0.0
  0
LINE
  5
141A
330
18
100
AcDbEntity
  8
1
100
AcDbLine
 10
539.4136940679984
 20
-34.53550555285699
 30
0.0
 11
539.4136940679984
 21
-36.41050555285699
 31
0.0
  0
LINE
  5
141B
330
18
100
AcDbEntity
  8
1
100
AcDbLine
 10
525.3621320011582
 20
-20.52845072000514
 30
0.0
 11
520.622743672827
 21
-27.04510967145973
 31
0.0
  0
LINE
  5
141C
330
18
100
AcDbEntity
  8
1
100
AcDbLine
 10
568.4761940679993
 20
-19.53550555285693
 30
0.0
 11
553.4761940679993
 21
-19.53550555285693
 31
0.0
  0
LINE
  5
141D
330
18
100
AcDbEntity
  8
1
100
AcDbLine
 10
542.2261940679984
 20
-3.598005552856875
 30
0.0
 11
542.2261940679984
 21
-16.72300555285693
 31
0.0
  0
LINE
  5
141E
330
18
100
AcDbEntity
  8
1
100
AcDbLine
 10
544.1011940679984
 20
-3.598005552856875
 30
0.0
 11
544.1011940679984
 21
-16.72300555285693
 31
0.0
  0
LINE
  5
141F
330
18
100
AcDbEntity
  8
1
100
AcDbLine
 10
521.6011940679984
 20
-5.473005552856932
 30
0.0
 11
521.6011940679984
 21
-14.84800555285693
 31
0.0
  0
LINE
  5
1420
330
18
100
AcDbEntity
  8
1
100
AcDbLine
 10
532.8511940679984
 20
-16.72300555285693
 30
0.0
 11
544.1011940679984
 21
-16.72300555285693
 31
0.0
  0
LINE
  5
1421
330
18
100
AcDbEntity
  8
1
100
AcDbLine
 10
521.6011940679984
 20
-14.84800555285693
 30
0.0
 11
532.8511940679984
 21
-15.78550555285693
 31
0.0
  0
LINE
  5
1422
330
18
100
AcDbEntity
  8
1
100
AcDbLine
 10
532.8511940679984
 20
-16.72300555285693
 30
0.0
 11
529.1530823963296
 21
-16.72300555285693
 31
0.0
  0
LINE
  5
1423
330
18
100
AcDbEntity
  8
1
100
AcDbLine
 10
532.8511940679984
 20
-18.59800555285693
 30
0.0
 11
529.1530823963287
 21
-18.59800555285693
 31
0.0
  0
LINE
  5
1424
330
18
100
AcDbEntity
  8
1
100
AcDbLine
 10
532.8511940679984
 20
-19.53550555285693
 30
0.0
 11
538.4761940679984
 21
-19.53550555285693
 31
0.0
  0
ARC
  5
1425
330
18
100
AcDbEntity
  8
1
100
AcDbCircle
 10
529.1530823963296
 20
-23.28550555285693
 30
0.0
 40
6.562500000000012
100
AcDbArc
 50
90.0
 51
143.9726266148807
  0
LINE
  5
1426
330
18
100
AcDbEntity
  8
1
100
AcDbLine
 10
538.4761940679984
 20
-19.53550555285693
 30
0.0
 11
538.4761940679984
 21
-16.72300555285693
 31
0.0
  0
LINE
  5
1427
330
18
100
AcDbEntity
  8
1
100
AcDbLine
 10
532.8511940679984
 20
-3.598005552856875
 30
0.0
 11
544.1011940679984
 21
-3.598005552856875
 31
0.0
  0
LINE
  5
1428
330
18
100
AcDbEntity
  8
1
100
AcDbLine
 10
521.6011940679984
 20
-5.473005552856932
 30
0.0
 11
532.8511940679984
 21
-4.535505552856932
 31
0.0
  0
LINE
  5
1429
330
18
100
AcDbEntity
  8
1
100
AcDbLine
 10
568.4761940679993
 20
-14.84800555285693
 30
0.0
 11
581.6011940679993
 21
-14.84800555285693
 31
0.0
  0
LINE
  5
142A
330
18
100
AcDbEntity
  8
1
100
AcDbLine
 10
568.4761940679993
 20
-15.78550555285693
 30
0.0
 11
581.6011940679993
 21
-15.78550555285693
 31
0.0
  0
LINE
  5
142B
330
18
100
AcDbEntity
  8
1
100
AcDbLine
 10
581.6011940679993
 20
-14.84800555285693
 30
0.0
 11
581.6011940679993
 21
-15.78550555285693
 31
0.0
  0
LINE
  5
142C
330
18
100
AcDbEntity
  8
1
100
AcDbLine
 10
568.4761940679993
 20
-5.473005552856932
 30
0.0
 11
581.6011940679993
 21
-5.473005552856932
 31
0.0
  0
LINE
  5
142D
330
18
100
AcDbEntity
  8
1
100
AcDbLine
 10
568.4761940679993
 20
-4.535505552856932
 30
0.0
 11
581.6011940679993
 21
-4.535505552856932
 31
0.0
  0
LINE
  5
142E
330
18
100
AcDbEntity
  8
1
100
AcDbLine
 10
581.6011940679993
 20
-4.535505552856932
 30
0.0
 11
581.6011940679993
 21
-5.473005552856932
 31
0.0
  0
LINE
  5
142F
330
18
100
AcDbEntity
  8
1
100
AcDbLine
 10
447.7022559556874
 20
-1.160505552856932
 30
0.0
 11
450.7022559556873
 21
-1.160505552856932
 31
0.0
  0
LINE
  5
1430
330
18
100
AcDbEntity
  8
1
100
AcDbLine
 10
437.7022559556873
 20
0.8394944471430676
 30
0.0
 11
442.7022559556873
 21
0.8394944471430676
 31
0.0
  0
LINE
  5
1431
330
18
100
AcDbEntity
  8
1
100
AcDbLine
 10
442.7022559556873
 20
0.8394944471430676
 30
0.0
 11
445.7022559556873
 21
-0.1605055528569323
 31
0.0
  0
LINE
  5
1432
330
18
100
AcDbEntity
  8
1
100
AcDbLine
 10
442.7022559556873
 20
-0.1605055528569323
 30
0.0
 11
447.7022559556874
 21
-0.1605055528569323
 31
0.0
  0
LINE
  5
1433
330
18
100
AcDbEntity
  8
1
100
AcDbLine
 10
454.7022559556873
 20
-1.410505552856932
 30
0.0
 11
450.7022559556873
 21
-1.410505552856932
 31
0.0
  0
LINE
  5
1434
330
18
100
AcDbEntity
  8
1
100
AcDbLine
 10
454.7022559556873
 20
-0.6605055528569324
 30
0.0
 11
450.7022559556873
 21
-0.6605055528569324
 31
0.0
  0
LINE
  5
1435
330
18
100
AcDbEntity
  8
1
100
AcDbLine
 10
454.7022559556873
 20
-0.6605055528569324
 30
0.0
 11
454.7022559556873
 21
-1.410505552856932
 31
0.0
  0
LINE
  5
1436
330
18
100
AcDbEntity
  8
1
100
AcDbLine
 10
454.7022559556873
 20
-0.6605055528569324
 30
0.0
 11
455.7022559556874
 21
-1.660505552856932
 31
0.0
  0
LINE
  5
1437
330
18
100
AcDbEntity
  8
1
100
AcDbLine
 10
443.2022559556883
 20
24.83949444714307
 30
0.0
 11
443.2022559556883
 21
23.33949444714306
 31
0.0
  0
LINE
  5
1438
330
18
100
AcDbEntity
  8
1
100
AcDbLine
 10
450.3022559556877
 20
21.98949444714304
 30
0.0
 11
450.8022559556877
 21
23.98949444714304
 31
0.0
  0
LINE
  5
1439
330
18
100
AcDbEntity
  8
1
100
AcDbLine
 10
450.3022559556877
 20
21.98949444714304
 30
0.0
 11
443.2022559556883
 21
21.98949444714304
 31
0.0
  0
LINE
  5
143A
330
18
100
AcDbEntity
  8
1
100
AcDbLine
 10
443.2022559556883
 20
22.33949444714306
 30
0.0
 11
450.3022559556877
 21
22.33949444714306
 31
0.0
  0
LINE
  5
143B
330
18
100
AcDbEntity
  8
1
100
AcDbLine
 10
443.2022559556883
 20
23.33949444714306
 30
0.0
 11
450.3022559556877
 21
23.33949444714306
 31
0.0
  0
ARC
  5
143C
330
18
100
AcDbEntity
  8
1
100
AcDbCircle
 10
439.2022561442802
 20
19.83949444714306
 30
0.0
 40
0.5
100
AcDbArc
 50
270.0
 51
0.0
  0
LINE
  5
143D
330
18
100
AcDbEntity
  8
1
100
AcDbLine
 10
439.2022561442802
 20
19.33949444714306
 30
0.0
 11
437.7022561442802
 21
19.33949444714306
 31
0.0
  0
LINE
  5
143E
330
18
100
AcDbEntity
  8
1
100
AcDbLine
 10
443.2022559556883
 20
22.33949444714318
 30
0.0
 11
443.2022559556883
 21
21.98949444714315
 31
0.0
  0
SPLINE
  5
143F
330
18
100
AcDbEntity
  8
1
100
AcDbSpline
210
0.0
220
0.0
230
1.0
 70
     8
 71
     3
 72
     9
 73
     5
 74
     3
 42
0.0000000001
 43
0.0000000001
 44
0.0000000001
 40
0.0
 40
0.0
 40
0.0
 40
0.0
 40
1.118033988749894
 40
2.236067977499789
 40
2.236067977499789
 40
2.236067977499789
 40
2.236067977499789
 10
443.2022559556883
 20
22.33949444714306
 30
0.0
 10
443.7022559556883
 20
22.50616111380973
 30
0.0
 10
444.7022559556883
 20
22.83949444714306
 30
0.0
 10
443.7022559556883
 20
23.1728277804764
 30
0.0
 10
443.2022559556883
 20
23.33949444714306
 30
0.0
 11
443.2022559556883
 21
22.33949444714306
 31
0.0
 11
444.2022559556883
 21
22.83949444714306
 31
0.0
 11
443.2022559556883
 21
23.33949444714306
 31
0.0
  0
LINE
  5
1440
330
18
100
AcDbEntity
  8
1
100
AcDbLine
 10
444.2022559556883
 20
21.98949444714304
 30
0.0
 11
441.2022559556882
 21
20.43949444714308
 31
0.0
  0
LINE
  5
1441
330
18
100
AcDbEntity
  8
1
100
AcDbLine
 10
439.7022559556883
 20
20.43949444714308
 30
0.0
 11
441.2022559556882
 21
20.43949444714308
 31
0.0
  0
LINE
  5
1442
330
18
100
AcDbEntity
  8
1
100
AcDbLine
 10
443.2022559556883
 20
26.83949444714306
 30
0.0
 11
450.3022559556877
 21
26.83949444714295
 31
0.0
  0
LINE
  5
1443
330
18
100
AcDbEntity
  8
1
100
AcDbLine
 10
443.2022559556883
 20
28.33949444714306
 30
0.0
 11
450.3022559556877
 21
28.33949444714295
 31
0.0
  0
LINE
  5
1444
330
18
100
AcDbEntity
  8
1
100
AcDbLine
 10
443.2022559556883
 20
31.33949444714307
 30
0.0
 11
450.3022559556877
 21
31.33949444714295
 31
0.0
  0
LINE
  5
1445
330
18
100
AcDbEntity
  8
1
100
AcDbLine
 10
443.2022559556883
 20
24.83949444714307
 30
0.0
 11
450.3022559556877
 21
24.83949444714307
 31
0.0
  0
LINE
  5
1446
330
18
100
AcDbEntity
  8
1
100
AcDbLine
 10
439.7022559556883
 20
26.83949444714306
 30
0.0
 11
437.7022559556883
 21
26.83949444714306
 31
0.0
  0
SPLINE
  5
1447
330
18
100
AcDbEntity
  8
1
100
AcDbSpline
210
0.0
220
0.0
230
1.0
 70
     8
 71
     3
 72
     9
 73
     5
 74
     3
 42
0.0000000001
 43
0.0000000001
 44
0.0000000001
 40
0.0
 40
0.0
 40
0.0
 40
0.0
 40
1.414213562373095
 40
2.82842712474619
 40
2.82842712474619
 40
2.82842712474619
 40
2.82842712474619
 10
443.2022559556883
 20
24.83949444714307
 30
0.0
 10
443.7022559556883
 20
25.1728277804764
 30
0.0
 10
444.7022559556883
 20
25.83949444714306
 30
0.0
 10
443.7022559556883
 20
26.50616111380973
 30
0.0
 10
443.2022559556883
 20
26.83949444714306
 30
0.0
 11
443.2022559556883
 21
24.83949444714307
 31
0.0
 11
444.2022559556883
 21
25.83949444714306
 31
0.0
 11
443.2022559556883
 21
26.83949444714306
 31
0.0
  0
LINE
  5
1448
330
18
100
AcDbEntity
  8
1
100
AcDbLine
 10
443.2022559556883
 20
28.33949444714306
 30
0.0
 11
443.2022559556883
 21
26.83949444714306
 31
0.0
  0
SPLINE
  5
1449
330
18
100
AcDbEntity
  8
1
100
AcDbSpline
210
0.0
220
0.0
230
1.0
 70
     8
 71
     3
 72
     9
 73
     5
 74
     3
 42
0.0000000001
 43
0.0000000001
 44
0.0000000001
 40
0.0
 40
0.0
 40
0.0
 40
0.0
 40
1.802775637731994
 40
3.605551275463989
 40
3.605551275463989
 40
3.605551275463989
 40
3.605551275463989
 10
443.2022559556883
 20
31.33949444714307
 30
0.0
 10
443.7022559556883
 20
30.83949444714306
 30
0.0
 10
444.7022559556883
 20
29.83949444714306
 30
0.0
 10
443.7022559556883
 20
28.83949444714307
 30
0.0
 10
443.2022559556883
 20
28.33949444714306
 30
0.0
 11
443.2022559556883
 21
31.33949444714307
 31
0.0
 11
444.2022559556883
 21
29.83949444714307
 31
0.0
 11
443.2022559556883
 21
28.33949444714306
 31
0.0
  0
LINE
  5
144A
330
18
100
AcDbEntity
  8
1
100
AcDbLine
 10
553.4761940679993
 20
-0.7855055528568755
 30
0.0
 11
568.4761940679993
 21
-0.7855055528568755
 31
0.0
  0
LINE
  5
144B
330
18
100
AcDbEntity
  8
1
100
AcDbLine
 10
548.7886940679993
 20
2.964494447143124
 30
0.0
 11
538.4761940679984
 21
-0.7855055528568755
 31
0.0
  0
LINE
  5
144C
330
18
100
AcDbEntity
  8
1
100
AcDbLine
 10
538.4761940679984
 20
-0.7855055528568755
 30
0.0
 11
532.8511940679984
 21
-0.7855055528568755
 31
0.0
  0
LINE
  5
144D
330
18
100
AcDbEntity
  8
1
100
AcDbLine
 10
553.4761940679993
 20
-0.7855055528568755
 30
0.0
 11
548.7886940679993
 21
2.964494447143124
 31
0.0
  0
DIMENSION
  5
144E
330
18
100
AcDbEntity
  8
2
100
AcDbDimension
  2
*D0
 10
445.7022559556882
 20
103.289494447143
 30
0.0
 11
212.7022559556883
 21
106.289494447143
 31
0.0
 70
    32
 71
     5
 42
466.0
  3
STANDARD
100
AcDbAlignedDimension
 13
-20.29774404431168
 23
142.389494447143
 33
0.0
 14
445.7022559556882
 24
142.389494447143
 34
0.0
100
AcDbRotatedDimension
1001
ACAD
1000
DSTYLE
1002
{
1070
    40
1040
1.0
1002
}
  0
DIMENSION
  5
144F
330
18
100
AcDbEntity
  8
2
100
AcDbDimension
  2
*D1
 10
437.7022559556883
 20
114.1894944471431
 30
0.0
 11
212.7022559556883
 21
117.189494447143
 31
0.0
 70
    32
 71
     5
 42
450.0
  3
STANDARD
100
AcDbAlignedDimension
 13
-12.29774404431168
 23
125.389494447143
 33
0.0
 14
437.7022559556883
 24
125.389494447143
 34
0.0
100
AcDbRotatedDimension
1001
ACAD
1000
DSTYLE
1002
{
1070
    40
1040
1.0
1002
}
  0
DIMENSION
  5
1450
330
18
100
AcDbEntity
  8
2
100
AcDbDimension
  2
*D2
 10
452.7022559556883
 20
92.93949444714309
 30
0.0
 11
212.7022559556883
 21
95.9394944471431
 31
0.0
 70
    32
 71
     5
 42
480.0
  3
STANDARD
100
AcDbAlignedDimension
 13
-27.29774404431168
 23
132.889494447143
 33
0.0
 14
452.7022559556883
 24
132.889494447143
 34
0.0
100
AcDbRotatedDimension
1001
ACAD
1000
DSTYLE
1002
{
1070
    40
1040
1.0
1002
}
  0
LINE
  5
1451
330
18
100
AcDbEntity
  8
1
100
AcDbLine
 10
226.2022559556883
 20
170.389494447143
 30
0.0
 11
250.2022559556883
 21
170.389494447143
 31
0.0
  0
LINE
  5
1452
330
18
100
AcDbEntity
  8
1
100
AcDbLine
 10
250.2022559556883
 20
160.389494447143
 30
0.0
 11
226.2022559556883
 21
160.389494447143
 31
0.0
  0
LINE
  5
1453
330
18
100
AcDbEntity
  8
1
100
AcDbLine
 10
226.2022559556883
 20
154.389494447143
 30
0.0
 11
250.2022559556883
 21
154.389494447143
 31
0.0
  0
LINE
  5
1454
330
18
100
AcDbEntity
  8
1
100
AcDbLine
 10
250.2022559556883
 20
144.389494447143
 30
0.0
 11
226.2022559556883
 21
144.389494447143
 31
0.0
  0
LINE
  5
1455
330
18
100
AcDbEntity
  8
1
100
AcDbLine
 10
226.2022559556883
 20
138.389494447143
 30
0.0
 11
250.2022559556883
 21
138.389494447143
 31
0.0
  0
LINE
  5
1456
330
18
100
AcDbEntity
  8
1
100
AcDbLine
 10
250.2022559556883
 20
46.63949444714307
 30
0.0
 11
226.2022559556883
 21
46.63949444714307
 31
0.0
  0
LINE
  5
1457
330
18
100
AcDbEntity
  8
1
100
AcDbLine
 10
226.2022559556883
 20
40.63949444714308
 30
0.0
 11
250.2022559556883
 21
40.63949444714308
 31
0.0
  0
LINE
  5
1458
330
18
100
AcDbEntity
  8
1
100
AcDbLine
 10
437.7022559556883
 20
59.63949444714308
 30
0.0
 11
-12.29774404431168
 21
59.63949444714308
 31
0.0
  0
LINE
  5
1459
330
18
100
AcDbEntity
  8
1
100
AcDbLine
 10
437.7022559556883
 20
125.389494447143
 30
0.0
 11
-12.29774404431168
 21
125.389494447143
 31
0.0
  0
LINE
  5
145A
330
18
100
AcDbEntity
  8
1
100
AcDbLine
 10
57.70225595568831
 20
54.63949444714308
 30
0.0
 11
33.70225595568831
 21
54.63949444714308
 31
0.0
  0
LINE
  5
145B
330
18
100
AcDbEntity
  8
1
100
AcDbLine
 10
75.20225595568831
 20
46.63949444714307
 30
0.0
 11
51.20225595568832
 21
46.63949444714307
 31
0.0
  0
LINE
  5
145C
330
18
100
AcDbEntity
  8
1
100
AcDbLine
 10
33.70225595568831
 20
48.63949444714307
 30
0.0
 11
57.70225595568831
 21
48.63949444714307
 31
0.0
  0
LINE
  5
145D
330
18
100
AcDbEntity
  8
1
100
AcDbLine
 10
51.20225595568832
 20
40.63949444714308
 30
0.0
 11
75.20225595568831
 21
40.63949444714308
 31
0.0
  0
LINE
  5
145E
330
18
100
AcDbEntity
  8
1
100
AcDbLine
 10
57.70225595568831
 20
38.63949444714307
 30
0.0
 11
33.70225595568831
 21
38.63949444714307
 31
0.0
  0
LINE
  5
145F
330
18
100
AcDbEntity
  8
1
100
AcDbLine
 10
33.70225595568831
 20
32.63949444714308
 30
0.0
 11
57.70225595568831
 21
32.63949444714308
 31
0.0
  0
ARC
  5
1460
330
18
100
AcDbEntity
  8
1
100
AcDbCircle
 10
33.70225595568831
 20
51.63949444714308
 30
0.0
 40
3.0
100
AcDbArc
 50
90.0
 51
270.0
  0
ARC
  5
1461
330
18
100
AcDbEntity
  8
1
100
AcDbCircle
 10
-1.297744044311684
 20
51.63949444714308
 30
0.0
 40
3.0
100
AcDbArc
 50
90.0
 51
270.0
  0
ARC
  5
1462
330
18
100
AcDbEntity
  8
1
100
AcDbCircle
 10
22.70225595568831
 20
51.63949444714308
 30
0.0
 40
3.0
100
AcDbArc
 50
270.0
 51
90.0
  0
LINE
  5
1463
330
18
100
AcDbEntity
  8
1
100
AcDbLine
 10
-1.297744044311684
 20
48.63949444714307
 30
0.0
 11
22.70225595568831
 21
48.63949444714307
 31
0.0
  0
LINE
  5
1464
330
18
100
AcDbEntity
  8
1
100
AcDbLine
 10
22.70225595568831
 20
38.63949444714307
 30
0.0
 11
-1.297744044311684
 21
38.63949444714307
 31
0.0
  0
LINE
  5
1465
330
18
100
AcDbEntity
  8
1
100
AcDbLine
 10
-1.297744044311684
 20
32.63949444714308
 30
0.0
 11
22.70225595568831
 21
32.63949444714308
 31
0.0
  0
ARC
  5
1466
330
18
100
AcDbEntity
  8
1
100
AcDbCircle
 10
4.702255955688315
 20
43.63949444714307
 30
0.0
 40
3.0
100
AcDbArc
 50
270.0
 51
90.0
  0
ARC
  5
1467
330
18
100
AcDbEntity
  8
1
100
AcDbCircle
 10
-1.297744044311684
 20
43.63949444714307
 30
0.0
 40
3.0
100
AcDbArc
 50
90.0
 51
270.0
  0
LINE
  5
1468
330
18
100
AcDbEntity
  8
1
100
AcDbLine
 10
-1.297744044311684
 20
40.63949444714308
 30
0.0
 11
4.702255955688315
 21
40.63949444714308
 31
0.0
  0
ARC
  5
1469
330
18
100
AcDbEntity
  8
1
100
AcDbCircle
 10
-1.297744044311684
 20
35.63949444714308
 30
0.0
 40
3.0
100
AcDbArc
 50
90.0
 51
270.0
  0
LINE
  5
146A
330
18
100
AcDbEntity
  8
1
100
AcDbLine
 10
4.702255955688315
 20
46.63949444714307
 30
0.0
 11
-1.297744044311684
 21
46.63949444714307
 31
0.0
  0
ARC
  5
146B
330
18
100
AcDbEntity
  8
1
100
AcDbCircle
 10
51.20225595568832
 20
43.63949444714307
 30
0.0
 40
3.0
100
AcDbArc
 50
90.0
 51
270.0
  0
ARC
  5
146C
330
18
100
AcDbEntity
  8
1
100
AcDbCircle
 10
16.20225595568831
 20
43.63949444714307
 30
0.0
 40
3.0
100
AcDbArc
 50
90.0
 51
270.0
  0
ARC
  5
146D
330
18
100
AcDbEntity
  8
1
100
AcDbCircle
 10
40.20225595568831
 20
43.63949444714307
 30
0.0
 40
3.0
100
AcDbArc
 50
270.0
 51
90.0
  0
ARC
  5
146E
330
18
100
AcDbEntity
  8
1
100
AcDbCircle
 10
33.70225595568831
 20
35.63949444714308
 30
0.0
 40
3.0
100
AcDbArc
 50
90.0
 51
270.0
  0
LINE
  5
146F
330
18
100
AcDbEntity
  8
1
100
AcDbLine
 10
16.20225595568831
 20
40.63949444714308
 30
0.0
 11
40.20225595568831
 21
40.63949444714308
 31
0.0
  0
ARC
  5
1470
330
18
100
AcDbEntity
  8
1
100
AcDbCircle
 10
22.70225595568831
 20
35.63949444714308
 30
0.0
 40
3.0
100
AcDbArc
 50
270.0
 51
90.0
  0
LINE
  5
1471
330
18
100
AcDbEntity
  8
1
100
AcDbLine
 10
40.20225595568831
 20
46.63949444714307
 30
0.0
 11
16.20225595568831
 21
46.63949444714307
 31
0.0
  0
LINE
  5
1472
330
18
100
AcDbEntity
  8
1
100
AcDbLine
 10
22.70225595568831
 20
54.63949444714308
 30
0.0
 11
-1.297744044311684
 21
54.63949444714308
 31
0.0
  0
ARC
  5
1473
330
18
100
AcDbEntity
  8
1
100
AcDbCircle
 10
127.7022559556883
 20
51.63949444714308
 30
0.0
 40
3.0
100
AcDbArc
 50
270.0
 51
90.0
  0
ARC
  5
1474
330
18
100
AcDbEntity
  8
1
100
AcDbCircle
 10
92.70225595568831
 20
51.63949444714308
 30
0.0
 40
3.0
100
AcDbArc
 50
270.0
 51
90.0
  0
ARC
  5
1475
330
18
100
AcDbEntity
  8
1
100
AcDbCircle
 10
103.7022559556883
 20
51.63949444714308
 30
0.0
 40
3.0
100
AcDbArc
 50
90.0
 51
270.0
  0
ARC
  5
1476
330
18
100
AcDbEntity
  8
1
100
AcDbCircle
 10
68.70225595568832
 20
51.63949444714308
 30
0.0
 40
3.0
100
AcDbArc
 50
90.0
 51
270.0
  0
ARC
  5
1477
330
18
100
AcDbEntity
  8
1
100
AcDbCircle
 10
57.70225595568831
 20
51.63949444714308
 30
0.0
 40
3.0
100
AcDbArc
 50
270.0
 51
90.0
  0
LINE
  5
1478
330
18
100
AcDbEntity
  8
1
100
AcDbLine
 10
110.2022559556883
 20
46.63949444714307
 30
0.0
 11
86.20225595568831
 21
46.63949444714307
 31
0.0
  0
LINE
  5
1479
330
18
100
AcDbEntity
  8
1
100
AcDbLine
 10
86.20225595568831
 20
40.63949444714308
 30
0.0
 11
110.2022559556883
 21
40.63949444714308
 31
0.0
  0
ARC
  5
147A
330
18
100
AcDbEntity
  8
1
100
AcDbCircle
 10
86.20225595568831
 20
43.63949444714307
 30
0.0
 40
3.0
100
AcDbArc
 50
90.0
 51
270.0
  0
ARC
  5
147B
330
18
100
AcDbEntity
  8
1
100
AcDbCircle
 10
75.20225595568831
 20
43.63949444714307
 30
0.0
 40
3.0
100
AcDbArc
 50
270.0
 51
90.0
  0
LINE
  5
147C
330
18
100
AcDbEntity
  8
1
100
AcDbLine
 10
92.70225595568831
 20
38.63949444714307
 30
0.0
 11
68.70225595568832
 21
38.63949444714307
 31
0.0
  0
LINE
  5
147D
330
18
100
AcDbEntity
  8
1
100
AcDbLine
 10
68.70225595568832
 20
32.63949444714308
 30
0.0
 11
92.70225595568831
 21
32.63949444714308
 31
0.0
  0
ARC
  5
147E
330
18
100
AcDbEntity
  8
1
100
AcDbCircle
 10
68.70225595568832
 20
35.63949444714308
 30
0.0
 40
3.0
100
AcDbArc
 50
90.0
 51
270.0
  0
ARC
  5
147F
330
18
100
AcDbEntity
  8
1
100
AcDbCircle
 10
57.70225595568831
 20
35.63949444714308
 30
0.0
 40
3.0
100
AcDbArc
 50
270.0
 51
90.0
  0
ARC
  5
1480
330
18
100
AcDbEntity
  8
1
100
AcDbCircle
 10
92.70225595568831
 20
35.63949444714308
 30
0.0
 40
3.0
100
AcDbArc
 50
270.0
 51
90.0
  0
LINE
  5
1481
330
18
100
AcDbEntity
  8
1
100
AcDbLine
 10
68.70225595568832
 20
48.63949444714307
 30
0.0
 11
92.70225595568831
 21
48.63949444714307
 31
0.0
  0
ARC
  5
1482
330
18
100
AcDbEntity
  8
1
100
AcDbCircle
 10
110.2022559556883
 20
43.63949444714307
 30
0.0
 40
3.0
100
AcDbArc
 50
270.0
 51
90.0
  0
ARC
  5
1483
330
18
100
AcDbEntity
  8
1
100
AcDbCircle
 10
127.7022559556883
 20
43.63949444714307
 30
0.0
 40
3.0
100
AcDbArc
 50
270.0
 51
90.0
  0
ARC
  5
1484
330
18
100
AcDbEntity
  8
1
100
AcDbCircle
 10
121.7022559556883
 20
43.63949444714307
 30
0.0
 40
3.0
100
AcDbArc
 50
90.0
 51
270.0
  0
LINE
  5
1485
330
18
100
AcDbEntity
  8
1
100
AcDbLine
 10
121.7022559556883
 20
40.63949444714308
 30
0.0
 11
127.7022559556883
 21
40.63949444714308
 31
0.0
  0
LINE
  5
1486
330
18
100
AcDbEntity
  8
1
100
AcDbLine
 10
127.7022559556883
 20
38.63949444714307
 30
0.0
 11
103.7022559556883
 21
38.63949444714307
 31
0.0
  0
LINE
  5
1487
330
18
100
AcDbEntity
  8
1
100
AcDbLine
 10
103.7022559556883
 20
32.63949444714308
 30
0.0
 11
127.7022559556883
 21
32.63949444714308
 31
0.0
  0
ARC
  5
1488
330
18
100
AcDbEntity
  8
1
100
AcDbCircle
 10
103.7022559556883
 20
35.63949444714308
 30
0.0
 40
3.0
100
AcDbArc
 50
90.0
 51
270.0
  0
ARC
  5
1489
330
18
100
AcDbEntity
  8
1
100
AcDbCircle
 10
127.7022559556883
 20
35.63949444714308
 30
0.0
 40
3.0
100
AcDbArc
 50
270.0
 51
90.0
  0
LINE
  5
148A
330
18
100
AcDbEntity
  8
1
100
AcDbLine
 10
127.7022559556883
 20
46.63949444714307
 30
0.0
 11
121.7022559556883
 21
46.63949444714307
 31
0.0
  0
LINE
  5
148B
330
18
100
AcDbEntity
  8
1
100
AcDbLine
 10
103.7022559556883
 20
48.63949444714307
 30
0.0
 11
127.7022559556883
 21
48.63949444714307
 31
0.0
  0
LINE
  5
148C
330
18
100
AcDbEntity
  8
1
100
AcDbLine
 10
92.70225595568831
 20
54.63949444714308
 30
0.0
 11
68.70225595568832
 21
54.63949444714308
 31
0.0
  0
LINE
  5
148D
330
18
100
AcDbEntity
  8
1
100
AcDbLine
 10
127.7022559556883
 20
54.63949444714308
 30
0.0
 11
103.7022559556883
 21
54.63949444714308
 31
0.0
  0
ARC
  5
148E
330
18
100
AcDbEntity
  8
1
100
AcDbCircle
 10
232.7022559556883
 20
51.63949444714308
 30
0.0
 40
3.0
100
AcDbArc
 50
270.0
 51
90.0
  0
ARC
  5
148F
330
18
100
AcDbEntity
  8
1
100
AcDbCircle
 10
208.7022559556883
 20
51.63949444714308
 30
0.0
 40
3.0
100
AcDbArc
 50
90.0
 51
270.0
  0
ARC
  5
1490
330
18
100
AcDbEntity
  8
1
100
AcDbCircle
 10
173.7022559556883
 20
51.63949444714308
 30
0.0
 40
3.0
100
AcDbArc
 50
90.0
 51
270.0
  0
ARC
  5
1491
330
18
100
AcDbEntity
  8
1
100
AcDbCircle
 10
197.7022559556883
 20
51.63949444714308
 30
0.0
 40
3.0
100
AcDbArc
 50
270.0
 51
90.0
  0
LINE
  5
1492
330
18
100
AcDbEntity
  8
1
100
AcDbLine
 10
215.2022559556883
 20
46.63949444714307
 30
0.0
 11
191.2022559556883
 21
46.63949444714307
 31
0.0
  0
LINE
  5
1493
330
18
100
AcDbEntity
  8
1
100
AcDbLine
 10
173.7022559556883
 20
48.63949444714307
 30
0.0
 11
197.7022559556883
 21
48.63949444714307
 31
0.0
  0
LINE
  5
1494
330
18
100
AcDbEntity
  8
1
100
AcDbLine
 10
191.2022559556883
 20
40.63949444714308
 30
0.0
 11
215.2022559556883
 21
40.63949444714308
 31
0.0
  0
LINE
  5
1495
330
18
100
AcDbEntity
  8
1
100
AcDbLine
 10
197.7022559556883
 20
38.63949444714307
 30
0.0
 11
173.7022559556883
 21
38.63949444714307
 31
0.0
  0
LINE
  5
1496
330
18
100
AcDbEntity
  8
1
100
AcDbLine
 10
173.7022559556883
 20
32.63949444714308
 30
0.0
 11
197.7022559556883
 21
32.63949444714308
 31
0.0
  0
ARC
  5
1497
330
18
100
AcDbEntity
  8
1
100
AcDbCircle
 10
191.2022559556883
 20
43.63949444714307
 30
0.0
 40
3.0
100
AcDbArc
 50
90.0
 51
270.0
  0
ARC
  5
1498
330
18
100
AcDbEntity
  8
1
100
AcDbCircle
 10
179.7022559556883
 20
43.63949444714307
 30
0.0
 40
3.0
100
AcDbArc
 50
270.0
 51
90.0
  0
ARC
  5
1499
330
18
100
AcDbEntity
  8
1
100
AcDbCircle
 10
173.7022559556883
 20
43.63949444714307
 30
0.0
 40
3.0
100
AcDbArc
 50
90.0
 51
270.0
  0
LINE
  5
149A
330
18
100
AcDbEntity
  8
1
100
AcDbLine
 10
173.7022559556883
 20
40.63949444714308
 30
0.0
 11
179.7022559556883
 21
40.63949444714308
 31
0.0
  0
ARC
  5
149B
330
18
100
AcDbEntity
  8
1
100
AcDbCircle
 10
173.7022559556883
 20
35.63949444714308
 30
0.0
 40
3.0
100
AcDbArc
 50
90.0
 51
270.0
  0
LINE
  5
149C
330
18
100
AcDbEntity
  8
1
100
AcDbLine
 10
179.7022559556883
 20
46.63949444714307
 30
0.0
 11
173.7022559556883
 21
46.63949444714307
 31
0.0
  0
ARC
  5
149D
330
18
100
AcDbEntity
  8
1
100
AcDbCircle
 10
215.2022559556883
 20
43.63949444714307
 30
0.0
 40
3.0
100
AcDbArc
 50
270.0
 51
90.0
  0
ARC
  5
149E
330
18
100
AcDbEntity
  8
1
100
AcDbCircle
 10
226.2022559556883
 20
43.63949444714307
 30
0.0
 40
3.0
100
AcDbArc
 50
90.0
 51
270.0
  0
LINE
  5
149F
330
18
100
AcDbEntity
  8
1
100
AcDbLine
 10
232.7022559556883
 20
38.63949444714307
 30
0.0
 11
208.7022559556883
 21
38.63949444714307
 31
0.0
  0
LINE
  5
14A0
330
18
100
AcDbEntity
  8
1
100
AcDbLine
 10
208.7022559556883
 20
32.63949444714308
 30
0.0
 11
232.7022559556883
 21
32.63949444714308
 31
0.0
  0
ARC
  5
14A1
330
18
100
AcDbEntity
  8
1
100
AcDbCircle
 10
208.7022559556883
 20
35.63949444714308
 30
0.0
 40
3.0
100
AcDbArc
 50
90.0
 51
270.0
  0
ARC
  5
14A2
330
18
100
AcDbEntity
  8
1
100
AcDbCircle
 10
197.7022559556883
 20
35.63949444714308
 30
0.0
 40
3.0
100
AcDbArc
 50
270.0
 51
90.0
  0
ARC
  5
14A3
330
18
100
AcDbEntity
  8
1
100
AcDbCircle
 10
232.7022559556883
 20
35.63949444714308
 30
0.0
 40
3.0
100
AcDbArc
 50
270.0
 51
90.0
  0
LINE
  5
14A4
330
18
100
AcDbEntity
  8
1
100
AcDbLine
 10
208.7022559556883
 20
48.63949444714307
 30
0.0
 11
232.7022559556883
 21
48.63949444714307
 31
0.0
  0
LINE
  5
14A5
330
18
100
AcDbEntity
  8
1
100
AcDbLine
 10
197.7022559556883
 20
54.63949444714308
 30
0.0
 11
173.7022559556883
 21
54.63949444714308
 31
0.0
  0
LINE
  5
14A6
330
18
100
AcDbEntity
  8
1
100
AcDbLine
 10
232.7022559556883
 20
54.63949444714308
 30
0.0
 11
208.7022559556883
 21
54.63949444714308
 31
0.0
  0
LINE
  5
14A7
330
18
100
AcDbEntity
  8
1
100
AcDbLine
 10
57.70225595568831
 20
168.389494447143
 30
0.0
 11
33.70225595568831
 21
168.389494447143
 31
0.0
  0
LINE
  5
14A8
330
18
100
AcDbEntity
  8
1
100
AcDbLine
 10
51.20225595568832
 20
170.389494447143
 30
0.0
 11
75.20225595568831
 21
170.389494447143
 31
0.0
  0
LINE
  5
14A9
330
18
100
AcDbEntity
  8
1
100
AcDbLine
 10
33.70225595568831
 20
162.389494447143
 30
0.0
 11
57.70225595568831
 21
162.389494447143
 31
0.0
  0
LINE
  5
14AA
330
18
100
AcDbEntity
  8
1
100
AcDbLine
 10
75.20225595568831
 20
160.389494447143
 30
0.0
 11
51.20225595568832
 21
160.389494447143
 31
0.0
  0
LINE
  5
14AB
330
18
100
AcDbEntity
  8
1
100
AcDbLine
 10
51.20225595568832
 20
154.389494447143
 30
0.0
 11
75.20225595568831
 21
154.389494447143
 31
0.0
  0
LINE
  5
14AC
330
18
100
AcDbEntity
  8
1
100
AcDbLine
 10
57.70225595568831
 20
152.389494447143
 30
0.0
 11
33.70225595568831
 21
152.389494447143
 31
0.0
  0
LINE
  5
14AD
330
18
100
AcDbEntity
  8
1
100
AcDbLine
 10
75.20225595568831
 20
144.389494447143
 30
0.0
 11
51.20225595568832
 21
144.389494447143
 31
0.0
  0
LINE
  5
14AE
330
18
100
AcDbEntity
  8
1
100
AcDbLine
 10
33.70225595568831
 20
146.389494447143
 30
0.0
 11
57.70225595568831
 21
146.389494447143
 31
0.0
  0
LINE
  5
14AF
330
18
100
AcDbEntity
  8
1
100
AcDbLine
 10
51.20225595568832
 20
138.389494447143
 30
0.0
 11
75.20225595568831
 21
138.389494447143
 31
0.0
  0
LINE
  5
14B0
330
18
100
AcDbEntity
  8
1
100
AcDbLine
 10
57.70225595568831
 20
136.389494447143
 30
0.0
 11
33.70225595568831
 21
136.389494447143
 31
0.0
  0
LINE
  5
14B1
330
18
100
AcDbEntity
  8
1
100
AcDbLine
 10
33.70225595568831
 20
130.389494447143
 30
0.0
 11
57.70225595568831
 21
130.389494447143
 31
0.0
  0
LINE
  5
14B2
330
18
100
AcDbEntity
  8
1
100
AcDbLine
 10
-59.79774404431168
 20
133.389494447143
 30
0.0
 11
-59.79774404431168
 21
139.389494447143
 31
0.0
  0
LINE
  5
14B3
330
18
100
AcDbEntity
  8
1
100
AcDbLine
 10
-53.79774404431168
 20
139.389494447143
 30
0.0
 11
-53.79774404431168
 21
133.389494447143
 31
0.0
  0
LINE
  5
14B4
330
18
100
AcDbEntity
  8
1
100
AcDbLine
 10
-75.79774404431169
 20
133.389494447143
 30
0.0
 11
-75.79774404431169
 21
139.389494447143
 31
0.0
  0
LINE
  5
14B5
330
18
100
AcDbEntity
  8
1
100
AcDbLine
 10
-69.79774404431168
 20
139.389494447143
 30
0.0
 11
-69.79774404431168
 21
133.389494447143
 31
0.0
  0
LINE
  5
14B6
330
18
100
AcDbEntity
  8
1
100
AcDbLine
 10
-91.79774404431169
 20
133.389494447143
 30
0.0
 11
-91.79774404431169
 21
139.389494447143
 31
0.0
  0
LINE
  5
14B7
330
18
100
AcDbEntity
  8
1
100
AcDbLine
 10
-85.79774404431168
 20
139.389494447143
 30
0.0
 11
-85.79774404431168
 21
133.389494447143
 31
0.0
  0
LINE
  5
14B8
330
18
100
AcDbEntity
  8
1
100
AcDbLine
 10
-107.7977440443116
 20
133.389494447143
 30
0.0
 11
-107.7977440443116
 21
139.389494447143
 31
0.0
  0
LINE
  5
14B9
330
18
100
AcDbEntity
  8
1
100
AcDbLine
 10
-101.7977440443116
 20
139.389494447143
 30
0.0
 11
-101.7977440443116
 21
133.389494447143
 31
0.0
  0
LINE
  5
14BA
330
18
100
AcDbEntity
  8
1
100
AcDbLine
 10
-45.79774404431169
 20
157.389494447143
 30
0.0
 11
-45.79774404431169
 21
133.389494447143
 31
0.0
  0
LINE
  5
14BB
330
18
100
AcDbEntity
  8
1
100
AcDbLine
 10
-51.79774404431168
 20
133.389494447143
 30
0.0
 11
-51.79774404431168
 21
157.389494447143
 31
0.0
  0
LINE
  5
14BC
330
18
100
AcDbEntity
  8
1
100
AcDbLine
 10
-61.79774404431168
 20
157.389494447143
 30
0.0
 11
-61.79774404431168
 21
133.389494447143
 31
0.0
  0
LINE
  5
14BD
330
18
100
AcDbEntity
  8
1
100
AcDbLine
 10
-67.79774404431169
 20
133.389494447143
 30
0.0
 11
-67.79774404431169
 21
157.389494447143
 31
0.0
  0
LINE
  5
14BE
330
18
100
AcDbEntity
  8
1
100
AcDbLine
 10
-93.79774404431168
 20
157.389494447143
 30
0.0
 11
-93.79774404431168
 21
133.389494447143
 31
0.0
  0
LINE
  5
14BF
330
18
100
AcDbEntity
  8
1
100
AcDbLine
 10
-99.79774404431168
 20
133.389494447143
 30
0.0
 11
-99.79774404431168
 21
157.389494447143
 31
0.0
  0
LINE
  5
14C0
330
18
100
AcDbEntity
  8
1
100
AcDbLine
 10
-77.79774404431169
 20
157.389494447143
 30
0.0
 11
-77.79774404431169
 21
133.389494447143
 31
0.0
  0
LINE
  5
14C1
330
18
100
AcDbEntity
  8
1
100
AcDbLine
 10
-83.79774404431168
 20
133.389494447143
 30
0.0
 11
-83.79774404431168
 21
157.389494447143
 31
0.0
  0
LINE
  5
14C2
330
18
100
AcDbEntity
  8
1
100
AcDbLine
 10
-109.7977440443116
 20
157.389494447143
 30
0.0
 11
-109.7977440443116
 21
133.389494447143
 31
0.0
  0
LINE
  5
14C3
330
18
100
AcDbEntity
  8
1
100
AcDbLine
 10
-115.7977440443116
 20
133.389494447143
 30
0.0
 11
-115.7977440443116
 21
157.389494447143
 31
0.0
  0
ARC
  5
14C4
330
18
100
AcDbEntity
  8
1
100
AcDbCircle
 10
-112.7977440443116
 20
133.389494447143
 30
0.0
 40
3.0
100
AcDbArc
 50
180.0
 51
0.0
  0
ARC
  5
14C5
330
18
100
AcDbEntity
  8
1
100
AcDbCircle
 10
-96.79774404431169
 20
133.389494447143
 30
0.0
 40
3.0
100
AcDbArc
 50
180.0
 51
0.0
  0
ARC
  5
14C6
330
18
100
AcDbEntity
  8
1
100
AcDbCircle
 10
-104.7977440443116
 20
133.389494447143
 30
0.0
 40
3.0
100
AcDbArc
 50
180.0
 51
0.0
  0
ARC
  5
14C7
330
18
100
AcDbEntity
  8
1
100
AcDbCircle
 10
-88.79774404431168
 20
133.389494447143
 30
0.0
 40
3.0
100
AcDbArc
 50
180.0
 51
0.0
  0
ARC
  5
14C8
330
18
100
AcDbEntity
  8
1
100
AcDbCircle
 10
-64.79774404431168
 20
133.389494447143
 30
0.0
 40
3.0
100
AcDbArc
 50
180.0
 51
0.0
  0
ARC
  5
14C9
330
18
100
AcDbEntity
  8
1
100
AcDbCircle
 10
-80.79774404431168
 20
133.389494447143
 30
0.0
 40
3.0
100
AcDbArc
 50
180.0
 51
0.0
  0
ARC
  5
14CA
330
18
100
AcDbEntity
  8
1
100
AcDbCircle
 10
-72.79774404431169
 20
133.389494447143
 30
0.0
 40
3.0
100
AcDbArc
 50
180.0
 51
0.0
  0
ARC
  5
14CB
330
18
100
AcDbEntity
  8
1
100
AcDbCircle
 10
-48.79774404431168
 20
133.389494447143
 30
0.0
 40
3.0
100
AcDbArc
 50
180.0
 51
0.0
  0
ARC
  5
14CC
330
18
100
AcDbEntity
  8
1
100
AcDbCircle
 10
-56.79774404431168
 20
133.389494447143
 30
0.0
 40
3.0
100
AcDbArc
 50
180.0
 51
0.0
  0
LINE
  5
14CD
330
18
100
AcDbEntity
  8
1
100
AcDbLine
 10
22.70225595568831
 20
136.389494447143
 30
0.0
 11
-1.297744044311684
 21
136.389494447143
 31
0.0
  0
LINE
  5
14CE
330
18
100
AcDbEntity
  8
1
100
AcDbLine
 10
-1.297744044311684
 20
130.389494447143
 30
0.0
 11
22.70225595568831
 21
130.389494447143
 31
0.0
  0
ARC
  5
14CF
330
18
100
AcDbEntity
  8
1
100
AcDbCircle
 10
-22.29774404431168
 20
132.889494447143
 30
0.0
 40
5.0
100
AcDbArc
 50
180.0
 51
270.0
  0
LINE
  5
14D0
330
18
100
AcDbEntity
  8
1
100
AcDbLine
 10
-12.29774404431168
 20
127.889494447143
 30
0.0
 11
-22.29774404431168
 21
127.889494447143
 31
0.0
  0
ARC
  5
14D1
330
18
100
AcDbEntity
  8
1
100
AcDbCircle
 10
-1.297744044311684
 20
133.389494447143
 30
0.0
 40
3.0
100
AcDbArc
 50
90.0
 51
270.0
  0
ARC
  5
14D2
330
18
100
AcDbEntity
  8
1
100
AcDbCircle
 10
33.70225595568831
 20
133.389494447143
 30
0.0
 40
3.0
100
AcDbArc
 50
90.0
 51
270.0
  0
ARC
  5
14D3
330
18
100
AcDbEntity
  8
1
100
AcDbCircle
 10
22.70225595568831
 20
133.389494447143
 30
0.0
 40
3.0
100
AcDbArc
 50
270.0
 51
90.0
  0
ARC
  5
14D4
330
18
100
AcDbEntity
  8
1
100
AcDbCircle
 10
-104.7977440443116
 20
139.389494447143
 30
0.0
 40
3.0
100
AcDbArc
 50
0.0
 51
180.0
  0
ARC
  5
14D5
330
18
100
AcDbEntity
  8
1
100
AcDbCircle
 10
-88.79774404431168
 20
139.389494447143
 30
0.0
 40
3.0
100
AcDbArc
 50
0.0
 51
180.0
  0
ARC
  5
14D6
330
18
100
AcDbEntity
  8
1
100
AcDbCircle
 10
-104.7977440443116
 20
150.889494447143
 30
0.0
 40
3.0
100
AcDbArc
 50
180.0
 51
0.0
  0
ARC
  5
14D7
330
18
100
AcDbEntity
  8
1
100
AcDbCircle
 10
-88.79774404431168
 20
150.889494447143
 30
0.0
 40
3.0
100
AcDbArc
 50
180.0
 51
0.0
  0
ARC
  5
14D8
330
18
100
AcDbEntity
  8
1
100
AcDbCircle
 10
-72.79774404431169
 20
139.389494447143
 30
0.0
 40
3.0
100
AcDbArc
 50
0.0
 51
180.0
  0
ARC
  5
14D9
330
18
100
AcDbEntity
  8
1
100
AcDbCircle
 10
-56.79774404431168
 20
139.389494447143
 30
0.0
 40
3.0
100
AcDbArc
 50
0.0
 51
180.0
  0
ARC
  5
14DA
330
18
100
AcDbEntity
  8
1
100
AcDbCircle
 10
-72.79774404431169
 20
150.889494447143
 30
0.0
 40
3.0
100
AcDbArc
 50
180.0
 51
0.0
  0
ARC
  5
14DB
330
18
100
AcDbEntity
  8
1
100
AcDbCircle
 10
-56.79774404431168
 20
150.889494447143
 30
0.0
 40
3.0
100
AcDbArc
 50
180.0
 51
0.0
  0
ARC
  5
14DC
330
18
100
AcDbEntity
  8
1
100
AcDbCircle
 10
-112.7977440443116
 20
157.389494447143
 30
0.0
 40
3.0
100
AcDbArc
 50
0.0
 51
180.0
  0
ARC
  5
14DD
330
18
100
AcDbEntity
  8
1
100
AcDbCircle
 10
-96.79774404431169
 20
157.389494447143
 30
0.0
 40
3.0
100
AcDbArc
 50
0.0
 51
180.0
  0
ARC
  5
14DE
330
18
100
AcDbEntity
  8
1
100
AcDbCircle
 10
-112.7977440443116
 20
168.889494447143
 30
0.0
 40
3.0
100
AcDbArc
 50
180.0
 51
0.0
  0
ARC
  5
14DF
330
18
100
AcDbEntity
  8
1
100
AcDbCircle
 10
-96.79774404431169
 20
168.389494447143
 30
0.0
 40
3.0
100
AcDbArc
 50
180.0
 51
0.0
  0
ARC
  5
14E0
330
18
100
AcDbEntity
  8
1
100
AcDbCircle
 10
-64.79774404431168
 20
157.389494447143
 30
0.0
 40
3.0
100
AcDbArc
 50
0.0
 51
180.0
  0
ARC
  5
14E1
330
18
100
AcDbEntity
  8
1
100
AcDbCircle
 10
-80.79774404431168
 20
157.389494447143
 30
0.0
 40
3.0
100
AcDbArc
 50
0.0
 51
180.0
  0
ARC
  5
14E2
330
18
100
AcDbEntity
  8
1
100
AcDbCircle
 10
-48.79774404431168
 20
157.389494447143
 30
0.0
 40
3.0
100
AcDbArc
 50
0.0
 51
180.0
  0
ARC
  5
14E3
330
18
100
AcDbEntity
  8
1
100
AcDbCircle
 10
-64.79774404431168
 20
168.389494447143
 30
0.0
 40
3.0
100
AcDbArc
 50
180.0
 51
0.0
  0
ARC
  5
14E4
330
18
100
AcDbEntity
  8
1
100
AcDbCircle
 10
-80.79774404431168
 20
168.389494447143
 30
0.0
 40
3.0
100
AcDbArc
 50
180.0
 51
0.0
  0
ARC
  5
14E5
330
18
100
AcDbEntity
  8
1
100
AcDbCircle
 10
-48.79774404431168
 20
168.389494447143
 30
0.0
 40
3.0
100
AcDbArc
 50
180.0
 51
0.0
  0
ARC
  5
14E6
330
18
100
AcDbEntity
  8
1
100
AcDbCircle
 10
51.20225595568832
 20
157.389494447143
 30
0.0
 40
3.0
100
AcDbArc
 50
90.0
 51
270.0
  0
ARC
  5
14E7
330
18
100
AcDbEntity
  8
1
100
AcDbCircle
 10
40.20225595568831
 20
157.389494447143
 30
0.0
 40
3.0
100
AcDbArc
 50
270.0
 51
90.0
  0
ARC
  5
14E8
330
18
100
AcDbEntity
  8
1
100
AcDbCircle
 10
16.20225595568831
 20
157.389494447143
 30
0.0
 40
3.0
100
AcDbArc
 50
90.0
 51
270.0
  0
ARC
  5
14E9
330
18
100
AcDbEntity
  8
1
100
AcDbCircle
 10
4.702255955688315
 20
157.389494447143
 30
0.0
 40
3.0
100
AcDbArc
 50
270.0
 51
90.0
  0
ARC
  5
14EA
330
18
100
AcDbEntity
  8
1
100
AcDbCircle
 10
-1.297744044311684
 20
157.389494447143
 30
0.0
 40
3.0
100
AcDbArc
 50
90.0
 51
270.0
  0
LINE
  5
14EB
330
18
100
AcDbEntity
  8
1
100
AcDbLine
 10
22.70225595568831
 20
152.389494447143
 30
0.0
 11
-1.297744044311684
 21
152.389494447143
 31
0.0
  0
LINE
  5
14EC
330
18
100
AcDbEntity
  8
1
100
AcDbLine
 10
-1.297744044311684
 20
146.389494447143
 30
0.0
 11
22.70225595568831
 21
146.389494447143
 31
0.0
  0
ARC
  5
14ED
330
18
100
AcDbEntity
  8
1
100
AcDbCircle
 10
4.702255955688315
 20
141.389494447143
 30
0.0
 40
3.0
100
AcDbArc
 50
270.0
 51
90.0
  0
CIRCLE
  5
14EE
330
18
100
AcDbEntity
  8
1
100
AcDbCircle
 10
-20.29774404431168
 20
145.389494447143
 30
0.0
 40
3.0
  0
LINE
  5
14EF
330
18
100
AcDbEntity
  8
1
100
AcDbLine
 10
4.702255955688315
 20
144.389494447143
 30
0.0
 11
-1.297744044311684
 21
144.389494447143
 31
0.0
  0
LINE
  5
14F0
330
18
100
AcDbEntity
  8
1
100
AcDbLine
 10
-1.297744044311684
 20
138.389494447143
 30
0.0
 11
4.702255955688315
 21
138.389494447143
 31
0.0
  0
ARC
  5
14F1
330
18
100
AcDbEntity
  8
1
100
AcDbCircle
 10
-1.297744044311684
 20
141.389494447143
 30
0.0
 40
3.0
100
AcDbArc
 50
90.0
 51
270.0
  0
LINE
  5
14F2
330
18
100
AcDbEntity
  8
1
100
AcDbLine
 10
-1.297744044311684
 20
154.389494447143
 30
0.0
 11
4.702255955688315
 21
154.389494447143
 31
0.0
  0
ARC
  5
14F3
330
18
100
AcDbEntity
  8
1
100
AcDbCircle
 10
-1.297744044311684
 20
149.389494447143
 30
0.0
 40
3.0
100
AcDbArc
 50
90.0
 51
270.0
  0
LINE
  5
14F4
330
18
100
AcDbEntity
  8
1
100
AcDbLine
 10
40.20225595568831
 20
144.389494447143
 30
0.0
 11
16.20225595568831
 21
144.389494447143
 31
0.0
  0
LINE
  5
14F5
330
18
100
AcDbEntity
  8
1
100
AcDbLine
 10
16.20225595568831
 20
138.389494447143
 30
0.0
 11
40.20225595568831
 21
138.389494447143
 31
0.0
  0
ARC
  5
14F6
330
18
100
AcDbEntity
  8
1
100
AcDbCircle
 10
16.20225595568831
 20
141.389494447143
 30
0.0
 40
3.0
100
AcDbArc
 50
90.0
 51
270.0
  0
ARC
  5
14F7
330
18
100
AcDbEntity
  8
1
100
AcDbCircle
 10
51.20225595568832
 20
141.389494447143
 30
0.0
 40
3.0
100
AcDbArc
 50
90.0
 51
270.0
  0
ARC
  5
14F8
330
18
100
AcDbEntity
  8
1
100
AcDbCircle
 10
40.20225595568831
 20
141.389494447143
 30
0.0
 40
3.0
100
AcDbArc
 50
270.0
 51
90.0
  0
LINE
  5
14F9
330
18
100
AcDbEntity
  8
1
100
AcDbLine
 10
16.20225595568831
 20
154.389494447143
 30
0.0
 11
40.20225595568831
 21
154.389494447143
 31
0.0
  0
ARC
  5
14FA
330
18
100
AcDbEntity
  8
1
100
AcDbCircle
 10
33.70225595568831
 20
149.389494447143
 30
0.0
 40
3.0
100
AcDbArc
 50
90.0
 51
270.0
  0
ARC
  5
14FB
330
18
100
AcDbEntity
  8
1
100
AcDbCircle
 10
22.70225595568831
 20
149.389494447143
 30
0.0
 40
3.0
100
AcDbArc
 50
270.0
 51
90.0
  0
LINE
  5
14FC
330
18
100
AcDbEntity
  8
1
100
AcDbLine
 10
22.70225595568831
 20
168.389494447143
 30
0.0
 11
-1.297744044311684
 21
168.389494447143
 31
0.0
  0
LINE
  5
14FD
330
18
100
AcDbEntity
  8
1
100
AcDbLine
 10
-1.297744044311684
 20
162.389494447143
 30
0.0
 11
22.70225595568831
 21
162.389494447143
 31
0.0
  0
ARC
  5
14FE
330
18
100
AcDbEntity
  8
1
100
AcDbCircle
 10
-1.297744044311684
 20
165.389494447143
 30
0.0
 40
3.0
100
AcDbArc
 50
90.0
 51
270.0
  0
LINE
  5
14FF
330
18
100
AcDbEntity
  8
1
100
AcDbLine
 10
4.702255955688315
 20
160.389494447143
 30
0.0
 11
-1.297744044311684
 21
160.389494447143
 31
0.0
  0
LINE
  5
1500
330
18
100
AcDbEntity
  8
1
100
AcDbLine
 10
-1.297744044311684
 20
170.389494447143
 30
0.0
 11
4.702255955688315
 21
170.389494447143
 31
0.0
  0
ARC
  5
1501
330
18
100
AcDbEntity
  8
1
100
AcDbCircle
 10
33.70225595568831
 20
165.389494447143
 30
0.0
 40
3.0
100
AcDbArc
 50
90.0
 51
270.0
  0
ARC
  5
1502
330
18
100
AcDbEntity
  8
1
100
AcDbCircle
 10
22.70225595568831
 20
165.389494447143
 30
0.0
 40
3.0
100
AcDbArc
 50
270.0
 51
90.0
  0
LINE
  5
1503
330
18
100
AcDbEntity
  8
1
100
AcDbLine
 10
40.20225595568831
 20
160.389494447143
 30
0.0
 11
16.20225595568831
 21
160.389494447143
 31
0.0
  0
LINE
  5
1504
330
18
100
AcDbEntity
  8
1
100
AcDbLine
 10
16.20225595568831
 20
170.389494447143
 30
0.0
 11
40.20225595568831
 21
170.389494447143
 31
0.0
  0
LINE
  5
1505
330
18
100
AcDbEntity
  8
1
100
AcDbLine
 10
92.70225595568831
 20
136.389494447143
 30
0.0
 11
68.70225595568832
 21
136.389494447143
 31
0.0
  0
LINE
  5
1506
330
18
100
AcDbEntity
  8
1
100
AcDbLine
 10
68.70225595568832
 20
130.389494447143
 30
0.0
 11
92.70225595568831
 21
130.389494447143
 31
0.0
  0
ARC
  5
1507
330
18
100
AcDbEntity
  8
1
100
AcDbCircle
 10
68.70225595568832
 20
133.389494447143
 30
0.0
 40
3.0
100
AcDbArc
 50
90.0
 51
270.0
  0
ARC
  5
1508
330
18
100
AcDbEntity
  8
1
100
AcDbCircle
 10
57.70225595568831
 20
133.389494447143
 30
0.0
 40
3.0
100
AcDbArc
 50
270.0
 51
90.0
  0
ARC
  5
1509
330
18
100
AcDbEntity
  8
1
100
AcDbCircle
 10
92.70225595568831
 20
133.389494447143
 30
0.0
 40
3.0
100
AcDbArc
 50
270.0
 51
90.0
  0
LINE
  5
150A
330
18
100
AcDbEntity
  8
1
100
AcDbLine
 10
127.7022559556883
 20
136.389494447143
 30
0.0
 11
103.7022559556883
 21
136.389494447143
 31
0.0
  0
LINE
  5
150B
330
18
100
AcDbEntity
  8
1
100
AcDbLine
 10
103.7022559556883
 20
130.389494447143
 30
0.0
 11
127.7022559556883
 21
130.389494447143
 31
0.0
  0
ARC
  5
150C
330
18
100
AcDbEntity
  8
1
100
AcDbCircle
 10
103.7022559556883
 20
133.389494447143
 30
0.0
 40
3.0
100
AcDbArc
 50
90.0
 51
270.0
  0
ARC
  5
150D
330
18
100
AcDbEntity
  8
1
100
AcDbCircle
 10
127.7022559556883
 20
133.389494447143
 30
0.0
 40
3.0
100
AcDbArc
 50
270.0
 51
90.0
  0
LINE
  5
150E
330
18
100
AcDbEntity
  8
1
100
AcDbLine
 10
197.7022559556883
 20
136.389494447143
 30
0.0
 11
173.7022559556883
 21
136.389494447143
 31
0.0
  0
LINE
  5
150F
330
18
100
AcDbEntity
  8
1
100
AcDbLine
 10
173.7022559556883
 20
130.389494447143
 30
0.0
 11
197.7022559556883
 21
130.389494447143
 31
0.0
  0
ARC
  5
1510
330
18
100
AcDbEntity
  8
1
100
AcDbCircle
 10
173.7022559556883
 20
133.389494447143
 30
0.0
 40
3.0
100
AcDbArc
 50
90.0
 51
270.0
  0
LINE
  5
1511
330
18
100
AcDbEntity
  8
1
100
AcDbLine
 10
232.7022559556883
 20
136.389494447143
 30
0.0
 11
208.7022559556883
 21
136.389494447143
 31
0.0
  0
LINE
  5
1512
330
18
100
AcDbEntity
  8
1
100
AcDbLine
 10
208.7022559556883
 20
130.389494447143
 30
0.0
 11
232.7022559556883
 21
130.389494447143
 31
0.0
  0
ARC
  5
1513
330
18
100
AcDbEntity
  8
1
100
AcDbCircle
 10
208.7022559556883
 20
133.389494447143
 30
0.0
 40
3.0
100
AcDbArc
 50
90.0
 51
270.0
  0
ARC
  5
1514
330
18
100
AcDbEntity
  8
1
100
AcDbCircle
 10
197.7022559556883
 20
133.389494447143
 30
0.0
 40
3.0
100
AcDbArc
 50
270.0
 51
90.0
  0
ARC
  5
1515
330
18
100
AcDbEntity
  8
1
100
AcDbCircle
 10
232.7022559556883
 20
133.389494447143
 30
0.0
 40
3.0
100
AcDbArc
 50
270.0
 51
90.0
  0
ARC
  5
1516
330
18
100
AcDbEntity
  8
1
100
AcDbCircle
 10
127.7022559556883
 20
157.389494447143
 30
0.0
 40
3.0
100
AcDbArc
 50
270.0
 51
90.0
  0
ARC
  5
1517
330
18
100
AcDbEntity
  8
1
100
AcDbCircle
 10
121.7022559556883
 20
157.389494447143
 30
0.0
 40
3.0
100
AcDbArc
 50
90.0
 51
270.0
  0
ARC
  5
1518
330
18
100
AcDbEntity
  8
1
100
AcDbCircle
 10
86.20225595568831
 20
157.389494447143
 30
0.0
 40
3.0
100
AcDbArc
 50
90.0
 51
270.0
  0
ARC
  5
1519
330
18
100
AcDbEntity
  8
1
100
AcDbCircle
 10
110.2022559556883
 20
157.389494447143
 30
0.0
 40
3.0
100
AcDbArc
 50
270.0
 51
90.0
  0
ARC
  5
151A
330
18
100
AcDbEntity
  8
1
100
AcDbCircle
 10
75.20225595568831
 20
157.389494447143
 30
0.0
 40
3.0
100
AcDbArc
 50
270.0
 51
90.0
  0
LINE
  5
151B
330
18
100
AcDbEntity
  8
1
100
AcDbLine
 10
86.20225595568831
 20
154.389494447143
 30
0.0
 11
110.2022559556883
 21
154.389494447143
 31
0.0
  0
LINE
  5
151C
330
18
100
AcDbEntity
  8
1
100
AcDbLine
 10
110.2022559556883
 20
144.389494447143
 30
0.0
 11
86.20225595568831
 21
144.389494447143
 31
0.0
  0
LINE
  5
151D
330
18
100
AcDbEntity
  8
1
100
AcDbLine
 10
86.20225595568831
 20
138.389494447143
 30
0.0
 11
110.2022559556883
 21
138.389494447143
 31
0.0
  0
ARC
  5
151E
330
18
100
AcDbEntity
  8
1
100
AcDbCircle
 10
75.20225595568831
 20
141.389494447143
 30
0.0
 40
3.0
100
AcDbArc
 50
270.0
 51
90.0
  0
ARC
  5
151F
330
18
100
AcDbEntity
  8
1
100
AcDbCircle
 10
86.20225595568831
 20
141.389494447143
 30
0.0
 40
3.0
100
AcDbArc
 50
90.0
 51
270.0
  0
LINE
  5
1520
330
18
100
AcDbEntity
  8
1
100
AcDbLine
 10
92.70225595568831
 20
152.389494447143
 30
0.0
 11
68.70225595568832
 21
152.389494447143
 31
0.0
  0
LINE
  5
1521
330
18
100
AcDbEntity
  8
1
100
AcDbLine
 10
68.70225595568832
 20
146.389494447143
 30
0.0
 11
92.70225595568831
 21
146.389494447143
 31
0.0
  0
ARC
  5
1522
330
18
100
AcDbEntity
  8
1
100
AcDbCircle
 10
68.70225595568832
 20
149.389494447143
 30
0.0
 40
3.0
100
AcDbArc
 50
90.0
 51
270.0
  0
ARC
  5
1523
330
18
100
AcDbEntity
  8
1
100
AcDbCircle
 10
57.70225595568831
 20
149.389494447143
 30
0.0
 40
3.0
100
AcDbArc
 50
270.0
 51
90.0
  0
ARC
  5
1524
330
18
100
AcDbEntity
  8
1
100
AcDbCircle
 10
92.70225595568831
 20
149.389494447143
 30
0.0
 40
3.0
100
AcDbArc
 50
270.0
 51
90.0
  0
LINE
  5
1525
330
18
100
AcDbEntity
  8
1
100
AcDbLine
 10
121.7022559556883
 20
138.389494447143
 30
0.0
 11
127.7022559556883
 21
138.389494447143
 31
0.0
  0
LINE
  5
1526
330
18
100
AcDbEntity
  8
1
100
AcDbLine
 10
127.7022559556883
 20
144.389494447143
 30
0.0
 11
121.7022559556883
 21
144.389494447143
 31
0.0
  0
ARC
  5
1527
330
18
100
AcDbEntity
  8
1
100
AcDbCircle
 10
121.7022559556883
 20
141.389494447143
 30
0.0
 40
3.0
100
AcDbArc
 50
90.0
 51
270.0
  0
ARC
  5
1528
330
18
100
AcDbEntity
  8
1
100
AcDbCircle
 10
110.2022559556883
 20
141.389494447143
 30
0.0
 40
3.0
100
AcDbArc
 50
270.0
 51
90.0
  0
ARC
  5
1529
330
18
100
AcDbEntity
  8
1
100
AcDbCircle
 10
127.7022559556883
 20
141.389494447143
 30
0.0
 40
3.0
100
AcDbArc
 50
270.0
 51
90.0
  0
LINE
  5
152A
330
18
100
AcDbEntity
  8
1
100
AcDbLine
 10
127.7022559556883
 20
152.389494447143
 30
0.0
 11
103.7022559556883
 21
152.389494447143
 31
0.0
  0
LINE
  5
152B
330
18
100
AcDbEntity
  8
1
100
AcDbLine
 10
121.7022559556883
 20
154.389494447143
 30
0.0
 11
127.7022559556883
 21
154.389494447143
 31
0.0
  0
LINE
  5
152C
330
18
100
AcDbEntity
  8
1
100
AcDbLine
 10
103.7022559556883
 20
146.389494447143
 30
0.0
 11
127.7022559556883
 21
146.389494447143
 31
0.0
  0
ARC
  5
152D
330
18
100
AcDbEntity
  8
1
100
AcDbCircle
 10
103.7022559556883
 20
149.389494447143
 30
0.0
 40
3.0
100
AcDbArc
 50
90.0
 51
270.0
  0
ARC
  5
152E
330
18
100
AcDbEntity
  8
1
100
AcDbCircle
 10
127.7022559556883
 20
149.389494447143
 30
0.0
 40
3.0
100
AcDbArc
 50
270.0
 51
90.0
  0
LINE
  5
152F
330
18
100
AcDbEntity
  8
1
100
AcDbLine
 10
86.20225595568831
 20
170.389494447143
 30
0.0
 11
110.2022559556883
 21
170.389494447143
 31
0.0
  0
LINE
  5
1530
330
18
100
AcDbEntity
  8
1
100
AcDbLine
 10
110.2022559556883
 20
160.389494447143
 30
0.0
 11
86.20225595568831
 21
160.389494447143
 31
0.0
  0
ARC
  5
1531
330
18
100
AcDbEntity
  8
1
100
AcDbCircle
 10
68.70225595568832
 20
165.389494447143
 30
0.0
 40
3.0
100
AcDbArc
 50
90.0
 51
270.0
  0
ARC
  5
1532
330
18
100
AcDbEntity
  8
1
100
AcDbCircle
 10
92.70225595568831
 20
165.389494447143
 30
0.0
 40
3.0
100
AcDbArc
 50
270.0
 51
90.0
  0
ARC
  5
1533
330
18
100
AcDbEntity
  8
1
100
AcDbCircle
 10
57.70225595568831
 20
165.389494447143
 30
0.0
 40
3.0
100
AcDbArc
 50
270.0
 51
90.0
  0
LINE
  5
1534
330
18
100
AcDbEntity
  8
1
100
AcDbLine
 10
68.70225595568832
 20
162.389494447143
 30
0.0
 11
92.70225595568831
 21
162.389494447143
 31
0.0
  0
LINE
  5
1535
330
18
100
AcDbEntity
  8
1
100
AcDbLine
 10
92.70225595568831
 20
168.389494447143
 30
0.0
 11
68.70225595568832
 21
168.389494447143
 31
0.0
  0
ARC
  5
1536
330
18
100
AcDbEntity
  8
1
100
AcDbCircle
 10
103.7022559556883
 20
165.389494447143
 30
0.0
 40
3.0
100
AcDbArc
 50
90.0
 51
270.0
  0
ARC
  5
1537
330
18
100
AcDbEntity
  8
1
100
AcDbCircle
 10
127.7022559556883
 20
165.389494447143
 30
0.0
 40
3.0
100
AcDbArc
 50
270.0
 51
90.0
  0
LINE
  5
1538
330
18
100
AcDbEntity
  8
1
100
AcDbLine
 10
103.7022559556883
 20
162.389494447143
 30
0.0
 11
127.7022559556883
 21
162.389494447143
 31
0.0
  0
LINE
  5
1539
330
18
100
AcDbEntity
  8
1
100
AcDbLine
 10
127.7022559556883
 20
160.389494447143
 30
0.0
 11
121.7022559556883
 21
160.389494447143
 31
0.0
  0
LINE
  5
153A
330
18
100
AcDbEntity
  8
1
100
AcDbLine
 10
127.7022559556883
 20
168.389494447143
 30
0.0
 11
103.7022559556883
 21
168.389494447143
 31
0.0
  0
LINE
  5
153B
330
18
100
AcDbEntity
  8
1
100
AcDbLine
 10
121.7022559556883
 20
170.389494447143
 30
0.0
 11
127.7022559556883
 21
170.389494447143
 31
0.0
  0
ARC
  5
153C
330
18
100
AcDbEntity
  8
1
100
AcDbCircle
 10
226.2022559556883
 20
157.389494447143
 30
0.0
 40
3.0
100
AcDbArc
 50
90.0
 51
270.0
  0
ARC
  5
153D
330
18
100
AcDbEntity
  8
1
100
AcDbCircle
 10
191.2022559556883
 20
157.389494447143
 30
0.0
 40
3.0
100
AcDbArc
 50
90.0
 51
270.0
  0
ARC
  5
153E
330
18
100
AcDbEntity
  8
1
100
AcDbCircle
 10
179.7022559556883
 20
157.389494447143
 30
0.0
 40
3.0
100
AcDbArc
 50
270.0
 51
90.0
  0
ARC
  5
153F
330
18
100
AcDbEntity
  8
1
100
AcDbCircle
 10
173.7022559556883
 20
157.389494447143
 30
0.0
 40
3.0
100
AcDbArc
 50
90.0
 51
270.0
  0
ARC
  5
1540
330
18
100
AcDbEntity
  8
1
100
AcDbCircle
 10
215.2022559556883
 20
157.389494447143
 30
0.0
 40
3.0
100
AcDbArc
 50
270.0
 51
90.0
  0
LINE
  5
1541
330
18
100
AcDbEntity
  8
1
100
AcDbLine
 10
197.7022559556883
 20
152.389494447143
 30
0.0
 11
173.7022559556883
 21
152.389494447143
 31
0.0
  0
LINE
  5
1542
330
18
100
AcDbEntity
  8
1
100
AcDbLine
 10
191.2022559556883
 20
154.389494447143
 30
0.0
 11
215.2022559556883
 21
154.389494447143
 31
0.0
  0
LINE
  5
1543
330
18
100
AcDbEntity
  8
1
100
AcDbLine
 10
173.7022559556883
 20
146.389494447143
 30
0.0
 11
197.7022559556883
 21
146.389494447143
 31
0.0
  0
LINE
  5
1544
330
18
100
AcDbEntity
  8
1
100
AcDbLine
 10
215.2022559556883
 20
144.389494447143
 30
0.0
 11
191.2022559556883
 21
144.389494447143
 31
0.0
  0
LINE
  5
1545
330
18
100
AcDbEntity
  8
1
100
AcDbLine
 10
191.2022559556883
 20
138.389494447143
 30
0.0
 11
215.2022559556883
 21
138.389494447143
 31
0.0
  0
LINE
  5
1546
330
18
100
AcDbEntity
  8
1
100
AcDbLine
 10
179.7022559556883
 20
144.389494447143
 30
0.0
 11
173.7022559556883
 21
144.389494447143
 31
0.0
  0
LINE
  5
1547
330
18
100
AcDbEntity
  8
1
100
AcDbLine
 10
173.7022559556883
 20
138.389494447143
 30
0.0
 11
179.7022559556883
 21
138.389494447143
 31
0.0
  0
ARC
  5
1548
330
18
100
AcDbEntity
  8
1
100
AcDbCircle
 10
191.2022559556883
 20
141.389494447143
 30
0.0
 40
3.0
100
AcDbArc
 50
90.0
 51
270.0
  0
ARC
  5
1549
330
18
100
AcDbEntity
  8
1
100
AcDbCircle
 10
179.7022559556883
 20
141.389494447143
 30
0.0
 40
3.0
100
AcDbArc
 50
270.0
 51
90.0
  0
ARC
  5
154A
330
18
100
AcDbEntity
  8
1
100
AcDbCircle
 10
173.7022559556883
 20
141.389494447143
 30
0.0
 40
3.0
100
AcDbArc
 50
90.0
 51
270.0
  0
LINE
  5
154B
330
18
100
AcDbEntity
  8
1
100
AcDbLine
 10
173.7022559556883
 20
154.389494447143
 30
0.0
 11
179.7022559556883
 21
154.389494447143
 31
0.0
  0
ARC
  5
154C
330
18
100
AcDbEntity
  8
1
100
AcDbCircle
 10
173.7022559556883
 20
149.389494447143
 30
0.0
 40
3.0
100
AcDbArc
 50
90.0
 51
270.0
  0
ARC
  5
154D
330
18
100
AcDbEntity
  8
1
100
AcDbCircle
 10
215.2022559556883
 20
141.389494447143
 30
0.0
 40
3.0
100
AcDbArc
 50
270.0
 51
90.0
  0
ARC
  5
154E
330
18
100
AcDbEntity
  8
1
100
AcDbCircle
 10
226.2022559556883
 20
141.389494447143
 30
0.0
 40
3.0
100
AcDbArc
 50
90.0
 51
270.0
  0
LINE
  5
154F
330
18
100
AcDbEntity
  8
1
100
AcDbLine
 10
232.7022559556883
 20
152.389494447143
 30
0.0
 11
208.7022559556883
 21
152.389494447143
 31
0.0
  0
LINE
  5
1550
330
18
100
AcDbEntity
  8
1
100
AcDbLine
 10
208.7022559556883
 20
146.389494447143
 30
0.0
 11
232.7022559556883
 21
146.389494447143
 31
0.0
  0
ARC
  5
1551
330
18
100
AcDbEntity
  8
1
100
AcDbCircle
 10
208.7022559556883
 20
149.389494447143
 30
0.0
 40
3.0
100
AcDbArc
 50
90.0
 51
270.0
  0
ARC
  5
1552
330
18
100
AcDbEntity
  8
1
100
AcDbCircle
 10
197.7022559556883
 20
149.389494447143
 30
0.0
 40
3.0
100
AcDbArc
 50
270.0
 51
90.0
  0
ARC
  5
1553
330
18
100
AcDbEntity
  8
1
100
AcDbCircle
 10
232.7022559556883
 20
149.389494447143
 30
0.0
 40
3.0
100
AcDbArc
 50
270.0
 51
90.0
  0
LINE
  5
1554
330
18
100
AcDbEntity
  8
1
100
AcDbLine
 10
197.7022559556883
 20
168.389494447143
 30
0.0
 11
173.7022559556883
 21
168.389494447143
 31
0.0
  0
LINE
  5
1555
330
18
100
AcDbEntity
  8
1
100
AcDbLine
 10
191.2022559556883
 20
170.389494447143
 30
0.0
 11
215.2022559556883
 21
170.389494447143
 31
0.0
  0
LINE
  5
1556
330
18
100
AcDbEntity
  8
1
100
AcDbLine
 10
173.7022559556883
 20
162.389494447143
 30
0.0
 11
197.7022559556883
 21
162.389494447143
 31
0.0
  0
LINE
  5
1557
330
18
100
AcDbEntity
  8
1
100
AcDbLine
 10
215.2022559556883
 20
160.389494447143
 30
0.0
 11
191.2022559556883
 21
160.389494447143
 31
0.0
  0
ARC
  5
1558
330
18
100
AcDbEntity
  8
1
100
AcDbCircle
 10
173.7022559556883
 20
165.389494447143
 30
0.0
 40
3.0
100
AcDbArc
 50
90.0
 51
270.0
  0
LINE
  5
1559
330
18
100
AcDbEntity
  8
1
100
AcDbLine
 10
179.7022559556883
 20
160.389494447143
 30
0.0
 11
173.7022559556883
 21
160.389494447143
 31
0.0
  0
LINE
  5
155A
330
18
100
AcDbEntity
  8
1
100
AcDbLine
 10
173.7022559556883
 20
170.389494447143
 30
0.0
 11
179.7022559556883
 21
170.389494447143
 31
0.0
  0
ARC
  5
155B
330
18
100
AcDbEntity
  8
1
100
AcDbCircle
 10
208.7022559556883
 20
165.389494447143
 30
0.0
 40
3.0
100
AcDbArc
 50
90.0
 51
270.0
  0
ARC
  5
155C
330
18
100
AcDbEntity
  8
1
100
AcDbCircle
 10
232.7022559556883
 20
165.389494447143
 30
0.0
 40
3.0
100
AcDbArc
 50
270.0
 51
90.0
  0
ARC
  5
155D
330
18
100
AcDbEntity
  8
1
100
AcDbCircle
 10
197.7022559556883
 20
165.389494447143
 30
0.0
 40
3.0
100
AcDbArc
 50
270.0
 51
90.0
  0
LINE
  5
155E
330
18
100
AcDbEntity
  8
1
100
AcDbLine
 10
208.7022559556883
 20
162.389494447143
 30
0.0
 11
232.7022559556883
 21
162.389494447143
 31
0.0
  0
LINE
  5
155F
330
18
100
AcDbEntity
  8
1
100
AcDbLine
 10
232.7022559556883
 20
168.389494447143
 30
0.0
 11
208.7022559556883
 21
168.389494447143
 31
0.0
  0
ARC
  5
1560
330
18
100
AcDbEntity
  8
1
100
AcDbCircle
 10
267.7022559556883
 20
51.63949444714308
 30
0.0
 40
3.0
100
AcDbArc
 50
270.0
 51
90.0
  0
ARC
  5
1561
330
18
100
AcDbEntity
  8
1
100
AcDbCircle
 10
285.2022559556883
 20
51.63949444714308
 30
0.0
 40
3.0
100
AcDbArc
 50
270.0
 51
90.0
  0
ARC
  5
1562
330
18
100
AcDbEntity
  8
1
100
AcDbCircle
 10
279.2022559556883
 20
51.63949444714308
 30
0.0
 40
3.0
100
AcDbArc
 50
90.0
 51
270.0
  0
ARC
  5
1563
330
18
100
AcDbEntity
  8
1
100
AcDbCircle
 10
243.7022559556883
 20
51.63949444714308
 30
0.0
 40
3.0
100
AcDbArc
 50
90.0
 51
270.0
  0
ARC
  5
1564
330
18
100
AcDbEntity
  8
1
100
AcDbCircle
 10
285.2022559556883
 20
35.63949444714308
 30
0.0
 40
3.0
100
AcDbArc
 50
270.0
 51
90.0
  0
ARC
  5
1565
330
18
100
AcDbEntity
  8
1
100
AcDbCircle
 10
285.2022559556883
 20
43.63949444714307
 30
0.0
 40
3.0
100
AcDbArc
 50
270.0
 51
90.0
  0
ARC
  5
1566
330
18
100
AcDbEntity
  8
1
100
AcDbCircle
 10
261.2022559556883
 20
43.63949444714307
 30
0.0
 40
3.0
100
AcDbArc
 50
90.0
 51
270.0
  0
ARC
  5
1567
330
18
100
AcDbEntity
  8
1
100
AcDbCircle
 10
250.2022559556883
 20
43.63949444714307
 30
0.0
 40
3.0
100
AcDbArc
 50
270.0
 51
90.0
  0
LINE
  5
1568
330
18
100
AcDbEntity
  8
1
100
AcDbLine
 10
261.2022559556883
 20
40.63949444714308
 30
0.0
 11
285.2022559556883
 21
40.63949444714308
 31
0.0
  0
LINE
  5
1569
330
18
100
AcDbEntity
  8
1
100
AcDbLine
 10
267.7022559556883
 20
38.63949444714307
 30
0.0
 11
243.7022559556883
 21
38.63949444714307
 31
0.0
  0
LINE
  5
156A
330
18
100
AcDbEntity
  8
1
100
AcDbLine
 10
243.7022559556883
 20
32.63949444714308
 30
0.0
 11
267.7022559556883
 21
32.63949444714308
 31
0.0
  0
ARC
  5
156B
330
18
100
AcDbEntity
  8
1
100
AcDbCircle
 10
243.7022559556883
 20
35.63949444714308
 30
0.0
 40
3.0
100
AcDbArc
 50
90.0
 51
270.0
  0
LINE
  5
156C
330
18
100
AcDbEntity
  8
1
100
AcDbLine
 10
285.2022559556883
 20
38.63949444714307
 30
0.0
 11
279.2022559556883
 21
38.63949444714307
 31
0.0
  0
LINE
  5
156D
330
18
100
AcDbEntity
  8
1
100
AcDbLine
 10
279.2022559556883
 20
32.63949444714308
 30
0.0
 11
285.2022559556883
 21
32.63949444714308
 31
0.0
  0
ARC
  5
156E
330
18
100
AcDbEntity
  8
1
100
AcDbCircle
 10
267.7022559556883
 20
35.63949444714308
 30
0.0
 40
3.0
100
AcDbArc
 50
270.0
 51
90.0
  0
ARC
  5
156F
330
18
100
AcDbEntity
  8
1
100
AcDbCircle
 10
279.2022559556883
 20
35.63949444714308
 30
0.0
 40
3.0
100
AcDbArc
 50
90.0
 51
270.0
  0
LINE
  5
1570
330
18
100
AcDbEntity
  8
1
100
AcDbLine
 10
285.2022559556883
 20
46.63949444714307
 30
0.0
 11
261.2022559556883
 21
46.63949444714307
 31
0.0
  0
LINE
  5
1571
330
18
100
AcDbEntity
  8
1
100
AcDbLine
 10
243.7022559556883
 20
48.63949444714307
 30
0.0
 11
267.7022559556883
 21
48.63949444714307
 31
0.0
  0
LINE
  5
1572
330
18
100
AcDbEntity
  8
1
100
AcDbLine
 10
279.2022559556883
 20
48.63949444714307
 30
0.0
 11
285.2022559556883
 21
48.63949444714307
 31
0.0
  0
LINE
  5
1573
330
18
100
AcDbEntity
  8
1
100
AcDbLine
 10
267.7022559556883
 20
54.63949444714308
 30
0.0
 11
243.7022559556883
 21
54.63949444714308
 31
0.0
  0
LINE
  5
1574
330
18
100
AcDbEntity
  8
1
100
AcDbLine
 10
285.2022559556883
 20
54.63949444714308
 30
0.0
 11
279.2022559556883
 21
54.63949444714308
 31
0.0
  0
LINE
  5
1575
330
18
100
AcDbEntity
  8
1
100
AcDbLine
 10
450.3022559556877
 20
37.68949444714309
 30
0.0
 11
443.2022559556883
 21
37.68949444714309
 31
0.0
  0
LINE
  5
1576
330
18
100
AcDbEntity
  8
1
100
AcDbLine
 10
443.2022559556883
 20
37.33949444714307
 30
0.0
 11
450.3022559556877
 21
37.33949444714307
 31
0.0
  0
LINE
  5
1577
330
18
100
AcDbEntity
  8
1
100
AcDbLine
 10
443.2022559556883
 20
36.33949444714307
 30
0.0
 11
450.3022559556877
 21
36.33949444714307
 31
0.0
  0
LINE
  5
1578
330
18
100
AcDbEntity
  8
1
100
AcDbLine
 10
443.2022559556883
 20
34.83949444714307
 30
0.0
 11
450.3022559556877
 21
34.83949444714307
 31
0.0
  0
LINE
  5
1579
330
18
100
AcDbEntity
  8
1
100
AcDbLine
 10
443.2022559556883
 20
32.83949444714306
 30
0.0
 11
450.3022559556877
 21
32.83949444714306
 31
0.0
  0
ARC
  5
157A
330
18
100
AcDbEntity
  8
1
100
AcDbCircle
 10
439.2022561442802
 20
39.83949444714307
 30
0.0
 40
0.5
100
AcDbArc
 50
0.0
 51
90.0
  0
LINE
  5
157B
330
18
100
AcDbEntity
  8
1
100
AcDbLine
 10
437.7022561442802
 20
40.33949444714306
 30
0.0
 11
439.2022561442802
 21
40.33949444714306
 31
0.0
  0
LINE
  5
157C
330
18
100
AcDbEntity
  8
1
100
AcDbLine
 10
443.2022559556883
 20
36.33949444714307
 30
0.0
 11
443.2022559556883
 21
34.83949444714318
 31
0.0
  0
LINE
  5
157D
330
18
100
AcDbEntity
  8
1
100
AcDbLine
 10
443.2022559556883
 20
37.68949444714309
 30
0.0
 11
443.2022559556883
 21
37.33949444714295
 31
0.0
  0
SPLINE
  5
157E
330
18
100
AcDbEntity
  8
1
100
AcDbSpline
210
0.0
220
0.0
230
1.0
 70
     8
 71
     3
 72
     9
 73
     5
 74
     3
 42
0.0000000001
 43
0.0000000001
 44
0.0000000001
 40
0.0
 40
0.0
 40
0.0
 40
0.0
 40
1.118033988749894
 40
2.236067977499789
 40
2.236067977499789
 40
2.236067977499789
 40
2.236067977499789
 10
443.2022559556883
 20
37.33949444714307
 30
0.0
 10
443.7022559556883
 20
37.17282778047639
 30
0.0
 10
444.7022559556883
 20
36.83949444714306
 30
0.0
 10
443.7022559556883
 20
36.50616111380974
 30
0.0
 10
443.2022559556883
 20
36.33949444714307
 30
0.0
 11
443.2022559556883
 21
37.33949444714307
 31
0.0
 11
444.2022559556883
 21
36.83949444714306
 31
0.0
 11
443.2022559556883
 21
36.33949444714307
 31
0.0
  0
LINE
  5
157F
330
18
100
AcDbEntity
  8
1
100
AcDbLine
 10
444.2022559556883
 20
37.68949444714309
 30
0.0
 11
441.2022559556882
 21
39.23949444714304
 31
0.0
  0
LINE
  5
1580
330
18
100
AcDbEntity
  8
1
100
AcDbLine
 10
439.7022559556883
 20
39.23949444714304
 30
0.0
 11
441.2022559556882
 21
39.23949444714304
 31
0.0
  0
LINE
  5
1581
330
18
100
AcDbEntity
  8
1
100
AcDbLine
 10
439.7022559556883
 20
32.83949444714306
 30
0.0
 11
437.7022559556883
 21
32.83949444714306
 31
0.0
  0
SPLINE
  5
1582
330
18
100
AcDbEntity
  8
1
100
AcDbSpline
210
0.0
220
0.0
230
1.0
 70
     8
 71
     3
 72
     9
 73
     5
 74
     3
 42
0.0000000001
 43
0.0000000001
 44
0.0000000001
 40
0.0
 40
0.0
 40
0.0
 40
0.0
 40
1.414213562373095
 40
2.82842712474619
 40
2.82842712474619
 40
2.82842712474619
 40
2.82842712474619
 10
443.2022559556883
 20
34.83949444714307
 30
0.0
 10
443.7022559556883
 20
34.50616111380973
 30
0.0
 10
444.7022559556883
 20
33.83949444714307
 30
0.0
 10
443.7022559556883
 20
33.17282778047639
 30
0.0
 10
443.2022559556883
 20
32.83949444714306
 30
0.0
 11
443.2022559556883
 21
34.83949444714307
 31
0.0
 11
444.2022559556883
 21
33.83949444714307
 31
0.0
 11
443.2022559556883
 21
32.83949444714306
 31
0.0
  0
LINE
  5
1583
330
18
100
AcDbEntity
  8
1
100
AcDbLine
 10
450.3022559556877
 20
37.68949444714309
 30
0.0
 11
450.8022559556877
 21
35.68949444714309
 31
0.0
  0
ARC
  5
1584
330
18
100
AcDbEntity
  8
1
100
AcDbCircle
 10
285.2022559556883
 20
133.389494447143
 30
0.0
 40
3.0
100
AcDbArc
 50
270.0
 51
90.0
  0
LINE
  5
1585
330
18
100
AcDbEntity
  8
1
100
AcDbLine
 10
267.7022559556883
 20
136.389494447143
 30
0.0
 11
243.7022559556883
 21
136.389494447143
 31
0.0
  0
LINE
  5
1586
330
18
100
AcDbEntity
  8
1
100
AcDbLine
 10
243.7022559556883
 20
130.389494447143
 30
0.0
 11
267.7022559556883
 21
130.389494447143
 31
0.0
  0
ARC
  5
1587
330
18
100
AcDbEntity
  8
1
100
AcDbCircle
 10
243.7022559556883
 20
133.389494447143
 30
0.0
 40
3.0
100
AcDbArc
 50
90.0
 51
270.0
  0
ARC
  5
1588
330
18
100
AcDbEntity
  8
1
100
AcDbCircle
 10
267.7022559556883
 20
133.389494447143
 30
0.0
 40
3.0
100
AcDbArc
 50
270.0
 51
90.0
  0
ARC
  5
1589
330
18
100
AcDbEntity
  8
1
100
AcDbCircle
 10
279.2022559556883
 20
133.389494447143
 30
0.0
 40
3.0
100
AcDbArc
 50
90.0
 51
270.0
  0
LINE
  5
158A
330
18
100
AcDbEntity
  8
1
100
AcDbLine
 10
279.2022559556883
 20
130.389494447143
 30
0.0
 11
285.2022559556883
 21
130.389494447143
 31
0.0
  0
LINE
  5
158B
330
18
100
AcDbEntity
  8
1
100
AcDbLine
 10
285.2022559556883
 20
136.389494447143
 30
0.0
 11
279.2022559556883
 21
136.389494447143
 31
0.0
  0
ARC
  5
158C
330
18
100
AcDbEntity
  8
1
100
AcDbCircle
 10
285.2022559556883
 20
157.389494447143
 30
0.0
 40
3.0
100
AcDbArc
 50
270.0
 51
90.0
  0
ARC
  5
158D
330
18
100
AcDbEntity
  8
1
100
AcDbCircle
 10
261.2022559556883
 20
157.389494447143
 30
0.0
 40
3.0
100
AcDbArc
 50
90.0
 51
270.0
  0
ARC
  5
158E
330
18
100
AcDbEntity
  8
1
100
AcDbCircle
 10
250.2022559556883
 20
157.389494447143
 30
0.0
 40
3.0
100
AcDbArc
 50
270.0
 51
90.0
  0
ARC
  5
158F
330
18
100
AcDbEntity
  8
1
100
AcDbCircle
 10
285.2022559556883
 20
141.389494447143
 30
0.0
 40
3.0
100
AcDbArc
 50
270.0
 51
90.0
  0
ARC
  5
1590
330
18
100
AcDbEntity
  8
1
100
AcDbCircle
 10
285.2022559556883
 20
149.389494447143
 30
0.0
 40
3.0
100
AcDbArc
 50
270.0
 51
90.0
  0
LINE
  5
1591
330
18
100
AcDbEntity
  8
1
100
AcDbLine
 10
285.2022559556883
 20
144.389494447143
 30
0.0
 11
261.2022559556883
 21
144.389494447143
 31
0.0
  0
LINE
  5
1592
330
18
100
AcDbEntity
  8
1
100
AcDbLine
 10
261.2022559556883
 20
138.389494447143
 30
0.0
 11
285.2022559556883
 21
138.389494447143
 31
0.0
  0
ARC
  5
1593
330
18
100
AcDbEntity
  8
1
100
AcDbCircle
 10
261.2022559556883
 20
141.389494447143
 30
0.0
 40
3.0
100
AcDbArc
 50
90.0
 51
270.0
  0
ARC
  5
1594
330
18
100
AcDbEntity
  8
1
100
AcDbCircle
 10
250.2022559556883
 20
141.389494447143
 30
0.0
 40
3.0
100
AcDbArc
 50
270.0
 51
90.0
  0
LINE
  5
1595
330
18
100
AcDbEntity
  8
1
100
AcDbLine
 10
267.7022559556883
 20
152.389494447143
 30
0.0
 11
243.7022559556883
 21
152.389494447143
 31
0.0
  0
LINE
  5
1596
330
18
100
AcDbEntity
  8
1
100
AcDbLine
 10
243.7022559556883
 20
146.389494447143
 30
0.0
 11
267.7022559556883
 21
146.389494447143
 31
0.0
  0
LINE
  5
1597
330
18
100
AcDbEntity
  8
1
100
AcDbLine
 10
261.2022559556883
 20
154.389494447143
 30
0.0
 11
285.2022559556883
 21
154.389494447143
 31
0.0
  0
ARC
  5
1598
330
18
100
AcDbEntity
  8
1
100
AcDbCircle
 10
243.7022559556883
 20
149.389494447143
 30
0.0
 40
3.0
100
AcDbArc
 50
90.0
 51
270.0
  0
LINE
  5
1599
330
18
100
AcDbEntity
  8
1
100
AcDbLine
 10
285.2022559556883
 20
152.389494447143
 30
0.0
 11
279.2022559556883
 21
152.389494447143
 31
0.0
  0
LINE
  5
159A
330
18
100
AcDbEntity
  8
1
100
AcDbLine
 10
279.2022559556883
 20
146.389494447143
 30
0.0
 11
285.2022559556883
 21
146.389494447143
 31
0.0
  0
ARC
  5
159B
330
18
100
AcDbEntity
  8
1
100
AcDbCircle
 10
267.7022559556883
 20
149.389494447143
 30
0.0
 40
3.0
100
AcDbArc
 50
270.0
 51
90.0
  0
ARC
  5
159C
330
18
100
AcDbEntity
  8
1
100
AcDbCircle
 10
279.2022559556883
 20
149.389494447143
 30
0.0
 40
3.0
100
AcDbArc
 50
90.0
 51
270.0
  0
ARC
  5
159D
330
18
100
AcDbEntity
  8
1
100
AcDbCircle
 10
285.2022559556883
 20
165.389494447143
 30
0.0
 40
3.0
100
AcDbArc
 50
270.0
 51
90.0
  0
ARC
  5
159E
330
18
100
AcDbEntity
  8
1
100
AcDbCircle
 10
279.2022559556883
 20
165.389494447143
 30
0.0
 40
3.0
100
AcDbArc
 50
90.0
 51
270.0
  0
ARC
  5
159F
330
18
100
AcDbEntity
  8
1
100
AcDbCircle
 10
243.7022559556883
 20
165.389494447143
 30
0.0
 40
3.0
100
AcDbArc
 50
90.0
 51
270.0
  0
ARC
  5
15A0
330
18
100
AcDbEntity
  8
1
100
AcDbCircle
 10
267.7022559556883
 20
165.389494447143
 30
0.0
 40
3.0
100
AcDbArc
 50
270.0
 51
90.0
  0
LINE
  5
15A1
330
18
100
AcDbEntity
  8
1
100
AcDbLine
 10
243.7022559556883
 20
162.389494447143
 30
0.0
 11
267.7022559556883
 21
162.389494447143
 31
0.0
  0
LINE
  5
15A2
330
18
100
AcDbEntity
  8
1
100
AcDbLine
 10
285.2022559556883
 20
160.389494447143
 30
0.0
 11
261.2022559556883
 21
160.389494447143
 31
0.0
  0
LINE
  5
15A3
330
18
100
AcDbEntity
  8
1
100
AcDbLine
 10
279.2022559556883
 20
162.389494447143
 30
0.0
 11
285.2022559556883
 21
162.389494447143
 31
0.0
  0
LINE
  5
15A4
330
18
100
AcDbEntity
  8
1
100
AcDbLine
 10
267.7022559556883
 20
168.389494447143
 30
0.0
 11
243.7022559556883
 21
168.389494447143
 31
0.0
  0
LINE
  5
15A5
330
18
100
AcDbEntity
  8
1
100
AcDbLine
 10
261.2022559556883
 20
170.389494447143
 30
0.0
 11
285.2022559556883
 21
170.389494447143
 31
0.0
  0
LINE
  5
15A6
330
18
100
AcDbEntity
  8
1
100
AcDbLine
 10
285.2022559556883
 20
168.389494447143
 30
0.0
 11
279.2022559556883
 21
168.389494447143
 31
0.0
  0
DIMENSION
  5
15A7
330
18
100
AcDbEntity
  8
2
100
AcDbDimension
  2
*D3
 10
478.6022559556879
 20
125.389494447143
 30
0.0
 11
475.6022559556879
 21
135.3894944471431
 31
0.0
 70
    32
 71
     5
 42
20.00000000000001
  3
STANDARD
100
AcDbAlignedDimension
 13
450.2022559556883
 23
145.389494447143
 33
0.0
 14
437.7022559556883
 24
125.389494447143
 34
0.0
 50
90.0
100
AcDbRotatedDimension
1001
ACAD
1000
DSTYLE
1002
{
1070
    40
1040
1.0
1002
}
  0
LINE
  5
15A8
330
18
100
AcDbEntity
  8
1
100
AcDbLine
 10
452.7022559556883
 20
155.8894944471432
 30
0.0
 11
452.7022559556883
 21
132.889494447143
 31
0.0
  0
LINE
  5
15A9
330
18
100
AcDbEntity
  8
1
100
AcDbLine
 10
517.4522559556883
 20
125.389494447143
 30
0.0
 11
611.4522559556883
 21
125.389494447143
 31
0.0
  0
ARC
  5
15AA
330
18
100
AcDbEntity
  8
1
100
AcDbCircle
 10
447.7022559556883
 20
132.889494447143
 30
0.0
 40
5.0
100
AcDbArc
 50
270.0
 51
0.0
  0
LINE
  5
15AB
330
18
100
AcDbEntity
  8
1
100
AcDbLine
 10
447.7022559556883
 20
127.889494447143
 30
0.0
 11
437.7022559556883
 21
127.889494447143
 31
0.0
  0
LINE
  5
15AC
330
18
100
AcDbEntity
  8
1
100
AcDbLine
 10
442.7022559556883
 20
154.3894944471432
 30
0.0
 11
445.7022559556882
 21
155.3894944471432
 31
0.0
  0
LINE
  5
15AD
330
18
100
AcDbEntity
  8
1
100
AcDbLine
 10
442.7022559556883
 20
156.7644944471432
 30
0.0
 11
442.7022559556883
 21
154.3894944471432
 31
0.0
  0
CIRCLE
  5
15AE
330
18
100
AcDbEntity
  8
1
100
AcDbCircle
 10
445.7022559556882
 20
145.389494447143
 30
0.0
 40
3.0
  0
LINE
  5
15AF
330
18
100
AcDbEntity
  8
1
100
AcDbLine
 10
437.7022559556883
 20
154.3894944471432
 30
0.0
 11
442.7022559556883
 21
154.3894944471432
 31
0.0
  0
SPLINE
  5
15B0
330
18
100
AcDbEntity
  8
1
100
AcDbSpline
210
0.0
220
0.0
230
1.0
 70
     8
 71
     3
 72
     9
 73
     5
 74
     3
 42
0.0000000001
 43
0.0000000001
 44
0.0000000001
 40
0.0
 40
0.0
 40
0.0
 40
0.0
 40
2.96015202312322
 40
5.341966418698447
 40
5.341966418698447
 40
5.341966418698447
 40
5.341966418698447
 10
470.7022559556882
 20
161.6394944471432
 30
0.0
 10
471.6921839978813
 20
162.4826904274182
 30
0.0
 10
473.4786335845968
 20
164.00434356409
 30
0.0
 10
471.4554777149865
 20
164.9411373376428
 30
0.0
 10
470.5534163021959
 20
165.3588241444566
 30
0.0
 11
470.7022559556882
 21
161.6394944471432
 31
0.0
 11
472.5022559556885
 21
163.9894944471432
 31
0.0
 11
470.5534163021959
 21
165.3588241444566
 31
0.0
  0
ARC
  5
15B1
330
18
100
AcDbEntity
  8
1
100
AcDbCircle
 10
448.8597559556885
 20
160.2644944471432
 30
0.0
 40
6.87571314483087
100
AcDbArc
 50
328.1823190903635
 51
31.81768090963643
  0
LINE
  5
15B2
330
18
100
AcDbEntity
  8
1
100
AcDbLine
 10
443.2022559556883
 20
163.8894944471432
 30
0.0
 11
443.2022559556883
 21
162.3894944471432
 31
0.0
  0
SPLINE
  5
15B3
330
18
100
AcDbEntity
  8
1
100
AcDbSpline
210
0.0
220
0.0
230
1.0
 70
     8
 71
     3
 72
    10
 73
     6
 74
     4
 42
0.0000000001
 43
0.0000000001
 44
0.0000000001
 40
0.0
 40
0.0
 40
0.0
 40
0.0
 40
3.095561338432568
 40
7.145252684695574
 40
10.34876638062392
 40
10.34876638062392
 40
10.34876638062392
 40
10.34876638062392
 10
470.7022559556882
 20
169.1394944471432
 30
0.0
 10
471.6597825684218
 20
168.1609945031332
 30
0.0
 10
473.8699696241131
 20
165.9023962756942
 30
0.0
 10
467.2510550881238
 20
164.8342695020903
 30
0.0
 10
469.6449482549142
 20
162.6182436992029
 30
0.0
 10
470.7022559556882
 20
161.6394944471432
 30
0.0
 11
470.7022559556882
 21
169.1394944471432
 31
0.0
 11
472.3022559556877
 21
166.4894944471432
 31
0.0
 11
468.9022559556881
 21
164.2894944471432
 31
0.0
 11
470.7022559556882
 21
161.6394944471432
 31
0.0
  0
LINE
  5
15B4
330
18
100
AcDbEntity
  8
1
100
AcDbLine
 10
450.8022559556877
 20
171.2394944471432
 30
0.0
 11
450.8022559556877
 21
159.5394944471432
 31
0.0
  0
LINE
  5
15B5
330
18
100
AcDbEntity
  8
1
100
AcDbLine
 10
447.7022559556883
 20
156.3894944471432
 30
0.0
 11
450.7022559556883
 21
156.3894944471432
 31
0.0
  0
LINE
  5
15B6
330
18
100
AcDbEntity
  8
1
100
AcDbLine
 10
443.2022559556883
 20
162.3894944471432
 30
0.0
 11
450.3022559556877
 21
162.3894944471431
 31
0.0
  0
LINE
  5
15B7
330
18
100
AcDbEntity
  8
1
100
AcDbLine
 10
450.3022559556877
 20
157.5394944471432
 30
0.0
 11
443.2022559556883
 21
157.5394944471432
 31
0.0
  0
LINE
  5
15B8
330
18
100
AcDbEntity
  8
1
100
AcDbLine
 10
443.2022559556883
 20
157.8894944471432
 30
0.0
 11
450.3022559556877
 21
157.8894944471432
 31
0.0
  0
LINE
  5
15B9
330
18
100
AcDbEntity
  8
1
100
AcDbLine
 10
443.2022559556883
 20
158.8894944471432
 30
0.0
 11
450.3022559556877
 21
158.8894944471432
 31
0.0
  0
LINE
  5
15BA
330
18
100
AcDbEntity
  8
1
100
AcDbLine
 10
443.2022559556883
 20
160.3894944471432
 30
0.0
 11
450.3022559556877
 21
160.3894944471432
 31
0.0
  0
LINE
  5
15BB
330
18
100
AcDbEntity
  8
1
100
AcDbLine
 10
439.7022559556883
 20
162.3894944471432
 30
0.0
 11
437.7022559556883
 21
162.3894944471432
 31
0.0
  0
SPLINE
  5
15BC
330
18
100
AcDbEntity
  8
1
100
AcDbSpline
210
0.0
220
0.0
230
1.0
 70
     8
 71
     3
 72
     9
 73
     5
 74
     3
 42
0.0000000001
 43
0.0000000001
 44
0.0000000001
 40
0.0
 40
0.0
 40
0.0
 40
0.0
 40
1.414213562373095
 40
2.82842712474619
 40
2.82842712474619
 40
2.82842712474619
 40
2.82842712474619
 10
443.2022559556883
 20
160.3894944471432
 30
0.0
 10
443.7022559556883
 20
160.7228277804765
 30
0.0
 10
444.7022559556883
 20
161.3894944471432
 30
0.0
 10
443.7022559556883
 20
162.0561611138099
 30
0.0
 10
443.2022559556883
 20
162.3894944471432
 30
0.0
 11
443.2022559556883
 21
160.3894944471432
 31
0.0
 11
444.2022559556883
 21
161.3894944471432
 31
0.0
 11
443.2022559556883
 21
162.3894944471432
 31
0.0
  0
LINE
  5
15BD
330
18
100
AcDbEntity
  8
1
100
AcDbLine
 10
443.2022559556883
 20
160.3894944471432
 30
0.0
 11
443.2022559556883
 21
158.8894944471432
 31
0.0
  0
LINE
  5
15BE
330
18
100
AcDbEntity
  8
1
100
AcDbLine
 10
443.2022559556883
 20
157.8894944471433
 30
0.0
 11
443.2022559556883
 21
157.5394944471433
 31
0.0
  0
SPLINE
  5
15BF
330
18
100
AcDbEntity
  8
1
100
AcDbSpline
210
0.0
220
0.0
230
1.0
 70
     8
 71
     3
 72
     9
 73
     5
 74
     3
 42
0.0000000001
 43
0.0000000001
 44
0.0000000001
 40
0.0
 40
0.0
 40
0.0
 40
0.0
 40
1.118033988749894
 40
2.236067977499789
 40
2.236067977499789
 40
2.236067977499789
 40
2.236067977499789
 10
443.2022559556883
 20
157.8894944471432
 30
0.0
 10
443.7022559556883
 20
158.0561611138099
 30
0.0
 10
444.7022559556883
 20
158.3894944471432
 30
0.0
 10
443.7022559556883
 20
158.7228277804765
 30
0.0
 10
443.2022559556883
 20
158.8894944471432
 30
0.0
 11
443.2022559556883
 21
157.8894944471432
 31
0.0
 11
444.2022559556883
 21
158.3894944471432
 31
0.0
 11
443.2022559556883
 21
158.8894944471432
 31
0.0
  0
LINE
  5
15C0
330
18
100
AcDbEntity
  8
1
100
AcDbLine
 10
442.7022559556883
 20
155.3894944471432
 30
0.0
 11
447.7022559556883
 21
155.3894944471432
 31
0.0
  0
LINE
  5
15C1
330
18
100
AcDbEntity
  8
1
100
AcDbLine
 10
439.7022559556883
 20
155.9894944471432
 30
0.0
 11
441.2022559556882
 21
155.9894944471432
 31
0.0
  0
LINE
  5
15C2
330
18
100
AcDbEntity
  8
1
100
AcDbLine
 10
445.7022559556882
 20
157.5394944471432
 30
0.0
 11
445.7022559556882
 21
155.3894944471432
 31
0.0
  0
LINE
  5
15C3
330
18
100
AcDbEntity
  8
1
100
AcDbLine
 10
447.7022559556883
 20
157.5394944471432
 30
0.0
 11
447.7022559556883
 21
155.3894944471432
 31
0.0
  0
LINE
  5
15C4
330
18
100
AcDbEntity
  8
1
100
AcDbLine
 10
444.2022559556883
 20
157.5394944471432
 30
0.0
 11
441.2022559556882
 21
155.9894944471432
 31
0.0
  0
LINE
  5
15C5
330
18
100
AcDbEntity
  8
1
100
AcDbLine
 10
455.7022559556883
 20
161.6394944471432
 30
0.0
 11
470.7022559556882
 21
161.6394944471432
 31
0.0
  0
LINE
  5
15C6
330
18
100
AcDbEntity
  8
1
100
AcDbLine
 10
454.7022559556883
 20
156.6394944471432
 30
0.0
 11
450.7022559556883
 21
156.6394944471432
 31
0.0
  0
LINE
  5
15C7
330
18
100
AcDbEntity
  8
1
100
AcDbLine
 10
450.3022559556877
 20
157.5394944471432
 30
0.0
 11
450.8022559556877
 21
159.5394944471432
 31
0.0
  0
LINE
  5
15C8
330
18
100
AcDbEntity
  8
1
100
AcDbLine
 10
454.7022559556883
 20
155.8894944471432
 30
0.0
 11
450.7022559556883
 21
155.8894944471432
 31
0.0
  0
LINE
  5
15C9
330
18
100
AcDbEntity
  8
1
100
AcDbLine
 10
450.7022559556883
 20
159.139494447143
 30
0.0
 11
450.7022559556883
 21
155.8894944471432
 31
0.0
  0
LINE
  5
15CA
330
18
100
AcDbEntity
  8
1
100
AcDbLine
 10
454.7022559556883
 20
156.6394944471432
 30
0.0
 11
454.7022559556883
 21
155.8894944471432
 31
0.0
  0
LINE
  5
15CB
330
18
100
AcDbEntity
  8
1
100
AcDbLine
 10
455.7022559556883
 20
156.8894944471432
 30
0.0
 11
454.7022559556883
 21
155.8894944471432
 31
0.0
  0
LINE
  5
15CC
330
18
100
AcDbEntity
  8
1
100
AcDbLine
 10
443.2022559556883
 20
166.8894944471432
 30
0.0
 11
450.3022559556877
 21
166.8894944471431
 31
0.0
  0
LINE
  5
15CD
330
18
100
AcDbEntity
  8
1
100
AcDbLine
 10
443.2022559556883
 20
171.8894944471432
 30
0.0
 11
450.3022559556877
 21
171.8894944471432
 31
0.0
  0
LINE
  5
15CE
330
18
100
AcDbEntity
  8
1
100
AcDbLine
 10
443.2022559556883
 20
170.3894944471432
 30
0.0
 11
450.3022559556877
 21
170.3894944471432
 31
0.0
  0
LINE
  5
15CF
330
18
100
AcDbEntity
  8
1
100
AcDbLine
 10
443.2022559556883
 20
168.3894944471432
 30
0.0
 11
450.3022559556877
 21
168.3894944471432
 31
0.0
  0
LINE
  5
15D0
330
18
100
AcDbEntity
  8
1
100
AcDbLine
 10
443.2022559556883
 20
163.8894944471432
 30
0.0
 11
450.3022559556877
 21
163.8894944471431
 31
0.0
  0
LINE
  5
15D1
330
18
100
AcDbEntity
  8
1
100
AcDbLine
 10
439.7022559556883
 20
168.3894944471432
 30
0.0
 11
437.7022559556883
 21
168.3894944471432
 31
0.0
  0
LINE
  5
15D2
330
18
100
AcDbEntity
  8
1
100
AcDbLine
 10
443.2022559556883
 20
171.8894944471432
 30
0.0
 11
443.2022559556883
 21
170.3894944471433
 31
0.0
  0
LINE
  5
15D3
330
18
100
AcDbEntity
  8
1
100
AcDbLine
 10
443.2022559556883
 20
168.3894944471433
 30
0.0
 11
443.2022559556883
 21
166.8894944471432
 31
0.0
  0
SPLINE
  5
15D4
330
18
100
AcDbEntity
  8
1
100
AcDbSpline
210
0.0
220
0.0
230
1.0
 70
     8
 71
     3
 72
     9
 73
     5
 74
     3
 42
0.0000000001
 43
0.0000000001
 44
0.0000000001
 40
0.0
 40
0.0
 40
0.0
 40
0.0
 40
1.414213562373095
 40
2.82842712474619
 40
2.82842712474619
 40
2.82842712474619
 40
2.82842712474619
 10
443.2022559556883
 20
170.3894944471432
 30
0.0
 10
443.7022559556883
 20
170.0561611138098
 30
0.0
 10
444.7022559556883
 20
169.3894944471432
 30
0.0
 10
443.7022559556883
 20
168.7228277804766
 30
0.0
 10
443.2022559556883
 20
168.3894944471432
 30
0.0
 11
443.2022559556883
 21
170.3894944471432
 31
0.0
 11
444.2022559556883
 21
169.3894944471432
 31
0.0
 11
443.2022559556883
 21
168.3894944471432
 31
0.0
  0
SPLINE
  5
15D5
330
18
100
AcDbEntity
  8
1
100
AcDbSpline
210
0.0
220
0.0
230
1.0
 70
     8
 71
     3
 72
     9
 73
     5
 74
     3
 42
0.0000000001
 43
0.0000000001
 44
0.0000000001
 40
0.0
 40
0.0
 40
0.0
 40
0.0
 40
1.802775637731994
 40
3.605551275463989
 40
3.605551275463989
 40
3.605551275463989
 40
3.605551275463989
 10
443.2022559556883
 20
166.8894944471432
 30
0.0
 10
443.7022559556883
 20
166.3894944471432
 30
0.0
 10
444.7022559556883
 20
165.3894944471432
 30
0.0
 10
443.7022559556883
 20
164.3894944471432
 30
0.0
 10
443.2022559556883
 20
163.8894944471432
 30
0.0
 11
443.2022559556883
 21
166.8894944471432
 31
0.0
 11
444.2022559556883
 21
165.3894944471432
 31
0.0
 11
443.2022559556883
 21
163.8894944471432
 31
0.0
  0
LINE
  5
15D6
330
18
100
AcDbEntity
  8
1
100
AcDbLine
 10
455.7022559556883
 20
169.1394944471432
 30
0.0
 11
470.7022559556882
 21
169.1394944471432
 31
0.0
  0
LINE
  5
15D7
330
18
100
AcDbEntity
  8
1
100
AcDbLine
 10
450.8022559556877
 20
166.8894944471432
 30
0.0
 11
454.7022559556883
 21
166.8894944471432
 31
0.0
  0
LINE
  5
15D8
330
18
100
AcDbEntity
  8
1
100
AcDbLine
 10
450.8022559556877
 20
163.8894944471432
 30
0.0
 11
454.7022559556883
 21
163.8894944471432
 31
0.0
  0
LINE
  5
15D9
330
18
100
AcDbEntity
  8
1
100
AcDbLine
 10
454.7022559556883
 20
166.8894944471432
 30
0.0
 11
454.7022559556883
 21
163.8894944471432
 31
0.0
  0
LINE
  5
15DA
330
18
100
AcDbEntity
  8
1
100
AcDbLine
 10
588.1837278510868
 20
153.927279996694
 30
0.0
 11
596.7130889057028
 21
158.8517088975921
 31
0.0
  0
ARC
  5
15DB
330
18
100
AcDbEntity
  8
1
100
AcDbCircle
 10
572.2522559556884
 20
155.389494447143
 30
0.0
 40
2.5
100
AcDbArc
 50
180.0
 51
0.0
  0
LINE
  5
15DC
330
18
100
AcDbEntity
  8
1
100
AcDbLine
 10
577.7914230056733
 20
158.8517088975921
 30
0.0
 11
586.3207840602893
 21
153.927279996694
 31
0.0
  0
LINE
  5
15DD
330
18
100
AcDbEntity
  8
1
100
AcDbLine
 10
611.4522559556883
 20
145.389494447143
 30
0.0
 11
532.4522559556883
 21
145.389494447143
 31
0.0
  0
ARC
  5
15DE
330
18
100
AcDbEntity
  8
1
100
AcDbCircle
 10
532.4522559556883
 20
150.389494447143
 30
0.0
 40
5.0
100
AcDbArc
 50
180.0
 51
270.0
  0
TEXT
  5
15DF
330
18
100
AcDbEntity
  8
1
100
AcDbText
 10
543.4411708101253
 20
150.9674264777427
 30
0.0
 40
3.0
  1
弱
 50
90.0
  7
ＭＳゴシック
 72
     4
 11
542.0858408608867
 21
152.9166650564229
 31
0.0
100
AcDbText
  0
CIRCLE
  5
15E0
102
{ACAD_REACTORS
330
12C5
102
}
330
18
100
AcDbEntity
  8
1
100
AcDbCircle
 10
547.2522559556884
 20
165.389494447143
 30
0.0
 40
6.0
  0
CIRCLE
  5
15E1
102
{ACAD_REACTORS
330
12C5
102
}
330
18
100
AcDbEntity
  8
1
100
AcDbCircle
 10
547.2522559556884
 20
165.389494447143
 30
0.0
 40
5.0
  0
LINE
  5
15E2
330
18
100
AcDbEntity
  8
1
100
AcDbLine
 10
564.7522559556884
 20
171.889494447143
 30
0.0
 11
564.7522559556884
 21
158.889494447143
 31
0.0
  0
LINE
  5
15E3
330
18
100
AcDbEntity
  8
1
100
AcDbLine
 10
559.7522559556884
 20
171.889494447143
 30
0.0
 11
559.7522559556884
 21
158.889494447143
 31
0.0
  0
TEXT
  5
15E4
330
18
100
AcDbEntity
  8
1
100
AcDbText
 10
563.8778904734549
 20
158.5671594217623
 30
0.0
 40
3.5
  1
発生量
 50
90.0
  7
ＭＳゴシック
 72
     4
 11
562.2522559556885
 21
165.389494447143
 31
0.0
100
AcDbText
  0
CIRCLE
  5
15E5
102
{ACAD_REACTORS
330
12FD
102
}
330
18
100
AcDbEntity
  8
1
100
AcDbCircle
 10
537.5515208643194
 20
161.3713184073097
 30
0.0
 40
0.5
  0
ARC
  5
15E6
330
18
100
AcDbEntity
  8
1
100
AcDbCircle
 10
562.2522559556885
 20
158.889494447143
 30
0.0
 40
2.5
100
AcDbArc
 50
180.0
 51
0.0
  0
CIRCLE
  5
15E7
102
{ACAD_REACTORS
330
12FD
102
}
330
18
100
AcDbEntity
  8
1
100
AcDbCircle
 10
543.2340799158549
 20
155.6887593557747
 30
0.0
 40
0.5
  0
CIRCLE
  5
15E8
102
{ACAD_REACTORS
330
12FD
102
}
330
18
100
AcDbEntity
  8
1
100
AcDbCircle
 10
537.5515208643194
 20
169.4076704869767
 30
0.0
 40
0.5
  0
LINE
  5
15E9
102
{ACAD_REACTORS
330
12C5
102
}
330
18
100
AcDbEntity
  8
1
100
AcDbLine
 10
544.8864901514728
 20
169.7943953722039
 30
0.0
 11
543.7348340098608
 21
172.5747392484713
 31
0.0
  0
CIRCLE
  5
15EA
330
18
100
AcDbEntity
  8
1
100
AcDbCircle
 10
587.2522559556885
 20
165.3894944471431
 30
0.0
 40
4.0
  0
CIRCLE
  5
15EB
330
18
100
AcDbEntity
  8
1
100
AcDbCircle
 10
587.2522559556885
 20
165.3894944471431
 30
0.0
 40
5.0
  0
LINE
  5
15EC
330
18
100
AcDbEntity
  8
1
100
AcDbLine
 10
597.6445608011011
 20
160.465065546245
 30
0.0
 11
597.6445608011011
 21
170.3139233480411
 31
0.0
  0
LINE
  5
15ED
330
18
100
AcDbEntity
  8
1
100
AcDbLine
 10
576.859951110275
 20
170.3139233480411
 30
0.0
 11
576.859951110275
 21
160.465065546245
 31
0.0
  0
CIRCLE
  5
15EE
330
18
100
AcDbEntity
  8
1
100
AcDbCircle
 10
587.2522559556885
 20
165.3894944471431
 30
0.0
 40
2.25
  0
CIRCLE
  5
15EF
330
18
100
AcDbEntity
  8
1
100
AcDbCircle
 10
588.2522559556885
 20
164.789494447143
 30
0.0
 40
1.0
  0
CIRCLE
  5
15F0
330
18
100
AcDbEntity
  8
1
100
AcDbCircle
 10
586.2522559556885
 20
164.789494447143
 30
0.0
 40
1.0
  0
TEXT
  5
15F1
330
18
100
AcDbEntity
  8
1
100
AcDbText
 10
573.9844894582265
 20
158.5671594217623
 30
0.0
 40
3.5
  1
AC100V
 50
90.0
  7
ＭＳゴシック
 72
     4
 11
572.2522559556884
 21
165.389494447143
 31
0.0
100
AcDbText
  0
CIRCLE
  5
15F2
330
18
100
AcDbEntity
  8
1
100
AcDbCircle
 10
587.2522559556885
 20
166.5894944471431
 30
0.0
 40
1.0
  0
LINE
  5
15F3
330
18
100
AcDbEntity
  8
1
100
AcDbLine
 10
612.4522559556883
 20
282.8894944471431
 30
0.0
 11
611.4522559556883
 21
282.8894944471431
 31
0.0
  0
LINE
  5
15F4
330
18
100
AcDbEntity
  8
1
100
AcDbLine
 10
250.2022559556883
 20
272.389494447143
 30
0.0
 11
226.2022559556883
 21
272.389494447143
 31
0.0
  0
LINE
  5
15F5
330
18
100
AcDbEntity
  8
1
100
AcDbLine
 10
226.2022559556883
 20
266.389494447143
 30
0.0
 11
250.2022559556883
 21
266.389494447143
 31
0.0
  0
LINE
  5
15F6
330
18
100
AcDbEntity
  8
1
100
AcDbLine
 10
250.2022559556883
 20
256.389494447143
 30
0.0
 11
226.2022559556883
 21
256.389494447143
 31
0.0
  0
LINE
  5
15F7
330
18
100
AcDbEntity
  8
1
100
AcDbLine
 10
226.2022559556883
 20
250.389494447143
 30
0.0
 11
250.2022559556883
 21
250.389494447143
 31
0.0
  0
LINE
  5
15F8
330
18
100
AcDbEntity
  8
1
100
AcDbLine
 10
250.2022559556883
 20
240.3894944471431
 30
0.0
 11
226.2022559556883
 21
240.3894944471431
 31
0.0
  0
LINE
  5
15F9
330
18
100
AcDbEntity
  8
1
100
AcDbLine
 10
226.2022559556883
 20
234.389494447143
 30
0.0
 11
250.2022559556883
 21
234.389494447143
 31
0.0
  0
LINE
  5
15FA
330
18
100
AcDbEntity
  8
1
100
AcDbLine
 10
250.2022559556883
 20
224.389494447143
 30
0.0
 11
226.2022559556883
 21
224.389494447143
 31
0.0
  0
LINE
  5
15FB
330
18
100
AcDbEntity
  8
1
100
AcDbLine
 10
226.2022559556883
 20
218.389494447143
 30
0.0
 11
250.2022559556883
 21
218.389494447143
 31
0.0
  0
LINE
  5
15FC
330
18
100
AcDbEntity
  8
1
100
AcDbLine
 10
250.2022559556883
 20
208.389494447143
 30
0.0
 11
226.2022559556883
 21
208.389494447143
 31
0.0
  0
LINE
  5
15FD
330
18
100
AcDbEntity
  8
1
100
AcDbLine
 10
226.2022559556883
 20
202.389494447143
 30
0.0
 11
250.2022559556883
 21
202.389494447143
 31
0.0
  0
LINE
  5
15FE
330
18
100
AcDbEntity
  8
1
100
AcDbLine
 10
250.2022559556883
 20
192.389494447143
 30
0.0
 11
226.2022559556883
 21
192.389494447143
 31
0.0
  0
LINE
  5
15FF
330
18
100
AcDbEntity
  8
1
100
AcDbLine
 10
226.2022559556883
 20
186.389494447143
 30
0.0
 11
250.2022559556883
 21
186.389494447143
 31
0.0
  0
LINE
  5
1600
330
18
100
AcDbEntity
  8
1
100
AcDbLine
 10
250.2022559556883
 20
176.389494447143
 30
0.0
 11
226.2022559556883
 21
176.389494447143
 31
0.0
  0
LINE
  5
1601
330
18
100
AcDbEntity
  8
1
100
AcDbLine
 10
-12.29774404431168
 20
285.389494447143
 30
0.0
 11
437.7022559556883
 21
285.389494447143
 31
0.0
  0
ARC
  5
1602
330
18
100
AcDbEntity
  8
1
100
AcDbCircle
 10
232.7022559556883
 20
245.389494447143
 30
0.0
 40
3.0
100
AcDbArc
 50
270.0
 51
90.0
  0
ARC
  5
1603
330
18
100
AcDbEntity
  8
1
100
AcDbCircle
 10
208.7022559556883
 20
245.389494447143
 30
0.0
 40
3.0
100
AcDbArc
 50
90.0
 51
270.0
  0
ARC
  5
1604
330
18
100
AcDbEntity
  8
1
100
AcDbCircle
 10
173.7022559556883
 20
245.389494447143
 30
0.0
 40
3.0
100
AcDbArc
 50
90.0
 51
270.0
  0
ARC
  5
1605
330
18
100
AcDbEntity
  8
1
100
AcDbCircle
 10
197.7022559556883
 20
245.389494447143
 30
0.0
 40
3.0
100
AcDbArc
 50
270.0
 51
90.0
  0
ARC
  5
1606
330
18
100
AcDbEntity
  8
1
100
AcDbCircle
 10
127.7022559556883
 20
245.389494447143
 30
0.0
 40
3.0
100
AcDbArc
 50
270.0
 51
90.0
  0
ARC
  5
1607
330
18
100
AcDbEntity
  8
1
100
AcDbCircle
 10
92.70225595568831
 20
245.389494447143
 30
0.0
 40
3.0
100
AcDbArc
 50
270.0
 51
90.0
  0
ARC
  5
1608
330
18
100
AcDbEntity
  8
1
100
AcDbCircle
 10
103.7022559556883
 20
245.389494447143
 30
0.0
 40
3.0
100
AcDbArc
 50
90.0
 51
270.0
  0
ARC
  5
1609
330
18
100
AcDbEntity
  8
1
100
AcDbCircle
 10
68.70225595568832
 20
245.389494447143
 30
0.0
 40
3.0
100
AcDbArc
 50
90.0
 51
270.0
  0
ARC
  5
160A
330
18
100
AcDbEntity
  8
1
100
AcDbCircle
 10
33.70225595568831
 20
245.389494447143
 30
0.0
 40
3.0
100
AcDbArc
 50
90.0
 51
270.0
  0
ARC
  5
160B
330
18
100
AcDbEntity
  8
1
100
AcDbCircle
 10
57.70225595568831
 20
245.389494447143
 30
0.0
 40
3.0
100
AcDbArc
 50
270.0
 51
90.0
  0
ARC
  5
160C
330
18
100
AcDbEntity
  8
1
100
AcDbCircle
 10
-1.297744044311684
 20
245.389494447143
 30
0.0
 40
3.0
100
AcDbArc
 50
90.0
 51
270.0
  0
ARC
  5
160D
330
18
100
AcDbEntity
  8
1
100
AcDbCircle
 10
22.70225595568831
 20
245.389494447143
 30
0.0
 40
3.0
100
AcDbArc
 50
270.0
 51
90.0
  0
ARC
  5
160E
330
18
100
AcDbEntity
  8
1
100
AcDbCircle
 10
-48.79774404431168
 20
242.3894944471431
 30
0.0
 40
3.0
100
AcDbArc
 50
0.0
 51
180.0
  0
ARC
  5
160F
330
18
100
AcDbEntity
  8
1
100
AcDbCircle
 10
-96.79774404431169
 20
242.3894944471431
 30
0.0
 40
3.0
100
AcDbArc
 50
0.0
 51
180.0
  0
ARC
  5
1610
330
18
100
AcDbEntity
  8
1
100
AcDbCircle
 10
-80.79774404431168
 20
242.3894944471431
 30
0.0
 40
3.0
100
AcDbArc
 50
0.0
 51
180.0
  0
ARC
  5
1611
330
18
100
AcDbEntity
  8
1
100
AcDbCircle
 10
-64.79774404431168
 20
242.3894944471431
 30
0.0
 40
3.0
100
AcDbArc
 50
0.0
 51
180.0
  0
LINE
  5
1612
330
18
100
AcDbEntity
  8
1
100
AcDbLine
 10
-69.79774404431168
 20
235.889494447143
 30
0.0
 11
-69.79774404431168
 21
259.889494447143
 31
0.0
  0
LINE
  5
1613
330
18
100
AcDbEntity
  8
1
100
AcDbLine
 10
-75.79774404431169
 20
259.889494447143
 30
0.0
 11
-75.79774404431169
 21
235.889494447143
 31
0.0
  0
LINE
  5
1614
330
18
100
AcDbEntity
  8
1
100
AcDbLine
 10
-53.79774404431168
 20
235.889494447143
 30
0.0
 11
-53.79774404431168
 21
259.889494447143
 31
0.0
  0
LINE
  5
1615
330
18
100
AcDbEntity
  8
1
100
AcDbLine
 10
-59.79774404431168
 20
259.889494447143
 30
0.0
 11
-59.79774404431168
 21
235.889494447143
 31
0.0
  0
LINE
  5
1616
330
18
100
AcDbEntity
  8
1
100
AcDbLine
 10
-101.7977440443116
 20
235.889494447143
 30
0.0
 11
-101.7977440443116
 21
259.889494447143
 31
0.0
  0
LINE
  5
1617
330
18
100
AcDbEntity
  8
1
100
AcDbLine
 10
-107.7977440443116
 20
259.889494447143
 30
0.0
 11
-107.7977440443116
 21
235.889494447143
 31
0.0
  0
LINE
  5
1618
330
18
100
AcDbEntity
  8
1
100
AcDbLine
 10
-85.79774404431168
 20
235.889494447143
 30
0.0
 11
-85.79774404431168
 21
259.889494447143
 31
0.0
  0
LINE
  5
1619
330
18
100
AcDbEntity
  8
1
100
AcDbLine
 10
-91.79774404431169
 20
259.889494447143
 30
0.0
 11
-91.79774404431169
 21
235.889494447143
 31
0.0
  0
ARC
  5
161A
330
18
100
AcDbEntity
  8
1
100
AcDbCircle
 10
-112.7977440443116
 20
241.889494447143
 30
0.0
 40
3.0
100
AcDbArc
 50
0.0
 51
180.0
  0
LINE
  5
161B
330
18
100
AcDbEntity
  8
1
100
AcDbLine
 10
75.20225595568831
 20
240.3894944471431
 30
0.0
 11
51.20225595568832
 21
240.3894944471431
 31
0.0
  0
LINE
  5
161C
330
18
100
AcDbEntity
  8
1
100
AcDbLine
 10
33.70225595568831
 20
242.3894944471431
 30
0.0
 11
57.70225595568831
 21
242.3894944471431
 31
0.0
  0
LINE
  5
161D
330
18
100
AcDbEntity
  8
1
100
AcDbLine
 10
51.20225595568832
 20
234.389494447143
 30
0.0
 11
75.20225595568831
 21
234.389494447143
 31
0.0
  0
LINE
  5
161E
330
18
100
AcDbEntity
  8
1
100
AcDbLine
 10
57.70225595568831
 20
232.389494447143
 30
0.0
 11
33.70225595568831
 21
232.389494447143
 31
0.0
  0
LINE
  5
161F
330
18
100
AcDbEntity
  8
1
100
AcDbLine
 10
75.20225595568831
 20
224.389494447143
 30
0.0
 11
51.20225595568832
 21
224.389494447143
 31
0.0
  0
LINE
  5
1620
330
18
100
AcDbEntity
  8
1
100
AcDbLine
 10
51.20225595568832
 20
218.389494447143
 30
0.0
 11
75.20225595568831
 21
218.389494447143
 31
0.0
  0
LINE
  5
1621
330
18
100
AcDbEntity
  8
1
100
AcDbLine
 10
33.70225595568831
 20
226.389494447143
 30
0.0
 11
57.70225595568831
 21
226.389494447143
 31
0.0
  0
LINE
  5
1622
330
18
100
AcDbEntity
  8
1
100
AcDbLine
 10
57.70225595568831
 20
216.389494447143
 30
0.0
 11
33.70225595568831
 21
216.389494447143
 31
0.0
  0
LINE
  5
1623
330
18
100
AcDbEntity
  8
1
100
AcDbLine
 10
33.70225595568831
 20
210.389494447143
 30
0.0
 11
57.70225595568831
 21
210.389494447143
 31
0.0
  0
LINE
  5
1624
330
18
100
AcDbEntity
  8
1
100
AcDbLine
 10
57.70225595568831
 20
200.389494447143
 30
0.0
 11
33.70225595568831
 21
200.389494447143
 31
0.0
  0
LINE
  5
1625
330
18
100
AcDbEntity
  8
1
100
AcDbLine
 10
75.20225595568831
 20
208.389494447143
 30
0.0
 11
51.20225595568832
 21
208.389494447143
 31
0.0
  0
LINE
  5
1626
330
18
100
AcDbEntity
  8
1
100
AcDbLine
 10
51.20225595568832
 20
202.389494447143
 30
0.0
 11
75.20225595568831
 21
202.389494447143
 31
0.0
  0
LINE
  5
1627
330
18
100
AcDbEntity
  8
1
100
AcDbLine
 10
33.70225595568831
 20
194.389494447143
 30
0.0
 11
57.70225595568831
 21
194.389494447143
 31
0.0
  0
LINE
  5
1628
330
18
100
AcDbEntity
  8
1
100
AcDbLine
 10
75.20225595568831
 20
192.389494447143
 30
0.0
 11
51.20225595568832
 21
192.389494447143
 31
0.0
  0
LINE
  5
1629
330
18
100
AcDbEntity
  8
1
100
AcDbLine
 10
51.20225595568832
 20
186.389494447143
 30
0.0
 11
75.20225595568831
 21
186.389494447143
 31
0.0
  0
LINE
  5
162A
330
18
100
AcDbEntity
  8
1
100
AcDbLine
 10
57.70225595568831
 20
184.389494447143
 30
0.0
 11
33.70225595568831
 21
184.389494447143
 31
0.0
  0
LINE
  5
162B
330
18
100
AcDbEntity
  8
1
100
AcDbLine
 10
75.20225595568831
 20
176.389494447143
 30
0.0
 11
51.20225595568832
 21
176.389494447143
 31
0.0
  0
LINE
  5
162C
330
18
100
AcDbEntity
  8
1
100
AcDbLine
 10
33.70225595568831
 20
178.389494447143
 30
0.0
 11
57.70225595568831
 21
178.389494447143
 31
0.0
  0
ARC
  5
162D
330
18
100
AcDbEntity
  8
1
100
AcDbCircle
 10
51.20225595568832
 20
205.389494447143
 30
0.0
 40
3.0
100
AcDbArc
 50
90.0
 51
270.0
  0
ARC
  5
162E
330
18
100
AcDbEntity
  8
1
100
AcDbCircle
 10
40.20225595568831
 20
205.389494447143
 30
0.0
 40
3.0
100
AcDbArc
 50
270.0
 51
90.0
  0
ARC
  5
162F
330
18
100
AcDbEntity
  8
1
100
AcDbCircle
 10
16.20225595568831
 20
205.389494447143
 30
0.0
 40
3.0
100
AcDbArc
 50
90.0
 51
270.0
  0
ARC
  5
1630
330
18
100
AcDbEntity
  8
1
100
AcDbCircle
 10
-1.297744044311684
 20
205.389494447143
 30
0.0
 40
3.0
100
AcDbArc
 50
90.0
 51
270.0
  0
ARC
  5
1631
330
18
100
AcDbEntity
  8
1
100
AcDbCircle
 10
4.702255955688315
 20
205.389494447143
 30
0.0
 40
3.0
100
AcDbArc
 50
270.0
 51
90.0
  0
CIRCLE
  5
1632
330
18
100
AcDbEntity
  8
1
100
AcDbCircle
 10
-100.7977440443116
 20
205.389494447143
 30
0.0
 40
4.0
  0
LINE
  5
1633
330
18
100
AcDbEntity
  8
1
100
AcDbLine
 10
-59.79774404431168
 20
186.389494447143
 30
0.0
 11
-59.79774404431168
 21
192.389494447143
 31
0.0
  0
LINE
  5
1634
330
18
100
AcDbEntity
  8
1
100
AcDbLine
 10
-53.79774404431168
 20
192.389494447143
 30
0.0
 11
-53.79774404431168
 21
186.389494447143
 31
0.0
  0
LINE
  5
1635
330
18
100
AcDbEntity
  8
1
100
AcDbLine
 10
-107.7977440443116
 20
186.389494447143
 30
0.0
 11
-107.7977440443116
 21
192.389494447143
 31
0.0
  0
LINE
  5
1636
330
18
100
AcDbEntity
  8
1
100
AcDbLine
 10
-101.7977440443116
 20
192.389494447143
 30
0.0
 11
-101.7977440443116
 21
186.389494447143
 31
0.0
  0
LINE
  5
1637
330
18
100
AcDbEntity
  8
1
100
AcDbLine
 10
-91.79774404431169
 20
186.389494447143
 30
0.0
 11
-91.79774404431169
 21
192.389494447143
 31
0.0
  0
LINE
  5
1638
330
18
100
AcDbEntity
  8
1
100
AcDbLine
 10
-85.79774404431168
 20
192.389494447143
 30
0.0
 11
-85.79774404431168
 21
186.389494447143
 31
0.0
  0
LINE
  5
1639
330
18
100
AcDbEntity
  8
1
100
AcDbLine
 10
-75.79774404431169
 20
186.389494447143
 30
0.0
 11
-75.79774404431169
 21
192.389494447143
 31
0.0
  0
LINE
  5
163A
330
18
100
AcDbEntity
  8
1
100
AcDbLine
 10
-69.79774404431168
 20
192.389494447143
 30
0.0
 11
-69.79774404431168
 21
186.389494447143
 31
0.0
  0
ARC
  5
163B
330
18
100
AcDbEntity
  8
1
100
AcDbCircle
 10
-112.7977440443116
 20
174.889494447143
 30
0.0
 40
3.0
100
AcDbArc
 50
0.0
 51
180.0
  0
ARC
  5
163C
330
18
100
AcDbEntity
  8
1
100
AcDbCircle
 10
-104.7977440443116
 20
174.889494447143
 30
0.0
 40
3.0
100
AcDbArc
 50
0.0
 51
180.0
  0
ARC
  5
163D
330
18
100
AcDbEntity
  8
1
100
AcDbCircle
 10
-88.79774404431168
 20
174.889494447143
 30
0.0
 40
3.0
100
AcDbArc
 50
0.0
 51
180.0
  0
ARC
  5
163E
330
18
100
AcDbEntity
  8
1
100
AcDbCircle
 10
-104.7977440443116
 20
186.389494447143
 30
0.0
 40
3.0
100
AcDbArc
 50
180.0
 51
0.0
  0
ARC
  5
163F
330
18
100
AcDbEntity
  8
1
100
AcDbCircle
 10
-88.79774404431168
 20
186.389494447143
 30
0.0
 40
3.0
100
AcDbArc
 50
180.0
 51
0.0
  0
ARC
  5
1640
330
18
100
AcDbEntity
  8
1
100
AcDbCircle
 10
-72.79774404431169
 20
174.889494447143
 30
0.0
 40
3.0
100
AcDbArc
 50
0.0
 51
180.0
  0
ARC
  5
1641
330
18
100
AcDbEntity
  8
1
100
AcDbCircle
 10
-56.79774404431168
 20
174.889494447143
 30
0.0
 40
3.0
100
AcDbArc
 50
0.0
 51
180.0
  0
ARC
  5
1642
330
18
100
AcDbEntity
  8
1
100
AcDbCircle
 10
-72.79774404431169
 20
186.389494447143
 30
0.0
 40
3.0
100
AcDbArc
 50
180.0
 51
0.0
  0
ARC
  5
1643
330
18
100
AcDbEntity
  8
1
100
AcDbCircle
 10
-56.79774404431168
 20
186.389494447143
 30
0.0
 40
3.0
100
AcDbArc
 50
180.0
 51
0.0
  0
ARC
  5
1644
330
18
100
AcDbEntity
  8
1
100
AcDbCircle
 10
-96.79774404431169
 20
192.389494447143
 30
0.0
 40
3.0
100
AcDbArc
 50
0.0
 51
180.0
  0
ARC
  5
1645
330
18
100
AcDbEntity
  8
1
100
AcDbCircle
 10
-104.7977440443116
 20
192.389494447143
 30
0.0
 40
3.0
100
AcDbArc
 50
0.0
 51
180.0
  0
ARC
  5
1646
330
18
100
AcDbEntity
  8
1
100
AcDbCircle
 10
-88.79774404431168
 20
192.389494447143
 30
0.0
 40
3.0
100
AcDbArc
 50
0.0
 51
180.0
  0
ARC
  5
1647
330
18
100
AcDbEntity
  8
1
100
AcDbCircle
 10
-64.79774404431168
 20
192.389494447143
 30
0.0
 40
3.0
100
AcDbArc
 50
0.0
 51
180.0
  0
ARC
  5
1648
330
18
100
AcDbEntity
  8
1
100
AcDbCircle
 10
-80.79774404431168
 20
192.389494447143
 30
0.0
 40
3.0
100
AcDbArc
 50
0.0
 51
180.0
  0
ARC
  5
1649
330
18
100
AcDbEntity
  8
1
100
AcDbCircle
 10
-72.79774404431169
 20
192.389494447143
 30
0.0
 40
3.0
100
AcDbArc
 50
0.0
 51
180.0
  0
ARC
  5
164A
330
18
100
AcDbEntity
  8
1
100
AcDbCircle
 10
-48.79774404431168
 20
192.389494447143
 30
0.0
 40
3.0
100
AcDbArc
 50
0.0
 51
180.0
  0
ARC
  5
164B
330
18
100
AcDbEntity
  8
1
100
AcDbCircle
 10
-56.79774404431168
 20
192.389494447143
 30
0.0
 40
3.0
100
AcDbArc
 50
0.0
 51
180.0
  0
ARC
  5
164C
330
18
100
AcDbEntity
  8
1
100
AcDbCircle
 10
51.20225595568832
 20
189.389494447143
 30
0.0
 40
3.0
100
AcDbArc
 50
90.0
 51
270.0
  0
ARC
  5
164D
330
18
100
AcDbEntity
  8
1
100
AcDbCircle
 10
40.20225595568831
 20
189.389494447143
 30
0.0
 40
3.0
100
AcDbArc
 50
270.0
 51
90.0
  0
ARC
  5
164E
330
18
100
AcDbEntity
  8
1
100
AcDbCircle
 10
16.20225595568831
 20
189.389494447143
 30
0.0
 40
3.0
100
AcDbArc
 50
90.0
 51
270.0
  0
ARC
  5
164F
330
18
100
AcDbEntity
  8
1
100
AcDbCircle
 10
4.702255955688315
 20
189.389494447143
 30
0.0
 40
3.0
100
AcDbArc
 50
270.0
 51
90.0
  0
ARC
  5
1650
330
18
100
AcDbEntity
  8
1
100
AcDbCircle
 10
-1.297744044311684
 20
189.389494447143
 30
0.0
 40
3.0
100
AcDbArc
 50
90.0
 51
270.0
  0
LINE
  5
1651
330
18
100
AcDbEntity
  8
1
100
AcDbLine
 10
22.70225595568831
 20
184.389494447143
 30
0.0
 11
-1.297744044311684
 21
184.389494447143
 31
0.0
  0
LINE
  5
1652
330
18
100
AcDbEntity
  8
1
100
AcDbLine
 10
-1.297744044311684
 20
178.389494447143
 30
0.0
 11
22.70225595568831
 21
178.389494447143
 31
0.0
  0
ARC
  5
1653
330
18
100
AcDbEntity
  8
1
100
AcDbCircle
 10
-1.297744044311684
 20
181.389494447143
 30
0.0
 40
3.0
100
AcDbArc
 50
90.0
 51
270.0
  0
LINE
  5
1654
330
18
100
AcDbEntity
  8
1
100
AcDbLine
 10
4.702255955688315
 20
176.389494447143
 30
0.0
 11
-1.297744044311684
 21
176.389494447143
 31
0.0
  0
LINE
  5
1655
330
18
100
AcDbEntity
  8
1
100
AcDbLine
 10
-1.297744044311684
 20
186.389494447143
 30
0.0
 11
4.702255955688315
 21
186.389494447143
 31
0.0
  0
ARC
  5
1656
330
18
100
AcDbEntity
  8
1
100
AcDbCircle
 10
33.70225595568831
 20
181.389494447143
 30
0.0
 40
3.0
100
AcDbArc
 50
90.0
 51
270.0
  0
ARC
  5
1657
330
18
100
AcDbEntity
  8
1
100
AcDbCircle
 10
22.70225595568831
 20
181.389494447143
 30
0.0
 40
3.0
100
AcDbArc
 50
270.0
 51
90.0
  0
LINE
  5
1658
330
18
100
AcDbEntity
  8
1
100
AcDbLine
 10
40.20225595568831
 20
176.389494447143
 30
0.0
 11
16.20225595568831
 21
176.389494447143
 31
0.0
  0
LINE
  5
1659
330
18
100
AcDbEntity
  8
1
100
AcDbLine
 10
16.20225595568831
 20
186.389494447143
 30
0.0
 11
40.20225595568831
 21
186.389494447143
 31
0.0
  0
LINE
  5
165A
330
18
100
AcDbEntity
  8
1
100
AcDbLine
 10
22.70225595568831
 20
200.389494447143
 30
0.0
 11
-1.297744044311684
 21
200.389494447143
 31
0.0
  0
LINE
  5
165B
330
18
100
AcDbEntity
  8
1
100
AcDbLine
 10
-1.297744044311684
 20
194.389494447143
 30
0.0
 11
22.70225595568831
 21
194.389494447143
 31
0.0
  0
ARC
  5
165C
330
18
100
AcDbEntity
  8
1
100
AcDbCircle
 10
-1.297744044311684
 20
197.389494447143
 30
0.0
 40
3.0
100
AcDbArc
 50
90.0
 51
270.0
  0
LINE
  5
165D
330
18
100
AcDbEntity
  8
1
100
AcDbLine
 10
4.702255955688315
 20
192.389494447143
 30
0.0
 11
-1.297744044311684
 21
192.389494447143
 31
0.0
  0
LINE
  5
165E
330
18
100
AcDbEntity
  8
1
100
AcDbLine
 10
-1.297744044311684
 20
202.389494447143
 30
0.0
 11
4.702255955688315
 21
202.389494447143
 31
0.0
  0
ARC
  5
165F
330
18
100
AcDbEntity
  8
1
100
AcDbCircle
 10
33.70225595568831
 20
197.389494447143
 30
0.0
 40
3.0
100
AcDbArc
 50
90.0
 51
270.0
  0
ARC
  5
1660
330
18
100
AcDbEntity
  8
1
100
AcDbCircle
 10
22.70225595568831
 20
197.389494447143
 30
0.0
 40
3.0
100
AcDbArc
 50
270.0
 51
90.0
  0
LINE
  5
1661
330
18
100
AcDbEntity
  8
1
100
AcDbLine
 10
40.20225595568831
 20
192.389494447143
 30
0.0
 11
16.20225595568831
 21
192.389494447143
 31
0.0
  0
LINE
  5
1662
330
18
100
AcDbEntity
  8
1
100
AcDbLine
 10
16.20225595568831
 20
202.389494447143
 30
0.0
 11
40.20225595568831
 21
202.389494447143
 31
0.0
  0
ARC
  5
1663
330
18
100
AcDbEntity
  8
1
100
AcDbCircle
 10
-56.79774404431168
 20
224.389494447143
 30
0.0
 40
3.0
100
AcDbArc
 50
0.0
 51
180.0
  0
ARC
  5
1664
330
18
100
AcDbEntity
  8
1
100
AcDbCircle
 10
-72.79774404431169
 20
224.389494447143
 30
0.0
 40
3.0
100
AcDbArc
 50
0.0
 51
180.0
  0
ARC
  5
1665
330
18
100
AcDbEntity
  8
1
100
AcDbCircle
 10
-88.79774404431168
 20
224.389494447143
 30
0.0
 40
3.0
100
AcDbArc
 50
0.0
 51
180.0
  0
ARC
  5
1666
330
18
100
AcDbEntity
  8
1
100
AcDbCircle
 10
-104.7977440443116
 20
224.389494447143
 30
0.0
 40
3.0
100
AcDbArc
 50
0.0
 51
180.0
  0
LINE
  5
1667
330
18
100
AcDbEntity
  8
1
100
AcDbLine
 10
-93.79774404431168
 20
218.389494447143
 30
0.0
 11
-93.79774404431168
 21
242.3894944471431
 31
0.0
  0
LINE
  5
1668
330
18
100
AcDbEntity
  8
1
100
AcDbLine
 10
-99.79774404431168
 20
242.3894944471431
 30
0.0
 11
-99.79774404431168
 21
218.389494447143
 31
0.0
  0
LINE
  5
1669
330
18
100
AcDbEntity
  8
1
100
AcDbLine
 10
-77.79774404431169
 20
218.389494447143
 30
0.0
 11
-77.79774404431169
 21
242.3894944471431
 31
0.0
  0
LINE
  5
166A
330
18
100
AcDbEntity
  8
1
100
AcDbLine
 10
-83.79774404431168
 20
242.3894944471431
 30
0.0
 11
-83.79774404431168
 21
218.389494447143
 31
0.0
  0
LINE
  5
166B
330
18
100
AcDbEntity
  8
1
100
AcDbLine
 10
-45.79774404431169
 20
218.389494447143
 30
0.0
 11
-45.79774404431169
 21
242.3894944471431
 31
0.0
  0
LINE
  5
166C
330
18
100
AcDbEntity
  8
1
100
AcDbLine
 10
-51.79774404431168
 20
242.3894944471431
 30
0.0
 11
-51.79774404431168
 21
218.389494447143
 31
0.0
  0
LINE
  5
166D
330
18
100
AcDbEntity
  8
1
100
AcDbLine
 10
-61.79774404431168
 20
218.389494447143
 30
0.0
 11
-61.79774404431168
 21
242.3894944471431
 31
0.0
  0
LINE
  5
166E
330
18
100
AcDbEntity
  8
1
100
AcDbLine
 10
-67.79774404431169
 20
242.3894944471431
 30
0.0
 11
-67.79774404431169
 21
218.389494447143
 31
0.0
  0
ARC
  5
166F
330
18
100
AcDbEntity
  8
1
100
AcDbCircle
 10
-96.79774404431169
 20
218.389494447143
 30
0.0
 40
3.0
100
AcDbArc
 50
180.0
 51
0.0
  0
ARC
  5
1670
330
18
100
AcDbEntity
  8
1
100
AcDbCircle
 10
-88.79774404431168
 20
218.3894944471431
 30
0.0
 40
3.0
100
AcDbArc
 50
180.0
 51
0.0
  0
ARC
  5
1671
330
18
100
AcDbEntity
  8
1
100
AcDbCircle
 10
-104.7977440443116
 20
218.3894944471431
 30
0.0
 40
3.0
100
AcDbArc
 50
180.0
 51
0.0
  0
LINE
  5
1672
330
18
100
AcDbEntity
  8
1
100
AcDbLine
 10
-85.79774404431168
 20
218.3894944471431
 30
0.0
 11
-85.79774404431168
 21
224.389494447143
 31
0.0
  0
LINE
  5
1673
330
18
100
AcDbEntity
  8
1
100
AcDbLine
 10
-91.79774404431169
 20
224.3894944471431
 30
0.0
 11
-91.79774404431169
 21
218.3894944471431
 31
0.0
  0
LINE
  5
1674
330
18
100
AcDbEntity
  8
1
100
AcDbLine
 10
-107.7977440443116
 20
224.3894944471431
 30
0.0
 11
-107.7977440443116
 21
218.3894944471431
 31
0.0
  0
LINE
  5
1675
330
18
100
AcDbEntity
  8
1
100
AcDbLine
 10
-101.7977440443116
 20
218.3894944471431
 30
0.0
 11
-101.7977440443116
 21
224.389494447143
 31
0.0
  0
ARC
  5
1676
330
18
100
AcDbEntity
  8
1
100
AcDbCircle
 10
-80.79774404431168
 20
218.389494447143
 30
0.0
 40
3.0
100
AcDbArc
 50
180.0
 51
0.0
  0
ARC
  5
1677
330
18
100
AcDbEntity
  8
1
100
AcDbCircle
 10
-48.79774404431168
 20
218.389494447143
 30
0.0
 40
3.0
100
AcDbArc
 50
180.0
 51
0.0
  0
ARC
  5
1678
330
18
100
AcDbEntity
  8
1
100
AcDbCircle
 10
-56.79774404431168
 20
218.3894944471431
 30
0.0
 40
3.0
100
AcDbArc
 50
180.0
 51
0.0
  0
ARC
  5
1679
330
18
100
AcDbEntity
  8
1
100
AcDbCircle
 10
-72.79774404431169
 20
218.3894944471431
 30
0.0
 40
3.0
100
AcDbArc
 50
180.0
 51
0.0
  0
ARC
  5
167A
330
18
100
AcDbEntity
  8
1
100
AcDbCircle
 10
-64.79774404431168
 20
218.389494447143
 30
0.0
 40
3.0
100
AcDbArc
 50
180.0
 51
0.0
  0
LINE
  5
167B
330
18
100
AcDbEntity
  8
1
100
AcDbLine
 10
-75.79774404431169
 20
224.3894944471431
 30
0.0
 11
-75.79774404431169
 21
218.3894944471431
 31
0.0
  0
LINE
  5
167C
330
18
100
AcDbEntity
  8
1
100
AcDbLine
 10
-69.79774404431168
 20
218.3894944471431
 30
0.0
 11
-69.79774404431168
 21
224.389494447143
 31
0.0
  0
LINE
  5
167D
330
18
100
AcDbEntity
  8
1
100
AcDbLine
 10
-59.79774404431168
 20
224.3894944471431
 30
0.0
 11
-59.79774404431168
 21
218.3894944471431
 31
0.0
  0
LINE
  5
167E
330
18
100
AcDbEntity
  8
1
100
AcDbLine
 10
-53.79774404431168
 20
218.3894944471431
 30
0.0
 11
-53.79774404431168
 21
224.389494447143
 31
0.0
  0
ARC
  5
167F
330
18
100
AcDbEntity
  8
1
100
AcDbCircle
 10
-104.7977440443116
 20
235.889494447143
 30
0.0
 40
3.0
100
AcDbArc
 50
180.0
 51
0.0
  0
ARC
  5
1680
330
18
100
AcDbEntity
  8
1
100
AcDbCircle
 10
-88.79774404431168
 20
235.889494447143
 30
0.0
 40
3.0
100
AcDbArc
 50
180.0
 51
0.0
  0
ARC
  5
1681
330
18
100
AcDbEntity
  8
1
100
AcDbCircle
 10
-112.7977440443116
 20
235.8894944471431
 30
0.0
 40
3.0
100
AcDbArc
 50
180.0
 51
0.0
  0
LINE
  5
1682
330
18
100
AcDbEntity
  8
1
100
AcDbLine
 10
-115.7977440443116
 20
241.8894944471431
 30
0.0
 11
-115.7977440443116
 21
235.8894944471431
 31
0.0
  0
LINE
  5
1683
330
18
100
AcDbEntity
  8
1
100
AcDbLine
 10
-109.7977440443116
 20
235.889494447143
 30
0.0
 11
-109.7977440443116
 21
241.889494447143
 31
0.0
  0
ARC
  5
1684
330
18
100
AcDbEntity
  8
1
100
AcDbCircle
 10
-72.79774404431169
 20
235.889494447143
 30
0.0
 40
3.0
100
AcDbArc
 50
180.0
 51
0.0
  0
ARC
  5
1685
330
18
100
AcDbEntity
  8
1
100
AcDbCircle
 10
-56.79774404431168
 20
235.889494447143
 30
0.0
 40
3.0
100
AcDbArc
 50
180.0
 51
0.0
  0
ARC
  5
1686
330
18
100
AcDbEntity
  8
1
100
AcDbCircle
 10
4.702255955688315
 20
221.389494447143
 30
0.0
 40
3.0
100
AcDbArc
 50
270.0
 51
90.0
  0
LINE
  5
1687
330
18
100
AcDbEntity
  8
1
100
AcDbLine
 10
22.70225595568831
 20
216.389494447143
 30
0.0
 11
-1.297744044311684
 21
216.389494447143
 31
0.0
  0
LINE
  5
1688
330
18
100
AcDbEntity
  8
1
100
AcDbLine
 10
-1.297744044311684
 20
210.389494447143
 30
0.0
 11
22.70225595568831
 21
210.389494447143
 31
0.0
  0
ARC
  5
1689
330
18
100
AcDbEntity
  8
1
100
AcDbCircle
 10
-1.297744044311684
 20
213.3894944471431
 30
0.0
 40
3.0
100
AcDbArc
 50
90.0
 51
270.0
  0
LINE
  5
168A
330
18
100
AcDbEntity
  8
1
100
AcDbLine
 10
4.702255955688315
 20
208.389494447143
 30
0.0
 11
-1.297744044311684
 21
208.389494447143
 31
0.0
  0
ARC
  5
168B
330
18
100
AcDbEntity
  8
1
100
AcDbCircle
 10
-1.297744044311684
 20
221.389494447143
 30
0.0
 40
3.0
100
AcDbArc
 50
90.0
 51
270.0
  0
LINE
  5
168C
330
18
100
AcDbEntity
  8
1
100
AcDbLine
 10
-1.297744044311684
 20
218.389494447143
 30
0.0
 11
4.702255955688315
 21
218.389494447143
 31
0.0
  0
LINE
  5
168D
330
18
100
AcDbEntity
  8
1
100
AcDbLine
 10
4.702255955688315
 20
224.389494447143
 30
0.0
 11
-1.297744044311684
 21
224.389494447143
 31
0.0
  0
ARC
  5
168E
330
18
100
AcDbEntity
  8
1
100
AcDbCircle
 10
33.70225595568831
 20
213.3894944471431
 30
0.0
 40
3.0
100
AcDbArc
 50
90.0
 51
270.0
  0
LINE
  5
168F
330
18
100
AcDbEntity
  8
1
100
AcDbLine
 10
40.20225595568831
 20
208.389494447143
 30
0.0
 11
16.20225595568831
 21
208.389494447143
 31
0.0
  0
ARC
  5
1690
330
18
100
AcDbEntity
  8
1
100
AcDbCircle
 10
22.70225595568831
 20
213.3894944471431
 30
0.0
 40
3.0
100
AcDbArc
 50
270.0
 51
90.0
  0
LINE
  5
1691
330
18
100
AcDbEntity
  8
1
100
AcDbLine
 10
40.20225595568831
 20
224.389494447143
 30
0.0
 11
16.20225595568831
 21
224.389494447143
 31
0.0
  0
LINE
  5
1692
330
18
100
AcDbEntity
  8
1
100
AcDbLine
 10
16.20225595568831
 20
218.389494447143
 30
0.0
 11
40.20225595568831
 21
218.389494447143
 31
0.0
  0
ARC
  5
1693
330
18
100
AcDbEntity
  8
1
100
AcDbCircle
 10
16.20225595568831
 20
221.389494447143
 30
0.0
 40
3.0
100
AcDbArc
 50
90.0
 51
270.0
  0
ARC
  5
1694
330
18
100
AcDbEntity
  8
1
100
AcDbCircle
 10
51.20225595568832
 20
221.389494447143
 30
0.0
 40
3.0
100
AcDbArc
 50
90.0
 51
270.0
  0
ARC
  5
1695
330
18
100
AcDbEntity
  8
1
100
AcDbCircle
 10
40.20225595568831
 20
221.389494447143
 30
0.0
 40
3.0
100
AcDbArc
 50
270.0
 51
90.0
  0
LINE
  5
1696
330
18
100
AcDbEntity
  8
1
100
AcDbLine
 10
-1.297744044311684
 20
242.3894944471431
 30
0.0
 11
22.70225595568831
 21
242.3894944471431
 31
0.0
  0
LINE
  5
1697
330
18
100
AcDbEntity
  8
1
100
AcDbLine
 10
22.70225595568831
 20
232.389494447143
 30
0.0
 11
-1.297744044311684
 21
232.389494447143
 31
0.0
  0
LINE
  5
1698
330
18
100
AcDbEntity
  8
1
100
AcDbLine
 10
-1.297744044311684
 20
226.389494447143
 30
0.0
 11
22.70225595568831
 21
226.389494447143
 31
0.0
  0
ARC
  5
1699
330
18
100
AcDbEntity
  8
1
100
AcDbCircle
 10
4.702255955688315
 20
237.389494447143
 30
0.0
 40
3.0
100
AcDbArc
 50
270.0
 51
90.0
  0
ARC
  5
169A
330
18
100
AcDbEntity
  8
1
100
AcDbCircle
 10
-1.297744044311684
 20
229.389494447143
 30
0.0
 40
3.0
100
AcDbArc
 50
90.0
 51
270.0
  0
LINE
  5
169B
330
18
100
AcDbEntity
  8
1
100
AcDbLine
 10
4.702255955688315
 20
240.3894944471431
 30
0.0
 11
-1.297744044311684
 21
240.3894944471431
 31
0.0
  0
LINE
  5
169C
330
18
100
AcDbEntity
  8
1
100
AcDbLine
 10
-1.297744044311684
 20
234.389494447143
 30
0.0
 11
4.702255955688315
 21
234.389494447143
 31
0.0
  0
ARC
  5
169D
330
18
100
AcDbEntity
  8
1
100
AcDbCircle
 10
-1.297744044311684
 20
237.389494447143
 30
0.0
 40
3.0
100
AcDbArc
 50
90.0
 51
270.0
  0
ARC
  5
169E
330
18
100
AcDbEntity
  8
1
100
AcDbCircle
 10
33.70225595568831
 20
229.389494447143
 30
0.0
 40
3.0
100
AcDbArc
 50
90.0
 51
270.0
  0
ARC
  5
169F
330
18
100
AcDbEntity
  8
1
100
AcDbCircle
 10
22.70225595568831
 20
229.389494447143
 30
0.0
 40
3.0
100
AcDbArc
 50
270.0
 51
90.0
  0
LINE
  5
16A0
330
18
100
AcDbEntity
  8
1
100
AcDbLine
 10
40.20225595568831
 20
240.3894944471431
 30
0.0
 11
16.20225595568831
 21
240.3894944471431
 31
0.0
  0
LINE
  5
16A1
330
18
100
AcDbEntity
  8
1
100
AcDbLine
 10
16.20225595568831
 20
234.389494447143
 30
0.0
 11
40.20225595568831
 21
234.389494447143
 31
0.0
  0
ARC
  5
16A2
330
18
100
AcDbEntity
  8
1
100
AcDbCircle
 10
16.20225595568831
 20
237.389494447143
 30
0.0
 40
3.0
100
AcDbArc
 50
90.0
 51
270.0
  0
ARC
  5
16A3
330
18
100
AcDbEntity
  8
1
100
AcDbCircle
 10
40.20225595568831
 20
237.389494447143
 30
0.0
 40
3.0
100
AcDbArc
 50
270.0
 51
90.0
  0
ARC
  5
16A4
330
18
100
AcDbEntity
  8
1
100
AcDbCircle
 10
51.20225595568832
 20
237.389494447143
 30
0.0
 40
3.0
100
AcDbArc
 50
90.0
 51
270.0
  0
ARC
  5
16A5
330
18
100
AcDbEntity
  8
1
100
AcDbCircle
 10
226.2022559556883
 20
205.389494447143
 30
0.0
 40
3.0
100
AcDbArc
 50
90.0
 51
270.0
  0
ARC
  5
16A6
330
18
100
AcDbEntity
  8
1
100
AcDbCircle
 10
191.2022559556883
 20
205.389494447143
 30
0.0
 40
3.0
100
AcDbArc
 50
90.0
 51
270.0
  0
ARC
  5
16A7
330
18
100
AcDbEntity
  8
1
100
AcDbCircle
 10
179.7022559556883
 20
205.389494447143
 30
0.0
 40
3.0
100
AcDbArc
 50
270.0
 51
90.0
  0
ARC
  5
16A8
330
18
100
AcDbEntity
  8
1
100
AcDbCircle
 10
173.7022559556883
 20
205.389494447143
 30
0.0
 40
3.0
100
AcDbArc
 50
90.0
 51
270.0
  0
ARC
  5
16A9
330
18
100
AcDbEntity
  8
1
100
AcDbCircle
 10
215.2022559556883
 20
205.389494447143
 30
0.0
 40
3.0
100
AcDbArc
 50
270.0
 51
90.0
  0
ARC
  5
16AA
330
18
100
AcDbEntity
  8
1
100
AcDbCircle
 10
127.7022559556883
 20
205.389494447143
 30
0.0
 40
3.0
100
AcDbArc
 50
270.0
 51
90.0
  0
ARC
  5
16AB
330
18
100
AcDbEntity
  8
1
100
AcDbCircle
 10
121.7022559556883
 20
205.389494447143
 30
0.0
 40
3.0
100
AcDbArc
 50
90.0
 51
270.0
  0
ARC
  5
16AC
330
18
100
AcDbEntity
  8
1
100
AcDbCircle
 10
110.2022559556883
 20
205.389494447143
 30
0.0
 40
3.0
100
AcDbArc
 50
270.0
 51
90.0
  0
ARC
  5
16AD
330
18
100
AcDbEntity
  8
1
100
AcDbCircle
 10
86.20225595568831
 20
205.389494447143
 30
0.0
 40
3.0
100
AcDbArc
 50
90.0
 51
270.0
  0
ARC
  5
16AE
330
18
100
AcDbEntity
  8
1
100
AcDbCircle
 10
75.20225595568831
 20
205.389494447143
 30
0.0
 40
3.0
100
AcDbArc
 50
270.0
 51
90.0
  0
ARC
  5
16AF
330
18
100
AcDbEntity
  8
1
100
AcDbCircle
 10
127.7022559556883
 20
189.389494447143
 30
0.0
 40
3.0
100
AcDbArc
 50
270.0
 51
90.0
  0
ARC
  5
16B0
330
18
100
AcDbEntity
  8
1
100
AcDbCircle
 10
121.7022559556883
 20
189.389494447143
 30
0.0
 40
3.0
100
AcDbArc
 50
90.0
 51
270.0
  0
ARC
  5
16B1
330
18
100
AcDbEntity
  8
1
100
AcDbCircle
 10
86.20225595568831
 20
189.389494447143
 30
0.0
 40
3.0
100
AcDbArc
 50
90.0
 51
270.0
  0
ARC
  5
16B2
330
18
100
AcDbEntity
  8
1
100
AcDbCircle
 10
110.2022559556883
 20
189.389494447143
 30
0.0
 40
3.0
100
AcDbArc
 50
270.0
 51
90.0
  0
ARC
  5
16B3
330
18
100
AcDbEntity
  8
1
100
AcDbCircle
 10
75.20225595568831
 20
189.389494447143
 30
0.0
 40
3.0
100
AcDbArc
 50
270.0
 51
90.0
  0
LINE
  5
16B4
330
18
100
AcDbEntity
  8
1
100
AcDbLine
 10
86.20225595568831
 20
186.389494447143
 30
0.0
 11
110.2022559556883
 21
186.389494447143
 31
0.0
  0
LINE
  5
16B5
330
18
100
AcDbEntity
  8
1
100
AcDbLine
 10
110.2022559556883
 20
176.389494447143
 30
0.0
 11
86.20225595568831
 21
176.389494447143
 31
0.0
  0
ARC
  5
16B6
330
18
100
AcDbEntity
  8
1
100
AcDbCircle
 10
92.70225595568831
 20
181.389494447143
 30
0.0
 40
3.0
100
AcDbArc
 50
270.0
 51
90.0
  0
ARC
  5
16B7
330
18
100
AcDbEntity
  8
1
100
AcDbCircle
 10
68.70225595568832
 20
181.389494447143
 30
0.0
 40
3.0
100
AcDbArc
 50
90.0
 51
270.0
  0
ARC
  5
16B8
330
18
100
AcDbEntity
  8
1
100
AcDbCircle
 10
57.70225595568831
 20
181.389494447143
 30
0.0
 40
3.0
100
AcDbArc
 50
270.0
 51
90.0
  0
LINE
  5
16B9
330
18
100
AcDbEntity
  8
1
100
AcDbLine
 10
68.70225595568832
 20
178.389494447143
 30
0.0
 11
92.70225595568831
 21
178.389494447143
 31
0.0
  0
LINE
  5
16BA
330
18
100
AcDbEntity
  8
1
100
AcDbLine
 10
92.70225595568831
 20
184.389494447143
 30
0.0
 11
68.70225595568832
 21
184.389494447143
 31
0.0
  0
ARC
  5
16BB
330
18
100
AcDbEntity
  8
1
100
AcDbCircle
 10
103.7022559556883
 20
181.389494447143
 30
0.0
 40
3.0
100
AcDbArc
 50
90.0
 51
270.0
  0
ARC
  5
16BC
330
18
100
AcDbEntity
  8
1
100
AcDbCircle
 10
127.7022559556883
 20
181.389494447143
 30
0.0
 40
3.0
100
AcDbArc
 50
270.0
 51
90.0
  0
LINE
  5
16BD
330
18
100
AcDbEntity
  8
1
100
AcDbLine
 10
103.7022559556883
 20
178.389494447143
 30
0.0
 11
127.7022559556883
 21
178.389494447143
 31
0.0
  0
LINE
  5
16BE
330
18
100
AcDbEntity
  8
1
100
AcDbLine
 10
127.7022559556883
 20
176.389494447143
 30
0.0
 11
121.7022559556883
 21
176.389494447143
 31
0.0
  0
LINE
  5
16BF
330
18
100
AcDbEntity
  8
1
100
AcDbLine
 10
127.7022559556883
 20
184.389494447143
 30
0.0
 11
103.7022559556883
 21
184.389494447143
 31
0.0
  0
LINE
  5
16C0
330
18
100
AcDbEntity
  8
1
100
AcDbLine
 10
121.7022559556883
 20
186.389494447143
 30
0.0
 11
127.7022559556883
 21
186.389494447143
 31
0.0
  0
LINE
  5
16C1
330
18
100
AcDbEntity
  8
1
100
AcDbLine
 10
86.20225595568831
 20
202.389494447143
 30
0.0
 11
110.2022559556883
 21
202.389494447143
 31
0.0
  0
LINE
  5
16C2
330
18
100
AcDbEntity
  8
1
100
AcDbLine
 10
110.2022559556883
 20
192.389494447143
 30
0.0
 11
86.20225595568831
 21
192.389494447143
 31
0.0
  0
ARC
  5
16C3
330
18
100
AcDbEntity
  8
1
100
AcDbCircle
 10
68.70225595568832
 20
197.389494447143
 30
0.0
 40
3.0
100
AcDbArc
 50
90.0
 51
270.0
  0
ARC
  5
16C4
330
18
100
AcDbEntity
  8
1
100
AcDbCircle
 10
92.70225595568831
 20
197.389494447143
 30
0.0
 40
3.0
100
AcDbArc
 50
270.0
 51
90.0
  0
ARC
  5
16C5
330
18
100
AcDbEntity
  8
1
100
AcDbCircle
 10
57.70225595568831
 20
197.389494447143
 30
0.0
 40
3.0
100
AcDbArc
 50
270.0
 51
90.0
  0
LINE
  5
16C6
330
18
100
AcDbEntity
  8
1
100
AcDbLine
 10
68.70225595568832
 20
194.389494447143
 30
0.0
 11
92.70225595568831
 21
194.389494447143
 31
0.0
  0
LINE
  5
16C7
330
18
100
AcDbEntity
  8
1
100
AcDbLine
 10
92.70225595568831
 20
200.389494447143
 30
0.0
 11
68.70225595568832
 21
200.389494447143
 31
0.0
  0
ARC
  5
16C8
330
18
100
AcDbEntity
  8
1
100
AcDbCircle
 10
103.7022559556883
 20
197.389494447143
 30
0.0
 40
3.0
100
AcDbArc
 50
90.0
 51
270.0
  0
ARC
  5
16C9
330
18
100
AcDbEntity
  8
1
100
AcDbCircle
 10
127.7022559556883
 20
197.389494447143
 30
0.0
 40
3.0
100
AcDbArc
 50
270.0
 51
90.0
  0
LINE
  5
16CA
330
18
100
AcDbEntity
  8
1
100
AcDbLine
 10
103.7022559556883
 20
194.389494447143
 30
0.0
 11
127.7022559556883
 21
194.389494447143
 31
0.0
  0
LINE
  5
16CB
330
18
100
AcDbEntity
  8
1
100
AcDbLine
 10
127.7022559556883
 20
192.389494447143
 30
0.0
 11
121.7022559556883
 21
192.389494447143
 31
0.0
  0
LINE
  5
16CC
330
18
100
AcDbEntity
  8
1
100
AcDbLine
 10
127.7022559556883
 20
200.389494447143
 30
0.0
 11
103.7022559556883
 21
200.389494447143
 31
0.0
  0
LINE
  5
16CD
330
18
100
AcDbEntity
  8
1
100
AcDbLine
 10
121.7022559556883
 20
202.389494447143
 30
0.0
 11
127.7022559556883
 21
202.389494447143
 31
0.0
  0
ARC
  5
16CE
330
18
100
AcDbEntity
  8
1
100
AcDbCircle
 10
226.2022559556883
 20
189.389494447143
 30
0.0
 40
3.0
100
AcDbArc
 50
90.0
 51
270.0
  0
ARC
  5
16CF
330
18
100
AcDbEntity
  8
1
100
AcDbCircle
 10
191.2022559556883
 20
189.389494447143
 30
0.0
 40
3.0
100
AcDbArc
 50
90.0
 51
270.0
  0
ARC
  5
16D0
330
18
100
AcDbEntity
  8
1
100
AcDbCircle
 10
179.7022559556883
 20
189.389494447143
 30
0.0
 40
3.0
100
AcDbArc
 50
270.0
 51
90.0
  0
ARC
  5
16D1
330
18
100
AcDbEntity
  8
1
100
AcDbCircle
 10
173.7022559556883
 20
189.389494447143
 30
0.0
 40
3.0
100
AcDbArc
 50
90.0
 51
270.0
  0
ARC
  5
16D2
330
18
100
AcDbEntity
  8
1
100
AcDbCircle
 10
215.2022559556883
 20
189.389494447143
 30
0.0
 40
3.0
100
AcDbArc
 50
270.0
 51
90.0
  0
LINE
  5
16D3
330
18
100
AcDbEntity
  8
1
100
AcDbLine
 10
197.7022559556883
 20
184.389494447143
 30
0.0
 11
173.7022559556883
 21
184.389494447143
 31
0.0
  0
LINE
  5
16D4
330
18
100
AcDbEntity
  8
1
100
AcDbLine
 10
191.2022559556883
 20
186.389494447143
 30
0.0
 11
215.2022559556883
 21
186.389494447143
 31
0.0
  0
LINE
  5
16D5
330
18
100
AcDbEntity
  8
1
100
AcDbLine
 10
173.7022559556883
 20
178.389494447143
 30
0.0
 11
197.7022559556883
 21
178.389494447143
 31
0.0
  0
LINE
  5
16D6
330
18
100
AcDbEntity
  8
1
100
AcDbLine
 10
215.2022559556883
 20
176.389494447143
 30
0.0
 11
191.2022559556883
 21
176.389494447143
 31
0.0
  0
ARC
  5
16D7
330
18
100
AcDbEntity
  8
1
100
AcDbCircle
 10
173.7022559556883
 20
181.389494447143
 30
0.0
 40
3.0
100
AcDbArc
 50
90.0
 51
270.0
  0
LINE
  5
16D8
330
18
100
AcDbEntity
  8
1
100
AcDbLine
 10
179.7022559556883
 20
176.389494447143
 30
0.0
 11
173.7022559556883
 21
176.389494447143
 31
0.0
  0
LINE
  5
16D9
330
18
100
AcDbEntity
  8
1
100
AcDbLine
 10
173.7022559556883
 20
186.389494447143
 30
0.0
 11
179.7022559556883
 21
186.389494447143
 31
0.0
  0
ARC
  5
16DA
330
18
100
AcDbEntity
  8
1
100
AcDbCircle
 10
208.7022559556883
 20
181.389494447143
 30
0.0
 40
3.0
100
AcDbArc
 50
90.0
 51
270.0
  0
ARC
  5
16DB
330
18
100
AcDbEntity
  8
1
100
AcDbCircle
 10
232.7022559556883
 20
181.389494447143
 30
0.0
 40
3.0
100
AcDbArc
 50
270.0
 51
90.0
  0
ARC
  5
16DC
330
18
100
AcDbEntity
  8
1
100
AcDbCircle
 10
197.7022559556883
 20
181.389494447143
 30
0.0
 40
3.0
100
AcDbArc
 50
270.0
 51
90.0
  0
LINE
  5
16DD
330
18
100
AcDbEntity
  8
1
100
AcDbLine
 10
208.7022559556883
 20
178.389494447143
 30
0.0
 11
232.7022559556883
 21
178.389494447143
 31
0.0
  0
LINE
  5
16DE
330
18
100
AcDbEntity
  8
1
100
AcDbLine
 10
232.7022559556883
 20
184.389494447143
 30
0.0
 11
208.7022559556883
 21
184.389494447143
 31
0.0
  0
LINE
  5
16DF
330
18
100
AcDbEntity
  8
1
100
AcDbLine
 10
197.7022559556883
 20
200.389494447143
 30
0.0
 11
173.7022559556883
 21
200.389494447143
 31
0.0
  0
LINE
  5
16E0
330
18
100
AcDbEntity
  8
1
100
AcDbLine
 10
191.2022559556883
 20
202.389494447143
 30
0.0
 11
215.2022559556883
 21
202.389494447143
 31
0.0
  0
LINE
  5
16E1
330
18
100
AcDbEntity
  8
1
100
AcDbLine
 10
173.7022559556883
 20
194.389494447143
 30
0.0
 11
197.7022559556883
 21
194.389494447143
 31
0.0
  0
LINE
  5
16E2
330
18
100
AcDbEntity
  8
1
100
AcDbLine
 10
215.2022559556883
 20
192.389494447143
 30
0.0
 11
191.2022559556883
 21
192.389494447143
 31
0.0
  0
ARC
  5
16E3
330
18
100
AcDbEntity
  8
1
100
AcDbCircle
 10
173.7022559556883
 20
197.389494447143
 30
0.0
 40
3.0
100
AcDbArc
 50
90.0
 51
270.0
  0
LINE
  5
16E4
330
18
100
AcDbEntity
  8
1
100
AcDbLine
 10
179.7022559556883
 20
192.389494447143
 30
0.0
 11
173.7022559556883
 21
192.389494447143
 31
0.0
  0
LINE
  5
16E5
330
18
100
AcDbEntity
  8
1
100
AcDbLine
 10
173.7022559556883
 20
202.389494447143
 30
0.0
 11
179.7022559556883
 21
202.389494447143
 31
0.0
  0
ARC
  5
16E6
330
18
100
AcDbEntity
  8
1
100
AcDbCircle
 10
208.7022559556883
 20
197.389494447143
 30
0.0
 40
3.0
100
AcDbArc
 50
90.0
 51
270.0
  0
ARC
  5
16E7
330
18
100
AcDbEntity
  8
1
100
AcDbCircle
 10
232.7022559556883
 20
197.389494447143
 30
0.0
 40
3.0
100
AcDbArc
 50
270.0
 51
90.0
  0
ARC
  5
16E8
330
18
100
AcDbEntity
  8
1
100
AcDbCircle
 10
197.7022559556883
 20
197.389494447143
 30
0.0
 40
3.0
100
AcDbArc
 50
270.0
 51
90.0
  0
LINE
  5
16E9
330
18
100
AcDbEntity
  8
1
100
AcDbLine
 10
208.7022559556883
 20
194.389494447143
 30
0.0
 11
232.7022559556883
 21
194.389494447143
 31
0.0
  0
LINE
  5
16EA
330
18
100
AcDbEntity
  8
1
100
AcDbLine
 10
232.7022559556883
 20
200.389494447143
 30
0.0
 11
208.7022559556883
 21
200.389494447143
 31
0.0
  0
LINE
  5
16EB
330
18
100
AcDbEntity
  8
1
100
AcDbLine
 10
110.2022559556883
 20
224.389494447143
 30
0.0
 11
86.20225595568831
 21
224.389494447143
 31
0.0
  0
LINE
  5
16EC
330
18
100
AcDbEntity
  8
1
100
AcDbLine
 10
86.20225595568831
 20
218.389494447143
 30
0.0
 11
110.2022559556883
 21
218.389494447143
 31
0.0
  0
LINE
  5
16ED
330
18
100
AcDbEntity
  8
1
100
AcDbLine
 10
110.2022559556883
 20
208.389494447143
 30
0.0
 11
86.20225595568831
 21
208.389494447143
 31
0.0
  0
LINE
  5
16EE
330
18
100
AcDbEntity
  8
1
100
AcDbLine
 10
92.70225595568831
 20
216.389494447143
 30
0.0
 11
68.70225595568832
 21
216.389494447143
 31
0.0
  0
LINE
  5
16EF
330
18
100
AcDbEntity
  8
1
100
AcDbLine
 10
68.70225595568832
 20
210.389494447143
 30
0.0
 11
92.70225595568831
 21
210.389494447143
 31
0.0
  0
ARC
  5
16F0
330
18
100
AcDbEntity
  8
1
100
AcDbCircle
 10
68.70225595568832
 20
213.3894944471431
 30
0.0
 40
3.0
100
AcDbArc
 50
90.0
 51
270.0
  0
ARC
  5
16F1
330
18
100
AcDbEntity
  8
1
100
AcDbCircle
 10
57.70225595568831
 20
213.3894944471431
 30
0.0
 40
3.0
100
AcDbArc
 50
270.0
 51
90.0
  0
ARC
  5
16F2
330
18
100
AcDbEntity
  8
1
100
AcDbCircle
 10
92.70225595568831
 20
213.3894944471431
 30
0.0
 40
3.0
100
AcDbArc
 50
270.0
 51
90.0
  0
ARC
  5
16F3
330
18
100
AcDbEntity
  8
1
100
AcDbCircle
 10
75.20225595568831
 20
221.389494447143
 30
0.0
 40
3.0
100
AcDbArc
 50
270.0
 51
90.0
  0
ARC
  5
16F4
330
18
100
AcDbEntity
  8
1
100
AcDbCircle
 10
86.20225595568831
 20
221.389494447143
 30
0.0
 40
3.0
100
AcDbArc
 50
90.0
 51
270.0
  0
LINE
  5
16F5
330
18
100
AcDbEntity
  8
1
100
AcDbLine
 10
127.7022559556883
 20
208.389494447143
 30
0.0
 11
121.7022559556883
 21
208.389494447143
 31
0.0
  0
LINE
  5
16F6
330
18
100
AcDbEntity
  8
1
100
AcDbLine
 10
127.7022559556883
 20
216.389494447143
 30
0.0
 11
103.7022559556883
 21
216.389494447143
 31
0.0
  0
LINE
  5
16F7
330
18
100
AcDbEntity
  8
1
100
AcDbLine
 10
103.7022559556883
 20
210.389494447143
 30
0.0
 11
127.7022559556883
 21
210.389494447143
 31
0.0
  0
ARC
  5
16F8
330
18
100
AcDbEntity
  8
1
100
AcDbCircle
 10
103.7022559556883
 20
213.3894944471431
 30
0.0
 40
3.0
100
AcDbArc
 50
90.0
 51
270.0
  0
ARC
  5
16F9
330
18
100
AcDbEntity
  8
1
100
AcDbCircle
 10
127.7022559556883
 20
213.3894944471431
 30
0.0
 40
3.0
100
AcDbArc
 50
270.0
 51
90.0
  0
LINE
  5
16FA
330
18
100
AcDbEntity
  8
1
100
AcDbLine
 10
121.7022559556883
 20
218.389494447143
 30
0.0
 11
127.7022559556883
 21
218.389494447143
 31
0.0
  0
LINE
  5
16FB
330
18
100
AcDbEntity
  8
1
100
AcDbLine
 10
127.7022559556883
 20
224.389494447143
 30
0.0
 11
121.7022559556883
 21
224.389494447143
 31
0.0
  0
ARC
  5
16FC
330
18
100
AcDbEntity
  8
1
100
AcDbCircle
 10
121.7022559556883
 20
221.389494447143
 30
0.0
 40
3.0
100
AcDbArc
 50
90.0
 51
270.0
  0
ARC
  5
16FD
330
18
100
AcDbEntity
  8
1
100
AcDbCircle
 10
110.2022559556883
 20
221.389494447143
 30
0.0
 40
3.0
100
AcDbArc
 50
270.0
 51
90.0
  0
ARC
  5
16FE
330
18
100
AcDbEntity
  8
1
100
AcDbCircle
 10
127.7022559556883
 20
221.389494447143
 30
0.0
 40
3.0
100
AcDbArc
 50
270.0
 51
90.0
  0
LINE
  5
16FF
330
18
100
AcDbEntity
  8
1
100
AcDbLine
 10
110.2022559556883
 20
240.3894944471431
 30
0.0
 11
86.20225595568831
 21
240.3894944471431
 31
0.0
  0
LINE
  5
1700
330
18
100
AcDbEntity
  8
1
100
AcDbLine
 10
86.20225595568831
 20
234.389494447143
 30
0.0
 11
110.2022559556883
 21
234.389494447143
 31
0.0
  0
LINE
  5
1701
330
18
100
AcDbEntity
  8
1
100
AcDbLine
 10
92.70225595568831
 20
232.389494447143
 30
0.0
 11
68.70225595568832
 21
232.389494447143
 31
0.0
  0
LINE
  5
1702
330
18
100
AcDbEntity
  8
1
100
AcDbLine
 10
68.70225595568832
 20
226.389494447143
 30
0.0
 11
92.70225595568831
 21
226.389494447143
 31
0.0
  0
ARC
  5
1703
330
18
100
AcDbEntity
  8
1
100
AcDbCircle
 10
68.70225595568832
 20
229.389494447143
 30
0.0
 40
3.0
100
AcDbArc
 50
90.0
 51
270.0
  0
ARC
  5
1704
330
18
100
AcDbEntity
  8
1
100
AcDbCircle
 10
57.70225595568831
 20
229.389494447143
 30
0.0
 40
3.0
100
AcDbArc
 50
270.0
 51
90.0
  0
ARC
  5
1705
330
18
100
AcDbEntity
  8
1
100
AcDbCircle
 10
92.70225595568831
 20
229.389494447143
 30
0.0
 40
3.0
100
AcDbArc
 50
270.0
 51
90.0
  0
LINE
  5
1706
330
18
100
AcDbEntity
  8
1
100
AcDbLine
 10
68.70225595568832
 20
242.3894944471431
 30
0.0
 11
92.70225595568831
 21
242.3894944471431
 31
0.0
  0
ARC
  5
1707
330
18
100
AcDbEntity
  8
1
100
AcDbCircle
 10
75.20225595568831
 20
237.389494447143
 30
0.0
 40
3.0
100
AcDbArc
 50
270.0
 51
90.0
  0
ARC
  5
1708
330
18
100
AcDbEntity
  8
1
100
AcDbCircle
 10
86.20225595568831
 20
237.389494447143
 30
0.0
 40
3.0
100
AcDbArc
 50
90.0
 51
270.0
  0
LINE
  5
1709
330
18
100
AcDbEntity
  8
1
100
AcDbLine
 10
127.7022559556883
 20
232.389494447143
 30
0.0
 11
103.7022559556883
 21
232.389494447143
 31
0.0
  0
LINE
  5
170A
330
18
100
AcDbEntity
  8
1
100
AcDbLine
 10
103.7022559556883
 20
226.389494447143
 30
0.0
 11
127.7022559556883
 21
226.389494447143
 31
0.0
  0
ARC
  5
170B
330
18
100
AcDbEntity
  8
1
100
AcDbCircle
 10
103.7022559556883
 20
229.389494447143
 30
0.0
 40
3.0
100
AcDbArc
 50
90.0
 51
270.0
  0
ARC
  5
170C
330
18
100
AcDbEntity
  8
1
100
AcDbCircle
 10
127.7022559556883
 20
229.389494447143
 30
0.0
 40
3.0
100
AcDbArc
 50
270.0
 51
90.0
  0
LINE
  5
170D
330
18
100
AcDbEntity
  8
1
100
AcDbLine
 10
127.7022559556883
 20
240.3894944471431
 30
0.0
 11
121.7022559556883
 21
240.3894944471431
 31
0.0
  0
LINE
  5
170E
330
18
100
AcDbEntity
  8
1
100
AcDbLine
 10
103.7022559556883
 20
242.3894944471431
 30
0.0
 11
127.7022559556883
 21
242.3894944471431
 31
0.0
  0
LINE
  5
170F
330
18
100
AcDbEntity
  8
1
100
AcDbLine
 10
121.7022559556883
 20
234.389494447143
 30
0.0
 11
127.7022559556883
 21
234.389494447143
 31
0.0
  0
ARC
  5
1710
330
18
100
AcDbEntity
  8
1
100
AcDbCircle
 10
110.2022559556883
 20
237.389494447143
 30
0.0
 40
3.0
100
AcDbArc
 50
270.0
 51
90.0
  0
ARC
  5
1711
330
18
100
AcDbEntity
  8
1
100
AcDbCircle
 10
121.7022559556883
 20
237.389494447143
 30
0.0
 40
3.0
100
AcDbArc
 50
90.0
 51
270.0
  0
ARC
  5
1712
330
18
100
AcDbEntity
  8
1
100
AcDbCircle
 10
127.7022559556883
 20
237.389494447143
 30
0.0
 40
3.0
100
AcDbArc
 50
270.0
 51
90.0
  0
LINE
  5
1713
330
18
100
AcDbEntity
  8
1
100
AcDbLine
 10
215.2022559556883
 20
224.389494447143
 30
0.0
 11
191.2022559556883
 21
224.389494447143
 31
0.0
  0
LINE
  5
1714
330
18
100
AcDbEntity
  8
1
100
AcDbLine
 10
191.2022559556883
 20
218.389494447143
 30
0.0
 11
215.2022559556883
 21
218.389494447143
 31
0.0
  0
LINE
  5
1715
330
18
100
AcDbEntity
  8
1
100
AcDbLine
 10
197.7022559556883
 20
216.389494447143
 30
0.0
 11
173.7022559556883
 21
216.389494447143
 31
0.0
  0
LINE
  5
1716
330
18
100
AcDbEntity
  8
1
100
AcDbLine
 10
173.7022559556883
 20
210.389494447143
 30
0.0
 11
197.7022559556883
 21
210.389494447143
 31
0.0
  0
LINE
  5
1717
330
18
100
AcDbEntity
  8
1
100
AcDbLine
 10
215.2022559556883
 20
208.389494447143
 30
0.0
 11
191.2022559556883
 21
208.389494447143
 31
0.0
  0
ARC
  5
1718
330
18
100
AcDbEntity
  8
1
100
AcDbCircle
 10
173.7022559556883
 20
213.3894944471431
 30
0.0
 40
3.0
100
AcDbArc
 50
90.0
 51
270.0
  0
LINE
  5
1719
330
18
100
AcDbEntity
  8
1
100
AcDbLine
 10
179.7022559556883
 20
208.389494447143
 30
0.0
 11
173.7022559556883
 21
208.389494447143
 31
0.0
  0
ARC
  5
171A
330
18
100
AcDbEntity
  8
1
100
AcDbCircle
 10
191.2022559556883
 20
221.389494447143
 30
0.0
 40
3.0
100
AcDbArc
 50
90.0
 51
270.0
  0
ARC
  5
171B
330
18
100
AcDbEntity
  8
1
100
AcDbCircle
 10
179.7022559556883
 20
221.389494447143
 30
0.0
 40
3.0
100
AcDbArc
 50
270.0
 51
90.0
  0
ARC
  5
171C
330
18
100
AcDbEntity
  8
1
100
AcDbCircle
 10
173.7022559556883
 20
221.389494447143
 30
0.0
 40
3.0
100
AcDbArc
 50
90.0
 51
270.0
  0
LINE
  5
171D
330
18
100
AcDbEntity
  8
1
100
AcDbLine
 10
173.7022559556883
 20
218.389494447143
 30
0.0
 11
179.7022559556883
 21
218.389494447143
 31
0.0
  0
LINE
  5
171E
330
18
100
AcDbEntity
  8
1
100
AcDbLine
 10
179.7022559556883
 20
224.389494447143
 30
0.0
 11
173.7022559556883
 21
224.389494447143
 31
0.0
  0
LINE
  5
171F
330
18
100
AcDbEntity
  8
1
100
AcDbLine
 10
232.7022559556883
 20
216.389494447143
 30
0.0
 11
208.7022559556883
 21
216.389494447143
 31
0.0
  0
LINE
  5
1720
330
18
100
AcDbEntity
  8
1
100
AcDbLine
 10
208.7022559556883
 20
210.389494447143
 30
0.0
 11
232.7022559556883
 21
210.389494447143
 31
0.0
  0
ARC
  5
1721
330
18
100
AcDbEntity
  8
1
100
AcDbCircle
 10
208.7022559556883
 20
213.3894944471431
 30
0.0
 40
3.0
100
AcDbArc
 50
90.0
 51
270.0
  0
ARC
  5
1722
330
18
100
AcDbEntity
  8
1
100
AcDbCircle
 10
197.7022559556883
 20
213.3894944471431
 30
0.0
 40
3.0
100
AcDbArc
 50
270.0
 51
90.0
  0
ARC
  5
1723
330
18
100
AcDbEntity
  8
1
100
AcDbCircle
 10
232.7022559556883
 20
213.3894944471431
 30
0.0
 40
3.0
100
AcDbArc
 50
270.0
 51
90.0
  0
ARC
  5
1724
330
18
100
AcDbEntity
  8
1
100
AcDbCircle
 10
215.2022559556883
 20
221.389494447143
 30
0.0
 40
3.0
100
AcDbArc
 50
270.0
 51
90.0
  0
ARC
  5
1725
330
18
100
AcDbEntity
  8
1
100
AcDbCircle
 10
226.2022559556883
 20
221.389494447143
 30
0.0
 40
3.0
100
AcDbArc
 50
90.0
 51
270.0
  0
LINE
  5
1726
330
18
100
AcDbEntity
  8
1
100
AcDbLine
 10
215.2022559556883
 20
240.3894944471431
 30
0.0
 11
191.2022559556883
 21
240.3894944471431
 31
0.0
  0
LINE
  5
1727
330
18
100
AcDbEntity
  8
1
100
AcDbLine
 10
173.7022559556883
 20
242.3894944471431
 30
0.0
 11
197.7022559556883
 21
242.3894944471431
 31
0.0
  0
LINE
  5
1728
330
18
100
AcDbEntity
  8
1
100
AcDbLine
 10
191.2022559556883
 20
234.389494447143
 30
0.0
 11
215.2022559556883
 21
234.389494447143
 31
0.0
  0
LINE
  5
1729
330
18
100
AcDbEntity
  8
1
100
AcDbLine
 10
197.7022559556883
 20
232.389494447143
 30
0.0
 11
173.7022559556883
 21
232.389494447143
 31
0.0
  0
LINE
  5
172A
330
18
100
AcDbEntity
  8
1
100
AcDbLine
 10
173.7022559556883
 20
226.389494447143
 30
0.0
 11
197.7022559556883
 21
226.389494447143
 31
0.0
  0
ARC
  5
172B
330
18
100
AcDbEntity
  8
1
100
AcDbCircle
 10
173.7022559556883
 20
229.389494447143
 30
0.0
 40
3.0
100
AcDbArc
 50
90.0
 51
270.0
  0
LINE
  5
172C
330
18
100
AcDbEntity
  8
1
100
AcDbLine
 10
179.7022559556883
 20
240.3894944471431
 30
0.0
 11
173.7022559556883
 21
240.3894944471431
 31
0.0
  0
LINE
  5
172D
330
18
100
AcDbEntity
  8
1
100
AcDbLine
 10
173.7022559556883
 20
234.389494447143
 30
0.0
 11
179.7022559556883
 21
234.389494447143
 31
0.0
  0
ARC
  5
172E
330
18
100
AcDbEntity
  8
1
100
AcDbCircle
 10
191.2022559556883
 20
237.389494447143
 30
0.0
 40
3.0
100
AcDbArc
 50
90.0
 51
270.0
  0
ARC
  5
172F
330
18
100
AcDbEntity
  8
1
100
AcDbCircle
 10
179.7022559556883
 20
237.389494447143
 30
0.0
 40
3.0
100
AcDbArc
 50
270.0
 51
90.0
  0
ARC
  5
1730
330
18
100
AcDbEntity
  8
1
100
AcDbCircle
 10
173.7022559556883
 20
237.389494447143
 30
0.0
 40
3.0
100
AcDbArc
 50
90.0
 51
270.0
  0
LINE
  5
1731
330
18
100
AcDbEntity
  8
1
100
AcDbLine
 10
232.7022559556883
 20
232.389494447143
 30
0.0
 11
208.7022559556883
 21
232.389494447143
 31
0.0
  0
LINE
  5
1732
330
18
100
AcDbEntity
  8
1
100
AcDbLine
 10
208.7022559556883
 20
226.389494447143
 30
0.0
 11
232.7022559556883
 21
226.389494447143
 31
0.0
  0
ARC
  5
1733
330
18
100
AcDbEntity
  8
1
100
AcDbCircle
 10
208.7022559556883
 20
229.389494447143
 30
0.0
 40
3.0
100
AcDbArc
 50
90.0
 51
270.0
  0
ARC
  5
1734
330
18
100
AcDbEntity
  8
1
100
AcDbCircle
 10
197.7022559556883
 20
229.389494447143
 30
0.0
 40
3.0
100
AcDbArc
 50
270.0
 51
90.0
  0
ARC
  5
1735
330
18
100
AcDbEntity
  8
1
100
AcDbCircle
 10
232.7022559556883
 20
229.389494447143
 30
0.0
 40
3.0
100
AcDbArc
 50
270.0
 51
90.0
  0
LINE
  5
1736
330
18
100
AcDbEntity
  8
1
100
AcDbLine
 10
208.7022559556883
 20
242.3894944471431
 30
0.0
 11
232.7022559556883
 21
242.3894944471431
 31
0.0
  0
ARC
  5
1737
330
18
100
AcDbEntity
  8
1
100
AcDbCircle
 10
215.2022559556883
 20
237.389494447143
 30
0.0
 40
3.0
100
AcDbArc
 50
270.0
 51
90.0
  0
ARC
  5
1738
330
18
100
AcDbEntity
  8
1
100
AcDbCircle
 10
226.2022559556883
 20
237.389494447143
 30
0.0
 40
3.0
100
AcDbArc
 50
90.0
 51
270.0
  0
LINE
  5
1739
330
18
100
AcDbEntity
  8
1
100
AcDbLine
 10
57.70225595568831
 20
280.389494447143
 30
0.0
 11
33.70225595568831
 21
280.389494447143
 31
0.0
  0
LINE
  5
173A
330
18
100
AcDbEntity
  8
1
100
AcDbLine
 10
75.20225595568831
 20
272.389494447143
 30
0.0
 11
51.20225595568832
 21
272.389494447143
 31
0.0
  0
LINE
  5
173B
330
18
100
AcDbEntity
  8
1
100
AcDbLine
 10
33.70225595568831
 20
274.389494447143
 30
0.0
 11
57.70225595568831
 21
274.389494447143
 31
0.0
  0
LINE
  5
173C
330
18
100
AcDbEntity
  8
1
100
AcDbLine
 10
51.20225595568832
 20
266.389494447143
 30
0.0
 11
75.20225595568831
 21
266.389494447143
 31
0.0
  0
LINE
  5
173D
330
18
100
AcDbEntity
  8
1
100
AcDbLine
 10
57.70225595568831
 20
264.389494447143
 30
0.0
 11
33.70225595568831
 21
264.389494447143
 31
0.0
  0
LINE
  5
173E
330
18
100
AcDbEntity
  8
1
100
AcDbLine
 10
75.20225595568831
 20
256.389494447143
 30
0.0
 11
51.20225595568832
 21
256.389494447143
 31
0.0
  0
LINE
  5
173F
330
18
100
AcDbEntity
  8
1
100
AcDbLine
 10
33.70225595568831
 20
258.389494447143
 30
0.0
 11
57.70225595568831
 21
258.389494447143
 31
0.0
  0
LINE
  5
1740
330
18
100
AcDbEntity
  8
1
100
AcDbLine
 10
51.20225595568832
 20
250.389494447143
 30
0.0
 11
75.20225595568831
 21
250.389494447143
 31
0.0
  0
LINE
  5
1741
330
18
100
AcDbEntity
  8
1
100
AcDbLine
 10
57.70225595568831
 20
248.389494447143
 30
0.0
 11
33.70225595568831
 21
248.389494447143
 31
0.0
  0
ARC
  5
1742
330
18
100
AcDbEntity
  8
1
100
AcDbCircle
 10
33.70225595568831
 20
277.389494447143
 30
0.0
 40
3.0
100
AcDbArc
 50
90.0
 51
270.0
  0
ARC
  5
1743
330
18
100
AcDbEntity
  8
1
100
AcDbCircle
 10
-1.297744044311684
 20
277.389494447143
 30
0.0
 40
3.0
100
AcDbArc
 50
90.0
 51
270.0
  0
ARC
  5
1744
330
18
100
AcDbEntity
  8
1
100
AcDbCircle
 10
22.70225595568831
 20
277.389494447143
 30
0.0
 40
3.0
100
AcDbArc
 50
270.0
 51
90.0
  0
ARC
  5
1745
330
18
100
AcDbEntity
  8
1
100
AcDbCircle
 10
-48.79774404431168
 20
277.389494447143
 30
0.0
 40
3.0
100
AcDbArc
 50
0.0
 51
180.0
  0
ARC
  5
1746
330
18
100
AcDbEntity
  8
1
100
AcDbCircle
 10
-56.79774404431168
 20
277.389494447143
 30
0.0
 40
3.0
100
AcDbArc
 50
0.0
 51
180.0
  0
ARC
  5
1747
330
18
100
AcDbEntity
  8
1
100
AcDbCircle
 10
-22.29774404431168
 20
277.8894944471431
 30
0.0
 40
5.0
100
AcDbArc
 50
90.0
 51
180.0
  0
ARC
  5
1748
330
18
100
AcDbEntity
  8
1
100
AcDbCircle
 10
-72.79774404431169
 20
277.389494447143
 30
0.0
 40
3.0
100
AcDbArc
 50
0.0
 51
180.0
  0
ARC
  5
1749
330
18
100
AcDbEntity
  8
1
100
AcDbCircle
 10
-88.79774404431168
 20
277.389494447143
 30
0.0
 40
3.0
100
AcDbArc
 50
0.0
 51
180.0
  0
ARC
  5
174A
330
18
100
AcDbEntity
  8
1
100
AcDbCircle
 10
-104.7977440443116
 20
277.389494447143
 30
0.0
 40
3.0
100
AcDbArc
 50
0.0
 51
180.0
  0
ARC
  5
174B
330
18
100
AcDbEntity
  8
1
100
AcDbCircle
 10
-96.79774404431169
 20
277.389494447143
 30
0.0
 40
3.0
100
AcDbArc
 50
0.0
 51
180.0
  0
ARC
  5
174C
330
18
100
AcDbEntity
  8
1
100
AcDbCircle
 10
-80.79774404431168
 20
277.389494447143
 30
0.0
 40
3.0
100
AcDbArc
 50
0.0
 51
180.0
  0
ARC
  5
174D
330
18
100
AcDbEntity
  8
1
100
AcDbCircle
 10
-64.79774404431168
 20
277.389494447143
 30
0.0
 40
3.0
100
AcDbArc
 50
0.0
 51
180.0
  0
ARC
  5
174E
330
18
100
AcDbEntity
  8
1
100
AcDbCircle
 10
-112.7977440443116
 20
277.389494447143
 30
0.0
 40
3.0
100
AcDbArc
 50
0.0
 51
180.0
  0
ARC
  5
174F
330
18
100
AcDbEntity
  8
1
100
AcDbCircle
 10
-56.79774404431168
 20
259.889494447143
 30
0.0
 40
3.0
100
AcDbArc
 50
0.0
 51
180.0
  0
ARC
  5
1750
330
18
100
AcDbEntity
  8
1
100
AcDbCircle
 10
-72.79774404431169
 20
259.889494447143
 30
0.0
 40
3.0
100
AcDbArc
 50
0.0
 51
180.0
  0
ARC
  5
1751
330
18
100
AcDbEntity
  8
1
100
AcDbCircle
 10
-104.7977440443116
 20
259.889494447143
 30
0.0
 40
3.0
100
AcDbArc
 50
0.0
 51
180.0
  0
ARC
  5
1752
330
18
100
AcDbEntity
  8
1
100
AcDbCircle
 10
-88.79774404431168
 20
259.889494447143
 30
0.0
 40
3.0
100
AcDbArc
 50
0.0
 51
180.0
  0
LINE
  5
1753
330
18
100
AcDbEntity
  8
1
100
AcDbLine
 10
-45.79774404431169
 20
253.389494447143
 30
0.0
 11
-45.79774404431169
 21
277.389494447143
 31
0.0
  0
LINE
  5
1754
330
18
100
AcDbEntity
  8
1
100
AcDbLine
 10
-51.79774404431168
 20
277.389494447143
 30
0.0
 11
-51.79774404431168
 21
253.389494447143
 31
0.0
  0
LINE
  5
1755
330
18
100
AcDbEntity
  8
1
100
AcDbLine
 10
-93.79774404431168
 20
253.389494447143
 30
0.0
 11
-93.79774404431168
 21
277.389494447143
 31
0.0
  0
LINE
  5
1756
330
18
100
AcDbEntity
  8
1
100
AcDbLine
 10
-99.79774404431168
 20
277.389494447143
 30
0.0
 11
-99.79774404431168
 21
253.389494447143
 31
0.0
  0
LINE
  5
1757
330
18
100
AcDbEntity
  8
1
100
AcDbLine
 10
-77.79774404431169
 20
253.389494447143
 30
0.0
 11
-77.79774404431169
 21
277.389494447143
 31
0.0
  0
LINE
  5
1758
330
18
100
AcDbEntity
  8
1
100
AcDbLine
 10
-83.79774404431168
 20
277.389494447143
 30
0.0
 11
-83.79774404431168
 21
253.389494447143
 31
0.0
  0
LINE
  5
1759
330
18
100
AcDbEntity
  8
1
100
AcDbLine
 10
-61.79774404431168
 20
253.389494447143
 30
0.0
 11
-61.79774404431168
 21
277.389494447143
 31
0.0
  0
LINE
  5
175A
330
18
100
AcDbEntity
  8
1
100
AcDbLine
 10
-67.79774404431169
 20
277.389494447143
 30
0.0
 11
-67.79774404431169
 21
253.389494447143
 31
0.0
  0
LINE
  5
175B
330
18
100
AcDbEntity
  8
1
100
AcDbLine
 10
-109.7977440443116
 20
253.389494447143
 30
0.0
 11
-109.7977440443116
 21
277.389494447143
 31
0.0
  0
LINE
  5
175C
330
18
100
AcDbEntity
  8
1
100
AcDbLine
 10
-115.7977440443116
 20
277.389494447143
 30
0.0
 11
-115.7977440443116
 21
253.389494447143
 31
0.0
  0
ARC
  5
175D
330
18
100
AcDbEntity
  8
1
100
AcDbCircle
 10
-96.79774404431169
 20
253.389494447143
 30
0.0
 40
3.0
100
AcDbArc
 50
180.0
 51
0.0
  0
ARC
  5
175E
330
18
100
AcDbEntity
  8
1
100
AcDbCircle
 10
-112.7977440443116
 20
253.389494447143
 30
0.0
 40
3.0
100
AcDbArc
 50
180.0
 51
0.0
  0
ARC
  5
175F
330
18
100
AcDbEntity
  8
1
100
AcDbCircle
 10
-48.79774404431168
 20
253.389494447143
 30
0.0
 40
3.0
100
AcDbArc
 50
180.0
 51
0.0
  0
ARC
  5
1760
330
18
100
AcDbEntity
  8
1
100
AcDbCircle
 10
-80.79774404431168
 20
253.389494447143
 30
0.0
 40
3.0
100
AcDbArc
 50
180.0
 51
0.0
  0
ARC
  5
1761
330
18
100
AcDbEntity
  8
1
100
AcDbCircle
 10
-64.79774404431168
 20
253.389494447143
 30
0.0
 40
3.0
100
AcDbArc
 50
180.0
 51
0.0
  0
ARC
  5
1762
330
18
100
AcDbEntity
  8
1
100
AcDbCircle
 10
-88.79774404431168
 20
271.3894944471431
 30
0.0
 40
3.0
100
AcDbArc
 50
180.0
 51
0.0
  0
ARC
  5
1763
330
18
100
AcDbEntity
  8
1
100
AcDbCircle
 10
-104.7977440443116
 20
271.3894944471431
 30
0.0
 40
3.0
100
AcDbArc
 50
180.0
 51
0.0
  0
LINE
  5
1764
330
18
100
AcDbEntity
  8
1
100
AcDbLine
 10
-85.79774404431168
 20
271.389494447143
 30
0.0
 11
-85.79774404431168
 21
277.389494447143
 31
0.0
  0
LINE
  5
1765
330
18
100
AcDbEntity
  8
1
100
AcDbLine
 10
-91.79774404431169
 20
277.3894944471431
 30
0.0
 11
-91.79774404431169
 21
271.3894944471431
 31
0.0
  0
LINE
  5
1766
330
18
100
AcDbEntity
  8
1
100
AcDbLine
 10
-107.7977440443116
 20
277.3894944471431
 30
0.0
 11
-107.7977440443116
 21
271.3894944471431
 31
0.0
  0
LINE
  5
1767
330
18
100
AcDbEntity
  8
1
100
AcDbLine
 10
-101.7977440443116
 20
271.389494447143
 30
0.0
 11
-101.7977440443116
 21
277.389494447143
 31
0.0
  0
ARC
  5
1768
330
18
100
AcDbEntity
  8
1
100
AcDbCircle
 10
-56.79774404431168
 20
271.3894944471431
 30
0.0
 40
3.0
100
AcDbArc
 50
180.0
 51
0.0
  0
ARC
  5
1769
330
18
100
AcDbEntity
  8
1
100
AcDbCircle
 10
-72.79774404431169
 20
271.3894944471431
 30
0.0
 40
3.0
100
AcDbArc
 50
180.0
 51
0.0
  0
LINE
  5
176A
330
18
100
AcDbEntity
  8
1
100
AcDbLine
 10
-75.79774404431169
 20
277.3894944471431
 30
0.0
 11
-75.79774404431169
 21
271.3894944471431
 31
0.0
  0
LINE
  5
176B
330
18
100
AcDbEntity
  8
1
100
AcDbLine
 10
-69.79774404431168
 20
271.389494447143
 30
0.0
 11
-69.79774404431168
 21
277.389494447143
 31
0.0
  0
LINE
  5
176C
330
18
100
AcDbEntity
  8
1
100
AcDbLine
 10
-59.79774404431168
 20
277.3894944471431
 30
0.0
 11
-59.79774404431168
 21
271.3894944471431
 31
0.0
  0
LINE
  5
176D
330
18
100
AcDbEntity
  8
1
100
AcDbLine
 10
-53.79774404431168
 20
271.389494447143
 30
0.0
 11
-53.79774404431168
 21
277.389494447143
 31
0.0
  0
ARC
  5
176E
330
18
100
AcDbEntity
  8
1
100
AcDbCircle
 10
33.70225595568831
 20
261.3894944471431
 30
0.0
 40
3.0
100
AcDbArc
 50
90.0
 51
270.0
  0
ARC
  5
176F
330
18
100
AcDbEntity
  8
1
100
AcDbCircle
 10
-1.297744044311684
 20
261.3894944471431
 30
0.0
 40
3.0
100
AcDbArc
 50
90.0
 51
270.0
  0
ARC
  5
1770
330
18
100
AcDbEntity
  8
1
100
AcDbCircle
 10
22.70225595568831
 20
261.3894944471431
 30
0.0
 40
3.0
100
AcDbArc
 50
270.0
 51
90.0
  0
LINE
  5
1771
330
18
100
AcDbEntity
  8
1
100
AcDbLine
 10
-1.297744044311684
 20
258.389494447143
 30
0.0
 11
22.70225595568831
 21
258.389494447143
 31
0.0
  0
LINE
  5
1772
330
18
100
AcDbEntity
  8
1
100
AcDbLine
 10
22.70225595568831
 20
248.389494447143
 30
0.0
 11
-1.297744044311684
 21
248.389494447143
 31
0.0
  0
ARC
  5
1773
330
18
100
AcDbEntity
  8
1
100
AcDbCircle
 10
4.702255955688315
 20
253.389494447143
 30
0.0
 40
3.0
100
AcDbArc
 50
270.0
 51
90.0
  0
ARC
  5
1774
330
18
100
AcDbEntity
  8
1
100
AcDbCircle
 10
-1.297744044311684
 20
253.389494447143
 30
0.0
 40
3.0
100
AcDbArc
 50
90.0
 51
270.0
  0
LINE
  5
1775
330
18
100
AcDbEntity
  8
1
100
AcDbLine
 10
-1.297744044311684
 20
250.389494447143
 30
0.0
 11
4.702255955688315
 21
250.389494447143
 31
0.0
  0
LINE
  5
1776
330
18
100
AcDbEntity
  8
1
100
AcDbLine
 10
4.702255955688315
 20
256.389494447143
 30
0.0
 11
-1.297744044311684
 21
256.389494447143
 31
0.0
  0
ARC
  5
1777
330
18
100
AcDbEntity
  8
1
100
AcDbCircle
 10
51.20225595568832
 20
253.389494447143
 30
0.0
 40
3.0
100
AcDbArc
 50
90.0
 51
270.0
  0
ARC
  5
1778
330
18
100
AcDbEntity
  8
1
100
AcDbCircle
 10
16.20225595568831
 20
253.389494447143
 30
0.0
 40
3.0
100
AcDbArc
 50
90.0
 51
270.0
  0
ARC
  5
1779
330
18
100
AcDbEntity
  8
1
100
AcDbCircle
 10
40.20225595568831
 20
253.389494447143
 30
0.0
 40
3.0
100
AcDbArc
 50
270.0
 51
90.0
  0
LINE
  5
177A
330
18
100
AcDbEntity
  8
1
100
AcDbLine
 10
16.20225595568831
 20
250.389494447143
 30
0.0
 11
40.20225595568831
 21
250.389494447143
 31
0.0
  0
LINE
  5
177B
330
18
100
AcDbEntity
  8
1
100
AcDbLine
 10
40.20225595568831
 20
256.389494447143
 30
0.0
 11
16.20225595568831
 21
256.389494447143
 31
0.0
  0
LINE
  5
177C
330
18
100
AcDbEntity
  8
1
100
AcDbLine
 10
-1.297744044311684
 20
274.389494447143
 30
0.0
 11
22.70225595568831
 21
274.389494447143
 31
0.0
  0
LINE
  5
177D
330
18
100
AcDbEntity
  8
1
100
AcDbLine
 10
22.70225595568831
 20
264.389494447143
 30
0.0
 11
-1.297744044311684
 21
264.389494447143
 31
0.0
  0
ARC
  5
177E
330
18
100
AcDbEntity
  8
1
100
AcDbCircle
 10
4.702255955688315
 20
269.389494447143
 30
0.0
 40
3.0
100
AcDbArc
 50
270.0
 51
90.0
  0
ARC
  5
177F
330
18
100
AcDbEntity
  8
1
100
AcDbCircle
 10
-1.297744044311684
 20
269.389494447143
 30
0.0
 40
3.0
100
AcDbArc
 50
90.0
 51
270.0
  0
CIRCLE
  5
1780
330
18
100
AcDbEntity
  8
1
100
AcDbCircle
 10
-20.29774404431168
 20
265.3894944471431
 30
0.0
 40
3.0
  0
LINE
  5
1781
330
18
100
AcDbEntity
  8
1
100
AcDbLine
 10
-1.297744044311684
 20
266.389494447143
 30
0.0
 11
4.702255955688315
 21
266.389494447143
 31
0.0
  0
LINE
  5
1782
330
18
100
AcDbEntity
  8
1
100
AcDbLine
 10
4.702255955688315
 20
272.389494447143
 30
0.0
 11
-1.297744044311684
 21
272.389494447143
 31
0.0
  0
ARC
  5
1783
330
18
100
AcDbEntity
  8
1
100
AcDbCircle
 10
16.20225595568831
 20
269.389494447143
 30
0.0
 40
3.0
100
AcDbArc
 50
90.0
 51
270.0
  0
ARC
  5
1784
330
18
100
AcDbEntity
  8
1
100
AcDbCircle
 10
40.20225595568831
 20
269.389494447143
 30
0.0
 40
3.0
100
AcDbArc
 50
270.0
 51
90.0
  0
ARC
  5
1785
330
18
100
AcDbEntity
  8
1
100
AcDbCircle
 10
51.20225595568832
 20
269.389494447143
 30
0.0
 40
3.0
100
AcDbArc
 50
90.0
 51
270.0
  0
LINE
  5
1786
330
18
100
AcDbEntity
  8
1
100
AcDbLine
 10
16.20225595568831
 20
266.389494447143
 30
0.0
 11
40.20225595568831
 21
266.389494447143
 31
0.0
  0
LINE
  5
1787
330
18
100
AcDbEntity
  8
1
100
AcDbLine
 10
40.20225595568831
 20
272.389494447143
 30
0.0
 11
16.20225595568831
 21
272.389494447143
 31
0.0
  0
LINE
  5
1788
330
18
100
AcDbEntity
  8
1
100
AcDbLine
 10
22.70225595568831
 20
280.389494447143
 30
0.0
 11
-1.297744044311684
 21
280.389494447143
 31
0.0
  0
LINE
  5
1789
330
18
100
AcDbEntity
  8
1
100
AcDbLine
 10
-22.29774404431168
 20
282.889494447143
 30
0.0
 11
-12.29774404431168
 21
282.889494447143
 31
0.0
  0
ARC
  5
178A
330
18
100
AcDbEntity
  8
1
100
AcDbCircle
 10
232.7022559556883
 20
277.389494447143
 30
0.0
 40
3.0
100
AcDbArc
 50
270.0
 51
90.0
  0
ARC
  5
178B
330
18
100
AcDbEntity
  8
1
100
AcDbCircle
 10
208.7022559556883
 20
277.389494447143
 30
0.0
 40
3.0
100
AcDbArc
 50
90.0
 51
270.0
  0
ARC
  5
178C
330
18
100
AcDbEntity
  8
1
100
AcDbCircle
 10
173.7022559556883
 20
277.389494447143
 30
0.0
 40
3.0
100
AcDbArc
 50
90.0
 51
270.0
  0
ARC
  5
178D
330
18
100
AcDbEntity
  8
1
100
AcDbCircle
 10
197.7022559556883
 20
277.389494447143
 30
0.0
 40
3.0
100
AcDbArc
 50
270.0
 51
90.0
  0
ARC
  5
178E
330
18
100
AcDbEntity
  8
1
100
AcDbCircle
 10
127.7022559556883
 20
277.389494447143
 30
0.0
 40
3.0
100
AcDbArc
 50
270.0
 51
90.0
  0
ARC
  5
178F
330
18
100
AcDbEntity
  8
1
100
AcDbCircle
 10
92.70225595568831
 20
277.389494447143
 30
0.0
 40
3.0
100
AcDbArc
 50
270.0
 51
90.0
  0
ARC
  5
1790
330
18
100
AcDbEntity
  8
1
100
AcDbCircle
 10
103.7022559556883
 20
277.389494447143
 30
0.0
 40
3.0
100
AcDbArc
 50
90.0
 51
270.0
  0
ARC
  5
1791
330
18
100
AcDbEntity
  8
1
100
AcDbCircle
 10
68.70225595568832
 20
277.389494447143
 30
0.0
 40
3.0
100
AcDbArc
 50
90.0
 51
270.0
  0
ARC
  5
1792
330
18
100
AcDbEntity
  8
1
100
AcDbCircle
 10
57.70225595568831
 20
277.389494447143
 30
0.0
 40
3.0
100
AcDbArc
 50
270.0
 51
90.0
  0
ARC
  5
1793
330
18
100
AcDbEntity
  8
1
100
AcDbCircle
 10
127.7022559556883
 20
261.3894944471431
 30
0.0
 40
3.0
100
AcDbArc
 50
270.0
 51
90.0
  0
ARC
  5
1794
330
18
100
AcDbEntity
  8
1
100
AcDbCircle
 10
92.70225595568831
 20
261.3894944471431
 30
0.0
 40
3.0
100
AcDbArc
 50
270.0
 51
90.0
  0
ARC
  5
1795
330
18
100
AcDbEntity
  8
1
100
AcDbCircle
 10
103.7022559556883
 20
261.3894944471431
 30
0.0
 40
3.0
100
AcDbArc
 50
90.0
 51
270.0
  0
ARC
  5
1796
330
18
100
AcDbEntity
  8
1
100
AcDbCircle
 10
68.70225595568832
 20
261.3894944471431
 30
0.0
 40
3.0
100
AcDbArc
 50
90.0
 51
270.0
  0
ARC
  5
1797
330
18
100
AcDbEntity
  8
1
100
AcDbCircle
 10
57.70225595568831
 20
261.3894944471431
 30
0.0
 40
3.0
100
AcDbArc
 50
270.0
 51
90.0
  0
LINE
  5
1798
330
18
100
AcDbEntity
  8
1
100
AcDbLine
 10
110.2022559556883
 20
256.389494447143
 30
0.0
 11
86.20225595568831
 21
256.389494447143
 31
0.0
  0
LINE
  5
1799
330
18
100
AcDbEntity
  8
1
100
AcDbLine
 10
86.20225595568831
 20
250.389494447143
 30
0.0
 11
110.2022559556883
 21
250.389494447143
 31
0.0
  0
ARC
  5
179A
330
18
100
AcDbEntity
  8
1
100
AcDbCircle
 10
86.20225595568831
 20
253.389494447143
 30
0.0
 40
3.0
100
AcDbArc
 50
90.0
 51
270.0
  0
ARC
  5
179B
330
18
100
AcDbEntity
  8
1
100
AcDbCircle
 10
75.20225595568831
 20
253.389494447143
 30
0.0
 40
3.0
100
AcDbArc
 50
270.0
 51
90.0
  0
LINE
  5
179C
330
18
100
AcDbEntity
  8
1
100
AcDbLine
 10
92.70225595568831
 20
248.389494447143
 30
0.0
 11
68.70225595568832
 21
248.389494447143
 31
0.0
  0
LINE
  5
179D
330
18
100
AcDbEntity
  8
1
100
AcDbLine
 10
68.70225595568832
 20
258.389494447143
 30
0.0
 11
92.70225595568831
 21
258.389494447143
 31
0.0
  0
ARC
  5
179E
330
18
100
AcDbEntity
  8
1
100
AcDbCircle
 10
110.2022559556883
 20
253.389494447143
 30
0.0
 40
3.0
100
AcDbArc
 50
270.0
 51
90.0
  0
ARC
  5
179F
330
18
100
AcDbEntity
  8
1
100
AcDbCircle
 10
127.7022559556883
 20
253.389494447143
 30
0.0
 40
3.0
100
AcDbArc
 50
270.0
 51
90.0
  0
ARC
  5
17A0
330
18
100
AcDbEntity
  8
1
100
AcDbCircle
 10
121.7022559556883
 20
253.389494447143
 30
0.0
 40
3.0
100
AcDbArc
 50
90.0
 51
270.0
  0
LINE
  5
17A1
330
18
100
AcDbEntity
  8
1
100
AcDbLine
 10
121.7022559556883
 20
250.389494447143
 30
0.0
 11
127.7022559556883
 21
250.389494447143
 31
0.0
  0
LINE
  5
17A2
330
18
100
AcDbEntity
  8
1
100
AcDbLine
 10
127.7022559556883
 20
248.389494447143
 30
0.0
 11
103.7022559556883
 21
248.389494447143
 31
0.0
  0
LINE
  5
17A3
330
18
100
AcDbEntity
  8
1
100
AcDbLine
 10
127.7022559556883
 20
256.389494447143
 30
0.0
 11
121.7022559556883
 21
256.389494447143
 31
0.0
  0
LINE
  5
17A4
330
18
100
AcDbEntity
  8
1
100
AcDbLine
 10
103.7022559556883
 20
258.389494447143
 30
0.0
 11
127.7022559556883
 21
258.389494447143
 31
0.0
  0
LINE
  5
17A5
330
18
100
AcDbEntity
  8
1
100
AcDbLine
 10
110.2022559556883
 20
272.389494447143
 30
0.0
 11
86.20225595568831
 21
272.389494447143
 31
0.0
  0
LINE
  5
17A6
330
18
100
AcDbEntity
  8
1
100
AcDbLine
 10
86.20225595568831
 20
266.389494447143
 30
0.0
 11
110.2022559556883
 21
266.389494447143
 31
0.0
  0
ARC
  5
17A7
330
18
100
AcDbEntity
  8
1
100
AcDbCircle
 10
86.20225595568831
 20
269.389494447143
 30
0.0
 40
3.0
100
AcDbArc
 50
90.0
 51
270.0
  0
ARC
  5
17A8
330
18
100
AcDbEntity
  8
1
100
AcDbCircle
 10
75.20225595568831
 20
269.389494447143
 30
0.0
 40
3.0
100
AcDbArc
 50
270.0
 51
90.0
  0
LINE
  5
17A9
330
18
100
AcDbEntity
  8
1
100
AcDbLine
 10
92.70225595568831
 20
264.389494447143
 30
0.0
 11
68.70225595568832
 21
264.389494447143
 31
0.0
  0
LINE
  5
17AA
330
18
100
AcDbEntity
  8
1
100
AcDbLine
 10
68.70225595568832
 20
274.389494447143
 30
0.0
 11
92.70225595568831
 21
274.389494447143
 31
0.0
  0
ARC
  5
17AB
330
18
100
AcDbEntity
  8
1
100
AcDbCircle
 10
110.2022559556883
 20
269.389494447143
 30
0.0
 40
3.0
100
AcDbArc
 50
270.0
 51
90.0
  0
ARC
  5
17AC
330
18
100
AcDbEntity
  8
1
100
AcDbCircle
 10
127.7022559556883
 20
269.389494447143
 30
0.0
 40
3.0
100
AcDbArc
 50
270.0
 51
90.0
  0
ARC
  5
17AD
330
18
100
AcDbEntity
  8
1
100
AcDbCircle
 10
121.7022559556883
 20
269.389494447143
 30
0.0
 40
3.0
100
AcDbArc
 50
90.0
 51
270.0
  0
LINE
  5
17AE
330
18
100
AcDbEntity
  8
1
100
AcDbLine
 10
121.7022559556883
 20
266.389494447143
 30
0.0
 11
127.7022559556883
 21
266.389494447143
 31
0.0
  0
LINE
  5
17AF
330
18
100
AcDbEntity
  8
1
100
AcDbLine
 10
127.7022559556883
 20
264.389494447143
 30
0.0
 11
103.7022559556883
 21
264.389494447143
 31
0.0
  0
LINE
  5
17B0
330
18
100
AcDbEntity
  8
1
100
AcDbLine
 10
127.7022559556883
 20
272.389494447143
 30
0.0
 11
121.7022559556883
 21
272.389494447143
 31
0.0
  0
LINE
  5
17B1
330
18
100
AcDbEntity
  8
1
100
AcDbLine
 10
103.7022559556883
 20
274.389494447143
 30
0.0
 11
127.7022559556883
 21
274.389494447143
 31
0.0
  0
ARC
  5
17B2
330
18
100
AcDbEntity
  8
1
100
AcDbCircle
 10
232.7022559556883
 20
261.3894944471431
 30
0.0
 40
3.0
100
AcDbArc
 50
270.0
 51
90.0
  0
ARC
  5
17B3
330
18
100
AcDbEntity
  8
1
100
AcDbCircle
 10
208.7022559556883
 20
261.3894944471431
 30
0.0
 40
3.0
100
AcDbArc
 50
90.0
 51
270.0
  0
ARC
  5
17B4
330
18
100
AcDbEntity
  8
1
100
AcDbCircle
 10
173.7022559556883
 20
261.3894944471431
 30
0.0
 40
3.0
100
AcDbArc
 50
90.0
 51
270.0
  0
ARC
  5
17B5
330
18
100
AcDbEntity
  8
1
100
AcDbCircle
 10
197.7022559556883
 20
261.3894944471431
 30
0.0
 40
3.0
100
AcDbArc
 50
270.0
 51
90.0
  0
LINE
  5
17B6
330
18
100
AcDbEntity
  8
1
100
AcDbLine
 10
215.2022559556883
 20
256.389494447143
 30
0.0
 11
191.2022559556883
 21
256.389494447143
 31
0.0
  0
LINE
  5
17B7
330
18
100
AcDbEntity
  8
1
100
AcDbLine
 10
173.7022559556883
 20
258.389494447143
 30
0.0
 11
197.7022559556883
 21
258.389494447143
 31
0.0
  0
LINE
  5
17B8
330
18
100
AcDbEntity
  8
1
100
AcDbLine
 10
191.2022559556883
 20
250.389494447143
 30
0.0
 11
215.2022559556883
 21
250.389494447143
 31
0.0
  0
LINE
  5
17B9
330
18
100
AcDbEntity
  8
1
100
AcDbLine
 10
197.7022559556883
 20
248.389494447143
 30
0.0
 11
173.7022559556883
 21
248.389494447143
 31
0.0
  0
ARC
  5
17BA
330
18
100
AcDbEntity
  8
1
100
AcDbCircle
 10
179.7022559556883
 20
253.389494447143
 30
0.0
 40
3.0
100
AcDbArc
 50
270.0
 51
90.0
  0
ARC
  5
17BB
330
18
100
AcDbEntity
  8
1
100
AcDbCircle
 10
173.7022559556883
 20
253.389494447143
 30
0.0
 40
3.0
100
AcDbArc
 50
90.0
 51
270.0
  0
ARC
  5
17BC
330
18
100
AcDbEntity
  8
1
100
AcDbCircle
 10
191.2022559556883
 20
253.389494447143
 30
0.0
 40
3.0
100
AcDbArc
 50
90.0
 51
270.0
  0
LINE
  5
17BD
330
18
100
AcDbEntity
  8
1
100
AcDbLine
 10
173.7022559556883
 20
250.389494447143
 30
0.0
 11
179.7022559556883
 21
250.389494447143
 31
0.0
  0
LINE
  5
17BE
330
18
100
AcDbEntity
  8
1
100
AcDbLine
 10
179.7022559556883
 20
256.389494447143
 30
0.0
 11
173.7022559556883
 21
256.389494447143
 31
0.0
  0
ARC
  5
17BF
330
18
100
AcDbEntity
  8
1
100
AcDbCircle
 10
226.2022559556883
 20
253.389494447143
 30
0.0
 40
3.0
100
AcDbArc
 50
90.0
 51
270.0
  0
ARC
  5
17C0
330
18
100
AcDbEntity
  8
1
100
AcDbCircle
 10
215.2022559556883
 20
253.389494447143
 30
0.0
 40
3.0
100
AcDbArc
 50
270.0
 51
90.0
  0
LINE
  5
17C1
330
18
100
AcDbEntity
  8
1
100
AcDbLine
 10
232.7022559556883
 20
248.389494447143
 30
0.0
 11
208.7022559556883
 21
248.389494447143
 31
0.0
  0
LINE
  5
17C2
330
18
100
AcDbEntity
  8
1
100
AcDbLine
 10
208.7022559556883
 20
258.389494447143
 30
0.0
 11
232.7022559556883
 21
258.389494447143
 31
0.0
  0
LINE
  5
17C3
330
18
100
AcDbEntity
  8
1
100
AcDbLine
 10
215.2022559556883
 20
272.389494447143
 30
0.0
 11
191.2022559556883
 21
272.389494447143
 31
0.0
  0
LINE
  5
17C4
330
18
100
AcDbEntity
  8
1
100
AcDbLine
 10
173.7022559556883
 20
274.389494447143
 30
0.0
 11
197.7022559556883
 21
274.389494447143
 31
0.0
  0
LINE
  5
17C5
330
18
100
AcDbEntity
  8
1
100
AcDbLine
 10
191.2022559556883
 20
266.389494447143
 30
0.0
 11
215.2022559556883
 21
266.389494447143
 31
0.0
  0
LINE
  5
17C6
330
18
100
AcDbEntity
  8
1
100
AcDbLine
 10
197.7022559556883
 20
264.389494447143
 30
0.0
 11
173.7022559556883
 21
264.389494447143
 31
0.0
  0
ARC
  5
17C7
330
18
100
AcDbEntity
  8
1
100
AcDbCircle
 10
179.7022559556883
 20
269.389494447143
 30
0.0
 40
3.0
100
AcDbArc
 50
270.0
 51
90.0
  0
ARC
  5
17C8
330
18
100
AcDbEntity
  8
1
100
AcDbCircle
 10
173.7022559556883
 20
269.389494447143
 30
0.0
 40
3.0
100
AcDbArc
 50
90.0
 51
270.0
  0
ARC
  5
17C9
330
18
100
AcDbEntity
  8
1
100
AcDbCircle
 10
191.2022559556883
 20
269.389494447143
 30
0.0
 40
3.0
100
AcDbArc
 50
90.0
 51
270.0
  0
LINE
  5
17CA
330
18
100
AcDbEntity
  8
1
100
AcDbLine
 10
173.7022559556883
 20
266.389494447143
 30
0.0
 11
179.7022559556883
 21
266.389494447143
 31
0.0
  0
LINE
  5
17CB
330
18
100
AcDbEntity
  8
1
100
AcDbLine
 10
179.7022559556883
 20
272.389494447143
 30
0.0
 11
173.7022559556883
 21
272.389494447143
 31
0.0
  0
ARC
  5
17CC
330
18
100
AcDbEntity
  8
1
100
AcDbCircle
 10
226.2022559556883
 20
269.389494447143
 30
0.0
 40
3.0
100
AcDbArc
 50
90.0
 51
270.0
  0
ARC
  5
17CD
330
18
100
AcDbEntity
  8
1
100
AcDbCircle
 10
215.2022559556883
 20
269.389494447143
 30
0.0
 40
3.0
100
AcDbArc
 50
270.0
 51
90.0
  0
LINE
  5
17CE
330
18
100
AcDbEntity
  8
1
100
AcDbLine
 10
232.7022559556883
 20
264.389494447143
 30
0.0
 11
208.7022559556883
 21
264.389494447143
 31
0.0
  0
LINE
  5
17CF
330
18
100
AcDbEntity
  8
1
100
AcDbLine
 10
208.7022559556883
 20
274.389494447143
 30
0.0
 11
232.7022559556883
 21
274.389494447143
 31
0.0
  0
LINE
  5
17D0
330
18
100
AcDbEntity
  8
1
100
AcDbLine
 10
92.70225595568831
 20
280.389494447143
 30
0.0
 11
68.70225595568832
 21
280.389494447143
 31
0.0
  0
LINE
  5
17D1
330
18
100
AcDbEntity
  8
1
100
AcDbLine
 10
127.7022559556883
 20
280.389494447143
 30
0.0
 11
103.7022559556883
 21
280.389494447143
 31
0.0
  0
LINE
  5
17D2
330
18
100
AcDbEntity
  8
1
100
AcDbLine
 10
197.7022559556883
 20
280.389494447143
 30
0.0
 11
173.7022559556883
 21
280.389494447143
 31
0.0
  0
LINE
  5
17D3
330
18
100
AcDbEntity
  8
1
100
AcDbLine
 10
232.7022559556883
 20
280.389494447143
 30
0.0
 11
208.7022559556883
 21
280.389494447143
 31
0.0
  0
LINE
  5
17D4
330
18
100
AcDbEntity
  8
1
100
AcDbLine
 10
596.7522559556885
 20
251.389494447143
 30
0.0
 11
596.7522559556885
 21
239.389494447143
 31
0.0
  0
LINE
  5
17D5
330
18
100
AcDbEntity
  8
1
100
AcDbLine
 10
601.7522559556884
 20
251.389494447143
 30
0.0
 11
601.7522559556884
 21
239.389494447143
 31
0.0
  0
TEXT
  5
17D6
330
18
100
AcDbEntity
  8
1
100
AcDbText
 10
600.9844894582265
 20
240.8412710968892
 30
0.0
 40
3.5
  1
0.5A
 50
90.0
  7
ＭＳゴシック
 72
     4
 11
599.2522559556885
 21
245.389494447143
 31
0.0
100
AcDbText
  0
ARC
  5
17D7
330
18
100
AcDbEntity
  8
1
100
AcDbCircle
 10
587.2522559556885
 20
245.389494447143
 30
0.0
 40
4.5
100
AcDbArc
 50
315.0000000000094
 51
44.9999999999905
  0
TEXT
  5
17D8
330
18
100
AcDbEntity
  8
1
100
AcDbText
 10
585.5831968021258
 20
242.8015554154909
 30
0.0
 40
2.0
  1
F
 50
135.0000000000094
  7
ＭＳゴシック
 72
     4
 11
584.4238288309418
 21
242.5610673223968
 31
0.0
100
AcDbText
  0
LINE
  5
17D9
330
18
100
AcDbEntity
  8
1
100
AcDbLine
 10
557.7522559556885
 20
237.8894944471432
 30
0.0
 11
557.7522559556885
 21
252.8894944471432
 31
0.0
  0
LINE
  5
17DA
330
18
100
AcDbEntity
  8
1
100
AcDbLine
 10
547.2522559556884
 20
240.2894944471432
 30
0.0
 11
547.2522559556884
 21
250.4894944471432
 31
0.0
  0
LINE
  5
17DB
330
18
100
AcDbEntity
  8
1
100
AcDbLine
 10
554.8522559556889
 20
250.4894944471432
 30
0.0
 11
554.8522559556889
 21
240.2894944471432
 31
0.0
  0
LINE
  5
17DC
330
18
100
AcDbEntity
  8
1
100
AcDbLine
 10
554.9522559556883
 20
250.5894944471433
 30
0.0
 11
554.9522559556883
 21
240.1894944471432
 31
0.0
  0
TEXT
  5
17DD
330
18
100
AcDbEntity
  8
1
100
AcDbText
 10
563.8423574785311
 20
239.7042152593258
 30
0.0
 40
3.5
  1
電 源
 50
90.0
  7
ＭＳゴシック
 72
     4
 11
562.2522559556885
 21
245.389494447143
 31
0.0
100
AcDbText
  0
LINE
  5
17DE
330
18
100
AcDbEntity
  8
1
100
AcDbLine
 10
559.7522559556884
 20
251.889494447143
 30
0.0
 11
559.7522559556884
 21
238.889494447143
 31
0.0
  0
LINE
  5
17DF
330
18
100
AcDbEntity
  8
1
100
AcDbLine
 10
564.7522559556884
 20
251.889494447143
 30
0.0
 11
564.7522559556884
 21
238.889494447143
 31
0.0
  0
LINE
  5
17E0
330
18
100
AcDbEntity
  8
1
100
AcDbLine
 10
586.5022559556885
 20
242.3894944471431
 30
0.0
 11
586.5022559556885
 21
248.389494447143
 31
0.0
  0
LINE
  5
17E1
330
18
100
AcDbEntity
  8
1
100
AcDbLine
 10
588.0022559556884
 20
242.3894944471431
 30
0.0
 11
588.0022559556884
 21
248.389494447143
 31
0.0
  0
CIRCLE
  5
17E2
330
18
100
AcDbEntity
  8
1
100
AcDbCircle
 10
587.2522559556885
 20
245.389494447143
 30
0.0
 40
6.0
  0
CIRCLE
  5
17E3
330
18
100
AcDbEntity
  8
1
100
AcDbCircle
 10
587.2522559556885
 20
245.389494447143
 30
0.0
 40
8.0
  0
LINE
  5
17E4
330
18
100
AcDbEntity
  8
1
100
AcDbLine
 10
604.2522559556885
 20
265.3894944471431
 30
0.0
 11
604.2522559556885
 21
225.389494447143
 31
0.0
  0
TEXT
  5
17E5
330
18
100
AcDbEntity
  8
1
100
AcDbText
 10
573.9756062094955
 20
234.4737584065339
 30
0.0
 40
3.5
  1
電流ヒューズ
 50
90.0
 41
0.8
  7
ＭＳゴシック
 72
     4
 11
572.2522559556884
 21
245.389494447143
 31
0.0
100
AcDbText
  0
LINE
  5
17E6
330
18
100
AcDbEntity
  8
1
100
AcDbLine
 10
574.7522559556885
 20
256.389494447143
 30
0.0
 11
574.7522559556885
 21
234.389494447143
 31
0.0
  0
LINE
  5
17E7
330
18
100
AcDbEntity
  8
1
100
AcDbLine
 10
569.7522559556885
 20
256.389494447143
 30
0.0
 11
569.7522559556885
 21
234.389494447143
 31
0.0
  0
LINE
  5
17E8
330
18
100
AcDbEntity
  8
1
100
AcDbLine
 10
539.6522559556881
 20
240.2894944471432
 30
0.0
 11
539.6522559556881
 21
250.4894944471432
 31
0.0
  0
LINE
  5
17E9
330
18
100
AcDbEntity
  8
1
100
AcDbLine
 10
539.5522559556877
 20
240.1894944471432
 30
0.0
 11
539.5522559556877
 21
250.5894944471433
 31
0.0
  0
LINE
  5
17EA
330
18
100
AcDbEntity
  8
1
100
AcDbLine
 10
536.7522559556885
 20
252.8894944471432
 30
0.0
 11
536.7522559556885
 21
237.8894944471432
 31
0.0
  0
LINE
  5
17EB
330
18
100
AcDbEntity
  8
1
100
AcDbLine
 10
534.7522559556884
 20
247.889494447143
 30
0.0
 11
534.7522559556884
 21
242.889494447143
 31
0.0
  0
LINE
  5
17EC
330
18
100
AcDbEntity
  8
1
100
AcDbLine
 10
529.7522559556885
 20
247.889494447143
 30
0.0
 11
529.7522559556885
 21
242.889494447143
 31
0.0
  0
LINE
  5
17ED
330
18
100
AcDbEntity
  8
1
100
AcDbLine
 10
449.2022559556883
 20
237.389494447143
 30
0.0
 11
449.2022559556883
 21
253.389494447143
 31
0.0
  0
LINE
  5
17EE
330
18
100
AcDbEntity
  8
1
100
AcDbLine
 10
441.5022559556884
 20
240.289494447143
 30
0.0
 11
441.5022559556884
 21
250.4894944471431
 31
0.0
  0
ARC
  5
17EF
330
18
100
AcDbEntity
  8
1
100
AcDbCircle
 10
267.7022559556883
 20
245.389494447143
 30
0.0
 40
3.0
100
AcDbArc
 50
270.0
 51
90.0
  0
ARC
  5
17F0
330
18
100
AcDbEntity
  8
1
100
AcDbCircle
 10
285.2022559556883
 20
245.389494447143
 30
0.0
 40
3.0
100
AcDbArc
 50
270.0
 51
90.0
  0
ARC
  5
17F1
330
18
100
AcDbEntity
  8
1
100
AcDbCircle
 10
279.2022559556883
 20
245.389494447143
 30
0.0
 40
3.0
100
AcDbArc
 50
90.0
 51
270.0
  0
ARC
  5
17F2
330
18
100
AcDbEntity
  8
1
100
AcDbCircle
 10
243.7022559556883
 20
245.389494447143
 30
0.0
 40
3.0
100
AcDbArc
 50
90.0
 51
270.0
  0
LINE
  5
17F3
330
18
100
AcDbEntity
  8
1
100
AcDbLine
 10
452.7022559556883
 20
277.8894944471431
 30
0.0
 11
452.7022559556883
 21
174.8894944471432
 31
0.0
  0
LINE
  5
17F4
330
18
100
AcDbEntity
  8
1
100
AcDbLine
 10
527.4522559556883
 20
260.389494447143
 30
0.0
 11
527.4522559556883
 21
230.389494447143
 31
0.0
  0
TEXT
  5
17F5
330
18
100
AcDbEntity
  8
1
100
AcDbText
 10
365.2045403652964
 20
184.9224893710009
 30
0.0
 40
3.5
  1
高電圧危険開放厳禁
 50
90.0
  7
ＭＳゴシック
 72
     4
 11
363.5522561013369
 21
205.389494447143
 31
0.0
100
AcDbText
  0
LINE
  5
17F6
330
18
100
AcDbEntity
  8
1
100
AcDbLine
 10
367.5522561013369
 20
228.389494447143
 30
0.0
 11
367.5522561013369
 21
182.3894944471431
 31
0.0
  0
LINE
  5
17F7
330
18
100
AcDbEntity
  8
1
100
AcDbLine
 10
359.5522561013369
 20
182.389494447143
 30
0.0
 11
359.5522561013369
 21
228.389494447143
 31
0.0
  0
ARC
  5
17F8
330
18
100
AcDbEntity
  8
1
100
AcDbCircle
 10
285.2022559556883
 20
205.389494447143
 30
0.0
 40
3.0
100
AcDbArc
 50
270.0
 51
90.0
  0
ARC
  5
17F9
330
18
100
AcDbEntity
  8
1
100
AcDbCircle
 10
261.2022559556883
 20
205.389494447143
 30
0.0
 40
3.0
100
AcDbArc
 50
90.0
 51
270.0
  0
ARC
  5
17FA
330
18
100
AcDbEntity
  8
1
100
AcDbCircle
 10
250.2022559556883
 20
205.389494447143
 30
0.0
 40
3.0
100
AcDbArc
 50
270.0
 51
90.0
  0
ARC
  5
17FB
330
18
100
AcDbEntity
  8
1
100
AcDbCircle
 10
285.2022559556883
 20
189.389494447143
 30
0.0
 40
3.0
100
AcDbArc
 50
270.0
 51
90.0
  0
ARC
  5
17FC
330
18
100
AcDbEntity
  8
1
100
AcDbCircle
 10
261.2022559556883
 20
189.389494447143
 30
0.0
 40
3.0
100
AcDbArc
 50
90.0
 51
270.0
  0
ARC
  5
17FD
330
18
100
AcDbEntity
  8
1
100
AcDbCircle
 10
250.2022559556883
 20
189.389494447143
 30
0.0
 40
3.0
100
AcDbArc
 50
270.0
 51
90.0
  0
ARC
  5
17FE
330
18
100
AcDbEntity
  8
1
100
AcDbCircle
 10
285.2022559556883
 20
181.389494447143
 30
0.0
 40
3.0
100
AcDbArc
 50
270.0
 51
90.0
  0
ARC
  5
17FF
330
18
100
AcDbEntity
  8
1
100
AcDbCircle
 10
267.7022559556883
 20
181.389494447143
 30
0.0
 40
3.0
100
AcDbArc
 50
270.0
 51
90.0
  0
ARC
  5
1800
330
18
100
AcDbEntity
  8
1
100
AcDbCircle
 10
279.2022559556883
 20
181.389494447143
 30
0.0
 40
3.0
100
AcDbArc
 50
90.0
 51
270.0
  0
ARC
  5
1801
330
18
100
AcDbEntity
  8
1
100
AcDbCircle
 10
243.7022559556883
 20
181.389494447143
 30
0.0
 40
3.0
100
AcDbArc
 50
90.0
 51
270.0
  0
LINE
  5
1802
330
18
100
AcDbEntity
  8
1
100
AcDbLine
 10
243.7022559556883
 20
178.389494447143
 30
0.0
 11
267.7022559556883
 21
178.389494447143
 31
0.0
  0
LINE
  5
1803
330
18
100
AcDbEntity
  8
1
100
AcDbLine
 10
285.2022559556883
 20
176.389494447143
 30
0.0
 11
261.2022559556883
 21
176.389494447143
 31
0.0
  0
LINE
  5
1804
330
18
100
AcDbEntity
  8
1
100
AcDbLine
 10
279.2022559556883
 20
178.389494447143
 30
0.0
 11
285.2022559556883
 21
178.389494447143
 31
0.0
  0
LINE
  5
1805
330
18
100
AcDbEntity
  8
1
100
AcDbLine
 10
267.7022559556883
 20
184.389494447143
 30
0.0
 11
243.7022559556883
 21
184.389494447143
 31
0.0
  0
LINE
  5
1806
330
18
100
AcDbEntity
  8
1
100
AcDbLine
 10
261.2022559556883
 20
186.389494447143
 30
0.0
 11
285.2022559556883
 21
186.389494447143
 31
0.0
  0
LINE
  5
1807
330
18
100
AcDbEntity
  8
1
100
AcDbLine
 10
285.2022559556883
 20
184.389494447143
 30
0.0
 11
279.2022559556883
 21
184.389494447143
 31
0.0
  0
ARC
  5
1808
330
18
100
AcDbEntity
  8
1
100
AcDbCircle
 10
285.2022559556883
 20
197.389494447143
 30
0.0
 40
3.0
100
AcDbArc
 50
270.0
 51
90.0
  0
ARC
  5
1809
330
18
100
AcDbEntity
  8
1
100
AcDbCircle
 10
243.7022559556883
 20
197.389494447143
 30
0.0
 40
3.0
100
AcDbArc
 50
90.0
 51
270.0
  0
ARC
  5
180A
330
18
100
AcDbEntity
  8
1
100
AcDbCircle
 10
267.7022559556883
 20
197.389494447143
 30
0.0
 40
3.0
100
AcDbArc
 50
270.0
 51
90.0
  0
ARC
  5
180B
330
18
100
AcDbEntity
  8
1
100
AcDbCircle
 10
279.2022559556883
 20
197.389494447143
 30
0.0
 40
3.0
100
AcDbArc
 50
90.0
 51
270.0
  0
LINE
  5
180C
330
18
100
AcDbEntity
  8
1
100
AcDbLine
 10
243.7022559556883
 20
194.389494447143
 30
0.0
 11
267.7022559556883
 21
194.389494447143
 31
0.0
  0
LINE
  5
180D
330
18
100
AcDbEntity
  8
1
100
AcDbLine
 10
285.2022559556883
 20
192.389494447143
 30
0.0
 11
261.2022559556883
 21
192.389494447143
 31
0.0
  0
LINE
  5
180E
330
18
100
AcDbEntity
  8
1
100
AcDbLine
 10
279.2022559556883
 20
194.389494447143
 30
0.0
 11
285.2022559556883
 21
194.389494447143
 31
0.0
  0
LINE
  5
180F
330
18
100
AcDbEntity
  8
1
100
AcDbLine
 10
267.7022559556883
 20
200.389494447143
 30
0.0
 11
243.7022559556883
 21
200.389494447143
 31
0.0
  0
LINE
  5
1810
330
18
100
AcDbEntity
  8
1
100
AcDbLine
 10
261.2022559556883
 20
202.389494447143
 30
0.0
 11
285.2022559556883
 21
202.389494447143
 31
0.0
  0
LINE
  5
1811
330
18
100
AcDbEntity
  8
1
100
AcDbLine
 10
285.2022559556883
 20
200.389494447143
 30
0.0
 11
279.2022559556883
 21
200.389494447143
 31
0.0
  0
LINE
  5
1812
330
18
100
AcDbEntity
  8
1
100
AcDbLine
 10
367.5522561013369
 20
182.389494447143
 30
0.0
 11
359.5522561013369
 21
182.389494447143
 31
0.0
  0
ARC
  5
1813
330
18
100
AcDbEntity
  8
1
100
AcDbCircle
 10
285.2022559556883
 20
221.389494447143
 30
0.0
 40
3.0
100
AcDbArc
 50
270.0
 51
90.0
  0
ARC
  5
1814
330
18
100
AcDbEntity
  8
1
100
AcDbCircle
 10
285.2022559556883
 20
213.3894944471431
 30
0.0
 40
3.0
100
AcDbArc
 50
270.0
 51
90.0
  0
LINE
  5
1815
330
18
100
AcDbEntity
  8
1
100
AcDbLine
 10
285.2022559556883
 20
208.389494447143
 30
0.0
 11
261.2022559556883
 21
208.389494447143
 31
0.0
  0
LINE
  5
1816
330
18
100
AcDbEntity
  8
1
100
AcDbLine
 10
267.7022559556883
 20
216.389494447143
 30
0.0
 11
243.7022559556883
 21
216.389494447143
 31
0.0
  0
LINE
  5
1817
330
18
100
AcDbEntity
  8
1
100
AcDbLine
 10
243.7022559556883
 20
210.389494447143
 30
0.0
 11
267.7022559556883
 21
210.389494447143
 31
0.0
  0
ARC
  5
1818
330
18
100
AcDbEntity
  8
1
100
AcDbCircle
 10
243.7022559556883
 20
213.3894944471431
 30
0.0
 40
3.0
100
AcDbArc
 50
90.0
 51
270.0
  0
ARC
  5
1819
330
18
100
AcDbEntity
  8
1
100
AcDbCircle
 10
267.7022559556883
 20
213.3894944471431
 30
0.0
 40
3.0
100
AcDbArc
 50
270.0
 51
90.0
  0
ARC
  5
181A
330
18
100
AcDbEntity
  8
1
100
AcDbCircle
 10
279.2022559556883
 20
213.3894944471431
 30
0.0
 40
3.0
100
AcDbArc
 50
90.0
 51
270.0
  0
LINE
  5
181B
330
18
100
AcDbEntity
  8
1
100
AcDbLine
 10
279.2022559556883
 20
210.389494447143
 30
0.0
 11
285.2022559556883
 21
210.389494447143
 31
0.0
  0
LINE
  5
181C
330
18
100
AcDbEntity
  8
1
100
AcDbLine
 10
285.2022559556883
 20
216.389494447143
 30
0.0
 11
279.2022559556883
 21
216.389494447143
 31
0.0
  0
LINE
  5
181D
330
18
100
AcDbEntity
  8
1
100
AcDbLine
 10
285.2022559556883
 20
224.389494447143
 30
0.0
 11
261.2022559556883
 21
224.389494447143
 31
0.0
  0
LINE
  5
181E
330
18
100
AcDbEntity
  8
1
100
AcDbLine
 10
261.2022559556883
 20
218.389494447143
 30
0.0
 11
285.2022559556883
 21
218.389494447143
 31
0.0
  0
ARC
  5
181F
330
18
100
AcDbEntity
  8
1
100
AcDbCircle
 10
261.2022559556883
 20
221.389494447143
 30
0.0
 40
3.0
100
AcDbArc
 50
90.0
 51
270.0
  0
ARC
  5
1820
330
18
100
AcDbEntity
  8
1
100
AcDbCircle
 10
250.2022559556883
 20
221.389494447143
 30
0.0
 40
3.0
100
AcDbArc
 50
270.0
 51
90.0
  0
ARC
  5
1821
330
18
100
AcDbEntity
  8
1
100
AcDbCircle
 10
285.2022559556883
 20
229.389494447143
 30
0.0
 40
3.0
100
AcDbArc
 50
270.0
 51
90.0
  0
ARC
  5
1822
330
18
100
AcDbEntity
  8
1
100
AcDbCircle
 10
285.2022559556883
 20
237.389494447143
 30
0.0
 40
3.0
100
AcDbArc
 50
270.0
 51
90.0
  0
LINE
  5
1823
330
18
100
AcDbEntity
  8
1
100
AcDbLine
 10
267.7022559556883
 20
232.389494447143
 30
0.0
 11
243.7022559556883
 21
232.389494447143
 31
0.0
  0
LINE
  5
1824
330
18
100
AcDbEntity
  8
1
100
AcDbLine
 10
243.7022559556883
 20
226.389494447143
 30
0.0
 11
267.7022559556883
 21
226.389494447143
 31
0.0
  0
ARC
  5
1825
330
18
100
AcDbEntity
  8
1
100
AcDbCircle
 10
243.7022559556883
 20
229.389494447143
 30
0.0
 40
3.0
100
AcDbArc
 50
90.0
 51
270.0
  0
LINE
  5
1826
330
18
100
AcDbEntity
  8
1
100
AcDbLine
 10
285.2022559556883
 20
232.389494447143
 30
0.0
 11
279.2022559556883
 21
232.389494447143
 31
0.0
  0
LINE
  5
1827
330
18
100
AcDbEntity
  8
1
100
AcDbLine
 10
279.2022559556883
 20
226.389494447143
 30
0.0
 11
285.2022559556883
 21
226.389494447143
 31
0.0
  0
ARC
  5
1828
330
18
100
AcDbEntity
  8
1
100
AcDbCircle
 10
267.7022559556883
 20
229.389494447143
 30
0.0
 40
3.0
100
AcDbArc
 50
270.0
 51
90.0
  0
ARC
  5
1829
330
18
100
AcDbEntity
  8
1
100
AcDbCircle
 10
279.2022559556883
 20
229.389494447143
 30
0.0
 40
3.0
100
AcDbArc
 50
90.0
 51
270.0
  0
LINE
  5
182A
330
18
100
AcDbEntity
  8
1
100
AcDbLine
 10
285.2022559556883
 20
240.3894944471431
 30
0.0
 11
261.2022559556883
 21
240.3894944471431
 31
0.0
  0
LINE
  5
182B
330
18
100
AcDbEntity
  8
1
100
AcDbLine
 10
243.7022559556883
 20
242.3894944471431
 30
0.0
 11
267.7022559556883
 21
242.3894944471431
 31
0.0
  0
LINE
  5
182C
330
18
100
AcDbEntity
  8
1
100
AcDbLine
 10
261.2022559556883
 20
234.389494447143
 30
0.0
 11
285.2022559556883
 21
234.389494447143
 31
0.0
  0
ARC
  5
182D
330
18
100
AcDbEntity
  8
1
100
AcDbCircle
 10
250.2022559556883
 20
237.389494447143
 30
0.0
 40
3.0
100
AcDbArc
 50
270.0
 51
90.0
  0
ARC
  5
182E
330
18
100
AcDbEntity
  8
1
100
AcDbCircle
 10
261.2022559556883
 20
237.389494447143
 30
0.0
 40
3.0
100
AcDbArc
 50
90.0
 51
270.0
  0
LINE
  5
182F
330
18
100
AcDbEntity
  8
1
100
AcDbLine
 10
279.2022559556883
 20
242.3894944471431
 30
0.0
 11
285.2022559556883
 21
242.3894944471431
 31
0.0
  0
LINE
  5
1830
330
18
100
AcDbEntity
  8
1
100
AcDbLine
 10
359.5522561013369
 20
228.389494447143
 30
0.0
 11
367.5522561013369
 21
228.389494447143
 31
0.0
  0
LINE
  5
1831
330
18
100
AcDbEntity
  8
1
100
AcDbLine
 10
605.4522559556883
 20
225.389494447143
 30
0.0
 11
605.4522559556883
 21
185.3894944471431
 31
0.0
  0
TEXT
  5
1832
330
18
100
AcDbEntity
  8
1
100
AcDbText
 10
571.0098702200382
 20
199.5417778290238
 30
0.0
 40
3.0
  1
デオド
 50
90.0
  7
ＭＳゴシック
 72
     4
 11
569.5022560068403
 21
205.3894935650644
 31
0.0
100
AcDbText
  0
LINE
  5
1833
330
18
100
AcDbEntity
  8
1
100
AcDbLine
 10
585.4522560068401
 20
218.3894935650644
 30
0.0
 11
585.4522560068401
 21
192.3894935650644
 31
0.0
  0
LINE
  5
1834
330
18
100
AcDbEntity
  8
1
100
AcDbLine
 10
580.95225600684
 20
218.3894935650644
 30
0.0
 11
580.95225600684
 21
192.3894935650644
 31
0.0
  0
LINE
  5
1835
330
18
100
AcDbEntity
  8
1
100
AcDbLine
 10
576.45225600684
 20
218.3894935650644
 30
0.0
 11
576.45225600684
 21
192.3894935650644
 31
0.0
  0
LINE
  5
1836
330
18
100
AcDbEntity
  8
1
100
AcDbLine
 10
571.95225600684
 20
218.3894935650644
 30
0.0
 11
571.95225600684
 21
192.3894935650644
 31
0.0
  0
LINE
  5
1837
330
18
100
AcDbEntity
  8
1
100
AcDbLine
 10
566.9522560068401
 20
218.3894935650644
 30
0.0
 11
566.9522560068401
 21
192.3894935650644
 31
0.0
  0
LINE
  5
1838
330
18
100
AcDbEntity
  8
1
100
AcDbLine
 10
564.9522560068401
 20
218.3894935650644
 30
0.0
 11
564.9522560068401
 21
192.3894935650644
 31
0.0
  0
LINE
  5
1839
330
18
100
AcDbEntity
  8
1
100
AcDbLine
 10
595.4522560068401
 20
220.3894935650644
 30
0.0
 11
595.4522560068401
 21
190.3894935650644
 31
0.0
  0
LINE
  5
183A
330
18
100
AcDbEntity
  8
1
100
AcDbLine
 10
594.4522560068401
 20
218.3894935650644
 30
0.0
 11
594.4522560068401
 21
192.3894935650644
 31
0.0
  0
LINE
  5
183B
330
18
100
AcDbEntity
  8
1
100
AcDbLine
 10
539.9522560068401
 20
190.3894935650644
 30
0.0
 11
539.9522560068401
 21
220.3894935650644
 31
0.0
  0
LINE
  5
183C
330
18
100
AcDbEntity
  8
1
100
AcDbLine
 10
540.9522560068401
 20
192.3894935650644
 30
0.0
 11
540.9522560068401
 21
218.3894935650644
 31
0.0
  0
LINE
  5
183D
330
18
100
AcDbEntity
  8
1
100
AcDbLine
 10
447.7022559556883
 20
174.3894944471432
 30
0.0
 11
450.7022559556883
 21
174.3894944471432
 31
0.0
  0
LINE
  5
183E
330
18
100
AcDbEntity
  8
1
100
AcDbLine
 10
450.3022559556877
 20
173.2394944471432
 30
0.0
 11
443.2022559556883
 21
173.2394944471432
 31
0.0
  0
LINE
  5
183F
330
18
100
AcDbEntity
  8
1
100
AcDbLine
 10
443.2022559556883
 20
172.8894944471432
 30
0.0
 11
450.3022559556877
 21
172.8894944471432
 31
0.0
  0
LINE
  5
1840
330
18
100
AcDbEntity
  8
1
100
AcDbLine
 10
442.7022559556883
 20
175.3894944471432
 30
0.0
 11
447.7022559556883
 21
175.3894944471432
 31
0.0
  0
LINE
  5
1841
330
18
100
AcDbEntity
  8
1
100
AcDbLine
 10
437.7022559556883
 20
176.3894944471432
 30
0.0
 11
442.7022559556883
 21
176.3894944471432
 31
0.0
  0
LINE
  5
1842
330
18
100
AcDbEntity
  8
1
100
AcDbLine
 10
442.7022559556883
 20
176.3894944471432
 30
0.0
 11
445.7022559556882
 21
175.3894944471432
 31
0.0
  0
LINE
  5
1843
330
18
100
AcDbEntity
  8
1
100
AcDbLine
 10
442.7022559556883
 20
176.3894944471432
 30
0.0
 11
442.7022559556883
 21
174.0144944471433
 31
0.0
  0
LINE
  5
1844
330
18
100
AcDbEntity
  8
1
100
AcDbLine
 10
439.7022559556883
 20
174.7894944471432
 30
0.0
 11
441.2022559556882
 21
174.7894944471432
 31
0.0
  0
LINE
  5
1845
330
18
100
AcDbEntity
  8
1
100
AcDbLine
 10
443.2022559556883
 20
173.2394944471432
 30
0.0
 11
443.2022559556883
 21
172.8894944471431
 31
0.0
  0
LINE
  5
1846
330
18
100
AcDbEntity
  8
1
100
AcDbLine
 10
445.7022559556882
 20
175.3894944471432
 30
0.0
 11
445.7022559556882
 21
173.2394944471432
 31
0.0
  0
LINE
  5
1847
330
18
100
AcDbEntity
  8
1
100
AcDbLine
 10
447.7022559556883
 20
175.3894944471432
 30
0.0
 11
447.7022559556883
 21
173.2394944471432
 31
0.0
  0
LINE
  5
1848
330
18
100
AcDbEntity
  8
1
100
AcDbLine
 10
444.2022559556883
 20
173.2394944471432
 30
0.0
 11
441.2022559556882
 21
174.7894944471432
 31
0.0
  0
LINE
  5
1849
330
18
100
AcDbEntity
  8
1
100
AcDbLine
 10
454.7022559556883
 20
174.8894944471432
 30
0.0
 11
450.7022559556883
 21
174.8894944471432
 31
0.0
  0
LINE
  5
184A
330
18
100
AcDbEntity
  8
1
100
AcDbLine
 10
454.7022559556883
 20
174.1394944471432
 30
0.0
 11
450.7022559556883
 21
174.1394944471432
 31
0.0
  0
LINE
  5
184B
330
18
100
AcDbEntity
  8
1
100
AcDbLine
 10
454.7022559556883
 20
174.8894944471432
 30
0.0
 11
455.7022559556883
 21
173.8894944471432
 31
0.0
  0
LINE
  5
184C
330
18
100
AcDbEntity
  8
1
100
AcDbLine
 10
454.7022559556883
 20
174.8894944471432
 30
0.0
 11
454.7022559556883
 21
174.1394944471432
 31
0.0
  0
LINE
  5
184D
330
18
100
AcDbEntity
  8
1
100
AcDbLine
 10
605.4522559556883
 20
185.389494447143
 30
0.0
 11
532.4522559556883
 21
185.3894944471431
 31
0.0
  0
ARC
  5
184E
330
18
100
AcDbEntity
  8
1
100
AcDbCircle
 10
532.4522559556883
 20
180.3894944471431
 30
0.0
 40
5.0
100
AcDbArc
 50
90.0
 51
180.0
  0
TEXT
  5
184F
330
18
100
AcDbEntity
  8
1
100
AcDbText
 10
543.4640134497192
 20
175.9130852591834
 30
0.0
 40
3.0
  1
強
 50
90.0
  7
ＭＳゴシック
 72
     4
 11
542.0858408608867
 21
177.8623238378636
 31
0.0
100
AcDbText
  0
CIRCLE
  5
1850
102
{ACAD_REACTORS
330
12FD
102
}
330
18
100
AcDbEntity
  8
1
100
AcDbCircle
 10
543.2340799158549
 20
175.0902295385117
 30
0.0
 40
0.5
  0
ARC
  5
1851
330
18
100
AcDbEntity
  8
1
100
AcDbCircle
 10
572.2522559556884
 20
175.389494447143
 30
0.0
 40
2.5
100
AcDbArc
 50
0.0
 51
180.0
  0
LINE
  5
1852
330
18
100
AcDbEntity
  8
1
100
AcDbLine
 10
595.4522560068401
 20
190.3894935650644
 30
0.0
 11
539.9522560068401
 21
190.3894935650644
 31
0.0
  0
LINE
  5
1853
330
18
100
AcDbEntity
  8
1
100
AcDbLine
 10
563.95225600684
 20
191.3894935650644
 30
0.0
 11
541.9522560068401
 21
191.3894935650644
 31
0.0
  0
ARC
  5
1854
330
18
100
AcDbEntity
  8
1
100
AcDbCircle
 10
541.9522560068401
 20
192.3894935650644
 30
0.0
 40
1.0
100
AcDbArc
 50
180.0
 51
270.0
  0
ARC
  5
1855
330
18
100
AcDbEntity
  8
1
100
AcDbCircle
 10
563.95225600684
 20
192.3894935650644
 30
0.0
 40
1.0
100
AcDbArc
 50
270.0
 51
0.0
  0
LINE
  5
1856
330
18
100
AcDbEntity
  8
1
100
AcDbLine
 10
594.4522560068401
 20
192.3894935650644
 30
0.0
 11
566.9522560068401
 21
192.3894935650644
 31
0.0
  0
LINE
  5
1857
330
18
100
AcDbEntity
  8
1
100
AcDbLine
 10
585.4522560068401
 20
203.3894935650644
 30
0.0
 11
571.95225600684
 21
203.3894935650644
 31
0.0
  0
LINE
  5
1858
330
18
100
AcDbEntity
  8
1
100
AcDbLine
 10
437.7022559556883
 20
237.389494447143
 30
0.0
 11
449.2022559556883
 21
237.389494447143
 31
0.0
  0
LINE
  5
1859
330
18
100
AcDbEntity
  8
1
100
AcDbLine
 10
441.5022559556884
 20
240.289494447143
 30
0.0
 11
437.7022559556883
 21
240.289494447143
 31
0.0
  0
ARC
  5
185A
330
18
100
AcDbEntity
  8
1
100
AcDbCircle
 10
532.4522559556883
 20
230.389494447143
 30
0.0
 40
5.0
100
AcDbArc
 50
180.0
 51
270.0
  0
LINE
  5
185B
330
18
100
AcDbEntity
  8
1
100
AcDbLine
 10
539.9522560068401
 20
220.3894935650644
 30
0.0
 11
595.4522560068401
 21
220.3894935650644
 31
0.0
  0
LINE
  5
185C
330
18
100
AcDbEntity
  8
1
100
AcDbLine
 10
541.9522560068401
 20
219.3894935650644
 30
0.0
 11
563.95225600684
 21
219.3894935650644
 31
0.0
  0
ARC
  5
185D
330
18
100
AcDbEntity
  8
1
100
AcDbCircle
 10
541.9522560068401
 20
218.3894935650644
 30
0.0
 40
1.0
100
AcDbArc
 50
90.0
 51
180.0
  0
ARC
  5
185E
330
18
100
AcDbEntity
  8
1
100
AcDbCircle
 10
563.95225600684
 20
218.3894935650644
 30
0.0
 40
1.0
100
AcDbArc
 50
0.0
 51
90.0
  0
LINE
  5
185F
330
18
100
AcDbEntity
  8
1
100
AcDbLine
 10
566.9522560068401
 20
218.3894935650644
 30
0.0
 11
594.4522560068401
 21
218.3894935650644
 31
0.0
  0
LINE
  5
1860
330
18
100
AcDbEntity
  8
1
100
AcDbLine
 10
605.4522559556883
 20
225.389494447143
 30
0.0
 11
532.4522559556883
 21
225.389494447143
 31
0.0
  0
LINE
  5
1861
330
18
100
AcDbEntity
  8
1
100
AcDbLine
 10
554.8522559556889
 20
240.2894944471432
 30
0.0
 11
539.6522559556881
 21
240.2894944471432
 31
0.0
  0
LINE
  5
1862
330
18
100
AcDbEntity
  8
1
100
AcDbLine
 10
536.7522559556885
 20
237.8894944471432
 30
0.0
 11
557.7522559556885
 21
237.8894944471432
 31
0.0
  0
LINE
  5
1863
330
18
100
AcDbEntity
  8
1
100
AcDbLine
 10
554.9522559556883
 20
240.1894944471432
 30
0.0
 11
539.5522559556877
 21
240.1894944471432
 31
0.0
  0
ARC
  5
1864
330
18
100
AcDbEntity
  8
1
100
AcDbCircle
 10
532.2522559556885
 20
242.889494447143
 30
0.0
 40
2.5
100
AcDbArc
 50
180.0
 51
0.0
  0
ARC
  5
1865
330
18
100
AcDbEntity
  8
1
100
AcDbCircle
 10
562.2522559556885
 20
238.889494447143
 30
0.0
 40
2.5
100
AcDbArc
 50
180.0
 51
0.0
  0
ARC
  5
1866
330
18
100
AcDbEntity
  8
1
100
AcDbCircle
 10
572.2522559556884
 20
234.389494447143
 30
0.0
 40
2.5
100
AcDbArc
 50
180.0
 51
0.0
  0
LINE
  5
1867
330
18
100
AcDbEntity
  8
1
100
AcDbLine
 10
588.0022559556884
 20
242.3894944471431
 30
0.0
 11
586.5022559556885
 21
242.3894944471431
 31
0.0
  0
ARC
  5
1868
330
18
100
AcDbEntity
  8
1
100
AcDbCircle
 10
599.2522559556885
 20
239.389494447143
 30
0.0
 40
2.5
100
AcDbArc
 50
180.0
 51
0.0
  0
ARC
  5
1869
330
18
100
AcDbEntity
  8
1
100
AcDbCircle
 10
267.7022559556883
 20
277.389494447143
 30
0.0
 40
3.0
100
AcDbArc
 50
270.0
 51
90.0
  0
ARC
  5
186A
330
18
100
AcDbEntity
  8
1
100
AcDbCircle
 10
285.2022559556883
 20
277.389494447143
 30
0.0
 40
3.0
100
AcDbArc
 50
270.0
 51
90.0
  0
ARC
  5
186B
330
18
100
AcDbEntity
  8
1
100
AcDbCircle
 10
279.2022559556883
 20
277.389494447143
 30
0.0
 40
3.0
100
AcDbArc
 50
90.0
 51
270.0
  0
ARC
  5
186C
330
18
100
AcDbEntity
  8
1
100
AcDbCircle
 10
243.7022559556883
 20
277.389494447143
 30
0.0
 40
3.0
100
AcDbArc
 50
90.0
 51
270.0
  0
ARC
  5
186D
330
18
100
AcDbEntity
  8
1
100
AcDbCircle
 10
267.7022559556883
 20
261.3894944471431
 30
0.0
 40
3.0
100
AcDbArc
 50
270.0
 51
90.0
  0
ARC
  5
186E
330
18
100
AcDbEntity
  8
1
100
AcDbCircle
 10
285.2022559556883
 20
261.3894944471431
 30
0.0
 40
3.0
100
AcDbArc
 50
270.0
 51
90.0
  0
ARC
  5
186F
330
18
100
AcDbEntity
  8
1
100
AcDbCircle
 10
279.2022559556883
 20
261.3894944471431
 30
0.0
 40
3.0
100
AcDbArc
 50
90.0
 51
270.0
  0
ARC
  5
1870
330
18
100
AcDbEntity
  8
1
100
AcDbCircle
 10
243.7022559556883
 20
261.3894944471431
 30
0.0
 40
3.0
100
AcDbArc
 50
90.0
 51
270.0
  0
ARC
  5
1871
330
18
100
AcDbEntity
  8
1
100
AcDbCircle
 10
285.2022559556883
 20
253.389494447143
 30
0.0
 40
3.0
100
AcDbArc
 50
270.0
 51
90.0
  0
ARC
  5
1872
330
18
100
AcDbEntity
  8
1
100
AcDbCircle
 10
261.2022559556883
 20
253.389494447143
 30
0.0
 40
3.0
100
AcDbArc
 50
90.0
 51
270.0
  0
ARC
  5
1873
330
18
100
AcDbEntity
  8
1
100
AcDbCircle
 10
250.2022559556883
 20
253.389494447143
 30
0.0
 40
3.0
100
AcDbArc
 50
270.0
 51
90.0
  0
LINE
  5
1874
330
18
100
AcDbEntity
  8
1
100
AcDbLine
 10
267.7022559556883
 20
248.389494447143
 30
0.0
 11
243.7022559556883
 21
248.389494447143
 31
0.0
  0
LINE
  5
1875
330
18
100
AcDbEntity
  8
1
100
AcDbLine
 10
261.2022559556883
 20
250.389494447143
 30
0.0
 11
285.2022559556883
 21
250.389494447143
 31
0.0
  0
LINE
  5
1876
330
18
100
AcDbEntity
  8
1
100
AcDbLine
 10
285.2022559556883
 20
248.389494447143
 30
0.0
 11
279.2022559556883
 21
248.389494447143
 31
0.0
  0
LINE
  5
1877
330
18
100
AcDbEntity
  8
1
100
AcDbLine
 10
285.2022559556883
 20
256.389494447143
 30
0.0
 11
261.2022559556883
 21
256.389494447143
 31
0.0
  0
LINE
  5
1878
330
18
100
AcDbEntity
  8
1
100
AcDbLine
 10
243.7022559556883
 20
258.389494447143
 30
0.0
 11
267.7022559556883
 21
258.389494447143
 31
0.0
  0
LINE
  5
1879
330
18
100
AcDbEntity
  8
1
100
AcDbLine
 10
279.2022559556883
 20
258.389494447143
 30
0.0
 11
285.2022559556883
 21
258.389494447143
 31
0.0
  0
ARC
  5
187A
330
18
100
AcDbEntity
  8
1
100
AcDbCircle
 10
285.2022559556883
 20
269.389494447143
 30
0.0
 40
3.0
100
AcDbArc
 50
270.0
 51
90.0
  0
ARC
  5
187B
330
18
100
AcDbEntity
  8
1
100
AcDbCircle
 10
250.2022559556883
 20
269.389494447143
 30
0.0
 40
3.0
100
AcDbArc
 50
270.0
 51
90.0
  0
ARC
  5
187C
330
18
100
AcDbEntity
  8
1
100
AcDbCircle
 10
261.2022559556883
 20
269.389494447143
 30
0.0
 40
3.0
100
AcDbArc
 50
90.0
 51
270.0
  0
LINE
  5
187D
330
18
100
AcDbEntity
  8
1
100
AcDbLine
 10
261.2022559556883
 20
266.389494447143
 30
0.0
 11
285.2022559556883
 21
266.389494447143
 31
0.0
  0
LINE
  5
187E
330
18
100
AcDbEntity
  8
1
100
AcDbLine
 10
267.7022559556883
 20
264.389494447143
 30
0.0
 11
243.7022559556883
 21
264.389494447143
 31
0.0
  0
LINE
  5
187F
330
18
100
AcDbEntity
  8
1
100
AcDbLine
 10
285.2022559556883
 20
264.389494447143
 30
0.0
 11
279.2022559556883
 21
264.389494447143
 31
0.0
  0
LINE
  5
1880
330
18
100
AcDbEntity
  8
1
100
AcDbLine
 10
285.2022559556883
 20
272.389494447143
 30
0.0
 11
261.2022559556883
 21
272.389494447143
 31
0.0
  0
LINE
  5
1881
330
18
100
AcDbEntity
  8
1
100
AcDbLine
 10
243.7022559556883
 20
274.389494447143
 30
0.0
 11
267.7022559556883
 21
274.389494447143
 31
0.0
  0
LINE
  5
1882
330
18
100
AcDbEntity
  8
1
100
AcDbLine
 10
279.2022559556883
 20
274.389494447143
 30
0.0
 11
285.2022559556883
 21
274.389494447143
 31
0.0
  0
LINE
  5
1883
330
18
100
AcDbEntity
  8
1
100
AcDbLine
 10
267.7022559556883
 20
280.389494447143
 30
0.0
 11
243.7022559556883
 21
280.389494447143
 31
0.0
  0
LINE
  5
1884
330
18
100
AcDbEntity
  8
1
100
AcDbLine
 10
285.2022559556883
 20
280.389494447143
 30
0.0
 11
279.2022559556883
 21
280.389494447143
 31
0.0
  0
DIMENSION
  5
1885
330
18
100
AcDbEntity
  8
2
100
AcDbDimension
  2
*D7
 10
478.6022559556879
 20
285.389494447143
 30
0.0
 11
475.6022559556878
 21
275.3894944471431
 31
0.0
 70
    32
 71
     5
 42
20.0
  3
STANDARD
100
AcDbAlignedDimension
 13
448.7022559556883
 23
265.3894944471431
 33
0.0
 14
437.7022559556883
 24
285.389494447143
 34
0.0
 50
90.0
100
AcDbRotatedDimension
1001
ACAD
1000
DSTYLE
1002
{
1070
    40
1040
1.0
1002
}
  0
ARC
  5
1886
330
18
100
AcDbEntity
  8
1
100
AcDbCircle
 10
447.7022559556883
 20
277.8894944471431
 30
0.0
 40
5.0
100
AcDbArc
 50
0.0
 51
90.0
  0
LINE
  5
1887
330
18
100
AcDbEntity
  8
1
100
AcDbLine
 10
441.5022559556884
 20
250.4894944471431
 30
0.0
 11
437.7022559556883
 21
250.4894944471431
 31
0.0
  0
LINE
  5
1888
330
18
100
AcDbEntity
  8
1
100
AcDbLine
 10
449.2022559556883
 20
253.389494447143
 30
0.0
 11
437.7022559556883
 21
253.389494447143
 31
0.0
  0
CIRCLE
  5
1889
330
18
100
AcDbEntity
  8
1
100
AcDbCircle
 10
445.7022559556882
 20
265.3894944471431
 30
0.0
 40
3.0
  0
ARC
  5
188A
330
18
100
AcDbEntity
  8
1
100
AcDbCircle
 10
532.4522559556883
 20
260.389494447143
 30
0.0
 40
5.0
100
AcDbArc
 50
90.0
 51
180.0
  0
LINE
  5
188B
330
18
100
AcDbEntity
  8
1
100
AcDbLine
 10
539.6522559556881
 20
250.4894944471431
 30
0.0
 11
554.8522559556889
 21
250.4894944471434
 31
0.0
  0
LINE
  5
188C
330
18
100
AcDbEntity
  8
1
100
AcDbLine
 10
539.5522559556877
 20
250.5894944471433
 30
0.0
 11
554.9522559556883
 21
250.5894944471433
 31
0.0
  0
ARC
  5
188D
330
18
100
AcDbEntity
  8
1
100
AcDbCircle
 10
532.2522559556885
 20
247.889494447143
 30
0.0
 40
2.5
100
AcDbArc
 50
0.0
 51
180.0
  0
TEXT
  5
188E
330
18
100
AcDbEntity
  8
1
100
AcDbText
 10
533.7979412348763
 20
243.1153827720161
 30
0.0
 40
3.5
  1
入
 50
90.0
  7
ＭＳゴシック
 72
     4
 11
532.2522559556885
 21
245.389494447143
 31
0.0
100
AcDbText
  0
LINE
  5
188F
330
18
100
AcDbEntity
  8
1
100
AcDbLine
 10
557.7522559556885
 20
252.8894944471432
 30
0.0
 11
536.7522559556885
 21
252.8894944471432
 31
0.0
  0
ARC
  5
1890
330
18
100
AcDbEntity
  8
1
100
AcDbCircle
 10
562.2522559556885
 20
251.889494447143
 30
0.0
 40
2.5
100
AcDbArc
 50
0.0
 51
180.0
  0
ARC
  5
1891
330
18
100
AcDbEntity
  8
1
100
AcDbCircle
 10
599.2522559556885
 20
251.389494447143
 30
0.0
 40
2.5
100
AcDbArc
 50
0.0
 51
180.0
  0
LINE
  5
1892
330
18
100
AcDbEntity
  8
1
100
AcDbLine
 10
588.0022559556884
 20
248.389494447143
 30
0.0
 11
586.5022559556885
 21
248.389494447143
 31
0.0
  0
TEXT
  5
1893
330
18
100
AcDbEntity
  8
1
100
AcDbText
 10
584.1765054340511
 20
245.5409725587208
 30
0.0
 40
2.0
  1
S
 50
75.00000000000555
  7
ＭＳゴシック
 72
     4
 11
583.3885526505321
 21
246.4247706275532
 31
0.0
100
AcDbText
  0
TEXT
  5
1894
330
18
100
AcDbEntity
  8
1
100
AcDbText
 10
584.6643169240354
 20
247.0585536007052
 30
0.0
 40
2.0
  1
E
 50
44.9999999999905
  7
ＭＳゴシック
 72
     4
 11
584.4238288309418
 21
248.2179215718892
 31
0.0
100
AcDbText
  0
TEXT
  5
1895
330
18
100
AcDbEntity
  8
1
100
AcDbText
 10
584.5128388124584
 20
243.9828030790678
 30
0.0
 40
2.0
  1
U
 50
104.9999999999944
  7
ＭＳゴシック
 72
     4
 11
583.3885526505321
 21
244.3542182667329
 31
0.0
100
AcDbText
  0
LINE
  5
1896
330
18
100
AcDbEntity
  8
1
100
AcDbLine
 10
589.7271296898408
 20
249.278581743669
 30
0.0
 11
590.964566556918
 21
249.1018050483724
 31
0.0
  0
LINE
  5
1897
330
18
100
AcDbEntity
  8
1
100
AcDbLine
 10
589.9039063851371
 20
248.0411448765926
 30
0.0
 11
590.964566556918
 21
249.1018050483724
 31
0.0
  0
LINE
  5
1898
330
18
100
AcDbEntity
  8
1
100
AcDbLine
 10
589.7271296898408
 20
249.278581743669
 30
0.0
 11
589.9039063851371
 21
248.0411448765926
 31
0.0
  0
ARC
  5
1899
330
18
100
AcDbEntity
  8
1
100
AcDbCircle
 10
572.2522559556884
 20
256.389494447143
 30
0.0
 40
2.5
100
AcDbArc
 50
0.0
 51
180.0
  0
LINE
  5
189A
330
18
100
AcDbEntity
  8
1
100
AcDbLine
 10
611.4522559556883
 20
265.3894944471431
 30
0.0
 11
532.4522559556883
 21
265.3894944471431
 31
0.0
  0
LINE
  5
189B
330
18
100
AcDbEntity
  8
1
100
AcDbLine
 10
517.4522559556883
 20
285.389494447143
 30
0.0
 11
611.4522559556883
 21
285.389494447143
 31
0.0
  0
LINE
  5
189C
330
18
100
AcDbEntity
  8
1
100
AcDbLine
 10
437.7022559556883
 20
282.889494447143
 30
0.0
 11
447.7022559556883
 21
282.889494447143
 31
0.0
  0
LINE
  5
19A5
330
18
100
AcDbEntity
  8
2
100
AcDbLine
 10
420.000000416976
 20
294.5033448873886
 30
0.0
 11
384.1577387473416
 21
294.5033448873886
 31
0.0
  0
TEXT
  5
19A6
330
18
100
AcDbEntity
  8
2
100
AcDbText
 10
385.3134540748136
 20
296.0136734137918
 30
0.0
 40
5.0
  1
取付穴φ6
  7
ＭＳ明朝
100
AcDbText
  0
LEADER
  5
19A7
330
18
100
AcDbEntity
  8
2
100
AcDbLeader
  3
STANDARD
 74
     0
 40
4.097142857142856
 41
29.98285714285714
 76
     2
 10
443.5809356121287
 20
267.5108147907027
 30
0.0
 10
420.000000416976
 20
294.5033448873886
 30
0.0
211
-1.0
221
0.0000000000000001
231
0.0
1001
ACAD
1000
DSTYLE
1002
{
1070
    47
1040
1.0
1070
   283
1070
     0
1070
    48
1040
1.0
1070
   146
1040
0.6
1070
    40
1040
1.0
1002
}
  0
VIEWPORT
  5
699
330
692
100
AcDbEntity
 67
     1
  8
0
100
AcDbViewport
 10
142.4986347259969
 20
99.00077671910931
 30
0.0
 40
311.3917251087822
 41
199.5895547398193
 68
     1
 69
     1
 12
142.4986347259969
 22
99.00077671910931
 13
0.0
 23
0.0
 14
1.0
 24
1.0
 15
10.0
 25
10.0
 16
0.0
 26
0.0
 36
1.0
 17
0.0
 27
0.0
 37
0.0
 42
50.0
 43
0.0
 44
0.0
 45
199.5895547398193
 50
0.0
 51
0.0
 72
   100
 90
    33056
  1

281
     0
 71
     1
 74
     0
110
0.0
120
0.0
130
0.0
111
1.0
121
0.0
131
0.0
112
0.0
122
1.0
132
0.0
 79
     0
146
0.0
  0
VIEWPORT
  5
69B
330
692
100
AcDbEntity
 67
     1
  8
X ﾋﾞｭｰ
100
AcDbViewport
 10
142.5
 20
99.0
 30
0.0
 40
285.0
 41
198.0
 68
     2
 69
     2
 12
228.4117741341626
 22
142.276708729567
 13
0.0
 23
0.0
 14
1.0
 24
1.0
 15
10.0
 25
10.0
 16
0.0
 26
0.0
 36
1.0
 17
0.0
 27
0.0
 37
0.0
 42
50.0
 43
0.0
 44
0.0
 45
592.8540623929759
 50
0.0
 51
0.0
 72
   100
 90
    33056
  1

281
     0
 71
     1
 74
     0
110
0.0
120
0.0
130
0.0
111
1.0
121
0.0
131
0.0
112
0.0
122
1.0
132
0.0
 79
     0
146
0.0
  0
ENDSEC
  0
SECTION
  2
OBJECTS
  0
DICTIONARY
  5
C
330
0
100
AcDbDictionary
281
     1
  3
ACAD_GROUP
350
D
  3
ACAD_LAYOUT
350
5E1
  3
ACAD_MLINESTYLE
350
1B
  3
ACAD_PLOTSETTINGS
350
5E2
  3
ACAD_PLOTSTYLENAME
350
5DF
  3
AcadDim
350
199D
  3
CONTENTDICTIONARY
350
20
  0
DICTIONARY
  5
D
102
{ACAD_REACTORS
330
C
102
}
330
C
100
AcDbDictionary
281
     1
  0
DICTIONARY
  5
5E1
102
{ACAD_REACTORS
330
C
102
}
330
C
100
AcDbDictionary
281
     1
  3
Model
350
5E3
  3
ﾚｲｱｳﾄ1
350
693
  0
DICTIONARY
  5
1B
102
{ACAD_REACTORS
330
C
102
}
330
C
100
AcDbDictionary
281
     1
  3
STANDARD
350
1C
  0
DICTIONARY
  5
5E2
102
{ACAD_REACTORS
330
C
102
}
330
C
100
AcDbDictionary
281
     1
  0
ACDBDICTIONARYWDFLT
  5
5DF
102
{ACAD_REACTORS
330
C
102
}
330
C
100
AcDbDictionary
281
     1
  3
Normal
350
5E0
100
AcDbDictionaryWithDefault
340
5E0
  0
XRECORD
  5
199D
102
{ACAD_REACTORS
330
C
102
}
330
C
100
AcDbXrecord
280
     1
 90
   990106
  3

 60
     0
 61
     0
 62
     4
 63
     4
 64
     1
 65
     0
 66
     0
 67
     3
 68
     1
 69
     0
 70
     0
 71
     0
 72
     0
 40
0.0
170
     2
  0
DICTIONARY
  5
20
102
{ACAD_REACTORS
330
C
102
}
330
C
100
AcDbDictionary
281
     1
1001
CONTENTTABDATA
1070
     6
1000
ビス.dwg
1000
C:\Program Files\AutoCAD LT 97\SYMBOLS\ビス.dwg
1070
     0
1070
     0
1070
     1
1000
ｺﾈｸﾀ.dwg
1000
C:\Program Files\AutoCAD LT 97\SYMBOLS\ｺﾈｸﾀ.dwg
1070
     0
1070
     0
1070
     1
1000
表示器.dwg
1000
C:\Program Files\AutoCAD LT 97\SYMBOLS\表示器.dwg
1070
     0
1070
     0
1070
     1
1000
ﾄﾗﾝｽ.dwg
1000
C:\Program Files\AutoCAD LT 97\SYMBOLS\ﾄﾗﾝｽ.dwg
1070
     0
1070
     0
1070
     1
1000
ﾘﾚｰ.dwg
1000
C:\Program Files\AutoCAD LT 97\SYMBOLS\ﾘﾚｰ.dwg
1070
     0
1070
     0
1070
     1
1000
汎用.dwg
1000
C:\Program Files\AutoCAD LT 97\SYMBOLS\汎用.dwg
1070
     0
1070
     0
1070
     1
1001
CONTENTCURRENTTAB
1070
     2
  0
LAYOUT
  5
5E3
102
{ACAD_REACTORS
330
5E1
102
}
330
5E1
100
AcDbPlotSettings
  1

  2
RICOH imagio MP C3000 RPCS.pc3
  4
A3
  6

 40
5.873749732971191
 41
5.873747825622558
 42
5.873748779296875
 43
5.873748779296875
 44
419.9466552734374
 45
296.9259948730469
 46
0.0
 47
0.0
 48
0.0
 49
0.0
140
0.0
141
0.0
142
1.0
143
1.286122978510651
 70
 11952
 72
     1
 73
     0
 74
     0
  7
monochrome.ctb
 75
     0
147
0.7775306224277355
148
0.0
149
0.0
100
AcDbLayout
  1
Model
 70
     1
 71
     0
 10
0.0
 20
0.0
 11
12.0
 21
9.0
 12
0.0
 22
0.0
 32
0.0
 14
0.0
 24
0.0
 34
0.0
 15
0.0
 25
0.0
 35
0.0
146
0.0
 13
0.0
 23
0.0
 33
0.0
 16
1.0
 26
0.0
 36
0.0
 17
0.0
 27
1.0
 37
0.0
 76
     0
330
18
  0
LAYOUT
  5
693
102
{ACAD_REACTORS
330
5E1
102
}
330
5E1
100
AcDbPlotSettings
  1

  2
RICOH imagio MP C3000 RPCS
  4
A4
  6

 40
5.873749732971191
 41
5.873747825622558
 42
5.873748779296875
 43
5.873748779296875
 44
209.9733276367187
 45
296.9259948730469
 46
0.0
 47
0.0
 48
0.0
 49
0.0
140
0.0
141
0.0
142
1.0
143
1.0
 70
   688
 72
     1
 73
     1
 74
     5
  7
monochrome.ctb
 75
    16
147
1.0
148
0.0
149
0.0
100
AcDbLayout
  1
ﾚｲｱｳﾄ1
 70
     1
 71
     1
 10
-5.873748779296875
 20
-5.873749732971191
 11
291.05224609375
 21
204.0995779037475
 12
0.0
 22
0.0
 32
0.0
 14
-0.015512739179826
 24
-0.0009295723639866
 34
-0.0015258207003583
 15
285.0127821911737
 25
198.0024830105826
 35
0.0000000349246037
146
0.0
 13
0.0
 23
0.0
 33
0.0
 16
1.0
 26
0.0
 36
0.0
 17
0.0
 27
1.0
 37
0.0
 76
     0
330
692
331
699
  0
MLINESTYLE
  5
1C
102
{ACAD_REACTORS
330
1B
102
}
330
1B
100
AcDbMlineStyle
  2
STANDARD
 70
     0
  3

 62
   256
 51
90.0
 52
90.0
 71
     2
 49
0.5
 62
   256
  6
BYLAYER
 49
-0.5
 62
   256
  6
BYLAYER
  0
ACDBPLACEHOLDER
  5
5E0
102
{ACAD_REACTORS
330
5DF
102
}
330
5DF
  0
ENDSEC
  0
EOF
