  0
SECTION
  2
HEADER
  9
$ACADVER
  1
AC1015
  9
$ACADMAINTVER
 70
    11
  9
$DWGCODEPAGE
  3
ANSI_932
  9
$INSBASE
 10
0.0
 20
0.0
 30
0.0
  9
$EXTMIN
 10
-21.99545396276801
 20
-109.3675383025042
 30
0.0
  9
$EXTMAX
 10
427.7774031800892
 20
238.0895684786823
 30
0.0
  9
$LIMMIN
 10
0.0
 20
0.0
  9
$LIMMAX
 10
420.0
 20
297.0
  9
$ORTHOMODE
 70
     0
  9
$REGENMODE
 70
     1
  9
$FILLMODE
 70
     1
  9
$QTEXTMODE
 70
     0
  9
$MIRRTEXT
 70
     1
  9
$LTSCALE
 40
1.0
  9
$ATTMODE
 70
     1
  9
$TEXTSIZE
 40
2.5
  9
$TRACEWID
 40
1.0
  9
$TEXTSTYLE
  7
STANDARD
  9
$CLAYER
  8
2
  9
$CELTYPE
  6
BYLAYER
  9
$CECOLOR
 62
   256
  9
$CELTSCALE
 40
1.0
  9
$DISPSILH
 70
     0
  9
$DIMSCALE
 40
0.0
  9
$DIMASZ
 40
2.5
  9
$DIMEXO
 40
1.5
  9
$DIMDLI
 40
5.0
  9
$DIMRND
 40
0.0
  9
$DIMDLE
 40
0.0
  9
$DIMEXE
 40
1.25
  9
$DIMTP
 40
0.0
  9
$DIMTM
 40
0.0
  9
$DIMTXT
 40
2.5
  9
$DIMCEN
 40
-5.0
  9
$DIMTSZ
 40
0.0
  9
$DIMTOL
 70
     0
  9
$DIMLIM
 70
     0
  9
$DIMTIH
 70
     0
  9
$DIMTOH
 70
     0
  9
$DIMSE1
 70
     0
  9
$DIMSE2
 70
     0
  9
$DIMTAD
 70
     1
  9
$DIMZIN
 70
     8
  9
$DIMBLK
  1

  9
$DIMASO
 70
     1
  9
$DIMSHO
 70
     1
  9
$DIMPOST
  1

  9
$DIMAPOST
  1

  9
$DIMALT
 70
     0
  9
$DIMALTD
 70
     4
  9
$DIMALTF
 40
0.0394
  9
$DIMLFAC
 40
1.0
  9
$DIMTOFL
 70
     1
  9
$DIMTVP
 40
0.0
  9
$DIMTIX
 70
     0
  9
$DIMSOXD
 70
     0
  9
$DIMSAH
 70
     0
  9
$DIMBLK1
  1

  9
$DIMBLK2
  1

  9
$DIMSTYLE
  2
STANDARD
  9
$DIMCLRD
 70
     0
  9
$DIMCLRE
 70
     0
  9
$DIMCLRT
 70
     0
  9
$DIMTFAC
 40
1.0
  9
$DIMGAP
 40
0.5
  9
$DIMJUST
 70
     0
  9
$DIMSD1
 70
     0
  9
$DIMSD2
 70
     0
  9
$DIMTOLJ
 70
     1
  9
$DIMTZIN
 70
     0
  9
$DIMALTZ
 70
     0
  9
$DIMALTTZ
 70
     0
  9
$DIMUPT
 70
     0
  9
$DIMDEC
 70
     3
  9
$DIMTDEC
 70
     3
  9
$DIMALTU
 70
     8
  9
$DIMALTTD
 70
     4
  9
$DIMTXSTY
  7
ＭＳ明朝
  9
$DIMAUNIT
 70
     0
  9
$DIMADEC
 70
     0
  9
$DIMALTRND
 40
0.0
  9
$DIMAZIN
 70
     0
  9
$DIMDSEP
 70
    46
  9
$DIMATFIT
 70
     3
  9
$DIMFRAC
 70
     0
  9
$DIMLDRBLK
  1

  9
$DIMLUNIT
 70
     6
  9
$DIMLWD
 70
    -2
  9
$DIMLWE
 70
    -2
  9
$DIMTMOVE
 70
     0
  9
$LUNITS
 70
     2
  9
$LUPREC
 70
     2
  9
$SKETCHINC
 40
1.0
  9
$FILLETRAD
 40
2.0
  9
$AUNITS
 70
     0
  9
$AUPREC
 70
     0
  9
$MENU
  1
acad
  9
$ELEVATION
 40
0.0
  9
$PELEVATION
 40
0.0
  9
$THICKNESS
 40
0.0
  9
$LIMCHECK
 70
     0
  9
$CHAMFERA
 40
10.0
  9
$CHAMFERB
 40
10.0
  9
$CHAMFERC
 40
20.0
  9
$CHAMFERD
 40
0.0
  9
$SKPOLY
 70
     0
  9
$TDCREATE
 40
2455957.594655949
  9
$TDUCREATE
 40
2455957.219655949
  9
$TDUPDATE
 40
2456160.801541968
  9
$TDUUPDATE
 40
2456160.426541968
  9
$TDINDWG
 40
0.0709218171
  9
$TDUSRTIMER
 40
0.0709218171
  9
$USRTIMER
 70
     1
  9
$ANGBASE
 50
0.0
  9
$ANGDIR
 70
     0
  9
$PDMODE
 70
     0
  9
$PDSIZE
 40
0.0
  9
$PLINEWID
 40
0.0
  9
$SPLFRAME
 70
     0
  9
$SPLINETYPE
 70
     6
  9
$SPLINESEGS
 70
     8
  9
$HANDSEED
  5
1BA7
  9
$SURFTAB1
 70
     6
  9
$SURFTAB2
 70
     6
  9
$SURFTYPE
 70
     6
  9
$SURFU
 70
     6
  9
$SURFV
 70
     6
  9
$UCSBASE
  2

  9
$UCSNAME
  2

  9
$UCSORG
 10
0.0
 20
0.0
 30
0.0
  9
$UCSXDIR
 10
1.0
 20
0.0
 30
0.0
  9
$UCSYDIR
 10
0.0
 20
1.0
 30
0.0
  9
$UCSORTHOREF
  2

  9
$UCSORTHOVIEW
 70
     0
  9
$UCSORGTOP
 10
0.0
 20
0.0
 30
0.0
  9
$UCSORGBOTTOM
 10
0.0
 20
0.0
 30
0.0
  9
$UCSORGLEFT
 10
0.0
 20
0.0
 30
0.0
  9
$UCSORGRIGHT
 10
0.0
 20
0.0
 30
0.0
  9
$UCSORGFRONT
 10
0.0
 20
0.0
 30
0.0
  9
$UCSORGBACK
 10
0.0
 20
0.0
 30
0.0
  9
$PUCSBASE
  2

  9
$PUCSNAME
  2

  9
$PUCSORG
 10
0.0
 20
0.0
 30
0.0
  9
$PUCSXDIR
 10
1.0
 20
0.0
 30
0.0
  9
$PUCSYDIR
 10
0.0
 20
1.0
 30
0.0
  9
$PUCSORTHOREF
  2

  9
$PUCSORTHOVIEW
 70
     0
  9
$PUCSORGTOP
 10
0.0
 20
0.0
 30
0.0
  9
$PUCSORGBOTTOM
 10
0.0
 20
0.0
 30
0.0
  9
$PUCSORGLEFT
 10
0.0
 20
0.0
 30
0.0
  9
$PUCSORGRIGHT
 10
0.0
 20
0.0
 30
0.0
  9
$PUCSORGFRONT
 10
0.0
 20
0.0
 30
0.0
  9
$PUCSORGBACK
 10
0.0
 20
0.0
 30
0.0
  9
$USERI1
 70
     0
  9
$USERI2
 70
     0
  9
$USERI3
 70
     0
  9
$USERI4
 70
     0
  9
$USERI5
 70
     0
  9
$USERR1
 40
0.0
  9
$USERR2
 40
0.0
  9
$USERR3
 40
0.0
  9
$USERR4
 40
0.0
  9
$USERR5
 40
0.0
  9
$WORLDVIEW
 70
     1
  9
$SHADEDGE
 70
     3
  9
$SHADEDIF
 70
    70
  9
$TILEMODE
 70
     0
  9
$MAXACTVP
 70
    48
  9
$PINSBASE
 10
0.0
 20
0.0
 30
0.0
  9
$PLIMCHECK
 70
     0
  9
$PEXTMIN
 10
-0.015512739179826
 20
-0.0009295723639866
 30
-0.0015258207003583
  9
$PEXTMAX
 10
285.0127821911737
 20
198.0024830105826
 30
0.0000000349246037
  9
$PLIMMIN
 10
-5.873748779296875
 20
-5.873749732971191
  9
$PLIMMAX
 10
291.05224609375
 20
204.0995779037475
  9
$UNITMODE
 70
     0
  9
$VISRETAIN
 70
     1
  9
$PLINEGEN
 70
     0
  9
$PSLTSCALE
 70
     1
  9
$TREEDEPTH
 70
  3020
  9
$CMLSTYLE
  2
STANDARD
  9
$CMLJUST
 70
     0
  9
$CMLSCALE
 40
20.0
  9
$PROXYGRAPHICS
 70
     1
  9
$MEASUREMENT
 70
     1
  9
$CELWEIGHT
370
    -1
  9
$ENDCAPS
280
     0
  9
$JOINSTYLE
280
     0
  9
$LWDISPLAY
290
     0
  9
$INSUNITS
 70
     0
  9
$HYPERLINKBASE
  1

  9
$STYLESHEET
  1

  9
$XEDIT
290
     1
  9
$CEPSNTYPE
380
     0
  9
$PSTYLEMODE
290
     1
  9
$FINGERPRINTGUID
  2
{778B7AA4-961B-11D4-A809-0000F45A11F6}
  9
$VERSIONGUID
  2
{2C44E890-FADD-4343-8191-31C4A7D1B7BE}
  9
$EXTNAMES
290
     1
  9
$PSVPSCALE
 40
0.0
  9
$OLESTARTUP
290
     0
  0
ENDSEC
  0
SECTION
  2
CLASSES
  0
CLASS
  1
LWPOLYLINE
  2
AcDbPolyline
  3
AutoCAD 2000
 90
    32768
280
     0
281
     1
  0
CLASS
  1
ACDBDICTIONARYWDFLT
  2
AcDbDictionaryWithDefault
  3
AutoCAD 2000
 90
        0
280
     0
281
     0
  0
CLASS
  1
ACDBPLACEHOLDER
  2
AcDbPlaceHolder
  3
AutoCAD 2000
 90
        0
280
     0
281
     0
  0
CLASS
  1
LAYOUT
  2
AcDbLayout
  3
AutoCAD 2000
 90
        0
280
     0
281
     0
  0
ENDSEC
  0
SECTION
  2
TABLES
  0
TABLE
  2
VPORT
  5
8
330
0
100
AcDbSymbolTable
 70
     4
  0
VPORT
  5
1BA6
330
8
100
AcDbSymbolTableRecord
100
AcDbViewportTableRecord
  2
*Active
 70
     0
 10
0.0
 20
0.0
 11
1.0
 21
1.0
 12
322.6985126255007
 22
75.04577300301008
 13
0.0
 23
0.0
 14
1.0
 24
1.0
 15
10.0
 25
10.0
 16
0.0
 26
0.0
 36
1.0
 17
0.0
 27
0.0
 37
0.0
 40
445.2189085126138
 41
1.560160427807486
 42
50.0
 43
0.0
 44
0.0
 50
0.0
 51
0.0
 71
     0
 72
   100
 73
     1
 74
     1
 75
     0
 76
     0
 77
     0
 78
     0
281
     0
 65
     1
110
0.0
120
0.0
130
0.0
111
1.0
121
0.0
131
0.0
112
0.0
122
1.0
132
0.0
 79
     0
146
0.0
  0
ENDTAB
  0
TABLE
  2
LTYPE
  5
5
330
0
100
AcDbSymbolTable
 70
     2
  0
LTYPE
  5
12
330
5
100
AcDbSymbolTableRecord
100
AcDbLinetypeTableRecord
  2
BYBLOCK
 70
     0
  3

 72
    65
 73
     0
 40
0.0
  0
LTYPE
  5
13
330
5
100
AcDbSymbolTableRecord
100
AcDbLinetypeTableRecord
  2
BYLAYER
 70
     0
  3

 72
    65
 73
     0
 40
0.0
  0
LTYPE
  5
14
330
5
100
AcDbSymbolTableRecord
100
AcDbLinetypeTableRecord
  2
CONTINUOUS
 70
     0
  3
Solid line
 72
    65
 73
     0
 40
0.0
  0
LTYPE
  5
1AB6
330
5
100
AcDbSymbolTableRecord
100
AcDbLinetypeTableRecord
  2
4-中心線
 70
     0
  3
Center (.5x) ___ _ ___ _ ___ _ ___ _ ___ _ ___
 72
    65
 73
     4
 40
28.57499999999999
 49
19.05
 74
     0
 49
-3.174999999999999
 74
     0
 49
3.174999999999999
 74
     0
 49
-3.174999999999999
 74
     0
  0
ENDTAB
  0
TABLE
  2
LAYER
  5
2
102
{ACAD_XDICTIONARY
360
1AB7
102
}
330
0
100
AcDbSymbolTable
 70
     5
  0
LAYER
  5
E
330
2
100
AcDbSymbolTableRecord
100
AcDbLayerTableRecord
  2
0
 70
     0
 62
     4
  6
CONTINUOUS
370
    -3
390
5E0
  0
LAYER
  5
21F
330
2
100
AcDbSymbolTableRecord
100
AcDbLayerTableRecord
  2
DEFPOINTS
 70
     0
 62
     9
  6
CONTINUOUS
290
     0
370
    -3
390
5E0
  0
LAYER
  5
508
330
2
100
AcDbSymbolTableRecord
100
AcDbLayerTableRecord
  2
X ﾋﾞｭｰ
 70
     0
 62
     2
  6
CONTINUOUS
290
     0
370
    35
390
5E0
  0
LAYER
  5
D04
330
2
100
AcDbSymbolTableRecord
100
AcDbLayerTableRecord
  2
1
 70
     0
 62
     5
  6
CONTINUOUS
370
    30
390
5E0
  0
LAYER
  5
D05
330
2
100
AcDbSymbolTableRecord
100
AcDbLayerTableRecord
  2
2
 70
     0
 62
     6
  6
CONTINUOUS
370
     9
390
5E0
  0
ENDTAB
  0
TABLE
  2
STYLE
  5
3
330
0
100
AcDbSymbolTable
 70
     3
  0
STYLE
  5
F
330
3
100
AcDbSymbolTableRecord
100
AcDbTextStyleTableRecord
  2
STANDARD
 70
     0
 40
0.0
 41
1.0
 50
0.0
 71
     0
 42
2.5
  3
txt.shx
  4

  0
STYLE
  5
4B4
330
3
100
AcDbSymbolTableRecord
100
AcDbTextStyleTableRecord
  2
ＭＳ明朝
 70
     0
 40
0.0
 41
1.0
 50
0.0
 71
     0
 42
2.5
  3
MS Mincho.ttf
  4

1001
ACAD
1000
MS Mincho
1071
    32785
  0
STYLE
  5
D06
330
3
100
AcDbSymbolTableRecord
100
AcDbTextStyleTableRecord
  2
ＭＳゴシック
 70
     0
 40
0.0
 41
1.0
 50
0.0
 71
     0
 42
2.5
  3
MS Gothic.ttf
  4

1001
ACAD
1000
MS Gothic
1071
    32817
  0
ENDTAB
  0
TABLE
  2
VIEW
  5
6
330
0
100
AcDbSymbolTable
 70
     0
  0
ENDTAB
  0
TABLE
  2
UCS
  5
7
330
0
100
AcDbSymbolTable
 70
     0
  0
ENDTAB
  0
TABLE
  2
APPID
  5
9
330
0
100
AcDbSymbolTable
 70
     5
  0
APPID
  5
10
330
9
100
AcDbSymbolTableRecord
100
AcDbRegAppTableRecord
  2
ACAD
 70
     0
  0
APPID
  5
21
330
9
100
AcDbSymbolTableRecord
100
AcDbRegAppTableRecord
  2
CONTENTTABDATA
 70
     0
  0
APPID
  5
22
330
9
100
AcDbSymbolTableRecord
100
AcDbRegAppTableRecord
  2
CONTENTCURRENTTAB
 70
     0
  0
APPID
  5
137
330
9
100
AcDbSymbolTableRecord
100
AcDbRegAppTableRecord
  2
CONTENTBLOCKDESCRIPTION
 70
     0
  0
APPID
  5
186
330
9
100
AcDbSymbolTableRecord
100
AcDbRegAppTableRecord
  2
CONTENTBLOCKICON
 70
     0
  0
ENDTAB
  0
TABLE
  2
DIMSTYLE
  5
A
330
0
100
AcDbSymbolTable
 70
     3
100
AcDbDimStyleTable
 71
     1
340
1D
  0
DIMSTYLE
105
1D
102
{ACAD_REACTORS
330
1363
330
15BC
330
15BD
330
162A
330
162B
330
19F1
330
1A27
330
1A76
330
1A84
102
}
330
A
100
AcDbSymbolTableRecord
100
AcDbDimStyleTableRecord
  2
STANDARD
 70
     0
 40
0.0
 41
2.5
 42
1.5
 43
5.0
 44
1.25
 73
     0
 74
     0
 77
     1
 78
     8
140
2.5
141
-5.0
143
0.0394
147
0.5
171
     4
172
     1
271
     3
272
     3
273
     8
274
     4
277
     6
340
4B4
  0
DIMSTYLE
105
D07
102
{ACAD_REACTORS
330
1674
330
1B96
102
}
330
A
100
AcDbSymbolTableRecord
100
AcDbDimStyleTableRecord
  2
STANDARD$3
 70
     0
 40
0.0
 41
3.2
 42
1.5
 43
5.0
 44
1.25
 73
     0
 74
     0
 77
     1
 78
     8
140
3.2
141
0.0
143
0.0394
147
0.5
171
     4
271
     2
272
     2
273
     8
274
     4
277
     6
340
F
  0
DIMSTYLE
105
D08
102
{ACAD_REACTORS
330
1B5A
330
1B63
102
}
330
A
100
AcDbSymbolTableRecord
100
AcDbDimStyleTableRecord
  2
STANDARD$4
 70
     0
 40
0.0
 41
3.2
 42
1.5
 43
5.0
 44
1.25
 73
     0
 74
     0
 77
     1
 78
     8
140
3.2
141
0.0
143
0.0394
147
0.5
171
     4
271
     2
272
     2
273
     8
274
     4
277
     6
340
F
  0
ENDTAB
  0
TABLE
  2
BLOCK_RECORD
  5
1
330
0
100
AcDbSymbolTable
 70
    14
  0
BLOCK_RECORD
  5
18
330
1
100
AcDbSymbolTableRecord
100
AcDbBlockTableRecord
  2
*MODEL_SPACE
340
5E3
  0
BLOCK_RECORD
  5
692
330
1
100
AcDbSymbolTableRecord
100
AcDbBlockTableRecord
  2
*Paper_Space
340
693
  0
BLOCK_RECORD
  5
1762
330
1
100
AcDbSymbolTableRecord
100
AcDbBlockTableRecord
  2
*D0
340
0
  0
BLOCK_RECORD
  5
176E
330
1
100
AcDbSymbolTableRecord
100
AcDbBlockTableRecord
  2
*D1
340
0
  0
BLOCK_RECORD
  5
177A
330
1
100
AcDbSymbolTableRecord
100
AcDbBlockTableRecord
  2
*D2
340
0
  0
BLOCK_RECORD
  5
1786
330
1
100
AcDbSymbolTableRecord
100
AcDbBlockTableRecord
  2
*D3
340
0
  0
BLOCK_RECORD
  5
1797
330
1
100
AcDbSymbolTableRecord
100
AcDbBlockTableRecord
  2
*D4
340
0
  0
BLOCK_RECORD
  5
17A3
330
1
100
AcDbSymbolTableRecord
100
AcDbBlockTableRecord
  2
*D5
340
0
  0
BLOCK_RECORD
  5
19F2
330
1
100
AcDbSymbolTableRecord
100
AcDbBlockTableRecord
  2
*D6
340
0
  0
BLOCK_RECORD
  5
1A28
330
1
100
AcDbSymbolTableRecord
100
AcDbBlockTableRecord
  2
*D7
340
0
  0
BLOCK_RECORD
  5
1A77
330
1
100
AcDbSymbolTableRecord
100
AcDbBlockTableRecord
  2
*D8
340
0
  0
BLOCK_RECORD
  5
1A85
330
1
100
AcDbSymbolTableRecord
100
AcDbBlockTableRecord
  2
*D9
340
0
  0
BLOCK_RECORD
  5
1B5B
330
1
100
AcDbSymbolTableRecord
100
AcDbBlockTableRecord
  2
*D10
340
0
  0
BLOCK_RECORD
  5
1B64
330
1
100
AcDbSymbolTableRecord
100
AcDbBlockTableRecord
  2
*D11
340
0
  0
BLOCK_RECORD
  5
1B6E
330
1
100
AcDbSymbolTableRecord
100
AcDbBlockTableRecord
  2
*D12
340
0
  0
BLOCK_RECORD
  5
1B97
330
1
100
AcDbSymbolTableRecord
100
AcDbBlockTableRecord
  2
*D13
340
0
  0
ENDTAB
  0
ENDSEC
  0
SECTION
  2
BLOCKS
  0
BLOCK
  5
19
330
18
100
AcDbEntity
  8
0
100
AcDbBlockBegin
  2
*MODEL_SPACE
 70
     0
 10
0.0
 20
0.0
 30
0.0
  3
*MODEL_SPACE
  1

  0
ENDBLK
  5
1A
330
18
100
AcDbEntity
  8
0
100
AcDbBlockEnd
  0
BLOCK
  5
694
330
692
100
AcDbEntity
 67
     1
  8
0
100
AcDbBlockBegin
  2
*Paper_Space
 70
     0
 10
0.0
 20
0.0
 30
0.0
  3
*Paper_Space
  1

  0
ENDBLK
  5
695
330
692
100
AcDbEntity
 67
     1
  8
0
100
AcDbBlockEnd
  0
BLOCK
  5
176C
330
1762
100
AcDbEntity
  8
0
100
AcDbBlockBegin
  2
*D0
 70
     1
 10
0.0
 20
0.0
 30
0.0
  3
*D0
  1

  0
LINE
  5
17E0
330
1762
100
AcDbEntity
  8
2
 62
     0
370
    -2
100
AcDbLine
 10
55.5045460372321
 20
120.3824616974957
 30
0.0
 11
55.5045460372321
 21
108.6324616974956
 31
0.0
  0
LINE
  5
17E1
330
1762
100
AcDbEntity
  8
2
 62
     0
370
    -2
100
AcDbLine
 10
300.5045460372319
 20
120.3824616974957
 30
0.0
 11
300.5045460372319
 21
108.6324616974956
 31
0.0
  0
LINE
  5
17E2
330
1762
100
AcDbEntity
  8
2
 62
     0
370
    -2
100
AcDbLine
 10
58.0045460372321
 20
109.8824616974956
 30
0.0
 11
298.0045460372319
 21
109.8824616974956
 31
0.0
  0
SOLID
  5
17E3
330
1762
100
AcDbEntity
  8
2
 62
     0
100
AcDbTrace
 10
58.0045460372321
 20
110.2991283641623
 30
0.0
 11
58.0045460372321
 21
109.465795030829
 31
0.0
 12
55.5045460372321
 22
109.8824616974956
 32
0.0
 13
55.5045460372321
 23
109.8824616974956
 33
0.0
  0
SOLID
  5
17E4
330
1762
100
AcDbEntity
  8
2
 62
     0
100
AcDbTrace
 10
298.0045460372319
 20
110.2991283641623
 30
0.0
 11
298.0045460372319
 21
109.465795030829
 31
0.0
 12
300.5045460372319
 22
109.8824616974956
 32
0.0
 13
300.5045460372319
 23
109.8824616974956
 33
0.0
  0
MTEXT
  5
17E5
330
1762
100
AcDbEntity
  8
2
 62
     0
100
AcDbMText
 10
178.004546037232
 20
111.6324616974956
 30
0.0
 40
2.5
 41
0.0
 71
     5
 72
     1
  1
\A1;245
  7
ＭＳ明朝
 73
     1
 44
1.0
  0
POINT
  5
17E6
330
1762
100
AcDbEntity
  8
DEFPOINTS
 62
     0
100
AcDbPoint
 10
55.5045460372321
 20
121.8824616974957
 30
0.0
  0
POINT
  5
17E7
330
1762
100
AcDbEntity
  8
DEFPOINTS
 62
     0
100
AcDbPoint
 10
300.5045460372319
 20
121.8824616974957
 30
0.0
  0
POINT
  5
17E8
330
1762
100
AcDbEntity
  8
DEFPOINTS
 62
     0
100
AcDbPoint
 10
300.5045460372319
 20
109.8824616974956
 30
0.0
  0
ENDBLK
  5
176D
330
1762
100
AcDbEntity
  8
0
100
AcDbBlockEnd
  0
BLOCK
  5
1778
330
176E
100
AcDbEntity
  8
0
100
AcDbBlockBegin
  2
*D1
 70
     1
 10
0.0
 20
0.0
 30
0.0
  3
*D1
  1

  0
LINE
  5
17E9
330
176E
100
AcDbEntity
  8
2
 62
     0
370
    -2
100
AcDbLine
 10
355.104546037232
 20
121.8824616974957
 30
0.0
 11
344.454546037232
 21
121.8824616974957
 31
0.0
  0
LINE
  5
17EA
330
176E
100
AcDbEntity
  8
2
 62
     0
370
    -2
100
AcDbLine
 10
355.104546037232
 20
235.8824616974957
 30
0.0
 11
344.454546037232
 21
235.8824616974957
 31
0.0
  0
LINE
  5
17EB
330
176E
100
AcDbEntity
  8
2
 62
     0
370
    -2
100
AcDbLine
 10
345.7045460372319
 20
124.3824616974957
 30
0.0
 11
345.704546037232
 21
233.3824616974957
 31
0.0
  0
SOLID
  5
17EC
330
176E
100
AcDbEntity
  8
2
 62
     0
100
AcDbTrace
 10
345.2878793705652
 20
124.3824616974957
 30
0.0
 11
346.1212127038986
 21
124.3824616974957
 31
0.0
 12
345.7045460372319
 22
121.8824616974957
 32
0.0
 13
345.7045460372319
 23
121.8824616974957
 33
0.0
  0
SOLID
  5
17ED
330
176E
100
AcDbEntity
  8
2
 62
     0
100
AcDbTrace
 10
345.2878793705653
 20
233.3824616974957
 30
0.0
 11
346.1212127038987
 21
233.3824616974957
 31
0.0
 12
345.704546037232
 22
235.8824616974957
 32
0.0
 13
345.704546037232
 23
235.8824616974957
 33
0.0
  0
MTEXT
  5
17EE
330
176E
100
AcDbEntity
  8
2
 62
     0
100
AcDbMText
 10
343.9545460372319
 20
178.8824616974958
 30
0.0
 40
2.5
 41
0.0
 71
     5
 72
     1
  1
\A1;114
  7
ＭＳ明朝
 11
0.0000000000000001
 21
1.0
 31
0.0
 73
     1
 44
1.0
  0
POINT
  5
17EF
330
176E
100
AcDbEntity
  8
DEFPOINTS
 62
     0
100
AcDbPoint
 10
356.604546037232
 20
121.8824616974957
 30
0.0
  0
POINT
  5
17F0
330
176E
100
AcDbEntity
  8
DEFPOINTS
 62
     0
100
AcDbPoint
 10
356.604546037232
 20
235.8824616974957
 30
0.0
  0
POINT
  5
17F1
330
176E
100
AcDbEntity
  8
DEFPOINTS
 62
     0
100
AcDbPoint
 10
345.704546037232
 20
235.8824616974957
 30
0.0
  0
ENDBLK
  5
1779
330
176E
100
AcDbEntity
  8
0
100
AcDbBlockEnd
  0
BLOCK
  5
1784
330
177A
100
AcDbEntity
  8
0
100
AcDbBlockBegin
  2
*D2
 70
     1
 10
0.0
 20
0.0
 30
0.0
  3
*D2
  1

  0
LINE
  5
17F2
330
177A
100
AcDbEntity
  8
2
 62
     0
370
    -2
100
AcDbLine
 10
300.5045460372319
 20
120.3824616974957
 30
0.0
 11
300.5045460372319
 21
108.6324616974956
 31
0.0
  0
LINE
  5
17F3
330
177A
100
AcDbEntity
  8
2
 62
     0
370
    -2
100
AcDbLine
 10
315.504546037232
 20
174.8824616974957
 30
0.0
 11
315.504546037232
 21
108.6324616974956
 31
0.0
  0
LINE
  5
17F4
330
177A
100
AcDbEntity
  8
2
 62
     0
370
    -2
100
AcDbLine
 10
303.004546037232
 20
109.8824616974956
 30
0.0
 11
313.0045460372319
 21
109.8824616974956
 31
0.0
  0
SOLID
  5
17F5
330
177A
100
AcDbEntity
  8
2
 62
     0
100
AcDbTrace
 10
303.004546037232
 20
110.2991283641623
 30
0.0
 11
303.004546037232
 21
109.465795030829
 31
0.0
 12
300.5045460372319
 22
109.8824616974956
 32
0.0
 13
300.5045460372319
 23
109.8824616974956
 33
0.0
  0
SOLID
  5
17F6
330
177A
100
AcDbEntity
  8
2
 62
     0
100
AcDbTrace
 10
313.0045460372319
 20
110.2991283641623
 30
0.0
 11
313.0045460372319
 21
109.465795030829
 31
0.0
 12
315.504546037232
 22
109.8824616974956
 32
0.0
 13
315.504546037232
 23
109.8824616974956
 33
0.0
  0
MTEXT
  5
17F7
330
177A
100
AcDbEntity
  8
2
 62
     0
100
AcDbMText
 10
308.0045460372319
 20
111.6324616974956
 30
0.0
 40
2.5
 41
0.0
 71
     5
 72
     1
  1
\A1;15
  7
ＭＳ明朝
 73
     1
 44
1.0
  0
POINT
  5
17F8
330
177A
100
AcDbEntity
  8
DEFPOINTS
 62
     0
100
AcDbPoint
 10
300.5045460372319
 20
121.8824616974957
 30
0.0
  0
POINT
  5
17F9
330
177A
100
AcDbEntity
  8
DEFPOINTS
 62
     0
100
AcDbPoint
 10
315.504546037232
 20
176.3824616974957
 30
0.0
  0
POINT
  5
17FA
330
177A
100
AcDbEntity
  8
DEFPOINTS
 62
     0
100
AcDbPoint
 10
315.504546037232
 20
109.8824616974956
 30
0.0
  0
ENDBLK
  5
1785
330
177A
100
AcDbEntity
  8
0
100
AcDbBlockEnd
  0
BLOCK
  5
1795
330
1786
100
AcDbEntity
  8
0
100
AcDbBlockBegin
  2
*D3
 70
     1
 10
0.0
 20
0.0
 30
0.0
  3
*D3
  1

  0
LINE
  5
17FB
330
1786
100
AcDbEntity
  8
2
 62
     0
370
    -2
100
AcDbLine
 10
415.604546037232
 20
122.3824616974957
 30
0.0
 11
415.604546037232
 21
107.7324616974957
 31
0.0
  0
LINE
  5
17FC
330
1786
100
AcDbEntity
  8
2
 62
     0
370
    -2
100
AcDbLine
 10
418.1045460372319
 20
143.3824616974957
 30
0.0
 11
418.1045460372319
 21
107.7324616974957
 31
0.0
  0
LINE
  5
17FD
330
1786
100
AcDbEntity
  8
2
 62
     0
370
    -2
100
AcDbLine
 10
413.104546037232
 20
108.9824616974957
 30
0.0
 11
410.6045460372319
 21
108.9824616974957
 31
0.0
  0
LINE
  5
17FE
330
1786
100
AcDbEntity
  8
2
 62
     0
370
    -2
100
AcDbLine
 10
420.604546037232
 20
108.9824616974957
 30
0.0
 11
423.1045460372319
 21
108.9824616974957
 31
0.0
  0
LINE
  5
17FF
330
1786
100
AcDbEntity
  8
2
 62
     0
370
    -2
100
AcDbLine
 10
416.8545460372319
 20
108.9824616974957
 30
0.0
 11
418.9202603229463
 21
102.0967474117814
 31
0.0
  0
LINE
  5
1800
330
1786
100
AcDbEntity
  8
2
 62
     0
370
    -2
100
AcDbLine
 10
418.9202603229463
 20
102.0967474117814
 30
0.0
 11
427.4774031800892
 21
102.0967474117814
 31
0.0
  0
MTEXT
  5
1801
330
1786
100
AcDbEntity
  8
2
 62
     0
100
AcDbMText
 10
423.1988317515177
 20
104.2253188403528
 30
0.0
 40
2.5
 41
0.0
 71
     5
 72
     1
  1
\A1;(2.5)
  7
ＭＳ明朝
 73
     1
 44
1.0
  0
LINE
  5
1802
330
1786
100
AcDbEntity
  8
2
 62
     0
370
    -2
100
AcDbLine
 10
415.604546037232
 20
108.9824616974957
 30
0.0
 11
418.1045460372319
 21
108.9824616974957
 31
0.0
  0
LINE
  5
1803
330
1786
100
AcDbEntity
  8
2
 62
     0
370
    -2
100
AcDbLine
 10
415.604546037232
 20
108.9824616974957
 30
0.0
 11
418.1045460372319
 21
108.9824616974957
 31
0.0
  0
SOLID
  5
1804
330
1786
100
AcDbEntity
  8
2
 62
     0
100
AcDbTrace
 10
413.104546037232
 20
109.3991283641623
 30
0.0
 11
413.104546037232
 21
108.565795030829
 31
0.0
 12
415.604546037232
 22
108.9824616974957
 32
0.0
 13
415.604546037232
 23
108.9824616974957
 33
0.0
  0
SOLID
  5
1805
330
1786
100
AcDbEntity
  8
2
 62
     0
100
AcDbTrace
 10
420.604546037232
 20
109.3991283641623
 30
0.0
 11
420.604546037232
 21
108.565795030829
 31
0.0
 12
418.1045460372319
 22
108.9824616974957
 32
0.0
 13
418.1045460372319
 23
108.9824616974957
 33
0.0
  0
POINT
  5
1806
330
1786
100
AcDbEntity
  8
DEFPOINTS
 62
     0
100
AcDbPoint
 10
415.604546037232
 20
123.8824616974957
 30
0.0
  0
POINT
  5
1807
330
1786
100
AcDbEntity
  8
DEFPOINTS
 62
     0
100
AcDbPoint
 10
418.1045460372319
 20
144.8824616974957
 30
0.0
  0
POINT
  5
1808
330
1786
100
AcDbEntity
  8
DEFPOINTS
 62
     0
100
AcDbPoint
 10
418.1045460372319
 20
108.9824616974957
 30
0.0
  0
ENDBLK
  5
1796
330
1786
100
AcDbEntity
  8
0
100
AcDbBlockEnd
  0
BLOCK
  5
17A1
330
1797
100
AcDbEntity
  8
0
100
AcDbBlockBegin
  2
*D4
 70
     1
 10
0.0
 20
0.0
 30
0.0
  3
*D4
  1

  0
LINE
  5
1809
330
1797
100
AcDbEntity
  8
2
 62
     0
370
    -2
100
AcDbLine
 10
355.604546037232
 20
121.3824616974957
 30
0.0
 11
355.604546037232
 21
107.7324616974957
 31
0.0
  0
LINE
  5
180A
330
1797
100
AcDbEntity
  8
2
 62
     0
370
    -2
100
AcDbLine
 10
415.604546037232
 20
122.3824616974957
 30
0.0
 11
415.604546037232
 21
107.7324616974957
 31
0.0
  0
LINE
  5
180B
330
1797
100
AcDbEntity
  8
2
 62
     0
370
    -2
100
AcDbLine
 10
358.104546037232
 20
108.9824616974957
 30
0.0
 11
413.104546037232
 21
108.9824616974957
 31
0.0
  0
SOLID
  5
180C
330
1797
100
AcDbEntity
  8
2
 62
     0
100
AcDbTrace
 10
358.104546037232
 20
109.3991283641623
 30
0.0
 11
358.104546037232
 21
108.565795030829
 31
0.0
 12
355.604546037232
 22
108.9824616974957
 32
0.0
 13
355.604546037232
 23
108.9824616974957
 33
0.0
  0
SOLID
  5
180D
330
1797
100
AcDbEntity
  8
2
 62
     0
100
AcDbTrace
 10
413.104546037232
 20
109.3991283641623
 30
0.0
 11
413.104546037232
 21
108.565795030829
 31
0.0
 12
415.604546037232
 22
108.9824616974957
 32
0.0
 13
415.604546037232
 23
108.9824616974957
 33
0.0
  0
MTEXT
  5
180E
330
1797
100
AcDbEntity
  8
2
 62
     0
100
AcDbMText
 10
385.604546037232
 20
110.7324616974956
 30
0.0
 40
2.5
 41
0.0
 71
     5
 72
     1
  1
\A1;60
  7
ＭＳ明朝
 73
     1
 44
1.0
  0
POINT
  5
180F
330
1797
100
AcDbEntity
  8
DEFPOINTS
 62
     0
100
AcDbPoint
 10
355.604546037232
 20
122.8824616974957
 30
0.0
  0
POINT
  5
1810
330
1797
100
AcDbEntity
  8
DEFPOINTS
 62
     0
100
AcDbPoint
 10
415.604546037232
 20
123.8824616974957
 30
0.0
  0
POINT
  5
1811
330
1797
100
AcDbEntity
  8
DEFPOINTS
 62
     0
100
AcDbPoint
 10
415.604546037232
 20
108.9824616974957
 30
0.0
  0
ENDBLK
  5
17A2
330
1797
100
AcDbEntity
  8
0
100
AcDbBlockEnd
  0
BLOCK
  5
17A9
330
17A3
100
AcDbEntity
  8
0
100
AcDbBlockBegin
  2
*D5
 70
     1
 10
0.0
 20
0.0
 30
0.0
  3
*D5
  1

  0
LINE
  5
1B91
330
17A3
100
AcDbEntity
  8
2
 62
     0
370
    -2
100
AcDbLine
 10
332.9686116495228
 20
194.7588849813966
 30
0.0
 11
319.5372194372396
 21
182.5485284247754
 31
0.0
  0
MTEXT
  5
1B92
330
17A3
100
AcDbEntity
  8
2
 62
     0
100
AcDbMText
 10
325.7659004405279
 20
191.5679943157956
 30
0.0
 40
3.2
 41
0.0
 71
     5
 72
     1
  1
\A1;\U+22054.5穴
  7
ＭＳ明朝
 11
0.7399400733959438
 21
0.6726727939963126
 31
0.0
 73
     1
 44
1.0
  0
SOLID
  5
1B93
330
17A3
100
AcDbEntity
  8
2
 62
     0
100
AcDbTrace
 10
319.1784606137749
 20
182.9431631305866
 30
0.0
 11
319.8959782607043
 21
182.1538937189643
 31
0.0
 12
317.1694112023726
 22
180.3959754839873
 32
0.0
 13
317.1694112023726
 23
180.3959754839873
 33
0.0
  0
POINT
  5
1B94
330
17A3
100
AcDbEntity
  8
DEFPOINTS
 62
     0
100
AcDbPoint
 10
317.1694112023726
 20
180.3959754839873
 30
0.0
  0
POINT
  5
1B95
330
17A3
100
AcDbEntity
  8
DEFPOINTS
 62
     0
100
AcDbPoint
 10
313.8396808720909
 20
177.3689479110039
 30
0.0
  0
ENDBLK
  5
17AA
330
17A3
100
AcDbEntity
  8
0
100
AcDbBlockEnd
  0
BLOCK
  5
19FC
330
19F2
100
AcDbEntity
  8
0
100
AcDbBlockBegin
  2
*D6
 70
     1
 10
0.0
 20
0.0
 30
0.0
  3
*D6
  1

  0
LINE
  5
1B41
330
19F2
100
AcDbEntity
  8
2
 62
     0
370
    -2
100
AcDbLine
 10
54.004546037232
 20
3.882461697495728
 30
0.0
 11
47.25454603723199
 21
3.88246169749573
 31
0.0
  0
LINE
  5
1B42
330
19F2
100
AcDbEntity
  8
2
 62
     0
370
    -2
100
AcDbLine
 10
54.00454603723199
 20
-86.11753830250425
 30
0.0
 11
47.25454603723197
 21
-86.11753830250425
 31
0.0
  0
LINE
  5
1B43
330
19F2
100
AcDbEntity
  8
2
 62
     0
370
    -2
100
AcDbLine
 10
48.504546037232
 20
1.382461697495729
 30
0.0
 11
48.50454603723197
 21
-83.61753830250425
 31
0.0
  0
SOLID
  5
1B44
330
19F2
100
AcDbEntity
  8
2
 62
     0
100
AcDbTrace
 10
48.08787937056533
 20
1.38246169749573
 30
0.0
 11
48.92121270389866
 21
1.382461697495729
 31
0.0
 12
48.504546037232
 22
3.88246169749573
 32
0.0
 13
48.504546037232
 23
3.88246169749573
 33
0.0
  0
SOLID
  5
1B45
330
19F2
100
AcDbEntity
  8
2
 62
     0
100
AcDbTrace
 10
48.08787937056531
 20
-83.61753830250425
 30
0.0
 11
48.92121270389864
 21
-83.61753830250425
 31
0.0
 12
48.50454603723197
 22
-86.11753830250425
 32
0.0
 13
48.50454603723197
 23
-86.11753830250425
 33
0.0
  0
MTEXT
  5
1B46
330
19F2
100
AcDbEntity
  8
2
 62
     0
100
AcDbMText
 10
46.75454603723199
 20
-41.11753830250424
 30
0.0
 40
2.5
 41
0.0
 71
     5
 72
     1
  1
\A1;90
  7
ＭＳ明朝
 11
0.0000000000000001
 21
1.0
 31
0.0
 73
     1
 44
1.0
  0
POINT
  5
1B47
330
19F2
100
AcDbEntity
  8
DEFPOINTS
 62
     0
100
AcDbPoint
 10
55.50454603723199
 20
3.882461697495728
 30
0.0
  0
POINT
  5
1B48
330
19F2
100
AcDbEntity
  8
DEFPOINTS
 62
     0
100
AcDbPoint
 10
55.50454603723199
 20
-86.11753830250425
 30
0.0
  0
POINT
  5
1B49
330
19F2
100
AcDbEntity
  8
DEFPOINTS
 62
     0
100
AcDbPoint
 10
48.50454603723197
 20
-86.11753830250425
 30
0.0
  0
ENDBLK
  5
19FD
330
19F2
100
AcDbEntity
  8
0
100
AcDbBlockEnd
  0
BLOCK
  5
1A32
330
1A28
100
AcDbEntity
  8
0
100
AcDbBlockBegin
  2
*D7
 70
     1
 10
0.0
 20
0.0
 30
0.0
  3
*D7
  1

  0
LINE
  5
1B38
330
1A28
100
AcDbEntity
  8
2
 62
     0
370
    -2
100
AcDbLine
 10
55.50454603723199
 20
-99.61753830250424
 30
0.0
 11
55.50454603723199
 21
-109.3675383025042
 31
0.0
  0
LINE
  5
1B39
330
1A28
100
AcDbEntity
  8
2
 62
     0
370
    -2
100
AcDbLine
 10
66.50454603723199
 20
-99.61753830250428
 30
0.0
 11
66.50454603723199
 21
-109.3675383025042
 31
0.0
  0
LINE
  5
1B3A
330
1A28
100
AcDbEntity
  8
2
 62
     0
370
    -2
100
AcDbLine
 10
58.00454603723199
 20
-108.1175383025042
 30
0.0
 11
64.00454603723199
 21
-108.1175383025042
 31
0.0
  0
SOLID
  5
1B3B
330
1A28
100
AcDbEntity
  8
2
 62
     0
100
AcDbTrace
 10
58.00454603723199
 20
-107.7008716358376
 30
0.0
 11
58.00454603723199
 21
-108.5342049691709
 31
0.0
 12
55.50454603723199
 22
-108.1175383025042
 32
0.0
 13
55.50454603723199
 23
-108.1175383025042
 33
0.0
  0
SOLID
  5
1B3C
330
1A28
100
AcDbEntity
  8
2
 62
     0
100
AcDbTrace
 10
64.00454603723199
 20
-107.7008716358376
 30
0.0
 11
64.00454603723199
 21
-108.5342049691709
 31
0.0
 12
66.50454603723199
 22
-108.1175383025042
 32
0.0
 13
66.50454603723199
 23
-108.1175383025042
 33
0.0
  0
MTEXT
  5
1B3D
330
1A28
100
AcDbEntity
  8
2
 62
     0
100
AcDbMText
 10
61.00454603723199
 20
-106.3675383025042
 30
0.0
 40
2.5
 41
0.0
 71
     5
 72
     1
  1
\A1;11
  7
ＭＳ明朝
 73
     1
 44
1.0
  0
POINT
  5
1B3E
330
1A28
100
AcDbEntity
  8
DEFPOINTS
 62
     0
100
AcDbPoint
 10
55.50454603723199
 20
-98.11753830250424
 30
0.0
  0
POINT
  5
1B3F
330
1A28
100
AcDbEntity
  8
DEFPOINTS
 62
     0
100
AcDbPoint
 10
66.50454603723199
 20
-98.11753830250427
 30
0.0
  0
POINT
  5
1B40
330
1A28
100
AcDbEntity
  8
DEFPOINTS
 62
     0
100
AcDbPoint
 10
66.50454603723199
 20
-108.1175383025042
 30
0.0
  0
ENDBLK
  5
1A33
330
1A28
100
AcDbEntity
  8
0
100
AcDbBlockEnd
  0
BLOCK
  5
1A81
330
1A77
100
AcDbEntity
  8
0
100
AcDbBlockBegin
  2
*D8
 70
     1
 10
0.0
 20
0.0
 30
0.0
  3
*D8
  1

  0
LINE
  5
1B4A
330
1A77
100
AcDbEntity
  8
2
 62
     0
370
    -2
100
AcDbLine
 10
66.50454603723199
 20
-4.617538302504271
 30
0.0
 11
66.50454603723199
 21
-11.95544749830924
 31
0.0
  0
LINE
  5
1B4B
330
1A77
100
AcDbEntity
  8
2
 62
     0
370
    -2
100
AcDbLine
 10
73.50454603723199
 20
-4.617538302504271
 30
0.0
 11
73.50454603723199
 21
-11.95544749830924
 31
0.0
  0
LINE
  5
1B4C
330
1A77
100
AcDbEntity
  8
2
 62
     0
370
    -2
100
AcDbLine
 10
69.00454603723199
 20
-10.70544749830924
 30
0.0
 11
71.00454603723199
 21
-10.70544749830924
 31
0.0
  0
SOLID
  5
1B4D
330
1A77
100
AcDbEntity
  8
2
 62
     0
100
AcDbTrace
 10
69.00454603723199
 20
-10.28878083164257
 30
0.0
 11
69.00454603723199
 21
-11.1221141649759
 31
0.0
 12
66.50454603723199
 22
-10.70544749830924
 32
0.0
 13
66.50454603723199
 23
-10.70544749830924
 33
0.0
  0
SOLID
  5
1B4E
330
1A77
100
AcDbEntity
  8
2
 62
     0
100
AcDbTrace
 10
71.00454603723199
 20
-10.28878083164257
 30
0.0
 11
71.00454603723199
 21
-11.1221141649759
 31
0.0
 12
73.50454603723199
 22
-10.70544749830924
 32
0.0
 13
73.50454603723199
 23
-10.70544749830924
 33
0.0
  0
MTEXT
  5
1B4F
330
1A77
100
AcDbEntity
  8
2
 62
     0
100
AcDbMText
 10
70.00454603723198
 20
-8.95544749830924
 30
0.0
 40
2.5
 41
0.0
 71
     5
 72
     1
  1
\A1;7
  7
ＭＳ明朝
 73
     1
 44
1.0
  0
POINT
  5
1B50
330
1A77
100
AcDbEntity
  8
DEFPOINTS
 62
     0
100
AcDbPoint
 10
66.50454603723199
 20
-3.117538302504271
 30
0.0
  0
POINT
  5
1B51
330
1A77
100
AcDbEntity
  8
DEFPOINTS
 62
     0
100
AcDbPoint
 10
73.50454603723199
 20
-3.117538302504271
 30
0.0
  0
POINT
  5
1B52
330
1A77
100
AcDbEntity
  8
DEFPOINTS
 62
     0
100
AcDbPoint
 10
73.50454603723199
 20
-10.70544749830924
 30
0.0
  0
ENDBLK
  5
1A82
330
1A77
100
AcDbEntity
  8
0
100
AcDbBlockEnd
  0
BLOCK
  5
1A8F
330
1A85
100
AcDbEntity
  8
0
100
AcDbBlockBegin
  2
*D9
 70
     1
 10
0.0
 20
0.0
 30
0.0
  3
*D9
  1

  0
LINE
  5
1B2F
330
1A85
100
AcDbEntity
  8
2
 62
     0
370
    -2
100
AcDbLine
 10
315.5045460372319
 20
-50.1175383025043
 30
0.0
 11
315.5045460372319
 21
-109.3675383025042
 31
0.0
  0
LINE
  5
1B30
330
1A85
100
AcDbEntity
  8
2
 62
     0
370
    -2
100
AcDbLine
 10
66.50454603723199
 20
-99.61753830250428
 30
0.0
 11
66.50454603723199
 21
-109.3675383025042
 31
0.0
  0
LINE
  5
1B31
330
1A85
100
AcDbEntity
  8
2
 62
     0
370
    -2
100
AcDbLine
 10
313.0045460372319
 20
-108.1175383025042
 30
0.0
 11
69.00454603723199
 21
-108.1175383025042
 31
0.0
  0
SOLID
  5
1B32
330
1A85
100
AcDbEntity
  8
2
 62
     0
100
AcDbTrace
 10
313.0045460372319
 20
-107.7008716358376
 30
0.0
 11
313.0045460372319
 21
-108.5342049691709
 31
0.0
 12
315.5045460372319
 22
-108.1175383025042
 32
0.0
 13
315.5045460372319
 23
-108.1175383025042
 33
0.0
  0
SOLID
  5
1B33
330
1A85
100
AcDbEntity
  8
2
 62
     0
100
AcDbTrace
 10
69.00454603723199
 20
-107.7008716358376
 30
0.0
 11
69.00454603723199
 21
-108.5342049691709
 31
0.0
 12
66.50454603723199
 22
-108.1175383025042
 32
0.0
 13
66.50454603723199
 23
-108.1175383025042
 33
0.0
  0
MTEXT
  5
1B34
330
1A85
100
AcDbEntity
  8
2
 62
     0
100
AcDbMText
 10
191.0045460372319
 20
-106.3675383025042
 30
0.0
 40
2.5
 41
0.0
 71
     5
 72
     1
  1
\A1;249
  7
ＭＳ明朝
 73
     1
 44
1.0
  0
POINT
  5
1B35
330
1A85
100
AcDbEntity
  8
DEFPOINTS
 62
     0
100
AcDbPoint
 10
315.5045460372319
 20
-48.6175383025043
 30
0.0
  0
POINT
  5
1B36
330
1A85
100
AcDbEntity
  8
DEFPOINTS
 62
     0
100
AcDbPoint
 10
66.50454603723199
 20
-98.11753830250427
 30
0.0
  0
POINT
  5
1B37
330
1A85
100
AcDbEntity
  8
DEFPOINTS
 62
     0
100
AcDbPoint
 10
66.50454603723199
 20
-108.1175383025042
 30
0.0
  0
ENDBLK
  5
1A90
330
1A85
100
AcDbEntity
  8
0
100
AcDbBlockEnd
  0
BLOCK
  5
1B61
330
1B5B
100
AcDbEntity
  8
0
100
AcDbBlockBegin
  2
*D10
 70
     1
 10
0.0
 20
0.0
 30
0.0
  3
*D10
  1

  0
LINE
  5
1B5C
330
1B5B
100
AcDbEntity
  8
2
 62
     0
370
    -2
100
AcDbLine
 10
86.68372258503945
 20
-6.428394230416706
 30
0.0
 11
79.17526742035234
 21
-0.554081889016409
 31
0.0
  0
MTEXT
  5
1B5D
330
1B5B
100
AcDbEntity
  8
2
 62
     0
100
AcDbMText
 10
85.48364718945533
 20
-2.823176231086925
 30
0.0
 40
3.2
 41
0.0
 71
     5
 72
     1
  1
\A1;R4
 11
0.7876001921000466
 21
-0.6161866092377939
 31
0.0
 73
     1
 44
1.0
  0
SOLID
  5
1B5E
330
1B5B
100
AcDbEntity
  8
2
 62
     0
100
AcDbTrace
 10
79.50390027861249
 20
-0.1340284532297247
 30
0.0
 11
78.84663456209219
 21
-0.9741353248031003
 31
0.0
 12
76.65494680563219
 22
1.41771526054454
 32
0.0
 13
76.65494680563219
 23
1.41771526054454
 33
0.0
  0
POINT
  5
1B5F
330
1B5B
100
AcDbEntity
  8
DEFPOINTS
 62
     0
100
AcDbPoint
 10
76.65494680563219
 20
1.41771526054454
 30
0.0
  0
POINT
  5
1B60
330
1B5B
100
AcDbEntity
  8
DEFPOINTS
 62
     0
100
AcDbPoint
 10
73.50454603723196
 20
3.882461697495735
 30
0.0
  0
ENDBLK
  5
1B62
330
1B5B
100
AcDbEntity
  8
0
100
AcDbBlockEnd
  0
BLOCK
  5
1B6A
330
1B64
100
AcDbEntity
  8
0
100
AcDbBlockBegin
  2
*D11
 70
     1
 10
0.0
 20
0.0
 30
0.0
  3
*D11
  1

  0
LINE
  5
1B65
330
1B64
100
AcDbEntity
  8
2
 62
     0
370
    -2
100
AcDbLine
 10
40.16700293635818
 20
16.08629252544712
 30
0.0
 11
61.55960496081405
 21
6.173762147186824
 31
0.0
  0
MTEXT
  5
1B66
330
1B64
100
AcDbEntity
  8
2
 62
     0
100
AcDbMText
 10
47.3104569495022
 20
15.09077016904504
 30
0.0
 40
3.2
 41
0.0
 71
     5
 72
     1
  1
\A1;R2.25
 11
0.9073286378748454
 21
-0.420422100860763
 31
0.0
 73
     1
 44
1.0
  0
SOLID
  5
1B67
330
1B64
100
AcDbEntity
  8
2
 62
     0
100
AcDbTrace
 10
61.78383008127313
 20
6.657670754053409
 30
0.0
 11
61.33537984035498
 21
5.689853540320239
 31
0.0
 12
64.46305660201357
 22
4.828411424432381
 32
0.0
 13
64.46305660201357
 23
4.828411424432381
 33
0.0
  0
POINT
  5
1B68
330
1B64
100
AcDbEntity
  8
DEFPOINTS
 62
     0
100
AcDbPoint
 10
64.46305660201357
 20
4.828411424432381
 30
0.0
  0
POINT
  5
1B69
330
1B64
100
AcDbEntity
  8
DEFPOINTS
 62
     0
100
AcDbPoint
 10
66.50454603723187
 20
3.882461697495706
 30
0.0
  0
ENDBLK
  5
1B6B
330
1B64
100
AcDbEntity
  8
0
100
AcDbBlockEnd
  0
BLOCK
  5
1B74
330
1B6E
100
AcDbEntity
  8
0
100
AcDbBlockBegin
  2
*D12
 70
     1
 10
0.0
 20
0.0
 30
0.0
  3
*D12
  1

  0
LINE
  5
1B8C
330
1B6E
100
AcDbEntity
  8
2
 62
     0
370
    -2
100
AcDbLine
 10
330.2142936327744
 20
-24.87058155814105
 30
0.0
 11
319.1624072263896
 21
-37.07742054173866
 31
0.0
  0
MTEXT
  5
1B8D
330
1B6E
100
AcDbEntity
  8
2
 62
     0
100
AcDbMText
 10
324.2054753112415
 20
-28.37846033169097
 30
0.0
 40
3.2
 41
0.0
 71
     5
 72
     1
  1
\A1;\U+22054.5孔
 11
0.6711671906711408
 21
0.7413060111496525
 31
0.0
 73
     1
 44
1.0
  0
SOLID
  5
1B8E
330
1B6E
100
AcDbEntity
  8
2
 62
     0
100
AcDbTrace
 10
318.7670440204431
 20
-36.71946470671403
 30
0.0
 11
319.5577704323361
 21
-37.43537637676328
 31
0.0
 12
317.0146722162419
 22
-39.44959977741754
 32
0.0
 13
317.0146722162419
 23
-39.44959977741754
 33
0.0
  0
POINT
  5
1B8F
330
1B6E
100
AcDbEntity
  8
DEFPOINTS
 62
     0
100
AcDbPoint
 10
317.0146722162419
 20
-39.44959977741754
 30
0.0
  0
POINT
  5
1B90
330
1B6E
100
AcDbEntity
  8
DEFPOINTS
 62
     0
100
AcDbPoint
 10
313.9944198582218
 20
-42.78547682759103
 30
0.0
  0
ENDBLK
  5
1B75
330
1B6E
100
AcDbEntity
  8
0
100
AcDbBlockEnd
  0
BLOCK
  5
1B9D
330
1B97
100
AcDbEntity
  8
0
100
AcDbBlockBegin
  2
*D13
 70
     1
 10
0.0
 20
0.0
 30
0.0
  3
*D13
  1

  0
LINE
  5
1B9F
330
1B97
100
AcDbEntity
  8
2
 62
     0
370
    -2
100
AcDbLine
 10
332.9686116495227
 20
-25.24111501860341
 30
0.0
 11
319.5372194372395
 21
-37.4514715752245
 31
0.0
  0
MTEXT
  5
1BA0
330
1B97
100
AcDbEntity
  8
2
 62
     0
100
AcDbMText
 10
325.7659004405278
 20
-28.43200568420434
 30
0.0
 40
3.2
 41
0.0
 71
     5
 72
     1
  1
\A1;\U+22054.5穴
  7
ＭＳ明朝
 11
0.7399400733959438
 21
0.6726727939963126
 31
0.0
 73
     1
 44
1.0
  0
SOLID
  5
1BA1
330
1B97
100
AcDbEntity
  8
2
 62
     0
100
AcDbTrace
 10
319.1784606137748
 20
-37.05683686941333
 30
0.0
 11
319.8959782607043
 21
-37.84610628103567
 31
0.0
 12
317.1694112023725
 22
-39.60402451601268
 32
0.0
 13
317.1694112023725
 23
-39.60402451601268
 33
0.0
  0
POINT
  5
1BA2
330
1B97
100
AcDbEntity
  8
DEFPOINTS
 62
     0
100
AcDbPoint
 10
317.1694112023725
 20
-39.60402451601268
 30
0.0
  0
POINT
  5
1BA3
330
1B97
100
AcDbEntity
  8
DEFPOINTS
 62
     0
100
AcDbPoint
 10
313.8396808720908
 20
-42.63105208899605
 30
0.0
  0
ENDBLK
  5
1B9E
330
1B97
100
AcDbEntity
  8
0
100
AcDbBlockEnd
  0
ENDSEC
  0
SECTION
  2
ENTITIES
  0
LEADER
  5
1214
330
18
100
AcDbEntity
  8
2
100
AcDbLeader
  3
STANDARD
 40
4.297142857142858
 41
27.008
 76
     2
 10
389.5735781446469
 20
72.82483036526983
 30
0.0
 10
377.8705384944304
 20
80.82088792186766
 30
0.0
213
-2.799999999999997
223
-0.5000000000000085
233
0.0
1001
ACAD
1000
DSTYLE
1002
{
1070
    40
1040
1.0
1070
    77
1070
     3
1002
}
  0
LEADER
  5
1216
330
18
100
AcDbEntity
  8
2
100
AcDbLeader
  3
STANDARD
 76
     2
 10
389.104546037232
 20
68.58246169749574
 30
0.0
 10
377.8705384944304
 20
80.82088792186766
 30
0.0
1001
ACAD
1000
DSTYLE
1002
{
1070
    40
1040
1.0
1070
    77
1070
     0
1002
}
  0
LEADER
  5
1217
330
18
100
AcDbEntity
  8
2
100
AcDbLeader
  3
STANDARD
 40
4.169142857142857
 41
32.40228571428572
 76
     2
 10
401.6523826375535
 20
78.13188863549775
 30
0.0
 10
387.7045460372319
 20
89.1824616974957
 30
0.0
213
-0.7999999999999972
223
-0.4999999999999943
233
0.0
1001
ACAD
1000
DSTYLE
1002
{
1070
    40
1040
1.0
1070
    77
1070
     3
1002
}
  0
LINE
  5
1219
330
18
100
AcDbEntity
  8
1
100
AcDbLine
 10
305.504546037232
 20
79.08246169749574
 30
0.0
 11
308.5045460372319
 21
78.08246169749574
 31
0.0
  0
LINE
  5
121A
330
18
100
AcDbEntity
  8
1
100
AcDbLine
 10
300.5045460372319
 20
79.08246169749574
 30
0.0
 11
300.5045460372319
 21
57.08246169749575
 31
0.0
  0
LINE
  5
121B
330
18
100
AcDbEntity
  8
1
100
AcDbLine
 10
305.504546037232
 20
79.08246169749574
 30
0.0
 11
305.504546037232
 21
57.08246169749575
 31
0.0
  0
LINE
  5
121C
330
18
100
AcDbEntity
  8
1
100
AcDbLine
 10
300.5045460372319
 20
103.0824616974957
 30
0.0
 11
300.5045460372319
 21
48.08246169749574
 31
0.0
  0
LINE
  5
121D
330
18
100
AcDbEntity
  8
1
100
AcDbLine
 10
124.004546037232
 20
81.58246169749572
 30
0.0
 11
124.004546037232
 21
69.58246169749571
 31
0.0
  0
LINE
  5
121E
330
18
100
AcDbEntity
  8
1
100
AcDbLine
 10
120.004546037232
 20
69.58246169749571
 30
0.0
 11
120.004546037232
 21
81.58246169749572
 31
0.0
  0
LINE
  5
121F
330
18
100
AcDbEntity
  8
1
100
AcDbLine
 10
114.0045460372321
 20
81.58246169749572
 30
0.0
 11
114.0045460372321
 21
69.58246169749571
 31
0.0
  0
LINE
  5
1220
330
18
100
AcDbEntity
  8
1
100
AcDbLine
 10
110.0045460372321
 20
69.58246169749571
 30
0.0
 11
110.0045460372321
 21
81.58246169749572
 31
0.0
  0
LINE
  5
1221
330
18
100
AcDbEntity
  8
1
100
AcDbLine
 10
104.0045460372321
 20
81.58246169749572
 30
0.0
 11
104.0045460372321
 21
69.58246169749571
 31
0.0
  0
LINE
  5
1222
330
18
100
AcDbEntity
  8
1
100
AcDbLine
 10
100.0045460372321
 20
69.58246169749571
 30
0.0
 11
100.0045460372321
 21
81.58246169749572
 31
0.0
  0
LINE
  5
1223
330
18
100
AcDbEntity
  8
1
100
AcDbLine
 10
94.00454603723209
 20
81.58246169749572
 30
0.0
 11
94.00454603723209
 21
69.58246169749571
 31
0.0
  0
LINE
  5
1224
330
18
100
AcDbEntity
  8
1
100
AcDbLine
 10
90.00454603723211
 20
69.58246169749571
 30
0.0
 11
90.00454603723211
 21
81.58246169749572
 31
0.0
  0
LINE
  5
1225
330
18
100
AcDbEntity
  8
1
100
AcDbLine
 10
84.00454603723209
 20
81.58246169749572
 30
0.0
 11
84.00454603723209
 21
69.58246169749571
 31
0.0
  0
LINE
  5
1226
330
18
100
AcDbEntity
  8
1
100
AcDbLine
 10
80.00454603723211
 20
69.58246169749571
 30
0.0
 11
80.00454603723211
 21
81.58246169749572
 31
0.0
  0
LINE
  5
1227
330
18
100
AcDbEntity
  8
1
100
AcDbLine
 10
55.50454603723199
 20
103.0824616974957
 30
0.0
 11
55.50454603723199
 21
48.08246169749574
 31
0.0
  0
LINE
  5
1228
330
18
100
AcDbEntity
  8
1
100
AcDbLine
 10
185.5045460372321
 20
103.0824616974957
 30
0.0
 11
185.5045460372321
 21
43.08246169749574
 31
0.0
  0
LINE
  5
1229
330
18
100
AcDbEntity
  8
1
100
AcDbLine
 10
140.0045460372321
 20
69.58246169749571
 30
0.0
 11
140.0045460372321
 21
81.58246169749572
 31
0.0
  0
LINE
  5
122A
330
18
100
AcDbEntity
  8
1
100
AcDbLine
 10
144.004546037232
 20
81.58246169749572
 30
0.0
 11
144.004546037232
 21
69.58246169749571
 31
0.0
  0
LINE
  5
122B
330
18
100
AcDbEntity
  8
1
100
AcDbLine
 10
134.0045460372321
 20
81.58246169749572
 30
0.0
 11
134.0045460372321
 21
69.58246169749571
 31
0.0
  0
LINE
  5
122C
330
18
100
AcDbEntity
  8
1
100
AcDbLine
 10
130.0045460372321
 20
69.58246169749571
 30
0.0
 11
130.0045460372321
 21
81.58246169749572
 31
0.0
  0
LINE
  5
122D
330
18
100
AcDbEntity
  8
1
100
AcDbLine
 10
60.50454603723199
 20
43.08246169749574
 30
0.0
 11
295.5045460372319
 21
43.08246169749574
 31
0.0
  0
LINE
  5
122E
330
18
100
AcDbEntity
  8
1
100
AcDbLine
 10
61.50454603723199
 20
42.08246169749574
 30
0.0
 11
294.5045460372319
 21
42.08246169749574
 31
0.0
  0
ARC
  5
1233
330
18
100
AcDbEntity
  8
1
100
AcDbCircle
 10
147.004546037232
 20
68.08246169749572
 30
0.0
 40
2.0
100
AcDbArc
 50
90.0
 51
180.0
  0
ARC
  5
1234
330
18
100
AcDbEntity
  8
1
100
AcDbCircle
 10
147.004546037232
 20
56.08246169749573
 30
0.0
 40
2.0
100
AcDbArc
 50
180.0
 51
270.0
  0
ARC
  5
1235
330
18
100
AcDbEntity
  8
1
100
AcDbCircle
 10
92.0045460372321
 20
69.58246169749571
 30
0.0
 40
2.0
100
AcDbArc
 50
270.0
 51
0.0
  0
LINE
  5
1236
330
18
100
AcDbEntity
  8
1
100
AcDbLine
 10
60.68132273252865
 20
54.96634517397893
 30
0.0
 11
61.38842951371521
 21
55.67345195516549
 31
0.0
  0
LINE
  5
1237
330
18
100
AcDbEntity
  8
1
100
AcDbLine
 10
62.09553629490176
 20
54.96634517397897
 30
0.0
 11
61.38842951371521
 21
55.67345195516551
 31
0.0
  0
LINE
  5
1238
330
18
100
AcDbEntity
  8
1
100
AcDbLine
 10
58.91355577956222
 20
54.96634517397893
 30
0.0
 11
59.62066256074876
 21
55.67345195516549
 31
0.0
  0
CIRCLE
  5
1239
330
18
100
AcDbEntity
  8
1
100
AcDbCircle
 10
60.50454603723199
 20
54.08246169749574
 30
0.0
 40
3.0
  0
LINE
  5
123A
330
18
100
AcDbEntity
  8
1
100
AcDbLine
 10
60.32776934193532
 20
54.96634517397893
 30
0.0
 11
59.62066256074876
 21
55.67345195516549
 31
0.0
  0
ARC
  5
123B
330
18
100
AcDbEntity
  8
1
100
AcDbCircle
 10
87.0045460372321
 20
56.08246169749573
 30
0.0
 40
2.0
100
AcDbArc
 50
180.0
 51
270.0
  0
ARC
  5
123C
330
18
100
AcDbEntity
  8
1
100
AcDbCircle
 10
77.0045460372321
 20
56.08246169749573
 30
0.0
 40
2.0
100
AcDbArc
 50
270.0
 51
0.0
  0
ARC
  5
123D
330
18
100
AcDbEntity
  8
1
100
AcDbCircle
 10
87.0045460372321
 20
56.08246169749573
 30
0.0
 40
2.0
100
AcDbArc
 50
270.0
 51
0.0
  0
ARC
  5
123E
330
18
100
AcDbEntity
  8
1
100
AcDbCircle
 10
77.0045460372321
 20
56.08246169749573
 30
0.0
 40
2.0
100
AcDbArc
 50
180.0
 51
270.0
  0
ARC
  5
123F
330
18
100
AcDbEntity
  8
1
100
AcDbCircle
 10
60.50454603723199
 20
48.08246169749574
 30
0.0
 40
5.0
100
AcDbArc
 50
180.0
 51
270.0
  0
ARC
  5
1240
330
18
100
AcDbEntity
  8
1
100
AcDbCircle
 10
61.50454603723199
 20
43.08246169749574
 30
0.0
 40
1.0
100
AcDbArc
 50
180.0
 51
270.0
  0
LINE
  5
1241
330
18
100
AcDbEntity
  8
1
100
AcDbLine
 10
60.50454603723199
 20
43.08246169749574
 30
0.0
 11
60.50454603723199
 21
43.08246169749574
 31
0.0
  0
LINE
  5
1242
330
18
100
AcDbEntity
  8
1
100
AcDbLine
 10
62.09553629490165
 20
53.19857822101255
 30
0.0
 11
61.38842951371521
 21
53.9056850021991
 31
0.0
  0
LINE
  5
1243
330
18
100
AcDbEntity
  8
1
100
AcDbLine
 10
61.38842951371521
 20
54.25923839279237
 30
0.0
 11
62.09553629490176
 21
54.96634517397895
 31
0.0
  0
LINE
  5
1244
330
18
100
AcDbEntity
  8
1
100
AcDbLine
 10
61.38842951371521
 20
52.49147143982603
 30
0.0
 11
62.09553629490165
 21
53.19857822101255
 31
0.0
  0
ARC
  5
1245
330
18
100
AcDbEntity
  8
1
100
AcDbCircle
 10
60.50454603723199
 20
53.0218015257159
 30
0.0
 40
0.25
100
AcDbArc
 50
44.99999999999964
 51
135.0000000000003
  0
ARC
  5
1246
330
18
100
AcDbEntity
  8
1
100
AcDbCircle
 10
61.56520620901176
 20
54.08246169749571
 30
0.0
 40
0.25
100
AcDbArc
 50
135.0000000000003
 51
224.9999999999996
  0
ARC
  5
1247
330
18
100
AcDbEntity
  8
1
100
AcDbCircle
 10
60.50454603723199
 20
55.14312186927558
 30
0.0
 40
0.25
100
AcDbArc
 50
224.9999999999996
 51
315.0000000000004
  0
LINE
  5
1248
330
18
100
AcDbEntity
  8
1
100
AcDbLine
 10
61.38842951371521
 20
52.49147143982606
 30
0.0
 11
60.68132273252865
 21
53.19857822101255
 31
0.0
  0
LINE
  5
1249
330
18
100
AcDbEntity
  8
1
100
AcDbLine
 10
59.62066256074876
 20
54.25923839279232
 30
0.0
 11
58.91355577956222
 21
54.96634517397893
 31
0.0
  0
LINE
  5
124A
330
18
100
AcDbEntity
  8
1
100
AcDbLine
 10
58.91355577956222
 20
53.19857822101255
 30
0.0
 11
59.62066256074876
 21
53.90568500219905
 31
0.0
  0
ARC
  5
124B
330
18
100
AcDbEntity
  8
1
100
AcDbCircle
 10
59.4438858654521
 20
54.08246169749567
 30
0.0
 40
0.25
100
AcDbArc
 50
315.0000000000004
 51
44.99999999999892
  0
LINE
  5
124C
330
18
100
AcDbEntity
  8
1
100
AcDbLine
 10
59.62066256074876
 20
52.49147143982603
 30
0.0
 11
58.91355577956222
 21
53.19857822101255
 31
0.0
  0
LINE
  5
124D
330
18
100
AcDbEntity
  8
1
100
AcDbLine
 10
59.62066256074876
 20
52.49147143982603
 30
0.0
 11
60.32776934193532
 21
53.19857822101255
 31
0.0
  0
ARC
  5
124E
330
18
100
AcDbEntity
  8
1
100
AcDbCircle
 10
81.50454603723209
 20
41.58246169749573
 30
0.0
 40
2.0
100
AcDbArc
 50
180.0
 51
270.0
  0
LINE
  5
124F
330
18
100
AcDbEntity
  8
1
100
AcDbLine
 10
79.5045460372321
 20
42.08246169749573
 30
0.0
 11
91.50454603723209
 21
42.08246169749573
 31
0.0
  0
LINE
  5
1250
330
18
100
AcDbEntity
  8
1
100
AcDbLine
 10
75.5045460372321
 20
42.08246169749568
 30
0.0
 11
81.50454603723209
 21
42.08246169749568
 31
0.0
  0
LINE
  5
1251
330
18
100
AcDbEntity
  8
1
100
AcDbLine
 10
79.5045460372321
 20
42.08246169749573
 30
0.0
 11
79.5045460372321
 21
41.58246169749573
 31
0.0
  0
LINE
  5
1252
330
18
100
AcDbEntity
  8
1
100
AcDbLine
 10
75.5045460372321
 20
41.08246169749569
 30
0.0
 11
75.5045460372321
 21
42.08246169749568
 31
0.0
  0
LINE
  5
1253
330
18
100
AcDbEntity
  8
1
100
AcDbLine
 10
76.5045460372321
 20
40.08246169749568
 30
0.0
 11
80.18167038169986
 21
40.08246169749568
 31
0.0
  0
ARC
  5
1254
330
18
100
AcDbEntity
  8
1
100
AcDbCircle
 10
76.5045460372321
 20
41.08246169749569
 30
0.0
 40
1.0
100
AcDbArc
 50
180.0
 51
270.0
  0
LINE
  5
1255
330
18
100
AcDbEntity
  8
1
100
AcDbLine
 10
81.50454603723209
 20
39.58246169749573
 30
0.0
 11
89.5045460372321
 21
39.58246169749573
 31
0.0
  0
LINE
  5
1256
330
18
100
AcDbEntity
  8
1
100
AcDbLine
 10
91.50454603723209
 20
42.08246169749573
 30
0.0
 11
91.50454603723209
 21
41.58246169749573
 31
0.0
  0
ARC
  5
1257
330
18
100
AcDbEntity
  8
1
100
AcDbCircle
 10
89.5045460372321
 20
41.58246169749573
 30
0.0
 40
2.0
100
AcDbArc
 50
270.0
 51
0.0
  0
LINE
  5
1258
330
18
100
AcDbEntity
  8
1
100
AcDbLine
 10
77.0045460372321
 20
54.08246169749573
 30
0.0
 11
77.0045460372321
 21
54.08246169749573
 31
0.0
  0
LINE
  5
1259
330
18
100
AcDbEntity
  8
1
100
AcDbLine
 10
87.0045460372321
 20
54.08246169749573
 30
0.0
 11
87.0045460372321
 21
54.08246169749573
 31
0.0
  0
LINE
  5
125A
330
18
100
AcDbEntity
  8
1
100
AcDbLine
 10
89.00454603723209
 20
68.08246169749572
 30
0.0
 11
89.00454603723209
 21
56.08246169749573
 31
0.0
  0
LINE
  5
125B
330
18
100
AcDbEntity
  8
1
100
AcDbLine
 10
85.00454603723211
 20
56.08246169749573
 30
0.0
 11
85.00454603723211
 21
68.08246169749572
 31
0.0
  0
LINE
  5
125C
330
18
100
AcDbEntity
  8
1
100
AcDbLine
 10
79.0045460372321
 20
68.08246169749572
 30
0.0
 11
79.0045460372321
 21
56.08246169749573
 31
0.0
  0
LINE
  5
125D
330
18
100
AcDbEntity
  8
1
100
AcDbLine
 10
75.0045460372321
 20
56.08246169749573
 30
0.0
 11
75.0045460372321
 21
68.08246169749572
 31
0.0
  0
ARC
  5
125E
330
18
100
AcDbEntity
  8
1
100
AcDbCircle
 10
82.0045460372321
 20
69.58246169749571
 30
0.0
 40
2.0
100
AcDbArc
 50
180.0
 51
270.0
  0
LINE
  5
125F
330
18
100
AcDbEntity
  8
1
100
AcDbLine
 10
77.0045460372321
 20
70.08246169749572
 30
0.0
 11
77.0045460372321
 21
70.08246169749572
 31
0.0
  0
ARC
  5
1260
330
18
100
AcDbEntity
  8
1
100
AcDbCircle
 10
77.0045460372321
 20
68.08246169749572
 30
0.0
 40
2.0
100
AcDbArc
 50
0.0
 51
90.0
  0
ARC
  5
1261
330
18
100
AcDbEntity
  8
1
100
AcDbCircle
 10
77.0045460372321
 20
68.08246169749572
 30
0.0
 40
2.0
100
AcDbArc
 50
90.0
 51
180.0
  0
ARC
  5
1262
330
18
100
AcDbEntity
  8
1
100
AcDbCircle
 10
87.0045460372321
 20
68.08246169749572
 30
0.0
 40
2.0
100
AcDbArc
 50
0.0
 51
90.0
  0
LINE
  5
1263
330
18
100
AcDbEntity
  8
1
100
AcDbLine
 10
87.0045460372321
 20
70.08246169749572
 30
0.0
 11
87.0045460372321
 21
70.08246169749572
 31
0.0
  0
LINE
  5
1264
330
18
100
AcDbEntity
  8
1
100
AcDbLine
 10
82.0045460372321
 20
67.58246169749572
 30
0.0
 11
82.0045460372321
 21
67.58246169749572
 31
0.0
  0
ARC
  5
1265
330
18
100
AcDbEntity
  8
1
100
AcDbCircle
 10
82.0045460372321
 20
69.58246169749571
 30
0.0
 40
2.0
100
AcDbArc
 50
270.0
 51
0.0
  0
ARC
  5
1266
330
18
100
AcDbEntity
  8
1
100
AcDbCircle
 10
87.0045460372321
 20
68.08246169749572
 30
0.0
 40
2.0
100
AcDbArc
 50
90.0
 51
180.0
  0
LINE
  5
1267
330
18
100
AcDbEntity
  8
1
100
AcDbLine
 10
92.0045460372321
 20
67.58246169749572
 30
0.0
 11
92.0045460372321
 21
67.58246169749572
 31
0.0
  0
ARC
  5
1268
330
18
100
AcDbEntity
  8
1
100
AcDbCircle
 10
92.0045460372321
 20
69.58246169749571
 30
0.0
 40
2.0
100
AcDbArc
 50
180.0
 51
270.0
  0
ARC
  5
1269
330
18
100
AcDbEntity
  8
1
100
AcDbCircle
 10
117.0045460372321
 20
56.08246169749573
 30
0.0
 40
2.0
100
AcDbArc
 50
180.0
 51
270.0
  0
ARC
  5
126A
330
18
100
AcDbEntity
  8
1
100
AcDbCircle
 10
117.0045460372321
 20
56.08246169749573
 30
0.0
 40
2.0
100
AcDbArc
 50
270.0
 51
0.0
  0
ARC
  5
126B
330
18
100
AcDbEntity
  8
1
100
AcDbCircle
 10
107.0045460372321
 20
56.08246169749573
 30
0.0
 40
2.0
100
AcDbArc
 50
180.0
 51
270.0
  0
ARC
  5
126C
330
18
100
AcDbEntity
  8
1
100
AcDbCircle
 10
107.0045460372321
 20
56.08246169749573
 30
0.0
 40
2.0
100
AcDbArc
 50
270.0
 51
0.0
  0
ARC
  5
126D
330
18
100
AcDbEntity
  8
1
100
AcDbCircle
 10
97.0045460372321
 20
56.08246169749573
 30
0.0
 40
2.0
100
AcDbArc
 50
180.0
 51
270.0
  0
ARC
  5
126E
330
18
100
AcDbEntity
  8
1
100
AcDbCircle
 10
97.0045460372321
 20
56.08246169749573
 30
0.0
 40
2.0
100
AcDbArc
 50
270.0
 51
0.0
  0
ARC
  5
126F
330
18
100
AcDbEntity
  8
1
100
AcDbCircle
 10
127.0045460372321
 20
56.08246169749573
 30
0.0
 40
2.0
100
AcDbArc
 50
180.0
 51
270.0
  0
ARC
  5
1270
330
18
100
AcDbEntity
  8
1
100
AcDbCircle
 10
137.0045460372321
 20
56.08246169749573
 30
0.0
 40
2.0
100
AcDbArc
 50
180.0
 51
270.0
  0
ARC
  5
1271
330
18
100
AcDbEntity
  8
1
100
AcDbCircle
 10
127.0045460372321
 20
56.08246169749573
 30
0.0
 40
2.0
100
AcDbArc
 50
270.0
 51
0.0
  0
ARC
  5
1272
330
18
100
AcDbEntity
  8
1
100
AcDbCircle
 10
137.0045460372321
 20
56.08246169749573
 30
0.0
 40
2.0
100
AcDbArc
 50
270.0
 51
0.0
  0
LINE
  5
1273
330
18
100
AcDbEntity
  8
1
100
AcDbLine
 10
97.0045460372321
 20
54.08246169749573
 30
0.0
 11
97.0045460372321
 21
54.08246169749573
 31
0.0
  0
LINE
  5
1274
330
18
100
AcDbEntity
  8
1
100
AcDbLine
 10
107.0045460372321
 20
54.08246169749573
 30
0.0
 11
107.0045460372321
 21
54.08246169749573
 31
0.0
  0
LINE
  5
1275
330
18
100
AcDbEntity
  8
1
100
AcDbLine
 10
117.0045460372321
 20
54.08246169749573
 30
0.0
 11
117.0045460372321
 21
54.08246169749573
 31
0.0
  0
LINE
  5
1276
330
18
100
AcDbEntity
  8
1
100
AcDbLine
 10
127.0045460372321
 20
54.08246169749573
 30
0.0
 11
127.0045460372321
 21
54.08246169749573
 31
0.0
  0
LINE
  5
1277
330
18
100
AcDbEntity
  8
1
100
AcDbLine
 10
137.0045460372321
 20
54.08246169749573
 30
0.0
 11
137.0045460372321
 21
54.08246169749573
 31
0.0
  0
ARC
  5
1278
330
18
100
AcDbEntity
  8
1
100
AcDbCircle
 10
117.0045460372321
 20
68.08246169749572
 30
0.0
 40
2.0
100
AcDbArc
 50
0.0
 51
90.0
  0
LINE
  5
1279
330
18
100
AcDbEntity
  8
1
100
AcDbLine
 10
119.004546037232
 20
68.08246169749572
 30
0.0
 11
119.004546037232
 21
56.08246169749573
 31
0.0
  0
LINE
  5
127A
330
18
100
AcDbEntity
  8
1
100
AcDbLine
 10
115.0045460372321
 20
56.08246169749573
 30
0.0
 11
115.0045460372321
 21
68.08246169749572
 31
0.0
  0
LINE
  5
127B
330
18
100
AcDbEntity
  8
1
100
AcDbLine
 10
109.0045460372321
 20
68.08246169749572
 30
0.0
 11
109.0045460372321
 21
56.08246169749573
 31
0.0
  0
LINE
  5
127C
330
18
100
AcDbEntity
  8
1
100
AcDbLine
 10
105.0045460372321
 20
56.08246169749573
 30
0.0
 11
105.0045460372321
 21
68.08246169749572
 31
0.0
  0
LINE
  5
127D
330
18
100
AcDbEntity
  8
1
100
AcDbLine
 10
99.00454603723211
 20
68.08246169749572
 30
0.0
 11
99.00454603723211
 21
56.08246169749573
 31
0.0
  0
LINE
  5
127E
330
18
100
AcDbEntity
  8
1
100
AcDbLine
 10
95.00454603723211
 20
56.08246169749573
 30
0.0
 11
95.00454603723211
 21
68.08246169749572
 31
0.0
  0
ARC
  5
127F
330
18
100
AcDbEntity
  8
1
100
AcDbCircle
 10
107.0045460372321
 20
68.08246169749572
 30
0.0
 40
2.0
100
AcDbArc
 50
90.0
 51
180.0
  0
ARC
  5
1280
330
18
100
AcDbEntity
  8
1
100
AcDbCircle
 10
102.0045460372321
 20
69.58246169749571
 30
0.0
 40
2.0
100
AcDbArc
 50
180.0
 51
270.0
  0
LINE
  5
1281
330
18
100
AcDbEntity
  8
1
100
AcDbLine
 10
97.0045460372321
 20
70.08246169749572
 30
0.0
 11
97.0045460372321
 21
70.08246169749572
 31
0.0
  0
ARC
  5
1282
330
18
100
AcDbEntity
  8
1
100
AcDbCircle
 10
97.0045460372321
 20
68.08246169749572
 30
0.0
 40
2.0
100
AcDbArc
 50
90.0
 51
180.0
  0
ARC
  5
1283
330
18
100
AcDbEntity
  8
1
100
AcDbCircle
 10
97.0045460372321
 20
68.08246169749572
 30
0.0
 40
2.0
100
AcDbArc
 50
0.0
 51
90.0
  0
LINE
  5
1284
330
18
100
AcDbEntity
  8
1
100
AcDbLine
 10
102.0045460372321
 20
67.58246169749572
 30
0.0
 11
102.0045460372321
 21
67.58246169749572
 31
0.0
  0
ARC
  5
1285
330
18
100
AcDbEntity
  8
1
100
AcDbCircle
 10
102.0045460372321
 20
69.58246169749571
 30
0.0
 40
2.0
100
AcDbArc
 50
270.0
 51
0.0
  0
ARC
  5
1286
330
18
100
AcDbEntity
  8
1
100
AcDbCircle
 10
112.0045460372321
 20
69.58246169749571
 30
0.0
 40
2.0
100
AcDbArc
 50
270.0
 51
0.0
  0
LINE
  5
1287
330
18
100
AcDbEntity
  8
1
100
AcDbLine
 10
107.0045460372321
 20
70.08246169749572
 30
0.0
 11
107.0045460372321
 21
70.08246169749572
 31
0.0
  0
LINE
  5
1288
330
18
100
AcDbEntity
  8
1
100
AcDbLine
 10
112.0045460372321
 20
67.58246169749572
 30
0.0
 11
112.0045460372321
 21
67.58246169749572
 31
0.0
  0
ARC
  5
1289
330
18
100
AcDbEntity
  8
1
100
AcDbCircle
 10
112.0045460372321
 20
69.58246169749571
 30
0.0
 40
2.0
100
AcDbArc
 50
180.0
 51
270.0
  0
ARC
  5
128A
330
18
100
AcDbEntity
  8
1
100
AcDbCircle
 10
107.0045460372321
 20
68.08246169749572
 30
0.0
 40
2.0
100
AcDbArc
 50
0.0
 51
90.0
  0
LINE
  5
128B
330
18
100
AcDbEntity
  8
1
100
AcDbLine
 10
117.0045460372321
 20
70.08246169749572
 30
0.0
 11
117.0045460372321
 21
70.08246169749572
 31
0.0
  0
ARC
  5
128C
330
18
100
AcDbEntity
  8
1
100
AcDbCircle
 10
117.0045460372321
 20
68.08246169749572
 30
0.0
 40
2.0
100
AcDbArc
 50
90.0
 51
180.0
  0
LINE
  5
128D
330
18
100
AcDbEntity
  8
1
100
AcDbLine
 10
125.0045460372321
 20
56.08246169749573
 30
0.0
 11
125.0045460372321
 21
68.08246169749572
 31
0.0
  0
LINE
  5
128E
330
18
100
AcDbEntity
  8
1
100
AcDbLine
 10
139.0045460372321
 20
68.08246169749572
 30
0.0
 11
139.0045460372321
 21
56.08246169749573
 31
0.0
  0
LINE
  5
128F
330
18
100
AcDbEntity
  8
1
100
AcDbLine
 10
135.0045460372321
 20
56.08246169749573
 30
0.0
 11
135.0045460372321
 21
68.08246169749572
 31
0.0
  0
LINE
  5
1290
330
18
100
AcDbEntity
  8
1
100
AcDbLine
 10
129.0045460372321
 20
68.08246169749572
 30
0.0
 11
129.0045460372321
 21
56.08246169749573
 31
0.0
  0
ARC
  5
1291
330
18
100
AcDbEntity
  8
1
100
AcDbCircle
 10
132.0045460372321
 20
69.58246169749571
 30
0.0
 40
2.0
100
AcDbArc
 50
270.0
 51
0.0
  0
ARC
  5
1292
330
18
100
AcDbEntity
  8
1
100
AcDbCircle
 10
127.0045460372321
 20
68.08246169749572
 30
0.0
 40
2.0
100
AcDbArc
 50
90.0
 51
180.0
  0
LINE
  5
1293
330
18
100
AcDbEntity
  8
1
100
AcDbLine
 10
122.004546037232
 20
67.58246169749572
 30
0.0
 11
122.004546037232
 21
67.58246169749572
 31
0.0
  0
ARC
  5
1294
330
18
100
AcDbEntity
  8
1
100
AcDbCircle
 10
122.004546037232
 20
69.58246169749571
 30
0.0
 40
2.0
100
AcDbArc
 50
270.0
 51
0.0
  0
ARC
  5
1295
330
18
100
AcDbEntity
  8
1
100
AcDbCircle
 10
122.004546037232
 20
69.58246169749571
 30
0.0
 40
2.0
100
AcDbArc
 50
180.0
 51
270.0
  0
ARC
  5
1296
330
18
100
AcDbEntity
  8
1
100
AcDbCircle
 10
127.0045460372321
 20
68.08246169749572
 30
0.0
 40
2.0
100
AcDbArc
 50
0.0
 51
90.0
  0
ARC
  5
1297
330
18
100
AcDbEntity
  8
1
100
AcDbCircle
 10
132.0045460372321
 20
69.58246169749571
 30
0.0
 40
2.0
100
AcDbArc
 50
180.0
 51
270.0
  0
LINE
  5
1298
330
18
100
AcDbEntity
  8
1
100
AcDbLine
 10
127.0045460372321
 20
70.08246169749572
 30
0.0
 11
127.0045460372321
 21
70.08246169749572
 31
0.0
  0
LINE
  5
1299
330
18
100
AcDbEntity
  8
1
100
AcDbLine
 10
132.0045460372321
 20
67.58246169749572
 30
0.0
 11
132.0045460372321
 21
67.58246169749572
 31
0.0
  0
ARC
  5
129A
330
18
100
AcDbEntity
  8
1
100
AcDbCircle
 10
137.0045460372321
 20
68.08246169749572
 30
0.0
 40
2.0
100
AcDbArc
 50
0.0
 51
90.0
  0
ARC
  5
129B
330
18
100
AcDbEntity
  8
1
100
AcDbCircle
 10
137.0045460372321
 20
68.08246169749572
 30
0.0
 40
2.0
100
AcDbArc
 50
90.0
 51
180.0
  0
LINE
  5
129C
330
18
100
AcDbEntity
  8
1
100
AcDbLine
 10
137.0045460372321
 20
70.08246169749572
 30
0.0
 11
137.0045460372321
 21
70.08246169749572
 31
0.0
  0
ARC
  5
129D
330
18
100
AcDbEntity
  8
1
100
AcDbCircle
 10
142.0045460372321
 20
69.58246169749571
 30
0.0
 40
2.0
100
AcDbArc
 50
180.0
 51
270.0
  0
ARC
  5
129E
330
18
100
AcDbEntity
  8
1
100
AcDbCircle
 10
142.0045460372321
 20
69.58246169749571
 30
0.0
 40
2.0
100
AcDbArc
 50
270.0
 51
0.0
  0
LINE
  5
129F
330
18
100
AcDbEntity
  8
1
100
AcDbLine
 10
142.0045460372321
 20
67.58246169749572
 30
0.0
 11
142.0045460372321
 21
67.58246169749572
 31
0.0
  0
ARC
  5
12BF
330
18
100
AcDbEntity
  8
1
100
AcDbCircle
 10
147.004546037232
 20
56.08246169749573
 30
0.0
 40
2.0
100
AcDbArc
 50
270.0
 51
0.0
  0
ARC
  5
12C0
330
18
100
AcDbEntity
  8
1
100
AcDbCircle
 10
150.5045460372319
 20
41.08246169749569
 30
0.0
 40
1.0
100
AcDbArc
 50
270.0
 51
0.0
  0
LINE
  5
12C1
330
18
100
AcDbEntity
  8
1
100
AcDbLine
 10
145.5045460372319
 20
42.08246169749568
 30
0.0
 11
151.504546037232
 21
42.08246169749568
 31
0.0
  0
ARC
  5
12C2
330
18
100
AcDbEntity
  8
1
100
AcDbCircle
 10
146.5045460372319
 20
41.08246169749569
 30
0.0
 40
1.0
100
AcDbArc
 50
180.0
 51
270.0
  0
LINE
  5
12C3
330
18
100
AcDbEntity
  8
1
100
AcDbLine
 10
145.5045460372319
 20
41.08246169749569
 30
0.0
 11
145.5045460372319
 21
42.08246169749568
 31
0.0
  0
LINE
  5
12C4
330
18
100
AcDbEntity
  8
1
100
AcDbLine
 10
146.5045460372319
 20
40.08246169749568
 30
0.0
 11
150.5045460372319
 21
40.08246169749568
 31
0.0
  0
LINE
  5
12C5
330
18
100
AcDbEntity
  8
1
100
AcDbLine
 10
151.504546037232
 20
41.08246169749569
 30
0.0
 11
151.504546037232
 21
42.08246169749568
 31
0.0
  0
LINE
  5
12C6
330
18
100
AcDbEntity
  8
1
100
AcDbLine
 10
160.5045460372319
 20
42.08246169749568
 30
0.0
 11
166.5045460372319
 21
42.08246169749568
 31
0.0
  0
LINE
  5
12C7
330
18
100
AcDbEntity
  8
1
100
AcDbLine
 10
161.5045460372319
 20
40.08246169749568
 30
0.0
 11
165.5045460372319
 21
40.08246169749568
 31
0.0
  0
ARC
  5
12C8
330
18
100
AcDbEntity
  8
1
100
AcDbCircle
 10
161.5045460372319
 20
41.08246169749569
 30
0.0
 40
1.0
100
AcDbArc
 50
180.0
 51
270.0
  0
LINE
  5
12C9
330
18
100
AcDbEntity
  8
1
100
AcDbLine
 10
160.5045460372319
 20
41.08246169749569
 30
0.0
 11
160.5045460372319
 21
42.08246169749568
 31
0.0
  0
ARC
  5
12CA
330
18
100
AcDbEntity
  8
1
100
AcDbCircle
 10
165.5045460372319
 20
41.08246169749569
 30
0.0
 40
1.0
100
AcDbArc
 50
270.0
 51
0.0
  0
LINE
  5
12CB
330
18
100
AcDbEntity
  8
1
100
AcDbLine
 10
166.5045460372319
 20
41.08246169749569
 30
0.0
 11
166.5045460372319
 21
42.08246169749568
 31
0.0
  0
LINE
  5
12CC
330
18
100
AcDbEntity
  8
1
100
AcDbLine
 10
147.004546037232
 20
54.08246169749573
 30
0.0
 11
147.004546037232
 21
54.08246169749573
 31
0.0
  0
LINE
  5
12CD
330
18
100
AcDbEntity
  8
1
100
AcDbLine
 10
193.1813227325287
 20
48.96634517397894
 30
0.0
 11
193.8884295137153
 21
49.67345195516549
 31
0.0
  0
LINE
  5
12CE
330
18
100
AcDbEntity
  8
1
100
AcDbLine
 10
194.5955362949018
 20
48.96634517397896
 30
0.0
 11
193.8884295137153
 21
49.67345195516552
 31
0.0
  0
LINE
  5
12CF
330
18
100
AcDbEntity
  8
1
100
AcDbLine
 10
191.4135557795623
 20
48.96634517397894
 30
0.0
 11
192.1206625607488
 21
49.67345195516549
 31
0.0
  0
CIRCLE
  5
12D0
330
18
100
AcDbEntity
  8
1
100
AcDbCircle
 10
193.0045460372321
 20
48.08246169749574
 30
0.0
 40
3.0
  0
LINE
  5
12D1
330
18
100
AcDbEntity
  8
1
100
AcDbLine
 10
192.8277693419354
 20
48.96634517397894
 30
0.0
 11
192.1206625607488
 21
49.67345195516549
 31
0.0
  0
ARC
  5
12D2
330
18
100
AcDbEntity
  8
1
100
AcDbCircle
 10
193.0045460372321
 20
47.0218015257159
 30
0.0
 40
0.25
100
AcDbArc
 50
44.99999999999964
 51
135.0000000000003
  0
LINE
  5
12D3
330
18
100
AcDbEntity
  8
1
100
AcDbLine
 10
194.5955362949018
 20
47.19857822101255
 30
0.0
 11
193.8884295137153
 21
47.90568500219911
 31
0.0
  0
LINE
  5
12D4
330
18
100
AcDbEntity
  8
1
100
AcDbLine
 10
193.8884295137152
 20
48.25923839279237
 30
0.0
 11
194.5955362949018
 21
48.96634517397895
 31
0.0
  0
ARC
  5
12D5
330
18
100
AcDbEntity
  8
1
100
AcDbCircle
 10
194.0652062090118
 20
48.08246169749572
 30
0.0
 40
0.25
100
AcDbArc
 50
135.0000000000003
 51
224.9999999999996
  0
ARC
  5
12D6
330
18
100
AcDbEntity
  8
1
100
AcDbCircle
 10
193.0045460372321
 20
49.14312186927557
 30
0.0
 40
0.25
100
AcDbArc
 50
224.9999999999996
 51
315.0000000000004
  0
LINE
  5
12D7
330
18
100
AcDbEntity
  8
1
100
AcDbLine
 10
193.8884295137152
 20
46.49147143982602
 30
0.0
 11
194.5955362949018
 21
47.19857822101255
 31
0.0
  0
LINE
  5
12D8
330
18
100
AcDbEntity
  8
1
100
AcDbLine
 10
193.8884295137152
 20
46.49147143982605
 30
0.0
 11
193.1813227325287
 21
47.19857822101255
 31
0.0
  0
LINE
  5
12D9
330
18
100
AcDbEntity
  8
1
100
AcDbLine
 10
192.1206625607488
 20
48.25923839279233
 30
0.0
 11
191.4135557795623
 21
48.96634517397894
 31
0.0
  0
LINE
  5
12DA
330
18
100
AcDbEntity
  8
1
100
AcDbLine
 10
191.4135557795623
 20
47.19857822101255
 30
0.0
 11
192.1206625607488
 21
47.90568500219904
 31
0.0
  0
ARC
  5
12DB
330
18
100
AcDbEntity
  8
1
100
AcDbCircle
 10
191.9438858654522
 20
48.08246169749567
 30
0.0
 40
0.25
100
AcDbArc
 50
315.0000000000004
 51
44.99999999999892
  0
LINE
  5
12DC
330
18
100
AcDbEntity
  8
1
100
AcDbLine
 10
192.1206625607488
 20
46.49147143982602
 30
0.0
 11
191.4135557795623
 21
47.19857822101255
 31
0.0
  0
LINE
  5
12DD
330
18
100
AcDbEntity
  8
1
100
AcDbLine
 10
192.1206625607488
 20
46.49147143982602
 30
0.0
 11
192.8277693419354
 21
47.19857822101255
 31
0.0
  0
LINE
  5
12DE
330
18
100
AcDbEntity
  8
1
100
AcDbLine
 10
145.004546037232
 20
56.08246169749573
 30
0.0
 11
145.004546037232
 21
68.08246169749572
 31
0.0
  0
LINE
  5
12DF
330
18
100
AcDbEntity
  8
1
100
AcDbLine
 10
149.004546037232
 20
68.08246169749572
 30
0.0
 11
149.004546037232
 21
56.08246169749573
 31
0.0
  0
ARC
  5
12E0
330
18
100
AcDbEntity
  8
1
100
AcDbCircle
 10
147.004546037232
 20
68.08246169749572
 30
0.0
 40
2.0
100
AcDbArc
 50
0.0
 51
90.0
  0
LINE
  5
12E1
330
18
100
AcDbEntity
  8
1
100
AcDbLine
 10
147.004546037232
 20
70.08246169749572
 30
0.0
 11
147.004546037232
 21
70.08246169749572
 31
0.0
  0
LEADER
  5
12E2
330
18
100
AcDbEntity
  8
2
100
AcDbLeader
  3
STANDARD
 40
4.443428571428571
 41
56.02742857142857
 76
     2
 10
382.4058866910229
 20
65.26067016631563
 30
0.0
 10
392.1784767676401
 20
38.43930846395238
 30
0.0
213
-0.3000000000000114
223
-1.299999999999991
233
0.0
1001
ACAD
1000
DSTYLE
1002
{
1070
    40
1040
1.0
1070
    77
1070
     3
1002
}
  0
LEADER
  5
12E4
330
18
100
AcDbEntity
  8
2
100
AcDbLeader
  3
STANDARD
 74
     0
 40
4.370285714285714
 41
39.38742857142857
 76
     2
 10
324.304546037232
 20
66.68246169749568
 30
0.0
 10
329.5481841873628
 20
53.82760455463855
 30
0.0
213
3.100000000000001
223
-0.1845714285714366
233
0.0
1001
ACAD
1000
DSTYLE
1002
{
1070
    40
1040
1.0
1070
    77
1070
     3
1002
}
  0
LINE
  5
12E7
330
18
100
AcDbEntity
  8
1
100
AcDbLine
 10
377.604546037232
 20
71.83246169749577
 30
0.0
 11
348.4045460372319
 21
71.83246169749577
 31
0.0
  0
LINE
  5
12E8
330
18
100
AcDbEntity
  8
1
100
AcDbLine
 10
377.604546037232
 20
64.33246169749577
 30
0.0
 11
348.4045460372319
 21
64.33246169749577
 31
0.0
  0
LINE
  5
12E9
330
18
100
AcDbEntity
  8
1
100
AcDbLine
 10
280.5045460372319
 20
42.08246169749574
 30
0.0
 11
320.5045460372319
 21
42.08246169749574
 31
0.0
  0
LINE
  5
12EA
330
18
100
AcDbEntity
  8
1
100
AcDbLine
 10
320.5045460372319
 20
40.08246169749575
 30
0.0
 11
280.5045460372319
 21
40.08246169749575
 31
0.0
  0
ARC
  5
12EB
330
18
100
AcDbEntity
  8
1
100
AcDbCircle
 10
295.5045460372319
 20
48.08246169749574
 30
0.0
 40
5.0
100
AcDbArc
 50
270.0
 51
0.0
  0
LINE
  5
12EC
330
18
100
AcDbEntity
  8
1
100
AcDbLine
 10
264.5045460372321
 20
42.08246169749573
 30
0.0
 11
276.504546037232
 21
42.08246169749573
 31
0.0
  0
LINE
  5
12ED
330
18
100
AcDbEntity
  8
1
100
AcDbLine
 10
266.5045460372321
 20
39.58246169749573
 30
0.0
 11
274.504546037232
 21
39.58246169749573
 31
0.0
  0
LINE
  5
12EE
330
18
100
AcDbEntity
  8
1
100
AcDbLine
 10
272.504546037232
 20
42.08246169749568
 30
0.0
 11
278.504546037232
 21
42.08246169749568
 31
0.0
  0
ARC
  5
12EF
330
18
100
AcDbEntity
  8
1
100
AcDbCircle
 10
266.5045460372321
 20
41.58246169749573
 30
0.0
 40
2.0
100
AcDbArc
 50
180.0
 51
270.0
  0
LINE
  5
12F0
330
18
100
AcDbEntity
  8
1
100
AcDbLine
 10
264.5045460372321
 20
42.08246169749573
 30
0.0
 11
264.5045460372321
 21
41.58246169749573
 31
0.0
  0
LINE
  5
12F1
330
18
100
AcDbEntity
  8
1
100
AcDbLine
 10
265.6813227325287
 20
48.96634517397894
 30
0.0
 11
266.3884295137153
 21
49.67345195516549
 31
0.0
  0
LINE
  5
12F2
330
18
100
AcDbEntity
  8
1
100
AcDbLine
 10
267.0955362949019
 20
48.96634517397896
 30
0.0
 11
266.3884295137153
 21
49.67345195516552
 31
0.0
  0
LINE
  5
12F3
330
18
100
AcDbEntity
  8
1
100
AcDbLine
 10
263.9135557795623
 20
48.96634517397894
 30
0.0
 11
264.6206625607488
 21
49.67345195516549
 31
0.0
  0
CIRCLE
  5
12F4
330
18
100
AcDbEntity
  8
1
100
AcDbCircle
 10
265.5045460372321
 20
48.08246169749574
 30
0.0
 40
3.0
  0
LINE
  5
12F5
330
18
100
AcDbEntity
  8
1
100
AcDbLine
 10
265.3277693419354
 20
48.96634517397894
 30
0.0
 11
264.6206625607488
 21
49.67345195516549
 31
0.0
  0
ARC
  5
12F6
330
18
100
AcDbEntity
  8
1
100
AcDbCircle
 10
265.5045460372321
 20
47.0218015257159
 30
0.0
 40
0.25
100
AcDbArc
 50
44.99999999999964
 51
135.0000000000003
  0
LINE
  5
12F7
330
18
100
AcDbEntity
  8
1
100
AcDbLine
 10
267.0955362949019
 20
47.19857822101255
 30
0.0
 11
266.3884295137153
 21
47.90568500219911
 31
0.0
  0
LINE
  5
12F8
330
18
100
AcDbEntity
  8
1
100
AcDbLine
 10
266.3884295137151
 20
48.25923839279237
 30
0.0
 11
267.0955362949019
 21
48.96634517397895
 31
0.0
  0
ARC
  5
12F9
330
18
100
AcDbEntity
  8
1
100
AcDbCircle
 10
266.5652062090118
 20
48.08246169749572
 30
0.0
 40
0.25
100
AcDbArc
 50
135.0000000000003
 51
224.9999999999996
  0
ARC
  5
12FA
330
18
100
AcDbEntity
  8
1
100
AcDbCircle
 10
265.5045460372321
 20
49.14312186927557
 30
0.0
 40
0.25
100
AcDbArc
 50
224.9999999999996
 51
315.0000000000004
  0
LINE
  5
12FB
330
18
100
AcDbEntity
  8
1
100
AcDbLine
 10
266.3884295137151
 20
46.49147143982602
 30
0.0
 11
267.0955362949019
 21
47.19857822101255
 31
0.0
  0
LINE
  5
12FC
330
18
100
AcDbEntity
  8
1
100
AcDbLine
 10
266.3884295137151
 20
46.49147143982605
 30
0.0
 11
265.6813227325287
 21
47.19857822101255
 31
0.0
  0
LINE
  5
12FD
330
18
100
AcDbEntity
  8
1
100
AcDbLine
 10
264.6206625607488
 20
48.25923839279233
 30
0.0
 11
263.9135557795623
 21
48.96634517397894
 31
0.0
  0
LINE
  5
12FE
330
18
100
AcDbEntity
  8
1
100
AcDbLine
 10
263.9135557795623
 20
47.19857822101255
 30
0.0
 11
264.6206625607488
 21
47.90568500219904
 31
0.0
  0
ARC
  5
12FF
330
18
100
AcDbEntity
  8
1
100
AcDbCircle
 10
264.4438858654522
 20
48.08246169749567
 30
0.0
 40
0.25
100
AcDbArc
 50
315.0000000000004
 51
44.99999999999892
  0
LINE
  5
1300
330
18
100
AcDbEntity
  8
1
100
AcDbLine
 10
264.6206625607488
 20
46.49147143982602
 30
0.0
 11
263.9135557795623
 21
47.19857822101255
 31
0.0
  0
LINE
  5
1301
330
18
100
AcDbEntity
  8
1
100
AcDbLine
 10
264.6206625607488
 20
46.49147143982602
 30
0.0
 11
265.3277693419354
 21
47.19857822101255
 31
0.0
  0
LINE
  5
1302
330
18
100
AcDbEntity
  8
1
100
AcDbLine
 10
276.504546037232
 20
42.08246169749573
 30
0.0
 11
276.504546037232
 21
41.58246169749573
 31
0.0
  0
ARC
  5
1303
330
18
100
AcDbEntity
  8
1
100
AcDbCircle
 10
274.504546037232
 20
41.58246169749573
 30
0.0
 40
2.0
100
AcDbArc
 50
270.0
 51
0.0
  0
LINE
  5
1304
330
18
100
AcDbEntity
  8
1
100
AcDbLine
 10
278.504546037232
 20
41.08246169749569
 30
0.0
 11
278.504546037232
 21
42.08246169749568
 31
0.0
  0
LINE
  5
1305
330
18
100
AcDbEntity
  8
1
100
AcDbLine
 10
275.8274216927642
 20
40.08246169749568
 30
0.0
 11
277.5045460372321
 21
40.08246169749568
 31
0.0
  0
ARC
  5
1306
330
18
100
AcDbEntity
  8
1
100
AcDbCircle
 10
277.5045460372321
 20
41.08246169749569
 30
0.0
 40
1.0
100
AcDbArc
 50
270.0
 51
0.0
  0
LINE
  5
1307
330
18
100
AcDbEntity
  8
1
100
AcDbLine
 10
280.5045460372319
 20
40.08246169749575
 30
0.0
 11
280.5045460372319
 21
42.08246169749574
 31
0.0
  0
ARC
  5
1308
330
18
100
AcDbEntity
  8
1
100
AcDbCircle
 10
294.5045460372319
 20
43.08246169749574
 30
0.0
 40
1.0
100
AcDbArc
 50
270.0
 51
0.0
  0
LINE
  5
1309
330
18
100
AcDbEntity
  8
1
100
AcDbLine
 10
295.5045460372319
 20
43.08246169749574
 30
0.0
 11
295.5045460372319
 21
43.08246169749574
 31
0.0
  0
LINE
  5
130A
330
18
100
AcDbEntity
  8
1
100
AcDbLine
 10
320.5045460372319
 20
42.08246169749574
 30
0.0
 11
320.5045460372319
 21
40.08246169749575
 31
0.0
  0
LINE
  5
130B
330
18
100
AcDbEntity
  8
1
100
AcDbLine
 10
318.5045460372319
 20
64.33246169749574
 30
0.0
 11
333.5045460372319
 21
64.33246169749574
 31
0.0
  0
LINE
  5
130C
330
18
100
AcDbEntity
  8
1
100
AcDbLine
 10
318.5045460372319
 20
71.83246169749574
 30
0.0
 11
333.5045460372319
 21
71.83246169749574
 31
0.0
  0
LINE
  5
130D
330
18
100
AcDbEntity
  8
1
100
AcDbLine
 10
317.504546037232
 20
69.58246169749575
 30
0.0
 11
317.504546037232
 21
66.58246169749574
 31
0.0
  0
LINE
  5
130E
330
18
100
AcDbEntity
  8
1
100
AcDbLine
 10
305.504546037232
 20
65.58246169749574
 30
0.0
 11
308.5045460372319
 21
68.08246169749574
 31
0.0
  0
LINE
  5
130F
330
18
100
AcDbEntity
  8
1
100
AcDbLine
 10
305.504546037232
 20
66.58246169749574
 30
0.0
 11
308.5045460372319
 21
68.08246169749574
 31
0.0
  0
LINE
  5
1310
330
18
100
AcDbEntity
  8
1
100
AcDbLine
 10
310.5045460372319
 20
78.08246169749574
 30
0.0
 11
310.5045460372319
 21
58.08246169749574
 31
0.0
  0
LINE
  5
1311
330
18
100
AcDbEntity
  8
1
100
AcDbLine
 10
313.504546037232
 20
77.58246169749575
 30
0.0
 11
313.504546037232
 21
58.58246169749574
 31
0.0
  0
LINE
  5
1312
330
18
100
AcDbEntity
  8
1
100
AcDbLine
 10
308.5045460372319
 20
78.08246169749574
 30
0.0
 11
308.5045460372319
 21
58.08246169749574
 31
0.0
  0
LINE
  5
1313
330
18
100
AcDbEntity
  8
1
100
AcDbLine
 10
318.5045460372319
 20
76.58246169749574
 30
0.0
 11
318.5045460372319
 21
59.58246169749575
 31
0.0
  0
LINE
  5
1314
330
18
100
AcDbEntity
  8
1
100
AcDbLine
 10
310.5045460372319
 20
59.08246169749574
 30
0.0
 11
313.504546037232
 21
59.08246169749574
 31
0.0
  0
LINE
  5
1315
330
18
100
AcDbEntity
  8
1
100
AcDbLine
 10
310.5045460372319
 20
60.58246169749574
 30
0.0
 11
313.504546037232
 21
60.58246169749574
 31
0.0
  0
LINE
  5
1316
330
18
100
AcDbEntity
  8
1
100
AcDbLine
 10
305.504546037232
 20
58.08246169749574
 30
0.0
 11
310.5045460372319
 21
58.08246169749574
 31
0.0
  0
LINE
  5
1317
330
18
100
AcDbEntity
  8
1
100
AcDbLine
 10
305.504546037232
 20
57.08246169749575
 30
0.0
 11
308.5045460372319
 21
58.08246169749574
 31
0.0
  0
LINE
  5
1318
330
18
100
AcDbEntity
  8
1
100
AcDbLine
 10
300.5045460372319
 20
57.08246169749575
 30
0.0
 11
305.504546037232
 21
57.08246169749575
 31
0.0
  0
LINE
  5
1319
330
18
100
AcDbEntity
  8
1
100
AcDbLine
 10
300.5045460372319
 20
66.58246169749574
 30
0.0
 11
305.504546037232
 21
66.58246169749574
 31
0.0
  0
ARC
  5
131A
330
18
100
AcDbEntity
  8
1
100
AcDbCircle
 10
311.662046037232
 20
62.95746169749574
 30
0.0
 40
6.87571314483087
100
AcDbArc
 50
328.182319090381
 51
31.81768090961895
  0
LINE
  5
131B
330
18
100
AcDbEntity
  8
1
100
AcDbLine
 10
317.504546037232
 20
59.33246169749574
 30
0.0
 11
317.504546037232
 21
58.58246169749574
 31
0.0
  0
LINE
  5
131C
330
18
100
AcDbEntity
  8
1
100
AcDbLine
 10
318.5045460372319
 20
59.58246169749575
 30
0.0
 11
317.504546037232
 21
58.58246169749574
 31
0.0
  0
LINE
  5
131D
330
18
100
AcDbEntity
  8
1
100
AcDbLine
 10
317.504546037232
 20
58.58246169749574
 30
0.0
 11
313.504546037232
 21
58.58246169749574
 31
0.0
  0
LINE
  5
131E
330
18
100
AcDbEntity
  8
1
100
AcDbLine
 10
317.504546037232
 20
59.33246169749574
 30
0.0
 11
313.504546037232
 21
59.33246169749574
 31
0.0
  0
LINE
  5
131F
330
18
100
AcDbEntity
  8
1
100
AcDbLine
 10
313.504546037232
 20
66.58246169749574
 30
0.0
 11
317.504546037232
 21
66.58246169749574
 31
0.0
  0
LINE
  5
1320
330
18
100
AcDbEntity
  8
1
100
AcDbLine
 10
310.5045460372319
 20
77.08246169749575
 30
0.0
 11
313.504546037232
 21
77.08246169749575
 31
0.0
  0
LINE
  5
1321
330
18
100
AcDbEntity
  8
1
100
AcDbLine
 10
310.5045460372319
 20
75.58246169749574
 30
0.0
 11
313.504546037232
 21
75.58246169749574
 31
0.0
  0
LINE
  5
1322
330
18
100
AcDbEntity
  8
1
100
AcDbLine
 10
305.504546037232
 20
70.58246169749574
 30
0.0
 11
308.5045460372319
 21
68.08246169749574
 31
0.0
  0
LINE
  5
1323
330
18
100
AcDbEntity
  8
1
100
AcDbLine
 10
305.504546037232
 20
69.58246169749575
 30
0.0
 11
308.5045460372319
 21
68.08246169749574
 31
0.0
  0
LINE
  5
1324
330
18
100
AcDbEntity
  8
1
100
AcDbLine
 10
300.5045460372319
 20
69.58246169749575
 30
0.0
 11
305.504546037232
 21
69.58246169749575
 31
0.0
  0
LINE
  5
1325
330
18
100
AcDbEntity
  8
1
100
AcDbLine
 10
305.504546037232
 20
78.08246169749574
 30
0.0
 11
310.5045460372319
 21
78.08246169749574
 31
0.0
  0
ARC
  5
1326
330
18
100
AcDbEntity
  8
1
100
AcDbCircle
 10
311.734546037232
 20
73.20746169749575
 30
0.0
 40
6.814214921764653
100
AcDbArc
 50
327.8609253968894
 51
32.13907460311056
  0
LINE
  5
1327
330
18
100
AcDbEntity
  8
1
100
AcDbLine
 10
313.504546037232
 20
69.58246169749575
 30
0.0
 11
317.504546037232
 21
69.58246169749575
 31
0.0
  0
LINE
  5
1328
330
18
100
AcDbEntity
  8
1
100
AcDbLine
 10
317.504546037232
 20
77.58246169749575
 30
0.0
 11
318.5045460372319
 21
76.58246169749574
 31
0.0
  0
LINE
  5
1329
330
18
100
AcDbEntity
  8
1
100
AcDbLine
 10
317.504546037232
 20
77.58246169749575
 30
0.0
 11
317.504546037232
 21
76.83246169749574
 31
0.0
  0
LINE
  5
132A
330
18
100
AcDbEntity
  8
1
100
AcDbLine
 10
317.504546037232
 20
77.58246169749575
 30
0.0
 11
313.504546037232
 21
77.58246169749575
 31
0.0
  0
LINE
  5
132B
330
18
100
AcDbEntity
  8
1
100
AcDbLine
 10
317.504546037232
 20
76.83246169749574
 30
0.0
 11
313.504546037232
 21
76.83246169749574
 31
0.0
  0
SPLINE
  5
132C
330
18
100
AcDbEntity
  8
1
100
AcDbSpline
210
0.0
220
0.0
230
1.0
 70
     8
 71
     3
 72
     9
 73
     5
 74
     3
 42
0.0000000001
 43
0.0000000001
 44
0.0000000001
 40
0.0
 40
0.0
 40
0.0
 40
0.0
 40
2.960152023123151
 40
5.341966418697634
 40
5.341966418697634
 40
5.341966418697634
 40
5.341966418697634
 10
333.5045460372319
 20
64.33246169749574
 30
0.0
 10
334.4944740794251
 20
65.17565767777075
 30
0.0
 10
336.2809236661401
 20
66.69731081444227
 30
0.0
 10
334.2577677965304
 20
67.63410458799523
 30
0.0
 10
333.3557063837404
 20
68.05179139480912
 30
0.0
 11
333.5045460372319
 21
64.33246169749574
 31
0.0
 11
335.304546037232
 21
66.68246169749571
 31
0.0
 11
333.3557063837404
 21
68.05179139480912
 31
0.0
  0
SPLINE
  5
132D
330
18
100
AcDbEntity
  8
1
100
AcDbSpline
210
0.0
220
0.0
230
1.0
 70
     8
 71
     3
 72
    10
 73
     6
 74
     4
 42
0.0000000001
 43
0.0000000001
 44
0.0000000001
 40
0.0
 40
0.0
 40
0.0
 40
0.0
 40
3.095561338432803
 40
7.145252684696095
 40
10.34876638062438
 40
10.34876638062438
 40
10.34876638062438
 40
10.34876638062438
 10
348.4045460372319
 20
64.33246169749577
 30
0.0
 10
347.4470194244982
 20
65.31096164150584
 30
0.0
 10
345.2368323688065
 20
67.56955986894479
 30
0.0
 10
351.8557469047963
 20
68.6376866425486
 30
0.0
 10
349.461853738006
 20
70.85371244543607
 30
0.0
 10
348.4045460372319
 20
71.83246169749577
 30
0.0
 11
348.4045460372319
 21
64.33246169749577
 31
0.0
 11
346.804546037232
 21
66.9824616974958
 31
0.0
 11
350.204546037232
 21
69.18246169749579
 31
0.0
 11
348.4045460372319
 21
71.83246169749577
 31
0.0
  0
SPLINE
  5
132E
330
18
100
AcDbEntity
  8
1
100
AcDbSpline
210
0.0
220
0.0
230
1.0
 70
     8
 71
     3
 72
    10
 73
     6
 74
     4
 42
0.0000000001
 43
0.0000000001
 44
0.0000000001
 40
0.0
 40
0.0
 40
0.0
 40
0.0
 40
3.095561338432862
 40
7.145252684696154
 40
10.34876638062437
 40
10.34876638062437
 40
10.34876638062437
 40
10.34876638062437
 10
333.5045460372319
 20
71.83246169749574
 30
0.0
 10
334.4620726499658
 20
70.85396175348569
 30
0.0
 10
336.6722597056575
 20
68.59536352604674
 30
0.0
 10
330.0533451696678
 20
67.52723675244297
 30
0.0
 10
332.4472383364579
 20
65.31121094955543
 30
0.0
 10
333.5045460372319
 20
64.33246169749574
 30
0.0
 11
333.5045460372319
 21
71.83246169749574
 31
0.0
 11
335.104546037232
 21
69.18246169749571
 31
0.0
 11
331.704546037232
 21
66.98246169749572
 31
0.0
 11
333.5045460372319
 21
64.33246169749574
 31
0.0
  0
SPLINE
  5
132F
330
18
100
AcDbEntity
  8
1
100
AcDbSpline
210
0.0
220
0.0
230
1.0
 70
     8
 71
     3
 72
     9
 73
     5
 74
     3
 42
0.0000000001
 43
0.0000000001
 44
0.0000000001
 40
0.0
 40
0.0
 40
0.0
 40
0.0
 40
2.960152023123082
 40
5.341966418697564
 40
5.341966418697564
 40
5.341966418697564
 40
5.341966418697564
 10
348.4045460372319
 20
71.83246169749577
 30
0.0
 10
347.4146179950389
 20
70.98926571722076
 30
0.0
 10
345.6281684083239
 20
69.4676125805492
 30
0.0
 10
347.6513242779335
 20
68.53081880699628
 30
0.0
 10
348.5533856907236
 20
68.11313200018239
 30
0.0
 11
348.4045460372319
 21
71.83246169749577
 31
0.0
 11
346.604546037232
 21
69.4824616974958
 31
0.0
 11
348.5533856907236
 21
68.11313200018239
 31
0.0
  0
CIRCLE
  5
1330
330
18
100
AcDbEntity
  8
1
100
AcDbCircle
 10
403.304546037232
 20
68.08246169749574
 30
0.0
 40
1.5
  0
ARC
  5
1331
330
18
100
AcDbEntity
  8
1
100
AcDbCircle
 10
403.304546037232
 20
68.08246169749574
 30
0.0
 40
2.5
100
AcDbArc
 50
220.0052008848606
 51
139.9947991151393
  0
CIRCLE
  5
1332
330
18
100
AcDbEntity
  8
1
100
AcDbCircle
 10
402.2994302503097
 20
75.71707406977518
 30
0.0
 40
1.5
  0
ARC
  5
1333
330
18
100
AcDbEntity
  8
1
100
AcDbCircle
 10
402.2994302503097
 20
75.71707406977518
 30
0.0
 40
2.5
100
AcDbArc
 50
235.005200884861
 51
154.9947991151414
  0
LINE
  5
1334
330
18
100
AcDbEntity
  8
1
100
AcDbLine
 10
398.4685438850758
 20
61.99197032328126
 30
0.0
 11
403.2981730165212
 21
60.69787509776867
 31
0.0
  0
LINE
  5
1335
330
18
100
AcDbEntity
  8
1
100
AcDbLine
 10
403.0393539714187
 20
59.73194927147961
 30
0.0
 11
398.2097248399734
 21
61.0260444969922
 31
0.0
  0
LINE
  5
1336
330
18
100
AcDbEntity
  8
1
100
AcDbLine
 10
393.0911966843382
 20
64.23282616314072
 30
0.0
 11
390.5030062333128
 21
54.57356790025007
 31
0.0
  0
LINE
  5
1337
330
18
100
AcDbEntity
  8
1
100
AcDbLine
 10
390.5030062333128
 20
54.57356790025007
 30
0.0
 11
382.7755996230003
 21
56.64412026107036
 31
0.0
  0
LINE
  5
1338
330
18
100
AcDbEntity
  8
1
100
AcDbLine
 10
397.204546037232
 20
69.33246169749574
 30
0.0
 11
397.204546037232
 21
66.83246169749574
 31
0.0
  0
LINE
  5
1339
330
18
100
AcDbEntity
  8
1
100
AcDbLine
 10
400.704546037232
 20
69.33246169749574
 30
0.0
 11
400.704546037232
 21
66.83246169749574
 31
0.0
  0
LINE
  5
133A
330
18
100
AcDbEntity
  8
1
100
AcDbLine
 10
377.604546037232
 20
67.58246169749575
 30
0.0
 11
385.1637900740255
 21
65.55696836244715
 31
0.0
  0
LINE
  5
133B
330
18
100
AcDbEntity
  8
1
100
AcDbLine
 10
377.604546037232
 20
64.33246169749577
 30
0.0
 11
377.604546037232
 21
71.83246169749577
 31
0.0
  0
ARC
  5
133C
330
18
100
AcDbEntity
  8
1
100
AcDbCircle
 10
389.0887926709398
 20
57.02305764303325
 30
0.0
 40
1.0
100
AcDbArc
 50
254.9999999999988
 51
344.9999999999996
  0
LINE
  5
133D
330
18
100
AcDbEntity
  8
1
100
AcDbLine
 10
385.3637900740256
 20
66.30337852396102
 30
0.0
 11
393.0911966843382
 21
64.23282616314072
 31
0.0
  0
TEXT
  5
133E
330
18
100
AcDbEntity
  8
1
100
AcDbText
 10
389.0647690035677
 20
58.47888141787897
 30
0.0
 40
3.5
  1
アｰ
 50
74.99999999999878
  7
ＭＳゴシック
100
AcDbText
  0
LINE
  5
133F
330
18
100
AcDbEntity
  8
1
100
AcDbLine
 10
385.2255872789242
 20
63.855747018316
 30
0.0
 11
391.8904754803187
 21
62.06989560710849
 31
0.0
  0
LINE
  5
1340
330
18
100
AcDbEntity
  8
1
100
AcDbLine
 10
384.2591635394944
 20
58.31715286854595
 30
0.0
 11
386.3297159003148
 21
66.04455947885847
 31
0.0
  0
LINE
  5
1341
330
18
100
AcDbEntity
  8
1
100
AcDbLine
 10
382.7755996230003
 20
56.64412026107036
 30
0.0
 11
385.3637900740256
 21
66.30337852396102
 31
0.0
  0
LINE
  5
1342
330
18
100
AcDbEntity
  8
1
100
AcDbLine
 10
388.8299736258372
 20
56.05713181674419
 30
0.0
 11
384.966270320681
 21
57.09240799715435
 31
0.0
  0
ARC
  5
1343
330
18
100
AcDbEntity
  8
1
100
AcDbCircle
 10
385.2250893657835
 20
58.05833382344342
 30
0.0
 40
1.0
100
AcDbArc
 50
164.9999999999996
 51
254.9999999999988
  0
LINE
  5
1344
330
18
100
AcDbEntity
  8
1
100
AcDbLine
 10
377.604546037232
 20
66.54718551708561
 30
0.0
 11
384.904971028923
 21
64.59104253615805
 31
0.0
  0
LINE
  5
1345
330
18
100
AcDbEntity
  8
1
100
AcDbLine
 10
392.1252708580491
 20
64.49164520824322
 30
0.0
 11
390.0547184972289
 21
56.76423859793072
 31
0.0
  0
LINE
  5
1346
330
18
100
AcDbEntity
  8
1
100
AcDbLine
 10
398.2097248399734
 20
61.0260444969922
 30
0.0
 11
398.4685438850758
 21
61.99197032328126
 31
0.0
  0
LINE
  5
1347
330
18
100
AcDbEntity
  8
1
100
AcDbLine
 10
392.6323776392355
 20
62.52049017533789
 30
0.0
 11
396.2778731873952
 21
61.54368258719725
 31
0.0
  0
LINE
  5
1348
330
18
100
AcDbEntity
  8
1
100
AcDbLine
 10
392.891196684338
 20
63.48641600162697
 30
0.0
 11
396.5366922324978
 21
62.50960841348632
 31
0.0
  0
ARC
  5
1349
330
18
100
AcDbEntity
  8
1
100
AcDbCircle
 10
400.6235947135411
 20
65.83246169749575
 30
0.0
 40
1.0
100
AcDbArc
 50
40.00520088486067
 51
90.0
  0
LINE
  5
134A
330
18
100
AcDbEntity
  8
1
100
AcDbLine
 10
400.6235947135411
 20
66.83246169749574
 30
0.0
 11
397.204546037232
 21
66.83246169749574
 31
0.0
  0
LINE
  5
134B
330
18
100
AcDbEntity
  8
1
100
AcDbLine
 10
396.4719874712221
 20
62.26812695691407
 30
0.0
 11
398.4038391238002
 21
61.75048886670902
 31
0.0
  0
LINE
  5
134C
330
18
100
AcDbEntity
  8
1
100
AcDbLine
 10
398.4038391238002
 20
61.75048886670902
 30
0.0
 11
398.274429601249
 21
61.26752595356447
 31
0.0
  0
LINE
  5
134D
330
18
100
AcDbEntity
  8
1
100
AcDbLine
 10
396.5366922324978
 20
62.50960841348632
 30
0.0
 11
396.2778731873952
 21
61.54368258719725
 31
0.0
  0
LINE
  5
134E
330
18
100
AcDbEntity
  8
1
100
AcDbLine
 10
398.274429601249
 20
61.26752595356447
 30
0.0
 11
396.3425779486708
 21
61.78516404376953
 31
0.0
  0
LINE
  5
134F
330
18
100
AcDbEntity
  8
1
100
AcDbLine
 10
396.3425779486708
 20
61.78516404376953
 30
0.0
 11
396.4719874712221
 21
62.26812695691407
 31
0.0
  0
HATCH
  5
1350
330
18
100
AcDbEntity
  8
1
100
AcDbHatch
 10
0.0
 20
0.0
 30
0.0
210
0.0
220
0.0
230
1.0
  2
SOLID
 70
     1
 71
     0
 91
        1
 92
        7
 72
     0
 73
     1
 93
        4
 10
396.4719874712221
 20
62.26812695691407
 10
396.3425779486708
 20
61.78516404376949
 10
398.274429601249
 20
61.26752595356447
 10
398.4038391238002
 20
61.75048886670902
 97
        0
 75
     0
 76
     1
 47
0.0460331025297931
 98
        1
 10
397.104546037232
 20
61.7824616974957
  0
LINE
  5
1351
330
18
100
AcDbEntity
  8
1
100
AcDbLine
 10
377.604546037232
 20
68.58246169749572
 30
0.0
 11
397.204546037232
 21
68.58246169749572
 31
0.0
  0
LINE
  5
1352
330
18
100
AcDbEntity
  8
1
100
AcDbLine
 10
377.604546037232
 20
67.58246169749572
 30
0.0
 11
397.204546037232
 21
67.58246169749572
 31
0.0
  0
LINE
  5
1353
330
18
100
AcDbEntity
  8
1
100
AcDbLine
 10
377.604546037232
 20
69.61773787790585
 30
0.0
 11
396.2778731873952
 21
74.62124080779421
 31
0.0
  0
LINE
  5
1354
330
18
100
AcDbEntity
  8
1
100
AcDbLine
 10
377.604546037232
 20
68.58246169749572
 30
0.0
 11
396.5366922324978
 21
73.65531498150514
 31
0.0
  0
LWPOLYLINE
  5
1355
330
18
100
AcDbEntity
  8
1
100
AcDbPolyline
 90
        4
 70
     1
 43
0.0
 10
399.6045460372321
 20
68.58246169749574
 10
399.6045460372321
 20
67.58246169749575
 10
398.6045460372321
 20
67.58246169749575
 10
398.6045460372321
 20
68.58246169749574
  0
LINE
  5
1356
330
18
100
AcDbEntity
  8
1
100
AcDbLine
 10
397.204546037232
 20
69.33246169749574
 30
0.0
 11
400.6235947135411
 21
69.33246169749574
 31
0.0
  0
ARC
  5
1357
330
18
100
AcDbEntity
  8
1
100
AcDbCircle
 10
400.6235947135412
 20
70.33246169749574
 30
0.0
 40
1.0
100
AcDbArc
 50
270.0
 51
319.9947991151393
  0
LWPOLYLINE
  5
1358
330
18
100
AcDbEntity
  8
1
100
AcDbPolyline
 90
        4
 70
     1
 43
0.0
 10
398.5960951704889
 20
75.24240651604031
 10
398.8549142155915
 20
74.27648068975125
 10
397.8889883893024
 20
74.01766164464871
 10
397.6301693441998
 20
74.98358747093778
  0
ARC
  5
1359
330
18
100
AcDbEntity
  8
1
100
AcDbCircle
 10
400.2921729792135
 20
72.84985969906071
 30
0.0
 40
1.0
100
AcDbArc
 50
55.00520088486105
 51
105.0000000000012
  0
LINE
  5
135A
330
18
100
AcDbEntity
  8
1
100
AcDbLine
 10
400.0333539341109
 20
73.81578552534978
 30
0.0
 11
396.7308065163246
 21
72.93087061178837
 31
0.0
  0
LINE
  5
135B
330
18
100
AcDbEntity
  8
1
100
AcDbLine
 10
396.0837589035683
 20
75.34568517751103
 30
0.0
 11
399.3863063213547
 21
76.23060009107243
 31
0.0
  0
LINE
  5
135C
330
18
100
AcDbEntity
  8
1
100
AcDbLine
 10
396.0837589035683
 20
75.34568517751103
 30
0.0
 11
396.7308065163246
 21
72.93087061178837
 31
0.0
  0
ARC
  5
135D
330
18
100
AcDbEntity
  8
1
100
AcDbCircle
 10
399.1274872762521
 20
77.19652591736149
 30
0.0
 40
1.0
100
AcDbArc
 50
285.0000000000012
 51
334.9947991151413
  0
LINE
  5
135E
330
18
100
AcDbEntity
  8
1
100
AcDbLine
 10
399.46449929558
 20
76.25155183536989
 30
0.0
 11
400.1115469083363
 21
73.83673726964724
 31
0.0
  0
LINE
  5
135F
330
18
100
AcDbEntity
  8
1
100
AcDbLine
 10
396.5366922324978
 20
73.65531498150514
 30
0.0
 11
396.2778731873952
 21
74.62124080779421
 31
0.0
  0
LINE
  5
1360
330
18
100
AcDbEntity
  8
1
100
AcDbLine
 10
403.2981730165212
 20
60.69787509776867
 30
0.0
 11
403.0393539714187
 21
59.73194927147961
 31
0.0
  0
LINE
  5
1361
330
18
100
AcDbEntity
  8
1
100
AcDbLine
 10
55.5045460372321
 20
235.8824616974957
 30
0.0
 11
300.5045460372319
 21
235.8824616974957
 31
0.0
  0
LINE
  5
1362
330
18
100
AcDbEntity
  8
1
100
AcDbLine
 10
55.5045460372321
 20
121.8824616974957
 30
0.0
 11
300.5045460372319
 21
121.8824616974957
 31
0.0
  0
DIMENSION
  5
1363
330
18
100
AcDbEntity
  8
2
100
AcDbDimension
  2
*D0
 10
300.5045460372319
 20
109.8824616974956
 30
0.0
 11
178.004546037232
 21
111.6324616974956
 31
0.0
 70
    32
 71
     5
 42
244.9999999999998
  3
STANDARD
100
AcDbAlignedDimension
 13
55.5045460372321
 23
121.8824616974957
 33
0.0
 14
300.5045460372319
 24
121.8824616974957
 34
0.0
100
AcDbRotatedDimension
1001
ACAD
1000
DSTYLE
1002
{
1070
    40
1040
1.0
1002
}
  0
LINE
  5
1364
330
18
100
AcDbEntity
  8
1
100
AcDbLine
 10
55.50454603723199
 20
103.0824616974957
 30
0.0
 11
300.5045460372319
 21
103.0824616974957
 31
0.0
  0
LINE
  5
1365
330
18
100
AcDbEntity
  8
1
100
AcDbLine
 10
185.5045460372321
 20
121.8824616974957
 30
0.0
 11
185.5045460372321
 21
235.8824616974957
 31
0.0
  0
LINE
  5
1366
330
18
100
AcDbEntity
  8
1
100
AcDbLine
 10
55.5045460372321
 20
121.8824616974957
 30
0.0
 11
55.5045460372321
 21
235.8824616974957
 31
0.0
  0
TEXT
  5
1367
330
18
100
AcDbEntity
  8
1
100
AcDbText
 10
178.1568303011913
 20
158.4154566213536
 30
0.0
 40
3.5
  1
高電圧危険開放厳禁
 50
90.0
  7
ＭＳゴシック
 72
     4
 11
176.504546037232
 21
178.8824616974957
 31
0.0
100
AcDbText
  0
LINE
  5
1368
330
18
100
AcDbEntity
  8
1
100
AcDbLine
 10
172.5045460372319
 20
155.8824616974957
 30
0.0
 11
172.5045460372319
 21
201.8824616974957
 31
0.0
  0
LINE
  5
1369
330
18
100
AcDbEntity
  8
1
100
AcDbLine
 10
180.5045460372319
 20
201.8824616974957
 30
0.0
 11
180.5045460372319
 21
155.8824616974957
 31
0.0
  0
ARC
  5
136A
330
18
100
AcDbEntity
  8
1
100
AcDbCircle
 10
147.004546037232
 20
171.3824616974957
 30
0.0
 40
2.0
100
AcDbArc
 50
0.0
 51
90.0
  0
ARC
  5
136B
330
18
100
AcDbEntity
  8
1
100
AcDbCircle
 10
142.0045460372321
 20
172.8824616974957
 30
0.0
 40
2.0
100
AcDbArc
 50
270.0
 51
0.0
  0
ARC
  5
136C
330
18
100
AcDbEntity
  8
1
100
AcDbCircle
 10
142.0045460372321
 20
172.8824616974957
 30
0.0
 40
2.0
100
AcDbArc
 50
180.0
 51
270.0
  0
ARC
  5
136D
330
18
100
AcDbEntity
  8
1
100
AcDbCircle
 10
147.004546037232
 20
171.3824616974957
 30
0.0
 40
2.0
100
AcDbArc
 50
90.0
 51
180.0
  0
ARC
  5
136E
330
18
100
AcDbEntity
  8
1
100
AcDbCircle
 10
137.0045460372321
 20
171.3824616974957
 30
0.0
 40
2.0
100
AcDbArc
 50
90.0
 51
180.0
  0
ARC
  5
136F
330
18
100
AcDbEntity
  8
1
100
AcDbCircle
 10
127.0045460372321
 20
171.3824616974957
 30
0.0
 40
2.0
100
AcDbArc
 50
0.0
 51
90.0
  0
ARC
  5
1370
330
18
100
AcDbEntity
  8
1
100
AcDbCircle
 10
132.0045460372321
 20
172.8824616974957
 30
0.0
 40
2.0
100
AcDbArc
 50
180.0
 51
270.0
  0
ARC
  5
1371
330
18
100
AcDbEntity
  8
1
100
AcDbCircle
 10
132.0045460372321
 20
172.8824616974957
 30
0.0
 40
2.0
100
AcDbArc
 50
270.0
 51
0.0
  0
ARC
  5
1372
330
18
100
AcDbEntity
  8
1
100
AcDbCircle
 10
137.0045460372321
 20
171.3824616974957
 30
0.0
 40
2.0
100
AcDbArc
 50
0.0
 51
90.0
  0
ARC
  5
1373
330
18
100
AcDbEntity
  8
1
100
AcDbCircle
 10
122.004546037232
 20
172.8824616974957
 30
0.0
 40
2.0
100
AcDbArc
 50
270.0
 51
0.0
  0
ARC
  5
1374
330
18
100
AcDbEntity
  8
1
100
AcDbCircle
 10
117.0045460372321
 20
171.3824616974957
 30
0.0
 40
2.0
100
AcDbArc
 50
0.0
 51
90.0
  0
ARC
  5
1375
330
18
100
AcDbEntity
  8
1
100
AcDbCircle
 10
117.0045460372321
 20
171.3824616974957
 30
0.0
 40
2.0
100
AcDbArc
 50
90.0
 51
180.0
  0
ARC
  5
1376
330
18
100
AcDbEntity
  8
1
100
AcDbCircle
 10
122.004546037232
 20
172.8824616974957
 30
0.0
 40
2.0
100
AcDbArc
 50
180.0
 51
270.0
  0
ARC
  5
1377
330
18
100
AcDbEntity
  8
1
100
AcDbCircle
 10
112.0045460372321
 20
172.8824616974957
 30
0.0
 40
2.0
100
AcDbArc
 50
180.0
 51
270.0
  0
ARC
  5
1378
330
18
100
AcDbEntity
  8
1
100
AcDbCircle
 10
107.0045460372321
 20
171.3824616974957
 30
0.0
 40
2.0
100
AcDbArc
 50
90.0
 51
180.0
  0
ARC
  5
1379
330
18
100
AcDbEntity
  8
1
100
AcDbCircle
 10
102.0045460372321
 20
172.8824616974957
 30
0.0
 40
2.0
100
AcDbArc
 50
270.0
 51
0.0
  0
ARC
  5
137A
330
18
100
AcDbEntity
  8
1
100
AcDbCircle
 10
107.0045460372321
 20
171.3824616974957
 30
0.0
 40
2.0
100
AcDbArc
 50
0.0
 51
90.0
  0
ARC
  5
137B
330
18
100
AcDbEntity
  8
1
100
AcDbCircle
 10
112.0045460372321
 20
172.8824616974957
 30
0.0
 40
2.0
100
AcDbArc
 50
270.0
 51
0.0
  0
ARC
  5
137C
330
18
100
AcDbEntity
  8
1
100
AcDbCircle
 10
97.0045460372321
 20
171.3824616974957
 30
0.0
 40
2.0
100
AcDbArc
 50
0.0
 51
90.0
  0
ARC
  5
137D
330
18
100
AcDbEntity
  8
1
100
AcDbCircle
 10
97.0045460372321
 20
171.3824616974957
 30
0.0
 40
2.0
100
AcDbArc
 50
90.0
 51
180.0
  0
ARC
  5
137E
330
18
100
AcDbEntity
  8
1
100
AcDbCircle
 10
92.0045460372321
 20
172.8824616974957
 30
0.0
 40
2.0
100
AcDbArc
 50
180.0
 51
270.0
  0
ARC
  5
137F
330
18
100
AcDbEntity
  8
1
100
AcDbCircle
 10
92.0045460372321
 20
172.8824616974957
 30
0.0
 40
2.0
100
AcDbArc
 50
270.0
 51
0.0
  0
ARC
  5
1380
330
18
100
AcDbEntity
  8
1
100
AcDbCircle
 10
87.0045460372321
 20
171.3824616974957
 30
0.0
 40
2.0
100
AcDbArc
 50
90.0
 51
180.0
  0
ARC
  5
1381
330
18
100
AcDbEntity
  8
1
100
AcDbCircle
 10
82.0045460372321
 20
172.8824616974957
 30
0.0
 40
2.0
100
AcDbArc
 50
270.0
 51
0.0
  0
ARC
  5
1382
330
18
100
AcDbEntity
  8
1
100
AcDbCircle
 10
77.0045460372321
 20
171.3824616974957
 30
0.0
 40
2.0
100
AcDbArc
 50
0.0
 51
90.0
  0
ARC
  5
1383
330
18
100
AcDbEntity
  8
1
100
AcDbCircle
 10
82.0045460372321
 20
172.8824616974957
 30
0.0
 40
2.0
100
AcDbArc
 50
180.0
 51
270.0
  0
ARC
  5
1384
330
18
100
AcDbEntity
  8
1
100
AcDbCircle
 10
87.0045460372321
 20
171.3824616974957
 30
0.0
 40
2.0
100
AcDbArc
 50
0.0
 51
90.0
  0
ARC
  5
1385
330
18
100
AcDbEntity
  8
1
100
AcDbCircle
 10
102.0045460372321
 20
172.8824616974957
 30
0.0
 40
2.0
100
AcDbArc
 50
180.0
 51
270.0
  0
ARC
  5
1386
330
18
100
AcDbEntity
  8
1
100
AcDbCircle
 10
127.0045460372321
 20
171.3824616974957
 30
0.0
 40
2.0
100
AcDbArc
 50
90.0
 51
180.0
  0
ARC
  5
1387
330
18
100
AcDbEntity
  8
1
100
AcDbCircle
 10
72.0045460372321
 20
172.8824616974957
 30
0.0
 40
2.0
100
AcDbArc
 50
180.0
 51
270.0
  0
ARC
  5
1388
330
18
100
AcDbEntity
  8
1
100
AcDbCircle
 10
72.0045460372321
 20
172.8824616974957
 30
0.0
 40
2.0
100
AcDbArc
 50
270.0
 51
0.0
  0
ARC
  5
1389
330
18
100
AcDbEntity
  8
1
100
AcDbCircle
 10
67.0045460372321
 20
171.3824616974957
 30
0.0
 40
2.0
100
AcDbArc
 50
90.0
 51
180.0
  0
ARC
  5
138A
330
18
100
AcDbEntity
  8
1
100
AcDbCircle
 10
67.0045460372321
 20
171.3824616974957
 30
0.0
 40
2.0
100
AcDbArc
 50
0.0
 51
90.0
  0
ARC
  5
138B
330
18
100
AcDbEntity
  8
1
100
AcDbCircle
 10
77.0045460372321
 20
171.3824616974957
 30
0.0
 40
2.0
100
AcDbArc
 50
90.0
 51
180.0
  0
ARC
  5
138C
330
18
100
AcDbEntity
  8
1
100
AcDbCircle
 10
147.004546037232
 20
159.3824616974957
 30
0.0
 40
2.0
100
AcDbArc
 50
180.0
 51
270.0
  0
ARC
  5
138D
330
18
100
AcDbEntity
  8
1
100
AcDbCircle
 10
147.004546037232
 20
144.3824616974957
 30
0.0
 40
2.0
100
AcDbArc
 50
90.0
 51
180.0
  0
ARC
  5
138E
330
18
100
AcDbEntity
  8
1
100
AcDbCircle
 10
147.004546037232
 20
132.3824616974957
 30
0.0
 40
2.0
100
AcDbArc
 50
180.0
 51
270.0
  0
ARC
  5
138F
330
18
100
AcDbEntity
  8
1
100
AcDbCircle
 10
147.004546037232
 20
95.08246169749572
 30
0.0
 40
2.0
100
AcDbArc
 50
90.0
 51
180.0
  0
ARC
  5
1390
330
18
100
AcDbEntity
  8
1
100
AcDbCircle
 10
147.004546037232
 20
83.08246169749571
 30
0.0
 40
2.0
100
AcDbArc
 50
180.0
 51
270.0
  0
ARC
  5
1391
330
18
100
AcDbEntity
  8
1
100
AcDbCircle
 10
92.0045460372321
 20
81.58246169749572
 30
0.0
 40
2.0
100
AcDbArc
 50
0.0
 51
90.0
  0
LINE
  5
1392
330
18
100
AcDbEntity
  8
1
100
AcDbLine
 10
89.00454603723209
 20
95.08246169749572
 30
0.0
 11
89.00454603723209
 21
83.08246169749571
 31
0.0
  0
LINE
  5
1393
330
18
100
AcDbEntity
  8
1
100
AcDbLine
 10
85.00454603723211
 20
83.08246169749571
 30
0.0
 11
85.00454603723211
 21
95.08246169749572
 31
0.0
  0
LINE
  5
1394
330
18
100
AcDbEntity
  8
1
100
AcDbLine
 10
79.0045460372321
 20
95.08246169749572
 30
0.0
 11
79.0045460372321
 21
83.08246169749571
 31
0.0
  0
LINE
  5
1395
330
18
100
AcDbEntity
  8
1
100
AcDbLine
 10
75.0045460372321
 20
83.08246169749571
 30
0.0
 11
75.0045460372321
 21
95.08246169749572
 31
0.0
  0
ARC
  5
1396
330
18
100
AcDbEntity
  8
1
100
AcDbCircle
 10
82.0045460372321
 20
81.58246169749572
 30
0.0
 40
2.0
100
AcDbArc
 50
90.0
 51
180.0
  0
LINE
  5
1397
330
18
100
AcDbEntity
  8
1
100
AcDbLine
 10
77.0045460372321
 20
81.08246169749572
 30
0.0
 11
77.0045460372321
 21
81.08246169749572
 31
0.0
  0
ARC
  5
1398
330
18
100
AcDbEntity
  8
1
100
AcDbCircle
 10
77.0045460372321
 20
83.08246169749571
 30
0.0
 40
2.0
100
AcDbArc
 50
270.0
 51
0.0
  0
ARC
  5
1399
330
18
100
AcDbEntity
  8
1
100
AcDbCircle
 10
77.0045460372321
 20
83.08246169749571
 30
0.0
 40
2.0
100
AcDbArc
 50
180.0
 51
270.0
  0
ARC
  5
139A
330
18
100
AcDbEntity
  8
1
100
AcDbCircle
 10
87.0045460372321
 20
83.08246169749571
 30
0.0
 40
2.0
100
AcDbArc
 50
270.0
 51
0.0
  0
ARC
  5
139B
330
18
100
AcDbEntity
  8
1
100
AcDbCircle
 10
82.0045460372321
 20
81.58246169749572
 30
0.0
 40
2.0
100
AcDbArc
 50
0.0
 51
90.0
  0
LINE
  5
139C
330
18
100
AcDbEntity
  8
1
100
AcDbLine
 10
82.0045460372321
 20
83.58246169749572
 30
0.0
 11
82.0045460372321
 21
83.58246169749572
 31
0.0
  0
LINE
  5
139D
330
18
100
AcDbEntity
  8
1
100
AcDbLine
 10
87.0045460372321
 20
81.08246169749572
 30
0.0
 11
87.0045460372321
 21
81.08246169749572
 31
0.0
  0
ARC
  5
139E
330
18
100
AcDbEntity
  8
1
100
AcDbCircle
 10
87.0045460372321
 20
83.08246169749571
 30
0.0
 40
2.0
100
AcDbArc
 50
180.0
 51
270.0
  0
LINE
  5
139F
330
18
100
AcDbEntity
  8
1
100
AcDbLine
 10
92.0045460372321
 20
83.58246169749572
 30
0.0
 11
92.0045460372321
 21
83.58246169749572
 31
0.0
  0
ARC
  5
13A0
330
18
100
AcDbEntity
  8
1
100
AcDbCircle
 10
92.0045460372321
 20
81.58246169749572
 30
0.0
 40
2.0
100
AcDbArc
 50
90.0
 51
180.0
  0
ARC
  5
13A1
330
18
100
AcDbEntity
  8
1
100
AcDbCircle
 10
77.0045460372321
 20
95.08246169749572
 30
0.0
 40
2.0
100
AcDbArc
 50
0.0
 51
90.0
  0
ARC
  5
13A2
330
18
100
AcDbEntity
  8
1
100
AcDbCircle
 10
77.0045460372321
 20
95.08246169749572
 30
0.0
 40
2.0
100
AcDbArc
 50
90.0
 51
180.0
  0
ARC
  5
13A3
330
18
100
AcDbEntity
  8
1
100
AcDbCircle
 10
87.0045460372321
 20
95.08246169749572
 30
0.0
 40
2.0
100
AcDbArc
 50
90.0
 51
180.0
  0
ARC
  5
13A4
330
18
100
AcDbEntity
  8
1
100
AcDbCircle
 10
87.0045460372321
 20
95.08246169749572
 30
0.0
 40
2.0
100
AcDbArc
 50
0.0
 51
90.0
  0
LINE
  5
13A5
330
18
100
AcDbEntity
  8
1
100
AcDbLine
 10
87.0045460372321
 20
97.08246169749571
 30
0.0
 11
87.0045460372321
 21
97.08246169749571
 31
0.0
  0
LINE
  5
13A6
330
18
100
AcDbEntity
  8
1
100
AcDbLine
 10
57.50454603723198
 20
121.8824616974957
 30
0.0
 11
63.50454603723199
 21
121.8824616974957
 31
0.0
  0
LINE
  5
13A7
330
18
100
AcDbEntity
  8
1
100
AcDbLine
 10
58.50454603723199
 20
119.8824616974957
 30
0.0
 11
62.50454603723198
 21
119.8824616974957
 31
0.0
  0
ARC
  5
13A8
330
18
100
AcDbEntity
  8
1
100
AcDbCircle
 10
58.50454603723199
 20
120.8824616974957
 30
0.0
 40
1.0
100
AcDbArc
 50
180.0
 51
270.0
  0
LINE
  5
13A9
330
18
100
AcDbEntity
  8
1
100
AcDbLine
 10
57.50454603723198
 20
120.8824616974957
 30
0.0
 11
57.50454603723198
 21
121.8824616974957
 31
0.0
  0
ARC
  5
13AA
330
18
100
AcDbEntity
  8
1
100
AcDbCircle
 10
62.50454603723198
 20
120.8824616974957
 30
0.0
 40
1.0
100
AcDbArc
 50
270.0
 51
0.0
  0
LINE
  5
13AB
330
18
100
AcDbEntity
  8
1
100
AcDbLine
 10
63.50454603723199
 20
120.8824616974957
 30
0.0
 11
63.50454603723199
 21
121.8824616974957
 31
0.0
  0
ARC
  5
13AC
330
18
100
AcDbEntity
  8
1
100
AcDbCircle
 10
117.0045460372321
 20
83.08246169749571
 30
0.0
 40
2.0
100
AcDbArc
 50
270.0
 51
0.0
  0
ARC
  5
13AD
330
18
100
AcDbEntity
  8
1
100
AcDbCircle
 10
117.0045460372321
 20
95.08246169749572
 30
0.0
 40
2.0
100
AcDbArc
 50
0.0
 51
90.0
  0
LINE
  5
13AE
330
18
100
AcDbEntity
  8
1
100
AcDbLine
 10
119.004546037232
 20
95.08246169749572
 30
0.0
 11
119.004546037232
 21
83.08246169749571
 31
0.0
  0
LINE
  5
13AF
330
18
100
AcDbEntity
  8
1
100
AcDbLine
 10
115.0045460372321
 20
83.08246169749571
 30
0.0
 11
115.0045460372321
 21
95.08246169749572
 31
0.0
  0
LINE
  5
13B0
330
18
100
AcDbEntity
  8
1
100
AcDbLine
 10
109.0045460372321
 20
95.08246169749572
 30
0.0
 11
109.0045460372321
 21
83.08246169749571
 31
0.0
  0
LINE
  5
13B1
330
18
100
AcDbEntity
  8
1
100
AcDbLine
 10
105.0045460372321
 20
83.08246169749571
 30
0.0
 11
105.0045460372321
 21
95.08246169749572
 31
0.0
  0
LINE
  5
13B2
330
18
100
AcDbEntity
  8
1
100
AcDbLine
 10
99.00454603723211
 20
95.08246169749572
 30
0.0
 11
99.00454603723211
 21
83.08246169749571
 31
0.0
  0
LINE
  5
13B3
330
18
100
AcDbEntity
  8
1
100
AcDbLine
 10
95.00454603723211
 20
83.08246169749571
 30
0.0
 11
95.00454603723211
 21
95.08246169749572
 31
0.0
  0
ARC
  5
13B4
330
18
100
AcDbEntity
  8
1
100
AcDbCircle
 10
107.0045460372321
 20
83.08246169749571
 30
0.0
 40
2.0
100
AcDbArc
 50
180.0
 51
270.0
  0
ARC
  5
13B5
330
18
100
AcDbEntity
  8
1
100
AcDbCircle
 10
102.0045460372321
 20
81.58246169749572
 30
0.0
 40
2.0
100
AcDbArc
 50
90.0
 51
180.0
  0
LINE
  5
13B6
330
18
100
AcDbEntity
  8
1
100
AcDbLine
 10
97.0045460372321
 20
81.08246169749572
 30
0.0
 11
97.0045460372321
 21
81.08246169749572
 31
0.0
  0
ARC
  5
13B7
330
18
100
AcDbEntity
  8
1
100
AcDbCircle
 10
97.0045460372321
 20
83.08246169749571
 30
0.0
 40
2.0
100
AcDbArc
 50
180.0
 51
270.0
  0
ARC
  5
13B8
330
18
100
AcDbEntity
  8
1
100
AcDbCircle
 10
97.0045460372321
 20
83.08246169749571
 30
0.0
 40
2.0
100
AcDbArc
 50
270.0
 51
0.0
  0
ARC
  5
13B9
330
18
100
AcDbEntity
  8
1
100
AcDbCircle
 10
102.0045460372321
 20
81.58246169749572
 30
0.0
 40
2.0
100
AcDbArc
 50
0.0
 51
90.0
  0
LINE
  5
13BA
330
18
100
AcDbEntity
  8
1
100
AcDbLine
 10
102.0045460372321
 20
83.58246169749572
 30
0.0
 11
102.0045460372321
 21
83.58246169749572
 31
0.0
  0
ARC
  5
13BB
330
18
100
AcDbEntity
  8
1
100
AcDbCircle
 10
112.0045460372321
 20
81.58246169749572
 30
0.0
 40
2.0
100
AcDbArc
 50
0.0
 51
90.0
  0
LINE
  5
13BC
330
18
100
AcDbEntity
  8
1
100
AcDbLine
 10
112.0045460372321
 20
83.58246169749572
 30
0.0
 11
112.0045460372321
 21
83.58246169749572
 31
0.0
  0
ARC
  5
13BD
330
18
100
AcDbEntity
  8
1
100
AcDbCircle
 10
112.0045460372321
 20
81.58246169749572
 30
0.0
 40
2.0
100
AcDbArc
 50
90.0
 51
180.0
  0
LINE
  5
13BE
330
18
100
AcDbEntity
  8
1
100
AcDbLine
 10
107.0045460372321
 20
81.08246169749572
 30
0.0
 11
107.0045460372321
 21
81.08246169749572
 31
0.0
  0
ARC
  5
13BF
330
18
100
AcDbEntity
  8
1
100
AcDbCircle
 10
107.0045460372321
 20
83.08246169749571
 30
0.0
 40
2.0
100
AcDbArc
 50
270.0
 51
0.0
  0
LINE
  5
13C0
330
18
100
AcDbEntity
  8
1
100
AcDbLine
 10
117.0045460372321
 20
81.08246169749572
 30
0.0
 11
117.0045460372321
 21
81.08246169749572
 31
0.0
  0
ARC
  5
13C1
330
18
100
AcDbEntity
  8
1
100
AcDbCircle
 10
117.0045460372321
 20
83.08246169749571
 30
0.0
 40
2.0
100
AcDbArc
 50
180.0
 51
270.0
  0
ARC
  5
13C2
330
18
100
AcDbEntity
  8
1
100
AcDbCircle
 10
107.0045460372321
 20
95.08246169749572
 30
0.0
 40
2.0
100
AcDbArc
 50
90.0
 51
180.0
  0
ARC
  5
13C3
330
18
100
AcDbEntity
  8
1
100
AcDbCircle
 10
97.0045460372321
 20
95.08246169749572
 30
0.0
 40
2.0
100
AcDbArc
 50
90.0
 51
180.0
  0
ARC
  5
13C4
330
18
100
AcDbEntity
  8
1
100
AcDbCircle
 10
97.0045460372321
 20
95.08246169749572
 30
0.0
 40
2.0
100
AcDbArc
 50
0.0
 51
90.0
  0
LINE
  5
13C5
330
18
100
AcDbEntity
  8
1
100
AcDbLine
 10
97.0045460372321
 20
97.08246169749571
 30
0.0
 11
97.0045460372321
 21
97.08246169749571
 31
0.0
  0
ARC
  5
13C6
330
18
100
AcDbEntity
  8
1
100
AcDbCircle
 10
117.0045460372321
 20
95.08246169749572
 30
0.0
 40
2.0
100
AcDbArc
 50
90.0
 51
180.0
  0
ARC
  5
13C7
330
18
100
AcDbEntity
  8
1
100
AcDbCircle
 10
107.0045460372321
 20
95.08246169749572
 30
0.0
 40
2.0
100
AcDbArc
 50
0.0
 51
90.0
  0
LINE
  5
13C8
330
18
100
AcDbEntity
  8
1
100
AcDbLine
 10
107.0045460372321
 20
97.08246169749571
 30
0.0
 11
107.0045460372321
 21
97.08246169749571
 31
0.0
  0
LINE
  5
13C9
330
18
100
AcDbEntity
  8
1
100
AcDbLine
 10
117.0045460372321
 20
97.08246169749571
 30
0.0
 11
117.0045460372321
 21
97.08246169749571
 31
0.0
  0
LINE
  5
13CA
330
18
100
AcDbEntity
  8
1
100
AcDbLine
 10
125.0045460372321
 20
83.08246169749571
 30
0.0
 11
125.0045460372321
 21
95.08246169749572
 31
0.0
  0
LINE
  5
13CB
330
18
100
AcDbEntity
  8
1
100
AcDbLine
 10
139.0045460372321
 20
95.08246169749572
 30
0.0
 11
139.0045460372321
 21
83.08246169749571
 31
0.0
  0
LINE
  5
13CC
330
18
100
AcDbEntity
  8
1
100
AcDbLine
 10
135.0045460372321
 20
83.08246169749571
 30
0.0
 11
135.0045460372321
 21
95.08246169749572
 31
0.0
  0
LINE
  5
13CD
330
18
100
AcDbEntity
  8
1
100
AcDbLine
 10
129.0045460372321
 20
95.08246169749572
 30
0.0
 11
129.0045460372321
 21
83.08246169749571
 31
0.0
  0
ARC
  5
13CE
330
18
100
AcDbEntity
  8
1
100
AcDbCircle
 10
132.0045460372321
 20
81.58246169749572
 30
0.0
 40
2.0
100
AcDbArc
 50
0.0
 51
90.0
  0
ARC
  5
13CF
330
18
100
AcDbEntity
  8
1
100
AcDbCircle
 10
127.0045460372321
 20
83.08246169749571
 30
0.0
 40
2.0
100
AcDbArc
 50
180.0
 51
270.0
  0
ARC
  5
13D0
330
18
100
AcDbEntity
  8
1
100
AcDbCircle
 10
122.004546037232
 20
81.58246169749572
 30
0.0
 40
2.0
100
AcDbArc
 50
0.0
 51
90.0
  0
LINE
  5
13D1
330
18
100
AcDbEntity
  8
1
100
AcDbLine
 10
122.004546037232
 20
83.58246169749572
 30
0.0
 11
122.004546037232
 21
83.58246169749572
 31
0.0
  0
ARC
  5
13D2
330
18
100
AcDbEntity
  8
1
100
AcDbCircle
 10
122.004546037232
 20
81.58246169749572
 30
0.0
 40
2.0
100
AcDbArc
 50
90.0
 51
180.0
  0
LINE
  5
13D3
330
18
100
AcDbEntity
  8
1
100
AcDbLine
 10
127.0045460372321
 20
81.08246169749572
 30
0.0
 11
127.0045460372321
 21
81.08246169749572
 31
0.0
  0
LINE
  5
13D4
330
18
100
AcDbEntity
  8
1
100
AcDbLine
 10
132.0045460372321
 20
83.58246169749572
 30
0.0
 11
132.0045460372321
 21
83.58246169749572
 31
0.0
  0
ARC
  5
13D5
330
18
100
AcDbEntity
  8
1
100
AcDbCircle
 10
132.0045460372321
 20
81.58246169749572
 30
0.0
 40
2.0
100
AcDbArc
 50
90.0
 51
180.0
  0
ARC
  5
13D6
330
18
100
AcDbEntity
  8
1
100
AcDbCircle
 10
127.0045460372321
 20
83.08246169749571
 30
0.0
 40
2.0
100
AcDbArc
 50
270.0
 51
0.0
  0
ARC
  5
13D7
330
18
100
AcDbEntity
  8
1
100
AcDbCircle
 10
137.0045460372321
 20
83.08246169749571
 30
0.0
 40
2.0
100
AcDbArc
 50
270.0
 51
0.0
  0
LINE
  5
13D8
330
18
100
AcDbEntity
  8
1
100
AcDbLine
 10
137.0045460372321
 20
81.08246169749572
 30
0.0
 11
137.0045460372321
 21
81.08246169749572
 31
0.0
  0
ARC
  5
13D9
330
18
100
AcDbEntity
  8
1
100
AcDbCircle
 10
137.0045460372321
 20
83.08246169749571
 30
0.0
 40
2.0
100
AcDbArc
 50
180.0
 51
270.0
  0
ARC
  5
13DA
330
18
100
AcDbEntity
  8
1
100
AcDbCircle
 10
142.0045460372321
 20
81.58246169749572
 30
0.0
 40
2.0
100
AcDbArc
 50
90.0
 51
180.0
  0
LINE
  5
13DB
330
18
100
AcDbEntity
  8
1
100
AcDbLine
 10
142.0045460372321
 20
83.58246169749572
 30
0.0
 11
142.0045460372321
 21
83.58246169749572
 31
0.0
  0
ARC
  5
13DC
330
18
100
AcDbEntity
  8
1
100
AcDbCircle
 10
142.0045460372321
 20
81.58246169749572
 30
0.0
 40
2.0
100
AcDbArc
 50
0.0
 51
90.0
  0
ARC
  5
13DD
330
18
100
AcDbEntity
  8
1
100
AcDbCircle
 10
127.0045460372321
 20
95.08246169749572
 30
0.0
 40
2.0
100
AcDbArc
 50
0.0
 51
90.0
  0
ARC
  5
13DE
330
18
100
AcDbEntity
  8
1
100
AcDbCircle
 10
127.0045460372321
 20
95.08246169749572
 30
0.0
 40
2.0
100
AcDbArc
 50
90.0
 51
180.0
  0
LINE
  5
13DF
330
18
100
AcDbEntity
  8
1
100
AcDbLine
 10
127.0045460372321
 20
97.08246169749571
 30
0.0
 11
127.0045460372321
 21
97.08246169749571
 31
0.0
  0
ARC
  5
13E0
330
18
100
AcDbEntity
  8
1
100
AcDbCircle
 10
137.0045460372321
 20
95.08246169749572
 30
0.0
 40
2.0
100
AcDbArc
 50
90.0
 51
180.0
  0
ARC
  5
13E1
330
18
100
AcDbEntity
  8
1
100
AcDbCircle
 10
137.0045460372321
 20
95.08246169749572
 30
0.0
 40
2.0
100
AcDbArc
 50
0.0
 51
90.0
  0
LINE
  5
13E2
330
18
100
AcDbEntity
  8
1
100
AcDbLine
 10
137.0045460372321
 20
97.08246169749571
 30
0.0
 11
137.0045460372321
 21
97.08246169749571
 31
0.0
  0
ARC
  5
13E3
330
18
100
AcDbEntity
  8
1
100
AcDbCircle
 10
92.0045460372321
 20
157.8824616974957
 30
0.0
 40
2.0
100
AcDbArc
 50
0.0
 51
90.0
  0
ARC
  5
13E4
330
18
100
AcDbEntity
  8
1
100
AcDbCircle
 10
92.0045460372321
 20
145.8824616974957
 30
0.0
 40
2.0
100
AcDbArc
 50
270.0
 51
0.0
  0
LINE
  5
13E5
330
18
100
AcDbEntity
  8
1
100
AcDbLine
 10
80.00454603723211
 20
145.8824616974957
 30
0.0
 11
80.00454603723211
 21
157.8824616974957
 31
0.0
  0
LINE
  5
13E6
330
18
100
AcDbEntity
  8
1
100
AcDbLine
 10
84.00454603723209
 20
157.8824616974957
 30
0.0
 11
84.00454603723209
 21
145.8824616974957
 31
0.0
  0
LINE
  5
13E7
330
18
100
AcDbEntity
  8
1
100
AcDbLine
 10
90.00454603723211
 20
145.8824616974957
 30
0.0
 11
90.00454603723211
 21
157.8824616974957
 31
0.0
  0
LINE
  5
13E8
330
18
100
AcDbEntity
  8
1
100
AcDbLine
 10
70.0045460372321
 20
145.8824616974957
 30
0.0
 11
70.0045460372321
 21
157.8824616974957
 31
0.0
  0
LINE
  5
13E9
330
18
100
AcDbEntity
  8
1
100
AcDbLine
 10
74.0045460372321
 20
157.8824616974957
 30
0.0
 11
74.0045460372321
 21
145.8824616974957
 31
0.0
  0
ARC
  5
13EA
330
18
100
AcDbEntity
  8
1
100
AcDbCircle
 10
67.0045460372321
 20
144.3824616974957
 30
0.0
 40
2.0
100
AcDbArc
 50
0.0
 51
90.0
  0
ARC
  5
13EB
330
18
100
AcDbEntity
  8
1
100
AcDbCircle
 10
67.0045460372321
 20
132.3824616974957
 30
0.0
 40
2.0
100
AcDbArc
 50
270.0
 51
0.0
  0
LINE
  5
13EC
330
18
100
AcDbEntity
  8
1
100
AcDbLine
 10
65.0045460372321
 20
132.3824616974957
 30
0.0
 11
65.0045460372321
 21
144.3824616974957
 31
0.0
  0
ARC
  5
13ED
330
18
100
AcDbEntity
  8
1
100
AcDbCircle
 10
67.0045460372321
 20
132.3824616974957
 30
0.0
 40
2.0
100
AcDbArc
 50
180.0
 51
270.0
  0
LINE
  5
13EE
330
18
100
AcDbEntity
  8
1
100
AcDbLine
 10
67.0045460372321
 20
130.3824616974957
 30
0.0
 11
67.0045460372321
 21
130.3824616974957
 31
0.0
  0
LINE
  5
13EF
330
18
100
AcDbEntity
  8
1
100
AcDbLine
 10
67.0045460372321
 20
146.3824616974957
 30
0.0
 11
67.0045460372321
 21
146.3824616974957
 31
0.0
  0
ARC
  5
13F0
330
18
100
AcDbEntity
  8
1
100
AcDbCircle
 10
67.0045460372321
 20
144.3824616974957
 30
0.0
 40
2.0
100
AcDbArc
 50
90.0
 51
180.0
  0
LINE
  5
13F1
330
18
100
AcDbEntity
  8
1
100
AcDbLine
 10
79.0045460372321
 20
144.3824616974957
 30
0.0
 11
79.0045460372321
 21
132.3824616974957
 31
0.0
  0
LINE
  5
13F2
330
18
100
AcDbEntity
  8
1
100
AcDbLine
 10
85.00454603723211
 20
132.3824616974957
 30
0.0
 11
85.00454603723211
 21
144.3824616974957
 31
0.0
  0
LINE
  5
13F3
330
18
100
AcDbEntity
  8
1
100
AcDbLine
 10
89.00454603723209
 20
144.3824616974957
 30
0.0
 11
89.00454603723209
 21
132.3824616974957
 31
0.0
  0
LINE
  5
13F4
330
18
100
AcDbEntity
  8
1
100
AcDbLine
 10
69.0045460372321
 20
144.3824616974957
 30
0.0
 11
69.0045460372321
 21
132.3824616974957
 31
0.0
  0
LINE
  5
13F5
330
18
100
AcDbEntity
  8
1
100
AcDbLine
 10
75.0045460372321
 20
132.3824616974957
 30
0.0
 11
75.0045460372321
 21
144.3824616974957
 31
0.0
  0
ARC
  5
13F6
330
18
100
AcDbEntity
  8
1
100
AcDbCircle
 10
77.0045460372321
 20
132.3824616974957
 30
0.0
 40
2.0
100
AcDbArc
 50
270.0
 51
0.0
  0
ARC
  5
13F7
330
18
100
AcDbEntity
  8
1
100
AcDbCircle
 10
77.0045460372321
 20
132.3824616974957
 30
0.0
 40
2.0
100
AcDbArc
 50
180.0
 51
270.0
  0
LINE
  5
13F8
330
18
100
AcDbEntity
  8
1
100
AcDbLine
 10
77.0045460372321
 20
130.3824616974957
 30
0.0
 11
77.0045460372321
 21
130.3824616974957
 31
0.0
  0
ARC
  5
13F9
330
18
100
AcDbEntity
  8
1
100
AcDbCircle
 10
87.0045460372321
 20
132.3824616974957
 30
0.0
 40
2.0
100
AcDbArc
 50
180.0
 51
270.0
  0
ARC
  5
13FA
330
18
100
AcDbEntity
  8
1
100
AcDbCircle
 10
87.0045460372321
 20
132.3824616974957
 30
0.0
 40
2.0
100
AcDbArc
 50
270.0
 51
0.0
  0
LINE
  5
13FB
330
18
100
AcDbEntity
  8
1
100
AcDbLine
 10
87.0045460372321
 20
130.3824616974957
 30
0.0
 11
87.0045460372321
 21
130.3824616974957
 31
0.0
  0
ARC
  5
13FC
330
18
100
AcDbEntity
  8
1
100
AcDbCircle
 10
82.0045460372321
 20
145.8824616974957
 30
0.0
 40
2.0
100
AcDbArc
 50
180.0
 51
270.0
  0
ARC
  5
13FD
330
18
100
AcDbEntity
  8
1
100
AcDbCircle
 10
72.0045460372321
 20
145.8824616974957
 30
0.0
 40
2.0
100
AcDbArc
 50
270.0
 51
0.0
  0
LINE
  5
13FE
330
18
100
AcDbEntity
  8
1
100
AcDbLine
 10
72.0045460372321
 20
143.8824616974957
 30
0.0
 11
72.0045460372321
 21
143.8824616974957
 31
0.0
  0
ARC
  5
13FF
330
18
100
AcDbEntity
  8
1
100
AcDbCircle
 10
72.0045460372321
 20
145.8824616974957
 30
0.0
 40
2.0
100
AcDbArc
 50
180.0
 51
270.0
  0
LINE
  5
1400
330
18
100
AcDbEntity
  8
1
100
AcDbLine
 10
77.0045460372321
 20
146.3824616974957
 30
0.0
 11
77.0045460372321
 21
146.3824616974957
 31
0.0
  0
ARC
  5
1401
330
18
100
AcDbEntity
  8
1
100
AcDbCircle
 10
77.0045460372321
 20
144.3824616974957
 30
0.0
 40
2.0
100
AcDbArc
 50
0.0
 51
90.0
  0
ARC
  5
1402
330
18
100
AcDbEntity
  8
1
100
AcDbCircle
 10
77.0045460372321
 20
144.3824616974957
 30
0.0
 40
2.0
100
AcDbArc
 50
90.0
 51
180.0
  0
ARC
  5
1403
330
18
100
AcDbEntity
  8
1
100
AcDbCircle
 10
87.0045460372321
 20
144.3824616974957
 30
0.0
 40
2.0
100
AcDbArc
 50
0.0
 51
90.0
  0
LINE
  5
1404
330
18
100
AcDbEntity
  8
1
100
AcDbLine
 10
87.0045460372321
 20
146.3824616974957
 30
0.0
 11
87.0045460372321
 21
146.3824616974957
 31
0.0
  0
LINE
  5
1405
330
18
100
AcDbEntity
  8
1
100
AcDbLine
 10
82.0045460372321
 20
143.8824616974957
 30
0.0
 11
82.0045460372321
 21
143.8824616974957
 31
0.0
  0
ARC
  5
1406
330
18
100
AcDbEntity
  8
1
100
AcDbCircle
 10
87.0045460372321
 20
144.3824616974957
 30
0.0
 40
2.0
100
AcDbArc
 50
90.0
 51
180.0
  0
ARC
  5
1407
330
18
100
AcDbEntity
  8
1
100
AcDbCircle
 10
82.0045460372321
 20
145.8824616974957
 30
0.0
 40
2.0
100
AcDbArc
 50
270.0
 51
0.0
  0
LINE
  5
1408
330
18
100
AcDbEntity
  8
1
100
AcDbLine
 10
92.0045460372321
 20
143.8824616974957
 30
0.0
 11
92.0045460372321
 21
143.8824616974957
 31
0.0
  0
ARC
  5
1409
330
18
100
AcDbEntity
  8
1
100
AcDbCircle
 10
92.0045460372321
 20
145.8824616974957
 30
0.0
 40
2.0
100
AcDbArc
 50
180.0
 51
270.0
  0
ARC
  5
140A
330
18
100
AcDbEntity
  8
1
100
AcDbCircle
 10
67.0045460372321
 20
159.3824616974957
 30
0.0
 40
2.0
100
AcDbArc
 50
270.0
 51
0.0
  0
LINE
  5
140B
330
18
100
AcDbEntity
  8
1
100
AcDbLine
 10
65.0045460372321
 20
159.3824616974957
 30
0.0
 11
65.0045460372321
 21
171.3824616974957
 31
0.0
  0
LINE
  5
140C
330
18
100
AcDbEntity
  8
1
100
AcDbLine
 10
67.0045460372321
 20
157.3824616974957
 30
0.0
 11
67.0045460372321
 21
157.3824616974957
 31
0.0
  0
ARC
  5
140D
330
18
100
AcDbEntity
  8
1
100
AcDbCircle
 10
67.0045460372321
 20
159.3824616974957
 30
0.0
 40
2.0
100
AcDbArc
 50
180.0
 51
270.0
  0
ARC
  5
140E
330
18
100
AcDbEntity
  8
1
100
AcDbCircle
 10
92.0045460372321
 20
157.8824616974957
 30
0.0
 40
2.0
100
AcDbArc
 50
90.0
 51
180.0
  0
ARC
  5
140F
330
18
100
AcDbEntity
  8
1
100
AcDbCircle
 10
82.0045460372321
 20
157.8824616974957
 30
0.0
 40
2.0
100
AcDbArc
 50
0.0
 51
90.0
  0
ARC
  5
1410
330
18
100
AcDbEntity
  8
1
100
AcDbCircle
 10
82.0045460372321
 20
157.8824616974957
 30
0.0
 40
2.0
100
AcDbArc
 50
90.0
 51
180.0
  0
LINE
  5
1411
330
18
100
AcDbEntity
  8
1
100
AcDbLine
 10
79.0045460372321
 20
171.3824616974957
 30
0.0
 11
79.0045460372321
 21
159.3824616974957
 31
0.0
  0
LINE
  5
1412
330
18
100
AcDbEntity
  8
1
100
AcDbLine
 10
85.00454603723211
 20
159.3824616974957
 30
0.0
 11
85.00454603723211
 21
171.3824616974957
 31
0.0
  0
LINE
  5
1413
330
18
100
AcDbEntity
  8
1
100
AcDbLine
 10
89.00454603723209
 20
171.3824616974957
 30
0.0
 11
89.00454603723209
 21
159.3824616974957
 31
0.0
  0
ARC
  5
1414
330
18
100
AcDbEntity
  8
1
100
AcDbCircle
 10
72.0045460372321
 20
157.8824616974957
 30
0.0
 40
2.0
100
AcDbArc
 50
90.0
 51
180.0
  0
ARC
  5
1415
330
18
100
AcDbEntity
  8
1
100
AcDbCircle
 10
72.0045460372321
 20
157.8824616974957
 30
0.0
 40
2.0
100
AcDbArc
 50
0.0
 51
90.0
  0
LINE
  5
1416
330
18
100
AcDbEntity
  8
1
100
AcDbLine
 10
69.0045460372321
 20
171.3824616974957
 30
0.0
 11
69.0045460372321
 21
159.3824616974957
 31
0.0
  0
LINE
  5
1417
330
18
100
AcDbEntity
  8
1
100
AcDbLine
 10
75.0045460372321
 20
159.3824616974957
 30
0.0
 11
75.0045460372321
 21
171.3824616974957
 31
0.0
  0
ARC
  5
1418
330
18
100
AcDbEntity
  8
1
100
AcDbCircle
 10
77.0045460372321
 20
159.3824616974957
 30
0.0
 40
2.0
100
AcDbArc
 50
270.0
 51
0.0
  0
LINE
  5
1419
330
18
100
AcDbEntity
  8
1
100
AcDbLine
 10
77.0045460372321
 20
157.3824616974957
 30
0.0
 11
77.0045460372321
 21
157.3824616974957
 31
0.0
  0
ARC
  5
141A
330
18
100
AcDbEntity
  8
1
100
AcDbCircle
 10
77.0045460372321
 20
159.3824616974957
 30
0.0
 40
2.0
100
AcDbArc
 50
180.0
 51
270.0
  0
ARC
  5
141B
330
18
100
AcDbEntity
  8
1
100
AcDbCircle
 10
87.0045460372321
 20
159.3824616974957
 30
0.0
 40
2.0
100
AcDbArc
 50
270.0
 51
0.0
  0
LINE
  5
141C
330
18
100
AcDbEntity
  8
1
100
AcDbLine
 10
87.0045460372321
 20
157.3824616974957
 30
0.0
 11
87.0045460372321
 21
157.3824616974957
 31
0.0
  0
ARC
  5
141D
330
18
100
AcDbEntity
  8
1
100
AcDbCircle
 10
87.0045460372321
 20
159.3824616974957
 30
0.0
 40
2.0
100
AcDbArc
 50
180.0
 51
270.0
  0
LINE
  5
141E
330
18
100
AcDbEntity
  8
1
100
AcDbLine
 10
72.0045460372321
 20
159.8824616974957
 30
0.0
 11
72.0045460372321
 21
159.8824616974957
 31
0.0
  0
LINE
  5
141F
330
18
100
AcDbEntity
  8
1
100
AcDbLine
 10
72.0045460372321
 20
170.8824616974957
 30
0.0
 11
72.0045460372321
 21
170.8824616974957
 31
0.0
  0
LINE
  5
1420
330
18
100
AcDbEntity
  8
1
100
AcDbLine
 10
82.0045460372321
 20
159.8824616974957
 30
0.0
 11
82.0045460372321
 21
159.8824616974957
 31
0.0
  0
LINE
  5
1421
330
18
100
AcDbEntity
  8
1
100
AcDbLine
 10
92.0045460372321
 20
159.8824616974957
 30
0.0
 11
92.0045460372321
 21
159.8824616974957
 31
0.0
  0
LINE
  5
1422
330
18
100
AcDbEntity
  8
1
100
AcDbLine
 10
82.0045460372321
 20
170.8824616974957
 30
0.0
 11
82.0045460372321
 21
170.8824616974957
 31
0.0
  0
LINE
  5
1423
330
18
100
AcDbEntity
  8
1
100
AcDbLine
 10
92.0045460372321
 20
170.8824616974957
 30
0.0
 11
92.0045460372321
 21
170.8824616974957
 31
0.0
  0
LINE
  5
1424
330
18
100
AcDbEntity
  8
1
100
AcDbLine
 10
130.0045460372321
 20
145.8824616974957
 30
0.0
 11
130.0045460372321
 21
157.8824616974957
 31
0.0
  0
LINE
  5
1425
330
18
100
AcDbEntity
  8
1
100
AcDbLine
 10
134.0045460372321
 20
157.8824616974957
 30
0.0
 11
134.0045460372321
 21
145.8824616974957
 31
0.0
  0
LINE
  5
1426
330
18
100
AcDbEntity
  8
1
100
AcDbLine
 10
144.004546037232
 20
157.8824616974957
 30
0.0
 11
144.004546037232
 21
145.8824616974957
 31
0.0
  0
LINE
  5
1427
330
18
100
AcDbEntity
  8
1
100
AcDbLine
 10
140.0045460372321
 20
145.8824616974957
 30
0.0
 11
140.0045460372321
 21
157.8824616974957
 31
0.0
  0
LINE
  5
1428
330
18
100
AcDbEntity
  8
1
100
AcDbLine
 10
104.0045460372321
 20
157.8824616974957
 30
0.0
 11
104.0045460372321
 21
145.8824616974957
 31
0.0
  0
LINE
  5
1429
330
18
100
AcDbEntity
  8
1
100
AcDbLine
 10
110.0045460372321
 20
145.8824616974957
 30
0.0
 11
110.0045460372321
 21
157.8824616974957
 31
0.0
  0
LINE
  5
142A
330
18
100
AcDbEntity
  8
1
100
AcDbLine
 10
114.0045460372321
 20
157.8824616974957
 30
0.0
 11
114.0045460372321
 21
145.8824616974957
 31
0.0
  0
LINE
  5
142B
330
18
100
AcDbEntity
  8
1
100
AcDbLine
 10
120.004546037232
 20
145.8824616974957
 30
0.0
 11
120.004546037232
 21
157.8824616974957
 31
0.0
  0
LINE
  5
142C
330
18
100
AcDbEntity
  8
1
100
AcDbLine
 10
124.004546037232
 20
157.8824616974957
 30
0.0
 11
124.004546037232
 21
145.8824616974957
 31
0.0
  0
LINE
  5
142D
330
18
100
AcDbEntity
  8
1
100
AcDbLine
 10
94.00454603723209
 20
157.8824616974957
 30
0.0
 11
94.00454603723209
 21
145.8824616974957
 31
0.0
  0
LINE
  5
142E
330
18
100
AcDbEntity
  8
1
100
AcDbLine
 10
100.0045460372321
 20
145.8824616974957
 30
0.0
 11
100.0045460372321
 21
157.8824616974957
 31
0.0
  0
ARC
  5
142F
330
18
100
AcDbEntity
  8
1
100
AcDbCircle
 10
117.0045460372321
 20
144.3824616974957
 30
0.0
 40
2.0
100
AcDbArc
 50
0.0
 51
90.0
  0
ARC
  5
1430
330
18
100
AcDbEntity
  8
1
100
AcDbCircle
 10
117.0045460372321
 20
132.3824616974957
 30
0.0
 40
2.0
100
AcDbArc
 50
270.0
 51
0.0
  0
LINE
  5
1431
330
18
100
AcDbEntity
  8
1
100
AcDbLine
 10
95.00454603723211
 20
132.3824616974957
 30
0.0
 11
95.00454603723211
 21
144.3824616974957
 31
0.0
  0
LINE
  5
1432
330
18
100
AcDbEntity
  8
1
100
AcDbLine
 10
99.00454603723211
 20
144.3824616974957
 30
0.0
 11
99.00454603723211
 21
132.3824616974957
 31
0.0
  0
LINE
  5
1433
330
18
100
AcDbEntity
  8
1
100
AcDbLine
 10
105.0045460372321
 20
132.3824616974957
 30
0.0
 11
105.0045460372321
 21
144.3824616974957
 31
0.0
  0
LINE
  5
1434
330
18
100
AcDbEntity
  8
1
100
AcDbLine
 10
109.0045460372321
 20
144.3824616974957
 30
0.0
 11
109.0045460372321
 21
132.3824616974957
 31
0.0
  0
LINE
  5
1435
330
18
100
AcDbEntity
  8
1
100
AcDbLine
 10
115.0045460372321
 20
132.3824616974957
 30
0.0
 11
115.0045460372321
 21
144.3824616974957
 31
0.0
  0
LINE
  5
1436
330
18
100
AcDbEntity
  8
1
100
AcDbLine
 10
119.004546037232
 20
144.3824616974957
 30
0.0
 11
119.004546037232
 21
132.3824616974957
 31
0.0
  0
ARC
  5
1437
330
18
100
AcDbEntity
  8
1
100
AcDbCircle
 10
107.0045460372321
 20
132.3824616974957
 30
0.0
 40
2.0
100
AcDbArc
 50
180.0
 51
270.0
  0
ARC
  5
1438
330
18
100
AcDbEntity
  8
1
100
AcDbCircle
 10
97.0045460372321
 20
132.3824616974957
 30
0.0
 40
2.0
100
AcDbArc
 50
270.0
 51
0.0
  0
ARC
  5
1439
330
18
100
AcDbEntity
  8
1
100
AcDbCircle
 10
97.0045460372321
 20
132.3824616974957
 30
0.0
 40
2.0
100
AcDbArc
 50
180.0
 51
270.0
  0
LINE
  5
143A
330
18
100
AcDbEntity
  8
1
100
AcDbLine
 10
97.0045460372321
 20
130.3824616974957
 30
0.0
 11
97.0045460372321
 21
130.3824616974957
 31
0.0
  0
ARC
  5
143B
330
18
100
AcDbEntity
  8
1
100
AcDbCircle
 10
117.0045460372321
 20
132.3824616974957
 30
0.0
 40
2.0
100
AcDbArc
 50
180.0
 51
270.0
  0
ARC
  5
143C
330
18
100
AcDbEntity
  8
1
100
AcDbCircle
 10
107.0045460372321
 20
132.3824616974957
 30
0.0
 40
2.0
100
AcDbArc
 50
270.0
 51
0.0
  0
LINE
  5
143D
330
18
100
AcDbEntity
  8
1
100
AcDbLine
 10
107.0045460372321
 20
130.3824616974957
 30
0.0
 11
107.0045460372321
 21
130.3824616974957
 31
0.0
  0
LINE
  5
143E
330
18
100
AcDbEntity
  8
1
100
AcDbLine
 10
117.0045460372321
 20
130.3824616974957
 30
0.0
 11
117.0045460372321
 21
130.3824616974957
 31
0.0
  0
ARC
  5
143F
330
18
100
AcDbEntity
  8
1
100
AcDbCircle
 10
107.0045460372321
 20
144.3824616974957
 30
0.0
 40
2.0
100
AcDbArc
 50
90.0
 51
180.0
  0
ARC
  5
1440
330
18
100
AcDbEntity
  8
1
100
AcDbCircle
 10
102.0045460372321
 20
145.8824616974957
 30
0.0
 40
2.0
100
AcDbArc
 50
180.0
 51
270.0
  0
LINE
  5
1441
330
18
100
AcDbEntity
  8
1
100
AcDbLine
 10
97.0045460372321
 20
146.3824616974957
 30
0.0
 11
97.0045460372321
 21
146.3824616974957
 31
0.0
  0
ARC
  5
1442
330
18
100
AcDbEntity
  8
1
100
AcDbCircle
 10
97.0045460372321
 20
144.3824616974957
 30
0.0
 40
2.0
100
AcDbArc
 50
0.0
 51
90.0
  0
ARC
  5
1443
330
18
100
AcDbEntity
  8
1
100
AcDbCircle
 10
97.0045460372321
 20
144.3824616974957
 30
0.0
 40
2.0
100
AcDbArc
 50
90.0
 51
180.0
  0
LINE
  5
1444
330
18
100
AcDbEntity
  8
1
100
AcDbLine
 10
102.0045460372321
 20
143.8824616974957
 30
0.0
 11
102.0045460372321
 21
143.8824616974957
 31
0.0
  0
ARC
  5
1445
330
18
100
AcDbEntity
  8
1
100
AcDbCircle
 10
102.0045460372321
 20
145.8824616974957
 30
0.0
 40
2.0
100
AcDbArc
 50
270.0
 51
0.0
  0
ARC
  5
1446
330
18
100
AcDbEntity
  8
1
100
AcDbCircle
 10
112.0045460372321
 20
145.8824616974957
 30
0.0
 40
2.0
100
AcDbArc
 50
270.0
 51
0.0
  0
LINE
  5
1447
330
18
100
AcDbEntity
  8
1
100
AcDbLine
 10
107.0045460372321
 20
146.3824616974957
 30
0.0
 11
107.0045460372321
 21
146.3824616974957
 31
0.0
  0
LINE
  5
1448
330
18
100
AcDbEntity
  8
1
100
AcDbLine
 10
112.0045460372321
 20
143.8824616974957
 30
0.0
 11
112.0045460372321
 21
143.8824616974957
 31
0.0
  0
ARC
  5
1449
330
18
100
AcDbEntity
  8
1
100
AcDbCircle
 10
107.0045460372321
 20
144.3824616974957
 30
0.0
 40
2.0
100
AcDbArc
 50
0.0
 51
90.0
  0
ARC
  5
144A
330
18
100
AcDbEntity
  8
1
100
AcDbCircle
 10
112.0045460372321
 20
145.8824616974957
 30
0.0
 40
2.0
100
AcDbArc
 50
180.0
 51
270.0
  0
LINE
  5
144B
330
18
100
AcDbEntity
  8
1
100
AcDbLine
 10
117.0045460372321
 20
146.3824616974957
 30
0.0
 11
117.0045460372321
 21
146.3824616974957
 31
0.0
  0
ARC
  5
144C
330
18
100
AcDbEntity
  8
1
100
AcDbCircle
 10
117.0045460372321
 20
144.3824616974957
 30
0.0
 40
2.0
100
AcDbArc
 50
90.0
 51
180.0
  0
LINE
  5
144D
330
18
100
AcDbEntity
  8
1
100
AcDbLine
 10
125.0045460372321
 20
132.3824616974957
 30
0.0
 11
125.0045460372321
 21
144.3824616974957
 31
0.0
  0
LINE
  5
144E
330
18
100
AcDbEntity
  8
1
100
AcDbLine
 10
129.0045460372321
 20
144.3824616974957
 30
0.0
 11
129.0045460372321
 21
132.3824616974957
 31
0.0
  0
LINE
  5
144F
330
18
100
AcDbEntity
  8
1
100
AcDbLine
 10
135.0045460372321
 20
132.3824616974957
 30
0.0
 11
135.0045460372321
 21
144.3824616974957
 31
0.0
  0
LINE
  5
1450
330
18
100
AcDbEntity
  8
1
100
AcDbLine
 10
139.0045460372321
 20
144.3824616974957
 30
0.0
 11
139.0045460372321
 21
132.3824616974957
 31
0.0
  0
ARC
  5
1451
330
18
100
AcDbEntity
  8
1
100
AcDbCircle
 10
127.0045460372321
 20
132.3824616974957
 30
0.0
 40
2.0
100
AcDbArc
 50
270.0
 51
0.0
  0
ARC
  5
1452
330
18
100
AcDbEntity
  8
1
100
AcDbCircle
 10
127.0045460372321
 20
132.3824616974957
 30
0.0
 40
2.0
100
AcDbArc
 50
180.0
 51
270.0
  0
LINE
  5
1453
330
18
100
AcDbEntity
  8
1
100
AcDbLine
 10
127.0045460372321
 20
130.3824616974957
 30
0.0
 11
127.0045460372321
 21
130.3824616974957
 31
0.0
  0
ARC
  5
1454
330
18
100
AcDbEntity
  8
1
100
AcDbCircle
 10
137.0045460372321
 20
132.3824616974957
 30
0.0
 40
2.0
100
AcDbArc
 50
180.0
 51
270.0
  0
ARC
  5
1455
330
18
100
AcDbEntity
  8
1
100
AcDbCircle
 10
137.0045460372321
 20
132.3824616974957
 30
0.0
 40
2.0
100
AcDbArc
 50
270.0
 51
0.0
  0
LINE
  5
1456
330
18
100
AcDbEntity
  8
1
100
AcDbLine
 10
137.0045460372321
 20
130.3824616974957
 30
0.0
 11
137.0045460372321
 21
130.3824616974957
 31
0.0
  0
ARC
  5
1457
330
18
100
AcDbEntity
  8
1
100
AcDbCircle
 10
132.0045460372321
 20
145.8824616974957
 30
0.0
 40
2.0
100
AcDbArc
 50
270.0
 51
0.0
  0
ARC
  5
1458
330
18
100
AcDbEntity
  8
1
100
AcDbCircle
 10
127.0045460372321
 20
144.3824616974957
 30
0.0
 40
2.0
100
AcDbArc
 50
90.0
 51
180.0
  0
LINE
  5
1459
330
18
100
AcDbEntity
  8
1
100
AcDbLine
 10
122.004546037232
 20
143.8824616974957
 30
0.0
 11
122.004546037232
 21
143.8824616974957
 31
0.0
  0
ARC
  5
145A
330
18
100
AcDbEntity
  8
1
100
AcDbCircle
 10
122.004546037232
 20
145.8824616974957
 30
0.0
 40
2.0
100
AcDbArc
 50
180.0
 51
270.0
  0
ARC
  5
145B
330
18
100
AcDbEntity
  8
1
100
AcDbCircle
 10
122.004546037232
 20
145.8824616974957
 30
0.0
 40
2.0
100
AcDbArc
 50
270.0
 51
0.0
  0
LINE
  5
145C
330
18
100
AcDbEntity
  8
1
100
AcDbLine
 10
127.0045460372321
 20
146.3824616974957
 30
0.0
 11
127.0045460372321
 21
146.3824616974957
 31
0.0
  0
LINE
  5
145D
330
18
100
AcDbEntity
  8
1
100
AcDbLine
 10
132.0045460372321
 20
143.8824616974957
 30
0.0
 11
132.0045460372321
 21
143.8824616974957
 31
0.0
  0
ARC
  5
145E
330
18
100
AcDbEntity
  8
1
100
AcDbCircle
 10
127.0045460372321
 20
144.3824616974957
 30
0.0
 40
2.0
100
AcDbArc
 50
0.0
 51
90.0
  0
ARC
  5
145F
330
18
100
AcDbEntity
  8
1
100
AcDbCircle
 10
132.0045460372321
 20
145.8824616974957
 30
0.0
 40
2.0
100
AcDbArc
 50
180.0
 51
270.0
  0
ARC
  5
1460
330
18
100
AcDbEntity
  8
1
100
AcDbCircle
 10
137.0045460372321
 20
144.3824616974957
 30
0.0
 40
2.0
100
AcDbArc
 50
0.0
 51
90.0
  0
LINE
  5
1461
330
18
100
AcDbEntity
  8
1
100
AcDbLine
 10
137.0045460372321
 20
146.3824616974957
 30
0.0
 11
137.0045460372321
 21
146.3824616974957
 31
0.0
  0
ARC
  5
1462
330
18
100
AcDbEntity
  8
1
100
AcDbCircle
 10
137.0045460372321
 20
144.3824616974957
 30
0.0
 40
2.0
100
AcDbArc
 50
90.0
 51
180.0
  0
LINE
  5
1463
330
18
100
AcDbEntity
  8
1
100
AcDbLine
 10
142.0045460372321
 20
143.8824616974957
 30
0.0
 11
142.0045460372321
 21
143.8824616974957
 31
0.0
  0
ARC
  5
1464
330
18
100
AcDbEntity
  8
1
100
AcDbCircle
 10
142.0045460372321
 20
145.8824616974957
 30
0.0
 40
2.0
100
AcDbArc
 50
270.0
 51
0.0
  0
ARC
  5
1465
330
18
100
AcDbEntity
  8
1
100
AcDbCircle
 10
142.0045460372321
 20
145.8824616974957
 30
0.0
 40
2.0
100
AcDbArc
 50
180.0
 51
270.0
  0
ARC
  5
1466
330
18
100
AcDbEntity
  8
1
100
AcDbCircle
 10
117.0045460372321
 20
159.3824616974957
 30
0.0
 40
2.0
100
AcDbArc
 50
270.0
 51
0.0
  0
ARC
  5
1467
330
18
100
AcDbEntity
  8
1
100
AcDbCircle
 10
112.0045460372321
 20
157.8824616974957
 30
0.0
 40
2.0
100
AcDbArc
 50
90.0
 51
180.0
  0
ARC
  5
1468
330
18
100
AcDbEntity
  8
1
100
AcDbCircle
 10
102.0045460372321
 20
157.8824616974957
 30
0.0
 40
2.0
100
AcDbArc
 50
0.0
 51
90.0
  0
ARC
  5
1469
330
18
100
AcDbEntity
  8
1
100
AcDbCircle
 10
112.0045460372321
 20
157.8824616974957
 30
0.0
 40
2.0
100
AcDbArc
 50
0.0
 51
90.0
  0
ARC
  5
146A
330
18
100
AcDbEntity
  8
1
100
AcDbCircle
 10
102.0045460372321
 20
157.8824616974957
 30
0.0
 40
2.0
100
AcDbArc
 50
90.0
 51
180.0
  0
LINE
  5
146B
330
18
100
AcDbEntity
  8
1
100
AcDbLine
 10
95.00454603723211
 20
159.3824616974957
 30
0.0
 11
95.00454603723211
 21
171.3824616974957
 31
0.0
  0
LINE
  5
146C
330
18
100
AcDbEntity
  8
1
100
AcDbLine
 10
99.00454603723211
 20
171.3824616974957
 30
0.0
 11
99.00454603723211
 21
159.3824616974957
 31
0.0
  0
LINE
  5
146D
330
18
100
AcDbEntity
  8
1
100
AcDbLine
 10
105.0045460372321
 20
159.3824616974957
 30
0.0
 11
105.0045460372321
 21
171.3824616974957
 31
0.0
  0
LINE
  5
146E
330
18
100
AcDbEntity
  8
1
100
AcDbLine
 10
109.0045460372321
 20
171.3824616974957
 30
0.0
 11
109.0045460372321
 21
159.3824616974957
 31
0.0
  0
LINE
  5
146F
330
18
100
AcDbEntity
  8
1
100
AcDbLine
 10
115.0045460372321
 20
159.3824616974957
 30
0.0
 11
115.0045460372321
 21
171.3824616974957
 31
0.0
  0
LINE
  5
1470
330
18
100
AcDbEntity
  8
1
100
AcDbLine
 10
119.004546037232
 20
171.3824616974957
 30
0.0
 11
119.004546037232
 21
159.3824616974957
 31
0.0
  0
ARC
  5
1471
330
18
100
AcDbEntity
  8
1
100
AcDbCircle
 10
107.0045460372321
 20
159.3824616974957
 30
0.0
 40
2.0
100
AcDbArc
 50
180.0
 51
270.0
  0
ARC
  5
1472
330
18
100
AcDbEntity
  8
1
100
AcDbCircle
 10
97.0045460372321
 20
159.3824616974957
 30
0.0
 40
2.0
100
AcDbArc
 50
270.0
 51
0.0
  0
LINE
  5
1473
330
18
100
AcDbEntity
  8
1
100
AcDbLine
 10
97.0045460372321
 20
157.3824616974957
 30
0.0
 11
97.0045460372321
 21
157.3824616974957
 31
0.0
  0
ARC
  5
1474
330
18
100
AcDbEntity
  8
1
100
AcDbCircle
 10
97.0045460372321
 20
159.3824616974957
 30
0.0
 40
2.0
100
AcDbArc
 50
180.0
 51
270.0
  0
LINE
  5
1475
330
18
100
AcDbEntity
  8
1
100
AcDbLine
 10
107.0045460372321
 20
157.3824616974957
 30
0.0
 11
107.0045460372321
 21
157.3824616974957
 31
0.0
  0
ARC
  5
1476
330
18
100
AcDbEntity
  8
1
100
AcDbCircle
 10
107.0045460372321
 20
159.3824616974957
 30
0.0
 40
2.0
100
AcDbArc
 50
270.0
 51
0.0
  0
LINE
  5
1477
330
18
100
AcDbEntity
  8
1
100
AcDbLine
 10
117.0045460372321
 20
157.3824616974957
 30
0.0
 11
117.0045460372321
 21
157.3824616974957
 31
0.0
  0
ARC
  5
1478
330
18
100
AcDbEntity
  8
1
100
AcDbCircle
 10
117.0045460372321
 20
159.3824616974957
 30
0.0
 40
2.0
100
AcDbArc
 50
180.0
 51
270.0
  0
LINE
  5
1479
330
18
100
AcDbEntity
  8
1
100
AcDbLine
 10
102.0045460372321
 20
159.8824616974957
 30
0.0
 11
102.0045460372321
 21
159.8824616974957
 31
0.0
  0
LINE
  5
147A
330
18
100
AcDbEntity
  8
1
100
AcDbLine
 10
102.0045460372321
 20
170.8824616974957
 30
0.0
 11
102.0045460372321
 21
170.8824616974957
 31
0.0
  0
LINE
  5
147B
330
18
100
AcDbEntity
  8
1
100
AcDbLine
 10
112.0045460372321
 20
159.8824616974957
 30
0.0
 11
112.0045460372321
 21
159.8824616974957
 31
0.0
  0
LINE
  5
147C
330
18
100
AcDbEntity
  8
1
100
AcDbLine
 10
112.0045460372321
 20
170.8824616974957
 30
0.0
 11
112.0045460372321
 21
170.8824616974957
 31
0.0
  0
ARC
  5
147D
330
18
100
AcDbEntity
  8
1
100
AcDbCircle
 10
142.0045460372321
 20
157.8824616974957
 30
0.0
 40
2.0
100
AcDbArc
 50
0.0
 51
90.0
  0
ARC
  5
147E
330
18
100
AcDbEntity
  8
1
100
AcDbCircle
 10
142.0045460372321
 20
157.8824616974957
 30
0.0
 40
2.0
100
AcDbArc
 50
90.0
 51
180.0
  0
ARC
  5
147F
330
18
100
AcDbEntity
  8
1
100
AcDbCircle
 10
132.0045460372321
 20
157.8824616974957
 30
0.0
 40
2.0
100
AcDbArc
 50
90.0
 51
180.0
  0
ARC
  5
1480
330
18
100
AcDbEntity
  8
1
100
AcDbCircle
 10
132.0045460372321
 20
157.8824616974957
 30
0.0
 40
2.0
100
AcDbArc
 50
0.0
 51
90.0
  0
LINE
  5
1481
330
18
100
AcDbEntity
  8
1
100
AcDbLine
 10
129.0045460372321
 20
171.3824616974957
 30
0.0
 11
129.0045460372321
 21
159.3824616974957
 31
0.0
  0
LINE
  5
1482
330
18
100
AcDbEntity
  8
1
100
AcDbLine
 10
135.0045460372321
 20
159.3824616974957
 30
0.0
 11
135.0045460372321
 21
171.3824616974957
 31
0.0
  0
LINE
  5
1483
330
18
100
AcDbEntity
  8
1
100
AcDbLine
 10
139.0045460372321
 20
171.3824616974957
 30
0.0
 11
139.0045460372321
 21
159.3824616974957
 31
0.0
  0
ARC
  5
1484
330
18
100
AcDbEntity
  8
1
100
AcDbCircle
 10
122.004546037232
 20
157.8824616974957
 30
0.0
 40
2.0
100
AcDbArc
 50
0.0
 51
90.0
  0
ARC
  5
1485
330
18
100
AcDbEntity
  8
1
100
AcDbCircle
 10
122.004546037232
 20
157.8824616974957
 30
0.0
 40
2.0
100
AcDbArc
 50
90.0
 51
180.0
  0
LINE
  5
1486
330
18
100
AcDbEntity
  8
1
100
AcDbLine
 10
125.0045460372321
 20
159.3824616974957
 30
0.0
 11
125.0045460372321
 21
171.3824616974957
 31
0.0
  0
ARC
  5
1487
330
18
100
AcDbEntity
  8
1
100
AcDbCircle
 10
127.0045460372321
 20
159.3824616974957
 30
0.0
 40
2.0
100
AcDbArc
 50
180.0
 51
270.0
  0
ARC
  5
1488
330
18
100
AcDbEntity
  8
1
100
AcDbCircle
 10
127.0045460372321
 20
159.3824616974957
 30
0.0
 40
2.0
100
AcDbArc
 50
270.0
 51
0.0
  0
LINE
  5
1489
330
18
100
AcDbEntity
  8
1
100
AcDbLine
 10
127.0045460372321
 20
157.3824616974957
 30
0.0
 11
127.0045460372321
 21
157.3824616974957
 31
0.0
  0
ARC
  5
148A
330
18
100
AcDbEntity
  8
1
100
AcDbCircle
 10
137.0045460372321
 20
159.3824616974957
 30
0.0
 40
2.0
100
AcDbArc
 50
270.0
 51
0.0
  0
LINE
  5
148B
330
18
100
AcDbEntity
  8
1
100
AcDbLine
 10
137.0045460372321
 20
157.3824616974957
 30
0.0
 11
137.0045460372321
 21
157.3824616974957
 31
0.0
  0
ARC
  5
148C
330
18
100
AcDbEntity
  8
1
100
AcDbCircle
 10
137.0045460372321
 20
159.3824616974957
 30
0.0
 40
2.0
100
AcDbArc
 50
180.0
 51
270.0
  0
LINE
  5
148D
330
18
100
AcDbEntity
  8
1
100
AcDbLine
 10
122.004546037232
 20
159.8824616974957
 30
0.0
 11
122.004546037232
 21
159.8824616974957
 31
0.0
  0
LINE
  5
148E
330
18
100
AcDbEntity
  8
1
100
AcDbLine
 10
132.0045460372321
 20
159.8824616974957
 30
0.0
 11
132.0045460372321
 21
159.8824616974957
 31
0.0
  0
LINE
  5
148F
330
18
100
AcDbEntity
  8
1
100
AcDbLine
 10
122.004546037232
 20
170.8824616974957
 30
0.0
 11
122.004546037232
 21
170.8824616974957
 31
0.0
  0
LINE
  5
1490
330
18
100
AcDbEntity
  8
1
100
AcDbLine
 10
132.0045460372321
 20
170.8824616974957
 30
0.0
 11
132.0045460372321
 21
170.8824616974957
 31
0.0
  0
LINE
  5
1491
330
18
100
AcDbEntity
  8
1
100
AcDbLine
 10
142.0045460372321
 20
159.8824616974957
 30
0.0
 11
142.0045460372321
 21
159.8824616974957
 31
0.0
  0
LINE
  5
1492
330
18
100
AcDbEntity
  8
1
100
AcDbLine
 10
142.0045460372321
 20
170.8824616974957
 30
0.0
 11
142.0045460372321
 21
170.8824616974957
 31
0.0
  0
LINE
  5
1493
330
18
100
AcDbEntity
  8
1
100
AcDbLine
 10
145.004546037232
 20
83.08246169749571
 30
0.0
 11
145.004546037232
 21
95.08246169749572
 31
0.0
  0
LINE
  5
1494
330
18
100
AcDbEntity
  8
1
100
AcDbLine
 10
149.004546037232
 20
95.08246169749572
 30
0.0
 11
149.004546037232
 21
83.08246169749571
 31
0.0
  0
LINE
  5
1495
330
18
100
AcDbEntity
  8
1
100
AcDbLine
 10
147.004546037232
 20
81.08246169749572
 30
0.0
 11
147.004546037232
 21
81.08246169749572
 31
0.0
  0
ARC
  5
1496
330
18
100
AcDbEntity
  8
1
100
AcDbCircle
 10
147.004546037232
 20
83.08246169749571
 30
0.0
 40
2.0
100
AcDbArc
 50
270.0
 51
0.0
  0
ARC
  5
1497
330
18
100
AcDbEntity
  8
1
100
AcDbCircle
 10
147.004546037232
 20
95.08246169749572
 30
0.0
 40
2.0
100
AcDbArc
 50
0.0
 51
90.0
  0
LINE
  5
1498
330
18
100
AcDbEntity
  8
1
100
AcDbLine
 10
147.004546037232
 20
97.08246169749571
 30
0.0
 11
147.004546037232
 21
97.08246169749571
 31
0.0
  0
ARC
  5
1499
330
18
100
AcDbEntity
  8
1
100
AcDbCircle
 10
191.004546037232
 20
120.8824616974957
 30
0.0
 40
1.0
100
AcDbArc
 50
180.0
 51
270.0
  0
ARC
  5
149A
330
18
100
AcDbEntity
  8
1
100
AcDbCircle
 10
195.0045460372319
 20
120.8824616974957
 30
0.0
 40
1.0
100
AcDbArc
 50
270.0
 51
0.0
  0
LINE
  5
149B
330
18
100
AcDbEntity
  8
1
100
AcDbLine
 10
196.0045460372319
 20
120.8824616974957
 30
0.0
 11
196.0045460372319
 21
121.8824616974957
 31
0.0
  0
LINE
  5
149C
330
18
100
AcDbEntity
  8
1
100
AcDbLine
 10
190.004546037232
 20
120.8824616974957
 30
0.0
 11
190.004546037232
 21
121.8824616974957
 31
0.0
  0
LINE
  5
149D
330
18
100
AcDbEntity
  8
1
100
AcDbLine
 10
190.004546037232
 20
121.8824616974957
 30
0.0
 11
196.0045460372319
 21
121.8824616974957
 31
0.0
  0
LINE
  5
149E
330
18
100
AcDbEntity
  8
1
100
AcDbLine
 10
191.004546037232
 20
119.8824616974957
 30
0.0
 11
195.0045460372319
 21
119.8824616974957
 31
0.0
  0
CIRCLE
  5
149F
330
18
100
AcDbEntity
  8
1
100
AcDbCircle
 10
167.5045460372321
 20
143.8824616974957
 30
0.0
 40
4.0
  0
LINE
  5
14A0
330
18
100
AcDbEntity
  8
1
100
AcDbLine
 10
149.004546037232
 20
144.3824616974957
 30
0.0
 11
149.004546037232
 21
132.3824616974957
 31
0.0
  0
LINE
  5
14A1
330
18
100
AcDbEntity
  8
1
100
AcDbLine
 10
145.004546037232
 20
132.3824616974957
 30
0.0
 11
145.004546037232
 21
144.3824616974957
 31
0.0
  0
ARC
  5
14A2
330
18
100
AcDbEntity
  8
1
100
AcDbCircle
 10
147.004546037232
 20
132.3824616974957
 30
0.0
 40
2.0
100
AcDbArc
 50
270.0
 51
0.0
  0
LINE
  5
14A3
330
18
100
AcDbEntity
  8
1
100
AcDbLine
 10
147.004546037232
 20
130.3824616974957
 30
0.0
 11
147.004546037232
 21
130.3824616974957
 31
0.0
  0
LINE
  5
14A4
330
18
100
AcDbEntity
  8
1
100
AcDbLine
 10
147.004546037232
 20
146.3824616974957
 30
0.0
 11
147.004546037232
 21
146.3824616974957
 31
0.0
  0
ARC
  5
14A5
330
18
100
AcDbEntity
  8
1
100
AcDbCircle
 10
147.004546037232
 20
144.3824616974957
 30
0.0
 40
2.0
100
AcDbArc
 50
0.0
 51
90.0
  0
CIRCLE
  5
14A6
330
18
100
AcDbEntity
  8
1
100
AcDbCircle
 10
167.5045460372321
 20
143.8824616974957
 30
0.0
 40
3.0
  0
LINE
  5
14A7
330
18
100
AcDbEntity
  8
1
100
AcDbLine
 10
149.004546037232
 20
171.3824616974957
 30
0.0
 11
149.004546037232
 21
159.3824616974957
 31
0.0
  0
LINE
  5
14A8
330
18
100
AcDbEntity
  8
1
100
AcDbLine
 10
145.004546037232
 20
159.3824616974957
 30
0.0
 11
145.004546037232
 21
171.3824616974957
 31
0.0
  0
ARC
  5
14A9
330
18
100
AcDbEntity
  8
1
100
AcDbCircle
 10
147.004546037232
 20
159.3824616974957
 30
0.0
 40
2.0
100
AcDbArc
 50
270.0
 51
0.0
  0
LINE
  5
14AA
330
18
100
AcDbEntity
  8
1
100
AcDbLine
 10
147.004546037232
 20
157.3824616974957
 30
0.0
 11
147.004546037232
 21
157.3824616974957
 31
0.0
  0
LINE
  5
14AB
330
18
100
AcDbEntity
  8
1
100
AcDbLine
 10
180.5045460372319
 20
155.8824616974957
 30
0.0
 11
172.5045460372319
 21
155.8824616974957
 31
0.0
  0
ARC
  5
14AC
330
18
100
AcDbEntity
  8
1
100
AcDbCircle
 10
147.004546037232
 20
225.3824616974957
 30
0.0
 40
2.0
100
AcDbArc
 50
90.0
 51
180.0
  0
ARC
  5
14AD
330
18
100
AcDbEntity
  8
1
100
AcDbCircle
 10
147.004546037232
 20
213.3824616974957
 30
0.0
 40
2.0
100
AcDbArc
 50
180.0
 51
270.0
  0
ARC
  5
14AE
330
18
100
AcDbEntity
  8
1
100
AcDbCircle
 10
147.004546037232
 20
198.3824616974957
 30
0.0
 40
2.0
100
AcDbArc
 50
90.0
 51
180.0
  0
ARC
  5
14AF
330
18
100
AcDbEntity
  8
1
100
AcDbCircle
 10
147.004546037232
 20
186.3824616974957
 30
0.0
 40
2.0
100
AcDbArc
 50
180.0
 51
270.0
  0
LINE
  5
14B0
330
18
100
AcDbEntity
  8
1
100
AcDbLine
 10
129.0045460372321
 20
225.3824616974957
 30
0.0
 11
129.0045460372321
 21
213.3824616974957
 31
0.0
  0
LINE
  5
14B1
330
18
100
AcDbEntity
  8
1
100
AcDbLine
 10
135.0045460372321
 20
213.3824616974957
 30
0.0
 11
135.0045460372321
 21
225.3824616974957
 31
0.0
  0
LINE
  5
14B2
330
18
100
AcDbEntity
  8
1
100
AcDbLine
 10
139.0045460372321
 20
225.3824616974957
 30
0.0
 11
139.0045460372321
 21
213.3824616974957
 31
0.0
  0
LINE
  5
14B3
330
18
100
AcDbEntity
  8
1
100
AcDbLine
 10
105.0045460372321
 20
213.3824616974957
 30
0.0
 11
105.0045460372321
 21
225.3824616974957
 31
0.0
  0
LINE
  5
14B4
330
18
100
AcDbEntity
  8
1
100
AcDbLine
 10
109.0045460372321
 20
225.3824616974957
 30
0.0
 11
109.0045460372321
 21
213.3824616974957
 31
0.0
  0
LINE
  5
14B5
330
18
100
AcDbEntity
  8
1
100
AcDbLine
 10
115.0045460372321
 20
213.3824616974957
 30
0.0
 11
115.0045460372321
 21
225.3824616974957
 31
0.0
  0
LINE
  5
14B6
330
18
100
AcDbEntity
  8
1
100
AcDbLine
 10
119.004546037232
 20
225.3824616974957
 30
0.0
 11
119.004546037232
 21
213.3824616974957
 31
0.0
  0
LINE
  5
14B7
330
18
100
AcDbEntity
  8
1
100
AcDbLine
 10
125.0045460372321
 20
213.3824616974957
 30
0.0
 11
125.0045460372321
 21
225.3824616974957
 31
0.0
  0
LINE
  5
14B8
330
18
100
AcDbEntity
  8
1
100
AcDbLine
 10
79.0045460372321
 20
225.3824616974957
 30
0.0
 11
79.0045460372321
 21
213.3824616974957
 31
0.0
  0
LINE
  5
14B9
330
18
100
AcDbEntity
  8
1
100
AcDbLine
 10
85.00454603723211
 20
213.3824616974957
 30
0.0
 11
85.00454603723211
 21
225.3824616974957
 31
0.0
  0
LINE
  5
14BA
330
18
100
AcDbEntity
  8
1
100
AcDbLine
 10
89.00454603723209
 20
225.3824616974957
 30
0.0
 11
89.00454603723209
 21
213.3824616974957
 31
0.0
  0
LINE
  5
14BB
330
18
100
AcDbEntity
  8
1
100
AcDbLine
 10
95.00454603723211
 20
213.3824616974957
 30
0.0
 11
95.00454603723211
 21
225.3824616974957
 31
0.0
  0
LINE
  5
14BC
330
18
100
AcDbEntity
  8
1
100
AcDbLine
 10
99.00454603723211
 20
225.3824616974957
 30
0.0
 11
99.00454603723211
 21
213.3824616974957
 31
0.0
  0
LINE
  5
14BD
330
18
100
AcDbEntity
  8
1
100
AcDbLine
 10
65.0045460372321
 20
213.3824616974957
 30
0.0
 11
65.0045460372321
 21
225.3824616974957
 31
0.0
  0
LINE
  5
14BE
330
18
100
AcDbEntity
  8
1
100
AcDbLine
 10
69.0045460372321
 20
225.3824616974957
 30
0.0
 11
69.0045460372321
 21
213.3824616974957
 31
0.0
  0
LINE
  5
14BF
330
18
100
AcDbEntity
  8
1
100
AcDbLine
 10
75.0045460372321
 20
213.3824616974957
 30
0.0
 11
75.0045460372321
 21
225.3824616974957
 31
0.0
  0
ARC
  5
14C0
330
18
100
AcDbEntity
  8
1
100
AcDbCircle
 10
92.0045460372321
 20
211.8824616974957
 30
0.0
 40
2.0
100
AcDbArc
 50
0.0
 51
90.0
  0
ARC
  5
14C1
330
18
100
AcDbEntity
  8
1
100
AcDbCircle
 10
92.0045460372321
 20
199.8824616974957
 30
0.0
 40
2.0
100
AcDbArc
 50
270.0
 51
0.0
  0
ARC
  5
14C2
330
18
100
AcDbEntity
  8
1
100
AcDbCircle
 10
92.0045460372321
 20
184.8824616974957
 30
0.0
 40
2.0
100
AcDbArc
 50
0.0
 51
90.0
  0
LINE
  5
14C3
330
18
100
AcDbEntity
  8
1
100
AcDbLine
 10
79.0045460372321
 20
198.3824616974957
 30
0.0
 11
79.0045460372321
 21
186.3824616974957
 31
0.0
  0
LINE
  5
14C4
330
18
100
AcDbEntity
  8
1
100
AcDbLine
 10
85.00454603723211
 20
186.3824616974957
 30
0.0
 11
85.00454603723211
 21
198.3824616974957
 31
0.0
  0
LINE
  5
14C5
330
18
100
AcDbEntity
  8
1
100
AcDbLine
 10
89.00454603723209
 20
198.3824616974957
 30
0.0
 11
89.00454603723209
 21
186.3824616974957
 31
0.0
  0
LINE
  5
14C6
330
18
100
AcDbEntity
  8
1
100
AcDbLine
 10
65.0045460372321
 20
186.3824616974957
 30
0.0
 11
65.0045460372321
 21
198.3824616974957
 31
0.0
  0
LINE
  5
14C7
330
18
100
AcDbEntity
  8
1
100
AcDbLine
 10
69.0045460372321
 20
198.3824616974957
 30
0.0
 11
69.0045460372321
 21
186.3824616974957
 31
0.0
  0
LINE
  5
14C8
330
18
100
AcDbEntity
  8
1
100
AcDbLine
 10
75.0045460372321
 20
186.3824616974957
 30
0.0
 11
75.0045460372321
 21
198.3824616974957
 31
0.0
  0
ARC
  5
14C9
330
18
100
AcDbEntity
  8
1
100
AcDbCircle
 10
67.0045460372321
 20
186.3824616974957
 30
0.0
 40
2.0
100
AcDbArc
 50
270.0
 51
0.0
  0
LINE
  5
14CA
330
18
100
AcDbEntity
  8
1
100
AcDbLine
 10
67.0045460372321
 20
173.3824616974957
 30
0.0
 11
67.0045460372321
 21
173.3824616974957
 31
0.0
  0
LINE
  5
14CB
330
18
100
AcDbEntity
  8
1
100
AcDbLine
 10
67.0045460372321
 20
184.3824616974957
 30
0.0
 11
67.0045460372321
 21
184.3824616974957
 31
0.0
  0
ARC
  5
14CC
330
18
100
AcDbEntity
  8
1
100
AcDbCircle
 10
67.0045460372321
 20
186.3824616974957
 30
0.0
 40
2.0
100
AcDbArc
 50
180.0
 51
270.0
  0
LINE
  5
14CD
330
18
100
AcDbEntity
  8
1
100
AcDbLine
 10
80.00454603723211
 20
172.8824616974957
 30
0.0
 11
80.00454603723211
 21
184.8824616974957
 31
0.0
  0
LINE
  5
14CE
330
18
100
AcDbEntity
  8
1
100
AcDbLine
 10
84.00454603723209
 20
184.8824616974957
 30
0.0
 11
84.00454603723209
 21
172.8824616974957
 31
0.0
  0
LINE
  5
14CF
330
18
100
AcDbEntity
  8
1
100
AcDbLine
 10
90.00454603723211
 20
172.8824616974957
 30
0.0
 11
90.00454603723211
 21
184.8824616974957
 31
0.0
  0
LINE
  5
14D0
330
18
100
AcDbEntity
  8
1
100
AcDbLine
 10
70.0045460372321
 20
172.8824616974957
 30
0.0
 11
70.0045460372321
 21
184.8824616974957
 31
0.0
  0
LINE
  5
14D1
330
18
100
AcDbEntity
  8
1
100
AcDbLine
 10
74.0045460372321
 20
184.8824616974957
 30
0.0
 11
74.0045460372321
 21
172.8824616974957
 31
0.0
  0
LINE
  5
14D2
330
18
100
AcDbEntity
  8
1
100
AcDbLine
 10
77.0045460372321
 20
173.3824616974957
 30
0.0
 11
77.0045460372321
 21
173.3824616974957
 31
0.0
  0
LINE
  5
14D3
330
18
100
AcDbEntity
  8
1
100
AcDbLine
 10
87.0045460372321
 20
173.3824616974957
 30
0.0
 11
87.0045460372321
 21
173.3824616974957
 31
0.0
  0
ARC
  5
14D4
330
18
100
AcDbEntity
  8
1
100
AcDbCircle
 10
82.0045460372321
 20
184.8824616974957
 30
0.0
 40
2.0
100
AcDbArc
 50
90.0
 51
180.0
  0
ARC
  5
14D5
330
18
100
AcDbEntity
  8
1
100
AcDbCircle
 10
72.0045460372321
 20
184.8824616974957
 30
0.0
 40
2.0
100
AcDbArc
 50
0.0
 51
90.0
  0
LINE
  5
14D6
330
18
100
AcDbEntity
  8
1
100
AcDbLine
 10
72.0045460372321
 20
186.8824616974957
 30
0.0
 11
72.0045460372321
 21
186.8824616974957
 31
0.0
  0
ARC
  5
14D7
330
18
100
AcDbEntity
  8
1
100
AcDbCircle
 10
72.0045460372321
 20
184.8824616974957
 30
0.0
 40
2.0
100
AcDbArc
 50
90.0
 51
180.0
  0
LINE
  5
14D8
330
18
100
AcDbEntity
  8
1
100
AcDbLine
 10
77.0045460372321
 20
184.3824616974957
 30
0.0
 11
77.0045460372321
 21
184.3824616974957
 31
0.0
  0
ARC
  5
14D9
330
18
100
AcDbEntity
  8
1
100
AcDbCircle
 10
77.0045460372321
 20
186.3824616974957
 30
0.0
 40
2.0
100
AcDbArc
 50
270.0
 51
0.0
  0
ARC
  5
14DA
330
18
100
AcDbEntity
  8
1
100
AcDbCircle
 10
77.0045460372321
 20
186.3824616974957
 30
0.0
 40
2.0
100
AcDbArc
 50
180.0
 51
270.0
  0
ARC
  5
14DB
330
18
100
AcDbEntity
  8
1
100
AcDbCircle
 10
87.0045460372321
 20
186.3824616974957
 30
0.0
 40
2.0
100
AcDbArc
 50
270.0
 51
0.0
  0
LINE
  5
14DC
330
18
100
AcDbEntity
  8
1
100
AcDbLine
 10
82.0045460372321
 20
186.8824616974957
 30
0.0
 11
82.0045460372321
 21
186.8824616974957
 31
0.0
  0
LINE
  5
14DD
330
18
100
AcDbEntity
  8
1
100
AcDbLine
 10
87.0045460372321
 20
184.3824616974957
 30
0.0
 11
87.0045460372321
 21
184.3824616974957
 31
0.0
  0
ARC
  5
14DE
330
18
100
AcDbEntity
  8
1
100
AcDbCircle
 10
87.0045460372321
 20
186.3824616974957
 30
0.0
 40
2.0
100
AcDbArc
 50
180.0
 51
270.0
  0
ARC
  5
14DF
330
18
100
AcDbEntity
  8
1
100
AcDbCircle
 10
82.0045460372321
 20
184.8824616974957
 30
0.0
 40
2.0
100
AcDbArc
 50
0.0
 51
90.0
  0
LINE
  5
14E0
330
18
100
AcDbEntity
  8
1
100
AcDbLine
 10
92.0045460372321
 20
186.8824616974957
 30
0.0
 11
92.0045460372321
 21
186.8824616974957
 31
0.0
  0
ARC
  5
14E1
330
18
100
AcDbEntity
  8
1
100
AcDbCircle
 10
92.0045460372321
 20
184.8824616974957
 30
0.0
 40
2.0
100
AcDbArc
 50
90.0
 51
180.0
  0
ARC
  5
14E2
330
18
100
AcDbEntity
  8
1
100
AcDbCircle
 10
67.0045460372321
 20
213.3824616974957
 30
0.0
 40
2.0
100
AcDbArc
 50
270.0
 51
0.0
  0
ARC
  5
14E3
330
18
100
AcDbEntity
  8
1
100
AcDbCircle
 10
67.0045460372321
 20
198.3824616974957
 30
0.0
 40
2.0
100
AcDbArc
 50
0.0
 51
90.0
  0
ARC
  5
14E4
330
18
100
AcDbEntity
  8
1
100
AcDbCircle
 10
67.0045460372321
 20
198.3824616974957
 30
0.0
 40
2.0
100
AcDbArc
 50
90.0
 51
180.0
  0
LINE
  5
14E5
330
18
100
AcDbEntity
  8
1
100
AcDbLine
 10
67.0045460372321
 20
200.3824616974957
 30
0.0
 11
67.0045460372321
 21
200.3824616974957
 31
0.0
  0
ARC
  5
14E6
330
18
100
AcDbEntity
  8
1
100
AcDbCircle
 10
67.0045460372321
 20
213.3824616974957
 30
0.0
 40
2.0
100
AcDbArc
 50
180.0
 51
270.0
  0
LINE
  5
14E7
330
18
100
AcDbEntity
  8
1
100
AcDbLine
 10
67.0045460372321
 20
211.3824616974957
 30
0.0
 11
67.0045460372321
 21
211.3824616974957
 31
0.0
  0
LINE
  5
14E8
330
18
100
AcDbEntity
  8
1
100
AcDbLine
 10
80.00454603723211
 20
199.8824616974957
 30
0.0
 11
80.00454603723211
 21
211.8824616974957
 31
0.0
  0
LINE
  5
14E9
330
18
100
AcDbEntity
  8
1
100
AcDbLine
 10
84.00454603723209
 20
211.8824616974957
 30
0.0
 11
84.00454603723209
 21
199.8824616974957
 31
0.0
  0
LINE
  5
14EA
330
18
100
AcDbEntity
  8
1
100
AcDbLine
 10
90.00454603723211
 20
199.8824616974957
 30
0.0
 11
90.00454603723211
 21
211.8824616974957
 31
0.0
  0
LINE
  5
14EB
330
18
100
AcDbEntity
  8
1
100
AcDbLine
 10
70.0045460372321
 20
199.8824616974957
 30
0.0
 11
70.0045460372321
 21
211.8824616974957
 31
0.0
  0
LINE
  5
14EC
330
18
100
AcDbEntity
  8
1
100
AcDbLine
 10
74.0045460372321
 20
211.8824616974957
 30
0.0
 11
74.0045460372321
 21
199.8824616974957
 31
0.0
  0
ARC
  5
14ED
330
18
100
AcDbEntity
  8
1
100
AcDbCircle
 10
82.0045460372321
 20
199.8824616974957
 30
0.0
 40
2.0
100
AcDbArc
 50
180.0
 51
270.0
  0
ARC
  5
14EE
330
18
100
AcDbEntity
  8
1
100
AcDbCircle
 10
77.0045460372321
 20
198.3824616974957
 30
0.0
 40
2.0
100
AcDbArc
 50
0.0
 51
90.0
  0
ARC
  5
14EF
330
18
100
AcDbEntity
  8
1
100
AcDbCircle
 10
77.0045460372321
 20
198.3824616974957
 30
0.0
 40
2.0
100
AcDbArc
 50
90.0
 51
180.0
  0
ARC
  5
14F0
330
18
100
AcDbEntity
  8
1
100
AcDbCircle
 10
72.0045460372321
 20
199.8824616974957
 30
0.0
 40
2.0
100
AcDbArc
 50
270.0
 51
0.0
  0
LINE
  5
14F1
330
18
100
AcDbEntity
  8
1
100
AcDbLine
 10
72.0045460372321
 20
197.8824616974957
 30
0.0
 11
72.0045460372321
 21
197.8824616974957
 31
0.0
  0
ARC
  5
14F2
330
18
100
AcDbEntity
  8
1
100
AcDbCircle
 10
72.0045460372321
 20
199.8824616974957
 30
0.0
 40
2.0
100
AcDbArc
 50
180.0
 51
270.0
  0
LINE
  5
14F3
330
18
100
AcDbEntity
  8
1
100
AcDbLine
 10
77.0045460372321
 20
200.3824616974957
 30
0.0
 11
77.0045460372321
 21
200.3824616974957
 31
0.0
  0
ARC
  5
14F4
330
18
100
AcDbEntity
  8
1
100
AcDbCircle
 10
87.0045460372321
 20
198.3824616974957
 30
0.0
 40
2.0
100
AcDbArc
 50
90.0
 51
180.0
  0
ARC
  5
14F5
330
18
100
AcDbEntity
  8
1
100
AcDbCircle
 10
87.0045460372321
 20
198.3824616974957
 30
0.0
 40
2.0
100
AcDbArc
 50
0.0
 51
90.0
  0
LINE
  5
14F6
330
18
100
AcDbEntity
  8
1
100
AcDbLine
 10
87.0045460372321
 20
200.3824616974957
 30
0.0
 11
87.0045460372321
 21
200.3824616974957
 31
0.0
  0
LINE
  5
14F7
330
18
100
AcDbEntity
  8
1
100
AcDbLine
 10
82.0045460372321
 20
197.8824616974957
 30
0.0
 11
82.0045460372321
 21
197.8824616974957
 31
0.0
  0
ARC
  5
14F8
330
18
100
AcDbEntity
  8
1
100
AcDbCircle
 10
82.0045460372321
 20
199.8824616974957
 30
0.0
 40
2.0
100
AcDbArc
 50
270.0
 51
0.0
  0
ARC
  5
14F9
330
18
100
AcDbEntity
  8
1
100
AcDbCircle
 10
92.0045460372321
 20
199.8824616974957
 30
0.0
 40
2.0
100
AcDbArc
 50
180.0
 51
270.0
  0
LINE
  5
14FA
330
18
100
AcDbEntity
  8
1
100
AcDbLine
 10
92.0045460372321
 20
197.8824616974957
 30
0.0
 11
92.0045460372321
 21
197.8824616974957
 31
0.0
  0
ARC
  5
14FB
330
18
100
AcDbEntity
  8
1
100
AcDbCircle
 10
82.0045460372321
 20
211.8824616974957
 30
0.0
 40
2.0
100
AcDbArc
 50
90.0
 51
180.0
  0
ARC
  5
14FC
330
18
100
AcDbEntity
  8
1
100
AcDbCircle
 10
77.0045460372321
 20
213.3824616974957
 30
0.0
 40
2.0
100
AcDbArc
 50
270.0
 51
0.0
  0
ARC
  5
14FD
330
18
100
AcDbEntity
  8
1
100
AcDbCircle
 10
72.0045460372321
 20
211.8824616974957
 30
0.0
 40
2.0
100
AcDbArc
 50
90.0
 51
180.0
  0
ARC
  5
14FE
330
18
100
AcDbEntity
  8
1
100
AcDbCircle
 10
72.0045460372321
 20
211.8824616974957
 30
0.0
 40
2.0
100
AcDbArc
 50
0.0
 51
90.0
  0
ARC
  5
14FF
330
18
100
AcDbEntity
  8
1
100
AcDbCircle
 10
77.0045460372321
 20
213.3824616974957
 30
0.0
 40
2.0
100
AcDbArc
 50
180.0
 51
270.0
  0
LINE
  5
1500
330
18
100
AcDbEntity
  8
1
100
AcDbLine
 10
77.0045460372321
 20
211.3824616974957
 30
0.0
 11
77.0045460372321
 21
211.3824616974957
 31
0.0
  0
LINE
  5
1501
330
18
100
AcDbEntity
  8
1
100
AcDbLine
 10
72.0045460372321
 20
213.8824616974957
 30
0.0
 11
72.0045460372321
 21
213.8824616974957
 31
0.0
  0
ARC
  5
1502
330
18
100
AcDbEntity
  8
1
100
AcDbCircle
 10
92.0045460372321
 20
211.8824616974957
 30
0.0
 40
2.0
100
AcDbArc
 50
90.0
 51
180.0
  0
ARC
  5
1503
330
18
100
AcDbEntity
  8
1
100
AcDbCircle
 10
87.0045460372321
 20
213.3824616974957
 30
0.0
 40
2.0
100
AcDbArc
 50
180.0
 51
270.0
  0
ARC
  5
1504
330
18
100
AcDbEntity
  8
1
100
AcDbCircle
 10
82.0045460372321
 20
211.8824616974957
 30
0.0
 40
2.0
100
AcDbArc
 50
0.0
 51
90.0
  0
ARC
  5
1505
330
18
100
AcDbEntity
  8
1
100
AcDbCircle
 10
87.0045460372321
 20
213.3824616974957
 30
0.0
 40
2.0
100
AcDbArc
 50
270.0
 51
0.0
  0
LINE
  5
1506
330
18
100
AcDbEntity
  8
1
100
AcDbLine
 10
87.0045460372321
 20
211.3824616974957
 30
0.0
 11
87.0045460372321
 21
211.3824616974957
 31
0.0
  0
LINE
  5
1507
330
18
100
AcDbEntity
  8
1
100
AcDbLine
 10
82.0045460372321
 20
213.8824616974957
 30
0.0
 11
82.0045460372321
 21
213.8824616974957
 31
0.0
  0
LINE
  5
1508
330
18
100
AcDbEntity
  8
1
100
AcDbLine
 10
92.0045460372321
 20
213.8824616974957
 30
0.0
 11
92.0045460372321
 21
213.8824616974957
 31
0.0
  0
LINE
  5
1509
330
18
100
AcDbEntity
  8
1
100
AcDbLine
 10
129.0045460372321
 20
198.3824616974957
 30
0.0
 11
129.0045460372321
 21
186.3824616974957
 31
0.0
  0
LINE
  5
150A
330
18
100
AcDbEntity
  8
1
100
AcDbLine
 10
135.0045460372321
 20
186.3824616974957
 30
0.0
 11
135.0045460372321
 21
198.3824616974957
 31
0.0
  0
LINE
  5
150B
330
18
100
AcDbEntity
  8
1
100
AcDbLine
 10
139.0045460372321
 20
198.3824616974957
 30
0.0
 11
139.0045460372321
 21
186.3824616974957
 31
0.0
  0
LINE
  5
150C
330
18
100
AcDbEntity
  8
1
100
AcDbLine
 10
105.0045460372321
 20
186.3824616974957
 30
0.0
 11
105.0045460372321
 21
198.3824616974957
 31
0.0
  0
LINE
  5
150D
330
18
100
AcDbEntity
  8
1
100
AcDbLine
 10
109.0045460372321
 20
198.3824616974957
 30
0.0
 11
109.0045460372321
 21
186.3824616974957
 31
0.0
  0
LINE
  5
150E
330
18
100
AcDbEntity
  8
1
100
AcDbLine
 10
115.0045460372321
 20
186.3824616974957
 30
0.0
 11
115.0045460372321
 21
198.3824616974957
 31
0.0
  0
LINE
  5
150F
330
18
100
AcDbEntity
  8
1
100
AcDbLine
 10
119.004546037232
 20
198.3824616974957
 30
0.0
 11
119.004546037232
 21
186.3824616974957
 31
0.0
  0
LINE
  5
1510
330
18
100
AcDbEntity
  8
1
100
AcDbLine
 10
125.0045460372321
 20
186.3824616974957
 30
0.0
 11
125.0045460372321
 21
198.3824616974957
 31
0.0
  0
LINE
  5
1511
330
18
100
AcDbEntity
  8
1
100
AcDbLine
 10
95.00454603723211
 20
186.3824616974957
 30
0.0
 11
95.00454603723211
 21
198.3824616974957
 31
0.0
  0
LINE
  5
1512
330
18
100
AcDbEntity
  8
1
100
AcDbLine
 10
99.00454603723211
 20
198.3824616974957
 30
0.0
 11
99.00454603723211
 21
186.3824616974957
 31
0.0
  0
ARC
  5
1513
330
18
100
AcDbEntity
  8
1
100
AcDbCircle
 10
117.0045460372321
 20
186.3824616974957
 30
0.0
 40
2.0
100
AcDbArc
 50
270.0
 51
0.0
  0
LINE
  5
1514
330
18
100
AcDbEntity
  8
1
100
AcDbLine
 10
104.0045460372321
 20
184.8824616974957
 30
0.0
 11
104.0045460372321
 21
172.8824616974957
 31
0.0
  0
LINE
  5
1515
330
18
100
AcDbEntity
  8
1
100
AcDbLine
 10
110.0045460372321
 20
172.8824616974957
 30
0.0
 11
110.0045460372321
 21
184.8824616974957
 31
0.0
  0
LINE
  5
1516
330
18
100
AcDbEntity
  8
1
100
AcDbLine
 10
114.0045460372321
 20
184.8824616974957
 30
0.0
 11
114.0045460372321
 21
172.8824616974957
 31
0.0
  0
LINE
  5
1517
330
18
100
AcDbEntity
  8
1
100
AcDbLine
 10
94.00454603723209
 20
184.8824616974957
 30
0.0
 11
94.00454603723209
 21
172.8824616974957
 31
0.0
  0
LINE
  5
1518
330
18
100
AcDbEntity
  8
1
100
AcDbLine
 10
100.0045460372321
 20
172.8824616974957
 30
0.0
 11
100.0045460372321
 21
184.8824616974957
 31
0.0
  0
LINE
  5
1519
330
18
100
AcDbEntity
  8
1
100
AcDbLine
 10
97.0045460372321
 20
173.3824616974957
 30
0.0
 11
97.0045460372321
 21
173.3824616974957
 31
0.0
  0
LINE
  5
151A
330
18
100
AcDbEntity
  8
1
100
AcDbLine
 10
107.0045460372321
 20
173.3824616974957
 30
0.0
 11
107.0045460372321
 21
173.3824616974957
 31
0.0
  0
LINE
  5
151B
330
18
100
AcDbEntity
  8
1
100
AcDbLine
 10
117.0045460372321
 20
173.3824616974957
 30
0.0
 11
117.0045460372321
 21
173.3824616974957
 31
0.0
  0
ARC
  5
151C
330
18
100
AcDbEntity
  8
1
100
AcDbCircle
 10
107.0045460372321
 20
186.3824616974957
 30
0.0
 40
2.0
100
AcDbArc
 50
180.0
 51
270.0
  0
ARC
  5
151D
330
18
100
AcDbEntity
  8
1
100
AcDbCircle
 10
102.0045460372321
 20
184.8824616974957
 30
0.0
 40
2.0
100
AcDbArc
 50
90.0
 51
180.0
  0
LINE
  5
151E
330
18
100
AcDbEntity
  8
1
100
AcDbLine
 10
97.0045460372321
 20
184.3824616974957
 30
0.0
 11
97.0045460372321
 21
184.3824616974957
 31
0.0
  0
ARC
  5
151F
330
18
100
AcDbEntity
  8
1
100
AcDbCircle
 10
97.0045460372321
 20
186.3824616974957
 30
0.0
 40
2.0
100
AcDbArc
 50
270.0
 51
0.0
  0
ARC
  5
1520
330
18
100
AcDbEntity
  8
1
100
AcDbCircle
 10
97.0045460372321
 20
186.3824616974957
 30
0.0
 40
2.0
100
AcDbArc
 50
180.0
 51
270.0
  0
LINE
  5
1521
330
18
100
AcDbEntity
  8
1
100
AcDbLine
 10
102.0045460372321
 20
186.8824616974957
 30
0.0
 11
102.0045460372321
 21
186.8824616974957
 31
0.0
  0
ARC
  5
1522
330
18
100
AcDbEntity
  8
1
100
AcDbCircle
 10
102.0045460372321
 20
184.8824616974957
 30
0.0
 40
2.0
100
AcDbArc
 50
0.0
 51
90.0
  0
ARC
  5
1523
330
18
100
AcDbEntity
  8
1
100
AcDbCircle
 10
112.0045460372321
 20
184.8824616974957
 30
0.0
 40
2.0
100
AcDbArc
 50
0.0
 51
90.0
  0
LINE
  5
1524
330
18
100
AcDbEntity
  8
1
100
AcDbLine
 10
112.0045460372321
 20
186.8824616974957
 30
0.0
 11
112.0045460372321
 21
186.8824616974957
 31
0.0
  0
LINE
  5
1525
330
18
100
AcDbEntity
  8
1
100
AcDbLine
 10
107.0045460372321
 20
184.3824616974957
 30
0.0
 11
107.0045460372321
 21
184.3824616974957
 31
0.0
  0
ARC
  5
1526
330
18
100
AcDbEntity
  8
1
100
AcDbCircle
 10
107.0045460372321
 20
186.3824616974957
 30
0.0
 40
2.0
100
AcDbArc
 50
270.0
 51
0.0
  0
ARC
  5
1527
330
18
100
AcDbEntity
  8
1
100
AcDbCircle
 10
112.0045460372321
 20
184.8824616974957
 30
0.0
 40
2.0
100
AcDbArc
 50
90.0
 51
180.0
  0
LINE
  5
1528
330
18
100
AcDbEntity
  8
1
100
AcDbLine
 10
117.0045460372321
 20
184.3824616974957
 30
0.0
 11
117.0045460372321
 21
184.3824616974957
 31
0.0
  0
ARC
  5
1529
330
18
100
AcDbEntity
  8
1
100
AcDbCircle
 10
117.0045460372321
 20
186.3824616974957
 30
0.0
 40
2.0
100
AcDbArc
 50
180.0
 51
270.0
  0
LINE
  5
152A
330
18
100
AcDbEntity
  8
1
100
AcDbLine
 10
130.0045460372321
 20
172.8824616974957
 30
0.0
 11
130.0045460372321
 21
184.8824616974957
 31
0.0
  0
LINE
  5
152B
330
18
100
AcDbEntity
  8
1
100
AcDbLine
 10
134.0045460372321
 20
184.8824616974957
 30
0.0
 11
134.0045460372321
 21
172.8824616974957
 31
0.0
  0
LINE
  5
152C
330
18
100
AcDbEntity
  8
1
100
AcDbLine
 10
144.004546037232
 20
184.8824616974957
 30
0.0
 11
144.004546037232
 21
172.8824616974957
 31
0.0
  0
LINE
  5
152D
330
18
100
AcDbEntity
  8
1
100
AcDbLine
 10
140.0045460372321
 20
172.8824616974957
 30
0.0
 11
140.0045460372321
 21
184.8824616974957
 31
0.0
  0
LINE
  5
152E
330
18
100
AcDbEntity
  8
1
100
AcDbLine
 10
120.004546037232
 20
172.8824616974957
 30
0.0
 11
120.004546037232
 21
184.8824616974957
 31
0.0
  0
LINE
  5
152F
330
18
100
AcDbEntity
  8
1
100
AcDbLine
 10
124.004546037232
 20
184.8824616974957
 30
0.0
 11
124.004546037232
 21
172.8824616974957
 31
0.0
  0
LINE
  5
1530
330
18
100
AcDbEntity
  8
1
100
AcDbLine
 10
127.0045460372321
 20
173.3824616974957
 30
0.0
 11
127.0045460372321
 21
173.3824616974957
 31
0.0
  0
LINE
  5
1531
330
18
100
AcDbEntity
  8
1
100
AcDbLine
 10
137.0045460372321
 20
173.3824616974957
 30
0.0
 11
137.0045460372321
 21
173.3824616974957
 31
0.0
  0
ARC
  5
1532
330
18
100
AcDbEntity
  8
1
100
AcDbCircle
 10
132.0045460372321
 20
184.8824616974957
 30
0.0
 40
2.0
100
AcDbArc
 50
0.0
 51
90.0
  0
ARC
  5
1533
330
18
100
AcDbEntity
  8
1
100
AcDbCircle
 10
127.0045460372321
 20
186.3824616974957
 30
0.0
 40
2.0
100
AcDbArc
 50
180.0
 51
270.0
  0
LINE
  5
1534
330
18
100
AcDbEntity
  8
1
100
AcDbLine
 10
122.004546037232
 20
186.8824616974957
 30
0.0
 11
122.004546037232
 21
186.8824616974957
 31
0.0
  0
ARC
  5
1535
330
18
100
AcDbEntity
  8
1
100
AcDbCircle
 10
122.004546037232
 20
184.8824616974957
 30
0.0
 40
2.0
100
AcDbArc
 50
90.0
 51
180.0
  0
ARC
  5
1536
330
18
100
AcDbEntity
  8
1
100
AcDbCircle
 10
122.004546037232
 20
184.8824616974957
 30
0.0
 40
2.0
100
AcDbArc
 50
0.0
 51
90.0
  0
LINE
  5
1537
330
18
100
AcDbEntity
  8
1
100
AcDbLine
 10
132.0045460372321
 20
186.8824616974957
 30
0.0
 11
132.0045460372321
 21
186.8824616974957
 31
0.0
  0
LINE
  5
1538
330
18
100
AcDbEntity
  8
1
100
AcDbLine
 10
127.0045460372321
 20
184.3824616974957
 30
0.0
 11
127.0045460372321
 21
184.3824616974957
 31
0.0
  0
ARC
  5
1539
330
18
100
AcDbEntity
  8
1
100
AcDbCircle
 10
127.0045460372321
 20
186.3824616974957
 30
0.0
 40
2.0
100
AcDbArc
 50
270.0
 51
0.0
  0
ARC
  5
153A
330
18
100
AcDbEntity
  8
1
100
AcDbCircle
 10
132.0045460372321
 20
184.8824616974957
 30
0.0
 40
2.0
100
AcDbArc
 50
90.0
 51
180.0
  0
ARC
  5
153B
330
18
100
AcDbEntity
  8
1
100
AcDbCircle
 10
137.0045460372321
 20
186.3824616974957
 30
0.0
 40
2.0
100
AcDbArc
 50
270.0
 51
0.0
  0
LINE
  5
153C
330
18
100
AcDbEntity
  8
1
100
AcDbLine
 10
137.0045460372321
 20
184.3824616974957
 30
0.0
 11
137.0045460372321
 21
184.3824616974957
 31
0.0
  0
ARC
  5
153D
330
18
100
AcDbEntity
  8
1
100
AcDbCircle
 10
137.0045460372321
 20
186.3824616974957
 30
0.0
 40
2.0
100
AcDbArc
 50
180.0
 51
270.0
  0
LINE
  5
153E
330
18
100
AcDbEntity
  8
1
100
AcDbLine
 10
142.0045460372321
 20
186.8824616974957
 30
0.0
 11
142.0045460372321
 21
186.8824616974957
 31
0.0
  0
ARC
  5
153F
330
18
100
AcDbEntity
  8
1
100
AcDbCircle
 10
142.0045460372321
 20
184.8824616974957
 30
0.0
 40
2.0
100
AcDbArc
 50
0.0
 51
90.0
  0
ARC
  5
1540
330
18
100
AcDbEntity
  8
1
100
AcDbCircle
 10
142.0045460372321
 20
184.8824616974957
 30
0.0
 40
2.0
100
AcDbArc
 50
90.0
 51
180.0
  0
ARC
  5
1541
330
18
100
AcDbEntity
  8
1
100
AcDbCircle
 10
117.0045460372321
 20
213.3824616974957
 30
0.0
 40
2.0
100
AcDbArc
 50
270.0
 51
0.0
  0
ARC
  5
1542
330
18
100
AcDbEntity
  8
1
100
AcDbCircle
 10
117.0045460372321
 20
198.3824616974957
 30
0.0
 40
2.0
100
AcDbArc
 50
0.0
 51
90.0
  0
LINE
  5
1543
330
18
100
AcDbEntity
  8
1
100
AcDbLine
 10
94.00454603723209
 20
211.8824616974957
 30
0.0
 11
94.00454603723209
 21
199.8824616974957
 31
0.0
  0
LINE
  5
1544
330
18
100
AcDbEntity
  8
1
100
AcDbLine
 10
100.0045460372321
 20
199.8824616974957
 30
0.0
 11
100.0045460372321
 21
211.8824616974957
 31
0.0
  0
LINE
  5
1545
330
18
100
AcDbEntity
  8
1
100
AcDbLine
 10
104.0045460372321
 20
211.8824616974957
 30
0.0
 11
104.0045460372321
 21
199.8824616974957
 31
0.0
  0
LINE
  5
1546
330
18
100
AcDbEntity
  8
1
100
AcDbLine
 10
110.0045460372321
 20
199.8824616974957
 30
0.0
 11
110.0045460372321
 21
211.8824616974957
 31
0.0
  0
LINE
  5
1547
330
18
100
AcDbEntity
  8
1
100
AcDbLine
 10
114.0045460372321
 20
211.8824616974957
 30
0.0
 11
114.0045460372321
 21
199.8824616974957
 31
0.0
  0
ARC
  5
1548
330
18
100
AcDbEntity
  8
1
100
AcDbCircle
 10
107.0045460372321
 20
198.3824616974957
 30
0.0
 40
2.0
100
AcDbArc
 50
90.0
 51
180.0
  0
ARC
  5
1549
330
18
100
AcDbEntity
  8
1
100
AcDbCircle
 10
97.0045460372321
 20
198.3824616974957
 30
0.0
 40
2.0
100
AcDbArc
 50
0.0
 51
90.0
  0
ARC
  5
154A
330
18
100
AcDbEntity
  8
1
100
AcDbCircle
 10
97.0045460372321
 20
198.3824616974957
 30
0.0
 40
2.0
100
AcDbArc
 50
90.0
 51
180.0
  0
ARC
  5
154B
330
18
100
AcDbEntity
  8
1
100
AcDbCircle
 10
102.0045460372321
 20
199.8824616974957
 30
0.0
 40
2.0
100
AcDbArc
 50
180.0
 51
270.0
  0
LINE
  5
154C
330
18
100
AcDbEntity
  8
1
100
AcDbLine
 10
97.0045460372321
 20
200.3824616974957
 30
0.0
 11
97.0045460372321
 21
200.3824616974957
 31
0.0
  0
LINE
  5
154D
330
18
100
AcDbEntity
  8
1
100
AcDbLine
 10
102.0045460372321
 20
197.8824616974957
 30
0.0
 11
102.0045460372321
 21
197.8824616974957
 31
0.0
  0
ARC
  5
154E
330
18
100
AcDbEntity
  8
1
100
AcDbCircle
 10
102.0045460372321
 20
199.8824616974957
 30
0.0
 40
2.0
100
AcDbArc
 50
270.0
 51
0.0
  0
ARC
  5
154F
330
18
100
AcDbEntity
  8
1
100
AcDbCircle
 10
117.0045460372321
 20
198.3824616974957
 30
0.0
 40
2.0
100
AcDbArc
 50
90.0
 51
180.0
  0
ARC
  5
1550
330
18
100
AcDbEntity
  8
1
100
AcDbCircle
 10
107.0045460372321
 20
198.3824616974957
 30
0.0
 40
2.0
100
AcDbArc
 50
0.0
 51
90.0
  0
ARC
  5
1551
330
18
100
AcDbEntity
  8
1
100
AcDbCircle
 10
112.0045460372321
 20
199.8824616974957
 30
0.0
 40
2.0
100
AcDbArc
 50
270.0
 51
0.0
  0
ARC
  5
1552
330
18
100
AcDbEntity
  8
1
100
AcDbCircle
 10
112.0045460372321
 20
199.8824616974957
 30
0.0
 40
2.0
100
AcDbArc
 50
180.0
 51
270.0
  0
LINE
  5
1553
330
18
100
AcDbEntity
  8
1
100
AcDbLine
 10
112.0045460372321
 20
197.8824616974957
 30
0.0
 11
112.0045460372321
 21
197.8824616974957
 31
0.0
  0
LINE
  5
1554
330
18
100
AcDbEntity
  8
1
100
AcDbLine
 10
107.0045460372321
 20
200.3824616974957
 30
0.0
 11
107.0045460372321
 21
200.3824616974957
 31
0.0
  0
LINE
  5
1555
330
18
100
AcDbEntity
  8
1
100
AcDbLine
 10
117.0045460372321
 20
200.3824616974957
 30
0.0
 11
117.0045460372321
 21
200.3824616974957
 31
0.0
  0
ARC
  5
1556
330
18
100
AcDbEntity
  8
1
100
AcDbCircle
 10
107.0045460372321
 20
213.3824616974957
 30
0.0
 40
2.0
100
AcDbArc
 50
180.0
 51
270.0
  0
ARC
  5
1557
330
18
100
AcDbEntity
  8
1
100
AcDbCircle
 10
102.0045460372321
 20
211.8824616974957
 30
0.0
 40
2.0
100
AcDbArc
 50
0.0
 51
90.0
  0
ARC
  5
1558
330
18
100
AcDbEntity
  8
1
100
AcDbCircle
 10
97.0045460372321
 20
213.3824616974957
 30
0.0
 40
2.0
100
AcDbArc
 50
270.0
 51
0.0
  0
ARC
  5
1559
330
18
100
AcDbEntity
  8
1
100
AcDbCircle
 10
97.0045460372321
 20
213.3824616974957
 30
0.0
 40
2.0
100
AcDbArc
 50
180.0
 51
270.0
  0
ARC
  5
155A
330
18
100
AcDbEntity
  8
1
100
AcDbCircle
 10
102.0045460372321
 20
211.8824616974957
 30
0.0
 40
2.0
100
AcDbArc
 50
90.0
 51
180.0
  0
LINE
  5
155B
330
18
100
AcDbEntity
  8
1
100
AcDbLine
 10
97.0045460372321
 20
211.3824616974957
 30
0.0
 11
97.0045460372321
 21
211.3824616974957
 31
0.0
  0
LINE
  5
155C
330
18
100
AcDbEntity
  8
1
100
AcDbLine
 10
102.0045460372321
 20
213.8824616974957
 30
0.0
 11
102.0045460372321
 21
213.8824616974957
 31
0.0
  0
ARC
  5
155D
330
18
100
AcDbEntity
  8
1
100
AcDbCircle
 10
117.0045460372321
 20
213.3824616974957
 30
0.0
 40
2.0
100
AcDbArc
 50
180.0
 51
270.0
  0
ARC
  5
155E
330
18
100
AcDbEntity
  8
1
100
AcDbCircle
 10
112.0045460372321
 20
211.8824616974957
 30
0.0
 40
2.0
100
AcDbArc
 50
90.0
 51
180.0
  0
ARC
  5
155F
330
18
100
AcDbEntity
  8
1
100
AcDbCircle
 10
107.0045460372321
 20
213.3824616974957
 30
0.0
 40
2.0
100
AcDbArc
 50
270.0
 51
0.0
  0
ARC
  5
1560
330
18
100
AcDbEntity
  8
1
100
AcDbCircle
 10
112.0045460372321
 20
211.8824616974957
 30
0.0
 40
2.0
100
AcDbArc
 50
0.0
 51
90.0
  0
LINE
  5
1561
330
18
100
AcDbEntity
  8
1
100
AcDbLine
 10
107.0045460372321
 20
211.3824616974957
 30
0.0
 11
107.0045460372321
 21
211.3824616974957
 31
0.0
  0
LINE
  5
1562
330
18
100
AcDbEntity
  8
1
100
AcDbLine
 10
117.0045460372321
 20
211.3824616974957
 30
0.0
 11
117.0045460372321
 21
211.3824616974957
 31
0.0
  0
LINE
  5
1563
330
18
100
AcDbEntity
  8
1
100
AcDbLine
 10
112.0045460372321
 20
213.8824616974957
 30
0.0
 11
112.0045460372321
 21
213.8824616974957
 31
0.0
  0
LINE
  5
1564
330
18
100
AcDbEntity
  8
1
100
AcDbLine
 10
130.0045460372321
 20
199.8824616974957
 30
0.0
 11
130.0045460372321
 21
211.8824616974957
 31
0.0
  0
LINE
  5
1565
330
18
100
AcDbEntity
  8
1
100
AcDbLine
 10
134.0045460372321
 20
211.8824616974957
 30
0.0
 11
134.0045460372321
 21
199.8824616974957
 31
0.0
  0
LINE
  5
1566
330
18
100
AcDbEntity
  8
1
100
AcDbLine
 10
144.004546037232
 20
211.8824616974957
 30
0.0
 11
144.004546037232
 21
199.8824616974957
 31
0.0
  0
LINE
  5
1567
330
18
100
AcDbEntity
  8
1
100
AcDbLine
 10
140.0045460372321
 20
199.8824616974957
 30
0.0
 11
140.0045460372321
 21
211.8824616974957
 31
0.0
  0
LINE
  5
1568
330
18
100
AcDbEntity
  8
1
100
AcDbLine
 10
120.004546037232
 20
199.8824616974957
 30
0.0
 11
120.004546037232
 21
211.8824616974957
 31
0.0
  0
LINE
  5
1569
330
18
100
AcDbEntity
  8
1
100
AcDbLine
 10
124.004546037232
 20
211.8824616974957
 30
0.0
 11
124.004546037232
 21
199.8824616974957
 31
0.0
  0
ARC
  5
156A
330
18
100
AcDbEntity
  8
1
100
AcDbCircle
 10
132.0045460372321
 20
199.8824616974957
 30
0.0
 40
2.0
100
AcDbArc
 50
270.0
 51
0.0
  0
ARC
  5
156B
330
18
100
AcDbEntity
  8
1
100
AcDbCircle
 10
127.0045460372321
 20
198.3824616974957
 30
0.0
 40
2.0
100
AcDbArc
 50
0.0
 51
90.0
  0
ARC
  5
156C
330
18
100
AcDbEntity
  8
1
100
AcDbCircle
 10
127.0045460372321
 20
198.3824616974957
 30
0.0
 40
2.0
100
AcDbArc
 50
90.0
 51
180.0
  0
LINE
  5
156D
330
18
100
AcDbEntity
  8
1
100
AcDbLine
 10
122.004546037232
 20
197.8824616974957
 30
0.0
 11
122.004546037232
 21
197.8824616974957
 31
0.0
  0
ARC
  5
156E
330
18
100
AcDbEntity
  8
1
100
AcDbCircle
 10
122.004546037232
 20
199.8824616974957
 30
0.0
 40
2.0
100
AcDbArc
 50
270.0
 51
0.0
  0
ARC
  5
156F
330
18
100
AcDbEntity
  8
1
100
AcDbCircle
 10
122.004546037232
 20
199.8824616974957
 30
0.0
 40
2.0
100
AcDbArc
 50
180.0
 51
270.0
  0
LINE
  5
1570
330
18
100
AcDbEntity
  8
1
100
AcDbLine
 10
127.0045460372321
 20
200.3824616974957
 30
0.0
 11
127.0045460372321
 21
200.3824616974957
 31
0.0
  0
ARC
  5
1571
330
18
100
AcDbEntity
  8
1
100
AcDbCircle
 10
132.0045460372321
 20
199.8824616974957
 30
0.0
 40
2.0
100
AcDbArc
 50
180.0
 51
270.0
  0
LINE
  5
1572
330
18
100
AcDbEntity
  8
1
100
AcDbLine
 10
132.0045460372321
 20
197.8824616974957
 30
0.0
 11
132.0045460372321
 21
197.8824616974957
 31
0.0
  0
ARC
  5
1573
330
18
100
AcDbEntity
  8
1
100
AcDbCircle
 10
137.0045460372321
 20
198.3824616974957
 30
0.0
 40
2.0
100
AcDbArc
 50
90.0
 51
180.0
  0
ARC
  5
1574
330
18
100
AcDbEntity
  8
1
100
AcDbCircle
 10
137.0045460372321
 20
198.3824616974957
 30
0.0
 40
2.0
100
AcDbArc
 50
0.0
 51
90.0
  0
LINE
  5
1575
330
18
100
AcDbEntity
  8
1
100
AcDbLine
 10
137.0045460372321
 20
200.3824616974957
 30
0.0
 11
137.0045460372321
 21
200.3824616974957
 31
0.0
  0
ARC
  5
1576
330
18
100
AcDbEntity
  8
1
100
AcDbCircle
 10
142.0045460372321
 20
199.8824616974957
 30
0.0
 40
2.0
100
AcDbArc
 50
270.0
 51
0.0
  0
LINE
  5
1577
330
18
100
AcDbEntity
  8
1
100
AcDbLine
 10
142.0045460372321
 20
197.8824616974957
 30
0.0
 11
142.0045460372321
 21
197.8824616974957
 31
0.0
  0
ARC
  5
1578
330
18
100
AcDbEntity
  8
1
100
AcDbCircle
 10
142.0045460372321
 20
199.8824616974957
 30
0.0
 40
2.0
100
AcDbArc
 50
180.0
 51
270.0
  0
ARC
  5
1579
330
18
100
AcDbEntity
  8
1
100
AcDbCircle
 10
132.0045460372321
 20
211.8824616974957
 30
0.0
 40
2.0
100
AcDbArc
 50
0.0
 51
90.0
  0
ARC
  5
157A
330
18
100
AcDbEntity
  8
1
100
AcDbCircle
 10
127.0045460372321
 20
213.3824616974957
 30
0.0
 40
2.0
100
AcDbArc
 50
270.0
 51
0.0
  0
ARC
  5
157B
330
18
100
AcDbEntity
  8
1
100
AcDbCircle
 10
132.0045460372321
 20
211.8824616974957
 30
0.0
 40
2.0
100
AcDbArc
 50
90.0
 51
180.0
  0
ARC
  5
157C
330
18
100
AcDbEntity
  8
1
100
AcDbCircle
 10
122.004546037232
 20
211.8824616974957
 30
0.0
 40
2.0
100
AcDbArc
 50
0.0
 51
90.0
  0
ARC
  5
157D
330
18
100
AcDbEntity
  8
1
100
AcDbCircle
 10
122.004546037232
 20
211.8824616974957
 30
0.0
 40
2.0
100
AcDbArc
 50
90.0
 51
180.0
  0
ARC
  5
157E
330
18
100
AcDbEntity
  8
1
100
AcDbCircle
 10
127.0045460372321
 20
213.3824616974957
 30
0.0
 40
2.0
100
AcDbArc
 50
180.0
 51
270.0
  0
LINE
  5
157F
330
18
100
AcDbEntity
  8
1
100
AcDbLine
 10
127.0045460372321
 20
211.3824616974957
 30
0.0
 11
127.0045460372321
 21
211.3824616974957
 31
0.0
  0
LINE
  5
1580
330
18
100
AcDbEntity
  8
1
100
AcDbLine
 10
122.004546037232
 20
213.8824616974957
 30
0.0
 11
122.004546037232
 21
213.8824616974957
 31
0.0
  0
LINE
  5
1581
330
18
100
AcDbEntity
  8
1
100
AcDbLine
 10
132.0045460372321
 20
213.8824616974957
 30
0.0
 11
132.0045460372321
 21
213.8824616974957
 31
0.0
  0
ARC
  5
1582
330
18
100
AcDbEntity
  8
1
100
AcDbCircle
 10
142.0045460372321
 20
211.8824616974957
 30
0.0
 40
2.0
100
AcDbArc
 50
0.0
 51
90.0
  0
ARC
  5
1583
330
18
100
AcDbEntity
  8
1
100
AcDbCircle
 10
142.0045460372321
 20
211.8824616974957
 30
0.0
 40
2.0
100
AcDbArc
 50
90.0
 51
180.0
  0
ARC
  5
1584
330
18
100
AcDbEntity
  8
1
100
AcDbCircle
 10
137.0045460372321
 20
213.3824616974957
 30
0.0
 40
2.0
100
AcDbArc
 50
180.0
 51
270.0
  0
ARC
  5
1585
330
18
100
AcDbEntity
  8
1
100
AcDbCircle
 10
137.0045460372321
 20
213.3824616974957
 30
0.0
 40
2.0
100
AcDbArc
 50
270.0
 51
0.0
  0
LINE
  5
1586
330
18
100
AcDbEntity
  8
1
100
AcDbLine
 10
137.0045460372321
 20
211.3824616974957
 30
0.0
 11
137.0045460372321
 21
211.3824616974957
 31
0.0
  0
LINE
  5
1587
330
18
100
AcDbEntity
  8
1
100
AcDbLine
 10
142.0045460372321
 20
213.8824616974957
 30
0.0
 11
142.0045460372321
 21
213.8824616974957
 31
0.0
  0
ARC
  5
1588
330
18
100
AcDbEntity
  8
1
100
AcDbCircle
 10
67.0045460372321
 20
225.3824616974957
 30
0.0
 40
2.0
100
AcDbArc
 50
0.0
 51
90.0
  0
LINE
  5
1589
330
18
100
AcDbEntity
  8
1
100
AcDbLine
 10
67.0045460372321
 20
227.3824616974957
 30
0.0
 11
67.0045460372321
 21
227.3824616974957
 31
0.0
  0
ARC
  5
158A
330
18
100
AcDbEntity
  8
1
100
AcDbCircle
 10
67.0045460372321
 20
225.3824616974957
 30
0.0
 40
2.0
100
AcDbArc
 50
90.0
 51
180.0
  0
LINE
  5
158B
330
18
100
AcDbEntity
  8
1
100
AcDbLine
 10
57.50454603723198
 20
235.8824616974958
 30
0.0
 11
63.50454603723199
 21
235.8824616974958
 31
0.0
  0
LINE
  5
158C
330
18
100
AcDbEntity
  8
1
100
AcDbLine
 10
58.50454603723199
 20
237.8824616974958
 30
0.0
 11
62.50454603723198
 21
237.8824616974958
 31
0.0
  0
ARC
  5
158D
330
18
100
AcDbEntity
  8
1
100
AcDbCircle
 10
58.50454603723199
 20
236.8824616974957
 30
0.0
 40
1.0
100
AcDbArc
 50
90.0
 51
180.0
  0
LINE
  5
158E
330
18
100
AcDbEntity
  8
1
100
AcDbLine
 10
57.50454603723198
 20
236.8824616974957
 30
0.0
 11
57.50454603723198
 21
235.8824616974958
 31
0.0
  0
ARC
  5
158F
330
18
100
AcDbEntity
  8
1
100
AcDbCircle
 10
62.50454603723198
 20
236.8824616974957
 30
0.0
 40
1.0
100
AcDbArc
 50
0.0
 51
90.0
  0
LINE
  5
1590
330
18
100
AcDbEntity
  8
1
100
AcDbLine
 10
63.50454603723199
 20
236.8824616974957
 30
0.0
 11
63.50454603723199
 21
235.8824616974958
 31
0.0
  0
LINE
  5
1591
330
18
100
AcDbEntity
  8
1
100
AcDbLine
 10
77.0045460372321
 20
227.3824616974957
 30
0.0
 11
77.0045460372321
 21
227.3824616974957
 31
0.0
  0
ARC
  5
1592
330
18
100
AcDbEntity
  8
1
100
AcDbCircle
 10
77.0045460372321
 20
225.3824616974957
 30
0.0
 40
2.0
100
AcDbArc
 50
0.0
 51
90.0
  0
ARC
  5
1593
330
18
100
AcDbEntity
  8
1
100
AcDbCircle
 10
77.0045460372321
 20
225.3824616974957
 30
0.0
 40
2.0
100
AcDbArc
 50
90.0
 51
180.0
  0
ARC
  5
1594
330
18
100
AcDbEntity
  8
1
100
AcDbCircle
 10
87.0045460372321
 20
225.3824616974957
 30
0.0
 40
2.0
100
AcDbArc
 50
0.0
 51
90.0
  0
LINE
  5
1595
330
18
100
AcDbEntity
  8
1
100
AcDbLine
 10
87.0045460372321
 20
227.3824616974957
 30
0.0
 11
87.0045460372321
 21
227.3824616974957
 31
0.0
  0
ARC
  5
1596
330
18
100
AcDbEntity
  8
1
100
AcDbCircle
 10
87.0045460372321
 20
225.3824616974957
 30
0.0
 40
2.0
100
AcDbArc
 50
90.0
 51
180.0
  0
ARC
  5
1597
330
18
100
AcDbEntity
  8
1
100
AcDbCircle
 10
117.0045460372321
 20
225.3824616974957
 30
0.0
 40
2.0
100
AcDbArc
 50
0.0
 51
90.0
  0
ARC
  5
1598
330
18
100
AcDbEntity
  8
1
100
AcDbCircle
 10
107.0045460372321
 20
225.3824616974957
 30
0.0
 40
2.0
100
AcDbArc
 50
90.0
 51
180.0
  0
LINE
  5
1599
330
18
100
AcDbEntity
  8
1
100
AcDbLine
 10
97.0045460372321
 20
227.3824616974957
 30
0.0
 11
97.0045460372321
 21
227.3824616974957
 31
0.0
  0
ARC
  5
159A
330
18
100
AcDbEntity
  8
1
100
AcDbCircle
 10
97.0045460372321
 20
225.3824616974957
 30
0.0
 40
2.0
100
AcDbArc
 50
0.0
 51
90.0
  0
ARC
  5
159B
330
18
100
AcDbEntity
  8
1
100
AcDbCircle
 10
97.0045460372321
 20
225.3824616974957
 30
0.0
 40
2.0
100
AcDbArc
 50
90.0
 51
180.0
  0
LINE
  5
159C
330
18
100
AcDbEntity
  8
1
100
AcDbLine
 10
107.0045460372321
 20
227.3824616974957
 30
0.0
 11
107.0045460372321
 21
227.3824616974957
 31
0.0
  0
ARC
  5
159D
330
18
100
AcDbEntity
  8
1
100
AcDbCircle
 10
107.0045460372321
 20
225.3824616974957
 30
0.0
 40
2.0
100
AcDbArc
 50
0.0
 51
90.0
  0
LINE
  5
159E
330
18
100
AcDbEntity
  8
1
100
AcDbLine
 10
117.0045460372321
 20
227.3824616974957
 30
0.0
 11
117.0045460372321
 21
227.3824616974957
 31
0.0
  0
ARC
  5
159F
330
18
100
AcDbEntity
  8
1
100
AcDbCircle
 10
117.0045460372321
 20
225.3824616974957
 30
0.0
 40
2.0
100
AcDbArc
 50
90.0
 51
180.0
  0
ARC
  5
15A0
330
18
100
AcDbEntity
  8
1
100
AcDbCircle
 10
127.0045460372321
 20
225.3824616974957
 30
0.0
 40
2.0
100
AcDbArc
 50
90.0
 51
180.0
  0
LINE
  5
15A1
330
18
100
AcDbEntity
  8
1
100
AcDbLine
 10
127.0045460372321
 20
227.3824616974957
 30
0.0
 11
127.0045460372321
 21
227.3824616974957
 31
0.0
  0
ARC
  5
15A2
330
18
100
AcDbEntity
  8
1
100
AcDbCircle
 10
127.0045460372321
 20
225.3824616974957
 30
0.0
 40
2.0
100
AcDbArc
 50
0.0
 51
90.0
  0
ARC
  5
15A3
330
18
100
AcDbEntity
  8
1
100
AcDbCircle
 10
137.0045460372321
 20
225.3824616974957
 30
0.0
 40
2.0
100
AcDbArc
 50
0.0
 51
90.0
  0
LINE
  5
15A4
330
18
100
AcDbEntity
  8
1
100
AcDbLine
 10
137.0045460372321
 20
227.3824616974957
 30
0.0
 11
137.0045460372321
 21
227.3824616974957
 31
0.0
  0
ARC
  5
15A5
330
18
100
AcDbEntity
  8
1
100
AcDbCircle
 10
137.0045460372321
 20
225.3824616974957
 30
0.0
 40
2.0
100
AcDbArc
 50
90.0
 51
180.0
  0
CIRCLE
  5
15A6
330
18
100
AcDbEntity
  8
1
100
AcDbCircle
 10
167.5045460372321
 20
213.8824616974957
 30
0.0
 40
4.0
  0
LINE
  5
15A7
330
18
100
AcDbEntity
  8
1
100
AcDbLine
 10
149.004546037232
 20
225.3824616974957
 30
0.0
 11
149.004546037232
 21
213.3824616974957
 31
0.0
  0
LINE
  5
15A8
330
18
100
AcDbEntity
  8
1
100
AcDbLine
 10
145.004546037232
 20
213.3824616974957
 30
0.0
 11
145.004546037232
 21
225.3824616974957
 31
0.0
  0
LINE
  5
15A9
330
18
100
AcDbEntity
  8
1
100
AcDbLine
 10
149.004546037232
 20
198.3824616974957
 30
0.0
 11
149.004546037232
 21
186.3824616974957
 31
0.0
  0
LINE
  5
15AA
330
18
100
AcDbEntity
  8
1
100
AcDbLine
 10
145.004546037232
 20
186.3824616974957
 30
0.0
 11
145.004546037232
 21
198.3824616974957
 31
0.0
  0
LINE
  5
15AB
330
18
100
AcDbEntity
  8
1
100
AcDbLine
 10
147.004546037232
 20
173.3824616974957
 30
0.0
 11
147.004546037232
 21
173.3824616974957
 31
0.0
  0
LINE
  5
15AC
330
18
100
AcDbEntity
  8
1
100
AcDbLine
 10
147.004546037232
 20
184.3824616974957
 30
0.0
 11
147.004546037232
 21
184.3824616974957
 31
0.0
  0
ARC
  5
15AD
330
18
100
AcDbEntity
  8
1
100
AcDbCircle
 10
147.004546037232
 20
186.3824616974957
 30
0.0
 40
2.0
100
AcDbArc
 50
270.0
 51
0.0
  0
ARC
  5
15AE
330
18
100
AcDbEntity
  8
1
100
AcDbCircle
 10
147.004546037232
 20
198.3824616974957
 30
0.0
 40
2.0
100
AcDbArc
 50
0.0
 51
90.0
  0
LINE
  5
15AF
330
18
100
AcDbEntity
  8
1
100
AcDbLine
 10
147.004546037232
 20
200.3824616974957
 30
0.0
 11
147.004546037232
 21
200.3824616974957
 31
0.0
  0
ARC
  5
15B0
330
18
100
AcDbEntity
  8
1
100
AcDbCircle
 10
147.004546037232
 20
213.3824616974957
 30
0.0
 40
2.0
100
AcDbArc
 50
270.0
 51
0.0
  0
LINE
  5
15B1
330
18
100
AcDbEntity
  8
1
100
AcDbLine
 10
147.004546037232
 20
211.3824616974957
 30
0.0
 11
147.004546037232
 21
211.3824616974957
 31
0.0
  0
CIRCLE
  5
15B2
330
18
100
AcDbEntity
  8
1
100
AcDbCircle
 10
167.5045460372321
 20
213.8824616974957
 30
0.0
 40
3.0
  0
LINE
  5
15B3
330
18
100
AcDbEntity
  8
1
100
AcDbLine
 10
172.5045460372319
 20
201.8824616974957
 30
0.0
 11
180.5045460372319
 21
201.8824616974957
 31
0.0
  0
LINE
  5
15B4
330
18
100
AcDbEntity
  8
1
100
AcDbLine
 10
147.004546037232
 20
227.3824616974957
 30
0.0
 11
147.004546037232
 21
227.3824616974957
 31
0.0
  0
ARC
  5
15B5
330
18
100
AcDbEntity
  8
1
100
AcDbCircle
 10
147.004546037232
 20
225.3824616974957
 30
0.0
 40
2.0
100
AcDbArc
 50
0.0
 51
90.0
  0
ARC
  5
15B6
330
18
100
AcDbEntity
  8
1
100
AcDbCircle
 10
191.004546037232
 20
236.8824616974957
 30
0.0
 40
1.0
100
AcDbArc
 50
90.0
 51
180.0
  0
ARC
  5
15B7
330
18
100
AcDbEntity
  8
1
100
AcDbCircle
 10
195.0045460372319
 20
236.8824616974957
 30
0.0
 40
1.0
100
AcDbArc
 50
0.0
 51
90.0
  0
LINE
  5
15B8
330
18
100
AcDbEntity
  8
1
100
AcDbLine
 10
196.0045460372319
 20
236.8824616974957
 30
0.0
 11
196.0045460372319
 21
235.8824616974958
 31
0.0
  0
LINE
  5
15B9
330
18
100
AcDbEntity
  8
1
100
AcDbLine
 10
190.004546037232
 20
236.8824616974957
 30
0.0
 11
190.004546037232
 21
235.8824616974958
 31
0.0
  0
LINE
  5
15BA
330
18
100
AcDbEntity
  8
1
100
AcDbLine
 10
190.004546037232
 20
235.8824616974958
 30
0.0
 11
196.0045460372319
 21
235.8824616974958
 31
0.0
  0
LINE
  5
15BB
330
18
100
AcDbEntity
  8
1
100
AcDbLine
 10
191.004546037232
 20
237.8824616974958
 30
0.0
 11
195.0045460372319
 21
237.8824616974958
 31
0.0
  0
DIMENSION
  5
15BC
330
18
100
AcDbEntity
  8
2
100
AcDbDimension
  2
*D1
 10
345.704546037232
 20
235.8824616974957
 30
0.0
 11
343.9545460372319
 21
178.8824616974958
 31
0.0
 70
    32
 71
     5
 42
114.0
  3
STANDARD
100
AcDbAlignedDimension
 13
356.604546037232
 23
121.8824616974957
 33
0.0
 14
356.604546037232
 24
235.8824616974957
 34
0.0
 50
90.0
100
AcDbRotatedDimension
1001
ACAD
1000
DSTYLE
1002
{
1070
    40
1040
1.0
1002
}
  0
DIMENSION
  5
15BD
330
18
100
AcDbEntity
  8
2
100
AcDbDimension
  2
*D2
 10
315.504546037232
 20
109.8824616974956
 30
0.0
 11
308.0045460372319
 21
111.6324616974956
 31
0.0
 70
    32
 71
     5
 42
15.0
  3
STANDARD
100
AcDbAlignedDimension
 13
300.5045460372319
 23
121.8824616974957
 33
0.0
 14
315.504546037232
 24
176.3824616974957
 34
0.0
100
AcDbRotatedDimension
1001
ACAD
1000
DSTYLE
1002
{
1070
    40
1040
1.0
1002
}
  0
LINE
  5
15BE
330
18
100
AcDbEntity
  8
1
100
AcDbLine
 10
307.004546037232
 20
161.8824616974957
 30
0.0
 11
307.004546037232
 21
175.8824616974957
 31
0.0
  0
LINE
  5
15BF
330
18
100
AcDbEntity
  8
1
100
AcDbLine
 10
300.5045460372319
 20
160.8824616974957
 30
0.0
 11
300.5045460372319
 21
176.8824616974957
 31
0.0
  0
ARC
  5
15C0
330
18
100
AcDbEntity
  8
1
100
AcDbCircle
 10
318.5045460372319
 20
173.3824616974957
 30
0.0
 40
2.0
100
AcDbArc
 50
270.0
 51
0.0
  0
LINE
  5
15C1
330
18
100
AcDbEntity
  8
1
100
AcDbLine
 10
300.5045460372319
 20
121.8824616974957
 30
0.0
 11
300.5045460372319
 21
235.8824616974957
 31
0.0
  0
LINE
  5
15C2
330
18
100
AcDbEntity
  8
1
100
AcDbLine
 10
300.5045460372319
 20
171.3824616974957
 30
0.0
 11
300.5045460372319
 21
186.3824616974957
 31
0.0
  0
LINE
  5
15C3
330
18
100
AcDbEntity
  8
1
100
AcDbLine
 10
378.604546037232
 20
160.3824616974957
 30
0.0
 11
378.604546037232
 21
177.3824616974957
 31
0.0
  0
LINE
  5
15C4
330
18
100
AcDbEntity
  8
1
100
AcDbLine
 10
384.604546037232
 20
177.3824616974957
 30
0.0
 11
384.604546037232
 21
160.3824616974957
 31
0.0
  0
TEXT
  5
15C5
330
18
100
AcDbEntity
  8
1
100
AcDbText
 10
382.089317610836
 20
164.9839845401353
 30
0.0
 40
3.0
  1
0.5A
 50
90.0
  7
ＭＳゴシック
 72
     4
 11
380.604546037232
 21
168.8824616974957
 31
0.0
100
AcDbText
  0
LINE
  5
15C6
102
{ACAD_REACTORS
330
15C8
102
}
330
18
100
AcDbEntity
  8
1
100
AcDbLine
 10
384.104546037232
 20
174.3824616974957
 30
0.0
 11
384.104546037232
 21
163.3824616974957
 31
0.0
  0
LINE
  5
15C7
102
{ACAD_REACTORS
330
15C8
102
}
330
18
100
AcDbEntity
  8
1
100
AcDbLine
 10
383.104546037232
 20
163.3824616974957
 30
0.0
 11
383.104546037232
 21
174.3824616974957
 31
0.0
  0
HATCH
  5
15C8
330
18
100
AcDbEntity
  8
1
100
AcDbHatch
 10
0.0
 20
0.0
 30
0.0
210
0.0
220
0.0
230
1.0
  2
SOLID
 70
     1
 71
     1
 91
        1
 92
        7
 72
     1
 73
     1
 93
        6
 10
383.104546037232
 20
163.3824616974957
 42
-1.0
 10
381.104546037232
 20
163.3824616974957
 42
1.0
 10
384.104546037232
 20
163.3824616974957
 42
0.0
 10
384.104546037232
 20
174.3824616974957
 42
1.0
 10
381.104546037232
 20
174.3824616974957
 42
-1.0
 10
383.104546037232
 20
174.3824616974957
 42
0.0
 97
        6
330
16B6
330
15C7
330
165D
330
165C
330
15C6
330
16B5
 75
     0
 76
     1
 47
0.047680296978607
 98
        1
 10
383.5045460372321
 20
171.5824616974957
  0
HATCH
  5
15C9
330
18
100
AcDbEntity
  8
1
100
AcDbHatch
 10
0.0
 20
0.0
 30
0.0
210
0.0
220
0.0
230
1.0
  2
SOLID
 70
     1
 71
     1
 91
        1
 92
        7
 72
     1
 73
     1
 93
        6
 10
375.104546037232
 20
156.8824616974957
 42
-1.0
 10
373.104546037232
 20
156.8824616974957
 42
1.0
 10
376.104546037232
 20
156.8824616974957
 42
0.0
 10
376.104546037232
 20
180.8824616974957
 42
1.0
 10
373.104546037232
 20
180.8824616974957
 42
-1.0
 10
375.104546037232
 20
180.8824616974957
 42
0.0
 97
        6
330
16B3
330
15CA
330
1658
330
1659
330
15CB
330
16B4
 75
     0
 76
     1
 47
0.0371689391769515
 98
        1
 10
375.404546037232
 20
167.6824616974957
  0
LINE
  5
15CA
102
{ACAD_REACTORS
330
15C9
102
}
330
18
100
AcDbEntity
  8
1
100
AcDbLine
 10
375.104546037232
 20
156.8824616974957
 30
0.0
 11
375.104546037232
 21
180.8824616974957
 31
0.0
  0
LINE
  5
15CB
102
{ACAD_REACTORS
330
15C9
102
}
330
18
100
AcDbEntity
  8
1
100
AcDbLine
 10
376.104546037232
 20
180.8824616974957
 30
0.0
 11
376.104546037232
 21
156.8824616974957
 31
0.0
  0
TEXT
  5
15CC
330
18
100
AcDbEntity
  8
1
100
AcDbText
 10
374.081703397638
 20
157.1870302254145
 30
0.0
 40
3.0
  1
電流ヒューズ
 50
90.0
  7
ＭＳゴシック
 72
     4
 11
372.604546037232
 21
168.8824616974957
 31
0.0
100
AcDbText
  0
LINE
  5
15CD
330
18
100
AcDbEntity
  8
1
100
AcDbLine
 10
376.604546037232
 20
183.8824616974957
 30
0.0
 11
376.604546037232
 21
153.8824616974957
 31
0.0
  0
LINE
  5
15CE
330
18
100
AcDbEntity
  8
1
100
AcDbLine
 10
370.604546037232
 20
153.8824616974957
 30
0.0
 11
370.604546037232
 21
183.8824616974957
 31
0.0
  0
ARC
  5
15CF
330
18
100
AcDbEntity
  8
1
100
AcDbCircle
 10
395.604546037232
 20
168.8824616974957
 30
0.0
 40
4.5
100
AcDbArc
 50
315.0000000000004
 51
44.99999999999964
  0
LINE
  5
15D0
330
18
100
AcDbEntity
  8
1
100
AcDbLine
 10
396.354546037232
 20
165.8824616974957
 30
0.0
 11
396.354546037232
 21
171.8824616974957
 31
0.0
  0
TEXT
  5
15D1
330
18
100
AcDbEntity
  8
1
100
AcDbText
 10
393.0166070055798
 20
170.5515208510578
 30
0.0
 40
2.0
  1
E
 50
44.99999999999964
  7
ＭＳゴシック
 72
     4
 11
392.7761189124859
 21
171.7108888222419
 31
0.0
100
AcDbText
  0
LINE
  5
15D2
330
18
100
AcDbEntity
  8
1
100
AcDbLine
 10
394.854546037232
 20
165.8824616974957
 30
0.0
 11
394.854546037232
 21
171.8824616974957
 31
0.0
  0
CIRCLE
  5
15D3
330
18
100
AcDbEntity
  8
1
100
AcDbCircle
 10
395.604546037232
 20
168.8824616974957
 30
0.0
 40
6.0
  0
CIRCLE
  5
15D4
330
18
100
AcDbEntity
  8
1
100
AcDbCircle
 10
395.604546037232
 20
168.8824616974957
 30
0.0
 40
8.0
  0
LINE
  5
15D5
330
18
100
AcDbEntity
  8
1
100
AcDbLine
 10
415.604546037232
 20
233.8824616974957
 30
0.0
 11
415.604546037232
 21
123.8824616974957
 31
0.0
  0
LINE
  5
15D6
330
18
100
AcDbEntity
  8
1
100
AcDbLine
 10
417.604546037232
 20
171.3824616974957
 30
0.0
 11
417.604546037232
 21
186.3824616974957
 31
0.0
  0
LINE
  5
15D7
330
18
100
AcDbEntity
  8
1
100
AcDbLine
 10
415.604546037232
 20
171.3824616974957
 30
0.0
 11
415.604546037232
 21
186.3824616974957
 31
0.0
  0
LINE
  5
15D8
330
18
100
AcDbEntity
  8
1
100
AcDbLine
 10
412.604546037232
 20
227.8824616974957
 30
0.0
 11
412.604546037232
 21
129.8824616974957
 31
0.0
  0
LINE
  5
15D9
330
18
100
AcDbEntity
  8
1
100
AcDbLine
 10
411.604546037232
 20
227.8824616974957
 30
0.0
 11
411.604546037232
 21
129.8824616974957
 31
0.0
  0
LINE
  5
15DA
330
18
100
AcDbEntity
  8
1
100
AcDbLine
 10
355.604546037232
 20
122.8824616974957
 30
0.0
 11
355.604546037232
 21
234.8824616974957
 31
0.0
  0
LINE
  5
15DB
330
18
100
AcDbEntity
  8
1
100
AcDbLine
 10
356.604546037232
 20
122.8824616974957
 30
0.0
 11
356.604546037232
 21
234.8824616974957
 31
0.0
  0
LINE
  5
15DC
330
18
100
AcDbEntity
  8
1
100
AcDbLine
 10
356.4045460372319
 20
122.6824616974957
 30
0.0
 11
356.4045460372319
 21
235.0824616974956
 31
0.0
  0
LINE
  5
15DD
330
18
100
AcDbEntity
  8
1
100
AcDbLine
 10
358.604546037232
 20
129.8824616974957
 30
0.0
 11
358.604546037232
 21
227.8824616974957
 31
0.0
  0
LINE
  5
15DE
330
18
100
AcDbEntity
  8
1
100
AcDbLine
 10
359.6045460372319
 20
129.8824616974957
 30
0.0
 11
359.6045460372319
 21
227.8824616974957
 31
0.0
  0
HATCH
  5
15DF
330
18
100
AcDbEntity
  8
1
100
AcDbHatch
 10
0.0
 20
0.0
 30
0.0
210
0.0
220
0.0
230
1.0
  2
SOLID
 70
     1
 71
     0
 91
        2
 92
        7
 72
     1
 73
     1
 93
       12
 10
359.6045460372319
 20
178.8824616974957
 42
0.0
 10
358.604546037232
 20
178.8824616974957
 42
0.0
 10
358.604546037232
 20
129.8824616974957
 42
0.4142135623730951
 10
362.604546037232
 20
125.8824616974957
 42
0.0
 10
408.604546037232
 20
125.8824616974957
 42
0.4142135623730951
 10
412.604546037232
 20
129.8824616974957
 42
0.0
 10
412.604546037232
 20
178.8824616974957
 42
0.0
 10
411.604546037232
 20
178.8824616974957
 42
0.0
 10
411.604546037232
 20
129.8824616974957
 42
-0.4142135623730951
 10
408.604546037232
 20
126.8824616974957
 42
0.0
 10
362.604546037232
 20
126.8824616974957
 42
-0.4142135623730951
 10
359.6045460372319
 20
129.8824616974957
 42
0.0
 97
        0
 92
        7
 72
     1
 73
     1
 93
       12
 10
359.6045460372319
 20
227.8824616974957
 42
-0.4142135623730951
 10
362.604546037232
 20
230.8824616974957
 42
0.0
 10
408.604546037232
 20
230.8824616974957
 42
-0.4142135623730951
 10
411.604546037232
 20
227.8824616974957
 42
0.0
 10
411.604546037232
 20
178.8824616974957
 42
0.0
 10
412.604546037232
 20
178.8824616974957
 42
0.0
 10
412.604546037232
 20
227.8824616974957
 42
0.4142135623730951
 10
408.604546037232
 20
231.8824616974957
 42
0.0
 10
362.604546037232
 20
231.8824616974957
 42
0.4142135623730951
 10
358.604546037232
 20
227.8824616974957
 42
0.0
 10
358.604546037232
 20
178.8824616974957
 42
0.0
 10
359.6045460372319
 20
178.8824616974956
 42
0.0
 97
        0
 75
     0
 76
     1
 47
0.1865709994576654
 98
        2
 10
359.204546037232
 20
173.9824616974956
 10
359.204546037232
 20
182.7824616974957
  0
LINE
  5
15E0
330
18
100
AcDbEntity
  8
1
100
AcDbLine
 10
349.604546037232
 20
146.8824616974957
 30
0.0
 11
355.604546037232
 21
147.8824616974957
 31
0.0
  0
LINE
  5
15E1
330
18
100
AcDbEntity
  8
1
100
AcDbLine
 10
349.604546037232
 20
140.8824616974957
 30
0.0
 11
355.604546037232
 21
139.8824616974957
 31
0.0
  0
CIRCLE
  5
15E2
330
18
100
AcDbEntity
  8
1
100
AcDbCircle
 10
286.504546037232
 20
88.08246169749574
 30
0.0
 40
3.0
  0
ARC
  5
15E3
330
18
100
AcDbEntity
  8
1
100
AcDbCircle
 10
286.504546037232
 20
87.02180152571589
 30
0.0
 40
0.25
100
AcDbArc
 50
44.99999999999964
 51
135.0000000000003
  0
ARC
  5
15E4
330
18
100
AcDbEntity
  8
1
100
AcDbCircle
 10
286.504546037232
 20
89.14312186927558
 30
0.0
 40
0.25
100
AcDbArc
 50
224.9999999999996
 51
315.0000000000004
  0
LINE
  5
15E5
330
18
100
AcDbEntity
  8
1
100
AcDbLine
 10
284.9135557795623
 20
88.96634517397894
 30
0.0
 11
285.6206625607488
 21
89.67345195516548
 31
0.0
  0
LINE
  5
15E6
330
18
100
AcDbEntity
  8
1
100
AcDbLine
 10
285.6206625607488
 20
88.25923839279232
 30
0.0
 11
284.9135557795623
 21
88.96634517397894
 31
0.0
  0
LINE
  5
15E7
330
18
100
AcDbEntity
  8
1
100
AcDbLine
 10
284.9135557795623
 20
87.19857822101255
 30
0.0
 11
285.6206625607488
 21
87.90568500219904
 31
0.0
  0
ARC
  5
15E8
330
18
100
AcDbEntity
  8
1
100
AcDbCircle
 10
285.4438858654522
 20
88.08246169749565
 30
0.0
 40
0.25
100
AcDbArc
 50
315.0000000000004
 51
44.99999999999906
  0
LINE
  5
15E9
330
18
100
AcDbEntity
  8
1
100
AcDbLine
 10
285.6206625607488
 20
86.49147143982602
 30
0.0
 11
284.9135557795623
 21
87.19857822101255
 31
0.0
  0
LINE
  5
15EA
330
18
100
AcDbEntity
  8
1
100
AcDbLine
 10
285.6206625607488
 20
86.49147143982602
 30
0.0
 11
286.3277693419354
 21
87.19857822101255
 31
0.0
  0
LINE
  5
15EB
330
18
100
AcDbEntity
  8
1
100
AcDbLine
 10
286.3277693419354
 20
88.96634517397894
 30
0.0
 11
285.6206625607488
 21
89.67345195516548
 31
0.0
  0
LINE
  5
15EC
330
18
100
AcDbEntity
  8
1
100
AcDbLine
 10
288.0955362949018
 20
87.19857822101255
 30
0.0
 11
287.3884295137153
 21
87.9056850021991
 31
0.0
  0
LINE
  5
15ED
330
18
100
AcDbEntity
  8
1
100
AcDbLine
 10
287.3884295137152
 20
88.25923839279239
 30
0.0
 11
288.0955362949018
 21
88.96634517397894
 31
0.0
  0
ARC
  5
15EE
330
18
100
AcDbEntity
  8
1
100
AcDbCircle
 10
287.5652062090118
 20
88.08246169749571
 30
0.0
 40
0.25
100
AcDbArc
 50
135.0000000000003
 51
224.9999999999996
  0
LINE
  5
15EF
330
18
100
AcDbEntity
  8
1
100
AcDbLine
 10
286.6813227325287
 20
88.96634517397894
 30
0.0
 11
287.3884295137153
 21
89.67345195516548
 31
0.0
  0
LINE
  5
15F0
330
18
100
AcDbEntity
  8
1
100
AcDbLine
 10
288.0955362949018
 20
88.96634517397897
 30
0.0
 11
287.3884295137153
 21
89.67345195516552
 31
0.0
  0
LINE
  5
15F1
330
18
100
AcDbEntity
  8
1
100
AcDbLine
 10
287.3884295137152
 20
86.49147143982602
 30
0.0
 11
288.0955362949018
 21
87.19857822101255
 31
0.0
  0
LINE
  5
15F2
330
18
100
AcDbEntity
  8
1
100
AcDbLine
 10
287.3884295137152
 20
86.49147143982606
 30
0.0
 11
286.6813227325287
 21
87.19857822101255
 31
0.0
  0
LINE
  5
15F3
330
18
100
AcDbEntity
  8
1
100
AcDbLine
 10
262.5045460372319
 20
121.8824616974957
 30
0.0
 11
268.5045460372319
 21
121.8824616974957
 31
0.0
  0
LINE
  5
15F4
330
18
100
AcDbEntity
  8
1
100
AcDbLine
 10
263.504546037232
 20
119.8824616974957
 30
0.0
 11
267.504546037232
 21
119.8824616974957
 31
0.0
  0
ARC
  5
15F5
330
18
100
AcDbEntity
  8
1
100
AcDbCircle
 10
263.504546037232
 20
120.8824616974957
 30
0.0
 40
1.0
100
AcDbArc
 50
180.0
 51
270.0
  0
LINE
  5
15F6
330
18
100
AcDbEntity
  8
1
100
AcDbLine
 10
262.5045460372319
 20
120.8824616974957
 30
0.0
 11
262.5045460372319
 21
121.8824616974957
 31
0.0
  0
ARC
  5
15F7
330
18
100
AcDbEntity
  8
1
100
AcDbCircle
 10
267.504546037232
 20
120.8824616974957
 30
0.0
 40
1.0
100
AcDbArc
 50
270.0
 51
0.0
  0
LINE
  5
15F8
330
18
100
AcDbEntity
  8
1
100
AcDbLine
 10
268.5045460372319
 20
120.8824616974957
 30
0.0
 11
268.5045460372319
 21
121.8824616974957
 31
0.0
  0
LINE
  5
15F9
330
18
100
AcDbEntity
  8
1
100
AcDbLine
 10
283.5045460372321
 20
121.8824616974957
 30
0.0
 11
289.5045460372321
 21
121.8824616974957
 31
0.0
  0
LINE
  5
15FA
330
18
100
AcDbEntity
  8
1
100
AcDbLine
 10
284.504546037232
 20
119.8824616974957
 30
0.0
 11
288.5045460372321
 21
119.8824616974957
 31
0.0
  0
ARC
  5
15FB
330
18
100
AcDbEntity
  8
1
100
AcDbCircle
 10
284.504546037232
 20
120.8824616974957
 30
0.0
 40
1.0
100
AcDbArc
 50
180.0
 51
270.0
  0
LINE
  5
15FC
330
18
100
AcDbEntity
  8
1
100
AcDbLine
 10
283.5045460372321
 20
120.8824616974957
 30
0.0
 11
283.5045460372321
 21
121.8824616974957
 31
0.0
  0
ARC
  5
15FD
330
18
100
AcDbEntity
  8
1
100
AcDbCircle
 10
288.5045460372321
 20
120.8824616974957
 30
0.0
 40
1.0
100
AcDbArc
 50
270.0
 51
0.0
  0
LINE
  5
15FE
330
18
100
AcDbEntity
  8
1
100
AcDbLine
 10
289.5045460372321
 20
120.8824616974957
 30
0.0
 11
289.5045460372321
 21
121.8824616974957
 31
0.0
  0
LINE
  5
15FF
330
18
100
AcDbEntity
  8
1
100
AcDbLine
 10
300.5045460372319
 20
79.08246169749574
 30
0.0
 11
305.504546037232
 21
79.08246169749574
 31
0.0
  0
LINE
  5
1600
330
18
100
AcDbEntity
  8
1
100
AcDbLine
 10
300.5045460372319
 20
154.8824616974957
 30
0.0
 11
300.5045460372319
 21
132.8824616974957
 31
0.0
  0
LINE
  5
1601
330
18
100
AcDbEntity
  8
1
100
AcDbLine
 10
305.504546037232
 20
154.8824616974957
 30
0.0
 11
305.504546037232
 21
132.8824616974957
 31
0.0
  0
LINE
  5
1602
330
18
100
AcDbEntity
  8
1
100
AcDbLine
 10
310.5045460372319
 20
153.8824616974957
 30
0.0
 11
310.5045460372319
 21
133.8824616974957
 31
0.0
  0
LINE
  5
1603
330
18
100
AcDbEntity
  8
1
100
AcDbLine
 10
313.504546037232
 20
153.3824616974957
 30
0.0
 11
313.504546037232
 21
134.3824616974957
 31
0.0
  0
LINE
  5
1604
330
18
100
AcDbEntity
  8
1
100
AcDbLine
 10
308.5045460372319
 20
153.8824616974957
 30
0.0
 11
308.5045460372319
 21
133.8824616974957
 31
0.0
  0
LINE
  5
1605
330
18
100
AcDbEntity
  8
1
100
AcDbLine
 10
318.5045460372319
 20
152.3824616974957
 30
0.0
 11
318.5045460372319
 21
135.3824616974957
 31
0.0
  0
ARC
  5
1606
330
18
100
AcDbEntity
  8
1
100
AcDbCircle
 10
311.734546037232
 20
149.0074616974957
 30
0.0
 40
6.814214921764653
100
AcDbArc
 50
327.8609253968894
 51
32.13907460311056
  0
LINE
  5
1607
330
18
100
AcDbEntity
  8
1
100
AcDbLine
 10
318.5045460372319
 20
147.6324616974957
 30
0.0
 11
333.5045460372319
 21
147.6324616974957
 31
0.0
  0
LINE
  5
1608
330
18
100
AcDbEntity
  8
1
100
AcDbLine
 10
318.5045460372319
 20
140.1324616974957
 30
0.0
 11
333.5045460372319
 21
140.1324616974957
 31
0.0
  0
ARC
  5
1609
330
18
100
AcDbEntity
  8
1
100
AcDbCircle
 10
311.662046037232
 20
138.7574616974957
 30
0.0
 40
6.87571314483087
100
AcDbArc
 50
328.182319090381
 51
31.81768090961895
  0
LINE
  5
160A
330
18
100
AcDbEntity
  8
1
100
AcDbLine
 10
310.5045460372319
 20
134.8824616974957
 30
0.0
 11
313.504546037232
 21
134.8824616974957
 31
0.0
  0
LINE
  5
160B
330
18
100
AcDbEntity
  8
1
100
AcDbLine
 10
310.5045460372319
 20
136.3824616974957
 30
0.0
 11
313.504546037232
 21
136.3824616974957
 31
0.0
  0
LINE
  5
160C
330
18
100
AcDbEntity
  8
1
100
AcDbLine
 10
305.504546037232
 20
133.8824616974957
 30
0.0
 11
310.5045460372319
 21
133.8824616974957
 31
0.0
  0
LINE
  5
160D
330
18
100
AcDbEntity
  8
1
100
AcDbLine
 10
305.504546037232
 20
132.8824616974957
 30
0.0
 11
308.5045460372319
 21
133.8824616974957
 31
0.0
  0
LINE
  5
160E
330
18
100
AcDbEntity
  8
1
100
AcDbLine
 10
300.5045460372319
 20
132.8824616974957
 30
0.0
 11
305.504546037232
 21
132.8824616974957
 31
0.0
  0
LINE
  5
160F
330
18
100
AcDbEntity
  8
1
100
AcDbLine
 10
317.504546037232
 20
135.1324616974957
 30
0.0
 11
317.504546037232
 21
134.3824616974957
 31
0.0
  0
LINE
  5
1610
330
18
100
AcDbEntity
  8
1
100
AcDbLine
 10
318.5045460372319
 20
135.3824616974957
 30
0.0
 11
317.504546037232
 21
134.3824616974957
 31
0.0
  0
LINE
  5
1611
330
18
100
AcDbEntity
  8
1
100
AcDbLine
 10
317.504546037232
 20
134.3824616974957
 30
0.0
 11
313.504546037232
 21
134.3824616974957
 31
0.0
  0
LINE
  5
1612
330
18
100
AcDbEntity
  8
1
100
AcDbLine
 10
317.504546037232
 20
135.1324616974957
 30
0.0
 11
313.504546037232
 21
135.1324616974957
 31
0.0
  0
LINE
  5
1613
330
18
100
AcDbEntity
  8
1
100
AcDbLine
 10
305.504546037232
 20
141.3824616974957
 30
0.0
 11
308.5045460372319
 21
143.8824616974957
 31
0.0
  0
LINE
  5
1614
330
18
100
AcDbEntity
  8
1
100
AcDbLine
 10
305.504546037232
 20
142.3824616974957
 30
0.0
 11
308.5045460372319
 21
143.8824616974957
 31
0.0
  0
LINE
  5
1615
330
18
100
AcDbEntity
  8
1
100
AcDbLine
 10
300.5045460372319
 20
142.3824616974957
 30
0.0
 11
305.504546037232
 21
142.3824616974957
 31
0.0
  0
LINE
  5
1616
330
18
100
AcDbEntity
  8
1
100
AcDbLine
 10
305.504546037232
 20
146.3824616974957
 30
0.0
 11
308.5045460372319
 21
143.8824616974957
 31
0.0
  0
LINE
  5
1617
330
18
100
AcDbEntity
  8
1
100
AcDbLine
 10
305.504546037232
 20
145.3824616974957
 30
0.0
 11
308.5045460372319
 21
143.8824616974957
 31
0.0
  0
LINE
  5
1618
330
18
100
AcDbEntity
  8
1
100
AcDbLine
 10
300.5045460372319
 20
145.3824616974957
 30
0.0
 11
305.504546037232
 21
145.3824616974957
 31
0.0
  0
LINE
  5
1619
330
18
100
AcDbEntity
  8
1
100
AcDbLine
 10
317.504546037232
 20
145.3824616974957
 30
0.0
 11
317.504546037232
 21
142.3824616974957
 31
0.0
  0
LINE
  5
161A
330
18
100
AcDbEntity
  8
1
100
AcDbLine
 10
313.504546037232
 20
142.3824616974957
 30
0.0
 11
317.504546037232
 21
142.3824616974957
 31
0.0
  0
LINE
  5
161B
330
18
100
AcDbEntity
  8
1
100
AcDbLine
 10
313.504546037232
 20
145.3824616974957
 30
0.0
 11
317.504546037232
 21
145.3824616974957
 31
0.0
  0
SPLINE
  5
161C
330
18
100
AcDbEntity
  8
1
100
AcDbSpline
210
0.0
220
0.0
230
1.0
 70
     8
 71
     3
 72
     9
 73
     5
 74
     3
 42
0.0000000001
 43
0.0000000001
 44
0.0000000001
 40
0.0
 40
0.0
 40
0.0
 40
0.0
 40
2.960152023123151
 40
5.341966418697634
 40
5.341966418697634
 40
5.341966418697634
 40
5.341966418697634
 10
333.5045460372319
 20
140.1324616974957
 30
0.0
 10
334.4944740794251
 20
140.9756576777707
 30
0.0
 10
336.2809236661401
 20
142.4973108144422
 30
0.0
 10
334.2577677965304
 20
143.4341045879951
 30
0.0
 10
333.3557063837404
 20
143.8517913948091
 30
0.0
 11
333.5045460372319
 21
140.1324616974957
 31
0.0
 11
335.304546037232
 21
142.4824616974956
 31
0.0
 11
333.3557063837404
 21
143.8517913948091
 31
0.0
  0
SPLINE
  5
161D
330
18
100
AcDbEntity
  8
1
100
AcDbSpline
210
0.0
220
0.0
230
1.0
 70
     8
 71
     3
 72
    10
 73
     6
 74
     4
 42
0.0000000001
 43
0.0000000001
 44
0.0000000001
 40
0.0
 40
0.0
 40
0.0
 40
0.0
 40
3.095561338432862
 40
7.145252684696154
 40
10.34876638062437
 40
10.34876638062437
 40
10.34876638062437
 40
10.34876638062437
 10
333.5045460372319
 20
147.6324616974957
 30
0.0
 10
334.4620726499658
 20
146.6539617534856
 30
0.0
 10
336.6722597056575
 20
144.3953635260467
 30
0.0
 10
330.0533451696678
 20
143.3272367524429
 30
0.0
 10
332.4472383364579
 20
141.1112109495554
 30
0.0
 10
333.5045460372319
 20
140.1324616974957
 30
0.0
 11
333.5045460372319
 21
147.6324616974957
 31
0.0
 11
335.104546037232
 21
144.9824616974956
 31
0.0
 11
331.704546037232
 21
142.7824616974957
 31
0.0
 11
333.5045460372319
 21
140.1324616974957
 31
0.0
  0
LINE
  5
161E
330
18
100
AcDbEntity
  8
1
100
AcDbLine
 10
349.604546037232
 20
140.8824616974957
 30
0.0
 11
349.604546037232
 21
146.8824616974957
 31
0.0
  0
LINE
  5
161F
330
18
100
AcDbEntity
  8
1
100
AcDbLine
 10
310.5045460372319
 20
152.8824616974957
 30
0.0
 11
313.504546037232
 21
152.8824616974957
 31
0.0
  0
LINE
  5
1620
330
18
100
AcDbEntity
  8
1
100
AcDbLine
 10
310.5045460372319
 20
151.3824616974957
 30
0.0
 11
313.504546037232
 21
151.3824616974957
 31
0.0
  0
LINE
  5
1621
330
18
100
AcDbEntity
  8
1
100
AcDbLine
 10
305.504546037232
 20
154.8824616974957
 30
0.0
 11
308.5045460372319
 21
153.8824616974957
 31
0.0
  0
LINE
  5
1622
330
18
100
AcDbEntity
  8
1
100
AcDbLine
 10
305.504546037232
 20
153.8824616974957
 30
0.0
 11
310.5045460372319
 21
153.8824616974957
 31
0.0
  0
LINE
  5
1623
330
18
100
AcDbEntity
  8
1
100
AcDbLine
 10
300.5045460372319
 20
154.8824616974957
 30
0.0
 11
305.504546037232
 21
154.8824616974957
 31
0.0
  0
LINE
  5
1624
330
18
100
AcDbEntity
  8
1
100
AcDbLine
 10
317.504546037232
 20
153.3824616974957
 30
0.0
 11
318.5045460372319
 21
152.3824616974957
 31
0.0
  0
LINE
  5
1625
330
18
100
AcDbEntity
  8
1
100
AcDbLine
 10
317.504546037232
 20
153.3824616974957
 30
0.0
 11
317.504546037232
 21
152.6324616974957
 31
0.0
  0
LINE
  5
1626
330
18
100
AcDbEntity
  8
1
100
AcDbLine
 10
317.504546037232
 20
153.3824616974957
 30
0.0
 11
313.504546037232
 21
153.3824616974957
 31
0.0
  0
LINE
  5
1627
330
18
100
AcDbEntity
  8
1
100
AcDbLine
 10
317.504546037232
 20
152.6324616974957
 30
0.0
 11
313.504546037232
 21
152.6324616974957
 31
0.0
  0
LINE
  5
1628
330
18
100
AcDbEntity
  8
1
100
AcDbLine
 10
318.5045460372319
 20
171.3824616974957
 30
0.0
 11
307.004546037232
 21
171.3824616974957
 31
0.0
  0
LINE
  5
1629
330
18
100
AcDbEntity
  8
1
100
AcDbLine
 10
307.004546037232
 20
161.8824616974957
 30
0.0
 11
300.5045460372319
 21
160.8824616974957
 31
0.0
  0
DIMENSION
  5
162A
330
18
100
AcDbEntity
  8
2
100
AcDbDimension
  2
*D3
 10
418.1045460372319
 20
108.9824616974957
 30
0.0
 11
419.4202603229463
 21
104.2253188403528
 31
0.0
 70
    32
  1
(<>)
 71
     5
 42
2.5
  3
STANDARD
100
AcDbAlignedDimension
 13
415.604546037232
 23
123.8824616974957
 33
0.0
 14
418.1045460372319
 24
144.8824616974957
 34
0.0
100
AcDbRotatedDimension
1001
ACAD
1000
DSTYLE
1002
{
1070
   279
1070
     1
1070
    40
1040
1.0
1002
}
  0
DIMENSION
  5
162B
330
18
100
AcDbEntity
  8
2
100
AcDbDimension
  2
*D4
 10
415.604546037232
 20
108.9824616974957
 30
0.0
 11
385.604546037232
 21
110.7324616974956
 31
0.0
 70
    32
 71
     5
 42
60.0
  3
STANDARD
100
AcDbAlignedDimension
 13
355.604546037232
 23
122.8824616974957
 33
0.0
 14
415.604546037232
 24
123.8824616974957
 34
0.0
100
AcDbRotatedDimension
1001
ACAD
1000
DSTYLE
1002
{
1070
    40
1040
1.0
1002
}
  0
ARC
  5
162C
330
18
100
AcDbEntity
  8
1
100
AcDbCircle
 10
402.604546037232
 20
120.8824616974957
 30
0.0
 40
1.0
100
AcDbArc
 50
180.0
 51
270.0
  0
LINE
  5
162D
330
18
100
AcDbEntity
  8
1
100
AcDbLine
 10
401.6045460372319
 20
121.8824616974957
 30
0.0
 11
407.604546037232
 21
121.8824616974957
 31
0.0
  0
LINE
  5
162E
330
18
100
AcDbEntity
  8
1
100
AcDbLine
 10
414.6045460372319
 20
121.8824616974957
 30
0.0
 11
356.604546037232
 21
121.8824616974957
 31
0.0
  0
LINE
  5
162F
330
18
100
AcDbEntity
  8
1
100
AcDbLine
 10
414.6045460372319
 20
122.8824616974957
 30
0.0
 11
356.604546037232
 21
122.8824616974957
 31
0.0
  0
LINE
  5
1630
330
18
100
AcDbEntity
  8
1
100
AcDbLine
 10
414.6045460372319
 20
122.6824616974957
 30
0.0
 11
356.4045460372319
 21
122.6824616974957
 31
0.0
  0
ARC
  5
1631
330
18
100
AcDbEntity
  8
1
100
AcDbCircle
 10
356.604546037232
 20
122.8824616974957
 30
0.0
 40
1.0
100
AcDbArc
 50
180.0
 51
270.0
  0
LINE
  5
1632
330
18
100
AcDbEntity
  8
1
100
AcDbLine
 10
367.604546037232
 20
121.8824616974957
 30
0.0
 11
373.604546037232
 21
121.8824616974957
 31
0.0
  0
LINE
  5
1633
330
18
100
AcDbEntity
  8
1
100
AcDbLine
 10
368.604546037232
 20
119.8824616974957
 30
0.0
 11
372.604546037232
 21
119.8824616974957
 31
0.0
  0
ARC
  5
1634
330
18
100
AcDbEntity
  8
1
100
AcDbCircle
 10
368.604546037232
 20
120.8824616974957
 30
0.0
 40
1.0
100
AcDbArc
 50
180.0
 51
270.0
  0
LINE
  5
1635
330
18
100
AcDbEntity
  8
1
100
AcDbLine
 10
367.604546037232
 20
120.8824616974957
 30
0.0
 11
367.604546037232
 21
121.8824616974957
 31
0.0
  0
ARC
  5
1636
330
18
100
AcDbEntity
  8
1
100
AcDbCircle
 10
372.604546037232
 20
120.8824616974957
 30
0.0
 40
1.0
100
AcDbArc
 50
270.0
 51
0.0
  0
LINE
  5
1637
330
18
100
AcDbEntity
  8
1
100
AcDbLine
 10
373.604546037232
 20
120.8824616974957
 30
0.0
 11
373.604546037232
 21
121.8824616974957
 31
0.0
  0
LINE
  5
1638
330
18
100
AcDbEntity
  8
1
100
AcDbLine
 10
401.6045460372319
 20
120.8824616974957
 30
0.0
 11
401.6045460372319
 21
121.8824616974957
 31
0.0
  0
ARC
  5
1639
330
18
100
AcDbEntity
  8
1
100
AcDbCircle
 10
414.6045460372319
 20
123.8824616974957
 30
0.0
 40
1.0
100
AcDbArc
 50
270.0
 51
0.0
  0
ARC
  5
163A
330
18
100
AcDbEntity
  8
1
100
AcDbCircle
 10
408.604546037232
 20
120.8824616974957
 30
0.0
 40
1.0
100
AcDbArc
 50
180.0
 51
270.0
  0
LINE
  5
163B
330
18
100
AcDbEntity
  8
1
100
AcDbLine
 10
407.604546037232
 20
121.8824616974957
 30
0.0
 11
413.604546037232
 21
121.8824616974957
 31
0.0
  0
LINE
  5
163C
330
18
100
AcDbEntity
  8
1
100
AcDbLine
 10
407.604546037232
 20
120.8824616974957
 30
0.0
 11
407.604546037232
 21
121.8824616974957
 31
0.0
  0
ARC
  5
163D
330
18
100
AcDbEntity
  8
1
100
AcDbCircle
 10
406.604546037232
 20
120.8824616974957
 30
0.0
 40
1.0
100
AcDbArc
 50
270.0
 51
0.0
  0
LINE
  5
163E
330
18
100
AcDbEntity
  8
1
100
AcDbLine
 10
407.604546037232
 20
120.8824616974957
 30
0.0
 11
407.604546037232
 21
121.8824616974957
 31
0.0
  0
LINE
  5
163F
330
18
100
AcDbEntity
  8
1
100
AcDbLine
 10
402.604546037232
 20
119.8824616974957
 30
0.0
 11
406.604546037232
 21
119.8824616974957
 31
0.0
  0
ARC
  5
1640
330
18
100
AcDbEntity
  8
1
100
AcDbCircle
 10
412.604546037232
 20
120.8824616974957
 30
0.0
 40
1.0
100
AcDbArc
 50
270.0
 51
0.0
  0
LINE
  5
1641
330
18
100
AcDbEntity
  8
1
100
AcDbLine
 10
413.604546037232
 20
120.8824616974957
 30
0.0
 11
413.604546037232
 21
121.8824616974957
 31
0.0
  0
LINE
  5
1642
330
18
100
AcDbEntity
  8
1
100
AcDbLine
 10
408.604546037232
 20
119.8824616974957
 30
0.0
 11
412.604546037232
 21
119.8824616974957
 31
0.0
  0
LINE
  5
1643
330
18
100
AcDbEntity
  8
1
100
AcDbLine
 10
414.6045460372319
 20
122.6824616974957
 30
0.0
 11
414.6045460372319
 21
121.8824616974957
 31
0.0
  0
CIRCLE
  5
1644
330
18
100
AcDbEntity
  8
1
100
AcDbCircle
 10
390.604546037232
 20
143.8824616974957
 30
0.0
 40
11.5
  0
LINE
  5
1645
330
18
100
AcDbEntity
  8
1
100
AcDbLine
 10
408.604546037232
 20
125.8824616974957
 30
0.0
 11
362.604546037232
 21
125.8824616974957
 31
0.0
  0
LINE
  5
1646
330
18
100
AcDbEntity
  8
1
100
AcDbLine
 10
408.604546037232
 20
126.8824616974957
 30
0.0
 11
362.604546037232
 21
126.8824616974957
 31
0.0
  0
CIRCLE
  5
1647
330
18
100
AcDbEntity
  8
1
100
AcDbCircle
 10
390.604546037232
 20
143.8824616974957
 30
0.0
 40
10.5
  0
CIRCLE
  5
1648
330
18
100
AcDbEntity
  8
1
100
AcDbCircle
 10
390.604546037232
 20
143.8824616974957
 30
0.0
 40
9.0
  0
LINE
  5
1649
330
18
100
AcDbEntity
  8
1
100
AcDbLine
 10
380.2122411918187
 20
148.8068905983937
 30
0.0
 11
380.2122411918187
 21
138.9580327965977
 31
0.0
  0
LINE
  5
164A
330
18
100
AcDbEntity
  8
1
100
AcDbLine
 10
400.9968508826452
 20
138.9580327965976
 30
0.0
 11
400.9968508826452
 21
148.8068905983937
 31
0.0
  0
LWPOLYLINE
  5
164B
330
18
100
AcDbEntity
  8
1
100
AcDbPolyline
 90
        6
 70
     1
 43
0.0
 10
390.604546037232
 20
154.3824616974957
 10
381.5112792974954
 20
149.1324616974957
 10
381.5112792974954
 20
138.6324616974957
 10
390.604546037232
 20
133.3824616974957
 10
399.6978127769687
 20
138.6324616974957
 10
399.6978127769687
 20
149.1324616974956
  0
CIRCLE
  5
164C
330
18
100
AcDbEntity
  8
1
100
AcDbCircle
 10
390.604546037232
 20
143.8824616974957
 30
0.0
 40
5.0
  0
ARC
  5
164D
330
18
100
AcDbEntity
  8
1
100
AcDbCircle
 10
362.604546037232
 20
129.8824616974957
 30
0.0
 40
3.0
100
AcDbArc
 50
180.0
 51
270.0
  0
ARC
  5
164E
330
18
100
AcDbEntity
  8
1
100
AcDbCircle
 10
362.604546037232
 20
129.8824616974957
 30
0.0
 40
4.0
100
AcDbArc
 50
180.0
 51
270.0
  0
LINE
  5
164F
330
18
100
AcDbEntity
  8
1
100
AcDbLine
 10
355.604546037232
 20
139.8824616974957
 30
0.0
 11
355.604546037232
 21
147.8824616974957
 31
0.0
  0
LINE
  5
1650
330
18
100
AcDbEntity
  8
1
100
AcDbLine
 10
381.1437130872174
 20
137.3446761479447
 30
0.0
 11
389.6730741418334
 21
132.4202472470466
 31
0.0
  0
LINE
  5
1651
330
18
100
AcDbEntity
  8
1
100
AcDbLine
 10
391.5360179326305
 20
132.4202472470466
 30
0.0
 11
400.0653789872467
 21
137.3446761479447
 31
0.0
  0
CIRCLE
  5
1652
330
18
100
AcDbEntity
  8
1
100
AcDbCircle
 10
389.604546037232
 20
143.2824616974956
 30
0.0
 40
1.0
  0
CIRCLE
  5
1653
330
18
100
AcDbEntity
  8
1
100
AcDbCircle
 10
390.604546037232
 20
143.8824616974957
 30
0.0
 40
2.25
  0
CIRCLE
  5
1654
330
18
100
AcDbEntity
  8
1
100
AcDbCircle
 10
390.604546037232
 20
143.8824616974957
 30
0.0
 40
4.0
  0
CIRCLE
  5
1655
330
18
100
AcDbEntity
  8
1
100
AcDbCircle
 10
391.604546037232
 20
143.2824616974956
 30
0.0
 40
1.0
  0
CIRCLE
  5
1656
330
18
100
AcDbEntity
  8
1
100
AcDbCircle
 10
390.604546037232
 20
145.0824616974957
 30
0.0
 40
1.0
  0
LINE
  5
1657
330
18
100
AcDbEntity
  8
1
100
AcDbLine
 10
376.604546037232
 20
153.8824616974957
 30
0.0
 11
370.604546037232
 21
153.8824616974957
 31
0.0
  0
ARC
  5
1658
102
{ACAD_REACTORS
330
15C9
102
}
330
18
100
AcDbEntity
  8
1
100
AcDbCircle
 10
374.1045460372319
 20
156.8824616974957
 30
0.0
 40
1.0
100
AcDbArc
 50
180.0
 51
0.0
  0
ARC
  5
1659
102
{ACAD_REACTORS
330
15C9
102
}
330
18
100
AcDbEntity
  8
1
100
AcDbCircle
 10
374.604546037232
 20
156.8824616974957
 30
0.0
 40
1.5
100
AcDbArc
 50
180.0
 51
0.0
  0
LINE
  5
165A
330
18
100
AcDbEntity
  8
1
100
AcDbLine
 10
389.6730741418334
 20
155.3446761479447
 30
0.0
 11
381.1437130872174
 21
150.4202472470467
 31
0.0
  0
LINE
  5
165B
330
18
100
AcDbEntity
  8
1
100
AcDbLine
 10
400.0653789872467
 20
150.4202472470467
 30
0.0
 11
391.5360179326306
 21
155.3446761479447
 31
0.0
  0
ARC
  5
165C
102
{ACAD_REACTORS
330
15C8
102
}
330
18
100
AcDbEntity
  8
1
100
AcDbCircle
 10
382.604546037232
 20
163.3824616974957
 30
0.0
 40
1.5
100
AcDbArc
 50
180.0
 51
0.0
  0
ARC
  5
165D
102
{ACAD_REACTORS
330
15C8
102
}
330
18
100
AcDbEntity
  8
1
100
AcDbCircle
 10
382.1045460372319
 20
163.3824616974957
 30
0.0
 40
1.0
100
AcDbArc
 50
180.0
 51
0.0
  0
LINE
  5
165E
330
18
100
AcDbEntity
  8
1
100
AcDbLine
 10
384.604546037232
 20
160.3824616974957
 30
0.0
 11
378.604546037232
 21
160.3824616974957
 31
0.0
  0
TEXT
  5
165F
330
18
100
AcDbEntity
  8
1
100
AcDbText
 10
393.9354868836699
 20
166.2945226658434
 30
0.0
 40
2.0
  1
F
 50
135.0000000000003
  7
ＭＳゴシック
 72
     4
 11
392.7761189124859
 21
166.0540345727495
 31
0.0
100
AcDbText
  0
LINE
  5
1660
330
18
100
AcDbEntity
  8
1
100
AcDbLine
 10
396.354546037232
 20
165.8824616974957
 30
0.0
 11
394.854546037232
 21
165.8824616974957
 31
0.0
  0
TEXT
  5
1661
330
18
100
AcDbEntity
  8
1
100
AcDbText
 10
392.5287955155948
 20
169.0339398090733
 30
0.0
 40
2.0
  1
S
 50
74.99999999999878
  7
ＭＳゴシック
 72
     4
 11
391.7408427320758
 21
169.9177378779058
 31
0.0
100
AcDbText
  0
TEXT
  5
1662
330
18
100
AcDbEntity
  8
1
100
AcDbText
 10
392.8651288940021
 20
167.4757703294206
 30
0.0
 40
2.0
  1
U
 50
105.0000000000012
  7
ＭＳゴシック
 72
     4
 11
391.7408427320757
 21
167.8471855170856
 31
0.0
100
AcDbText
  0
LINE
  5
1663
330
18
100
AcDbEntity
  8
1
100
AcDbLine
 10
415.6045460372318
 20
142.8824616974957
 30
0.0
 11
415.6045460372318
 21
154.8824616974957
 31
0.0
  0
LINE
  5
1664
330
18
100
AcDbEntity
  8
1
100
AcDbLine
 10
418.1045460372319
 20
144.8824616974957
 30
0.0
 11
418.1045460372319
 21
152.8824616974957
 31
0.0
  0
ARC
  5
1665
330
18
100
AcDbEntity
  8
1
100
AcDbCircle
 10
408.604546037232
 20
129.8824616974957
 30
0.0
 40
4.0
100
AcDbArc
 50
270.0
 51
0.0
  0
ARC
  5
1666
330
18
100
AcDbEntity
  8
1
100
AcDbCircle
 10
408.604546037232
 20
129.8824616974957
 30
0.0
 40
3.0
100
AcDbArc
 50
270.0
 51
0.0
  0
LINE
  5
1667
330
18
100
AcDbEntity
  8
1
100
AcDbLine
 10
415.604546037232
 20
125.8824616974957
 30
0.0
 11
415.6045460372321
 21
131.8824616974957
 31
0.0
  0
LINE
  5
1668
330
18
100
AcDbEntity
  8
1
100
AcDbLine
 10
417.604546037232
 20
126.8824616974957
 30
0.0
 11
417.604546037232
 21
130.8824616974957
 31
0.0
  0
ARC
  5
1669
330
18
100
AcDbEntity
  8
1
100
AcDbCircle
 10
416.6045460372321
 20
126.8824616974957
 30
0.0
 40
1.0
100
AcDbArc
 50
270.0
 51
0.0
  0
LINE
  5
166A
330
18
100
AcDbEntity
  8
1
100
AcDbLine
 10
416.604546037232
 20
125.8824616974957
 30
0.0
 11
415.604546037232
 21
125.8824616974957
 31
0.0
  0
ARC
  5
166B
330
18
100
AcDbEntity
  8
1
100
AcDbCircle
 10
416.6045460372321
 20
130.8824616974957
 30
0.0
 40
1.0
100
AcDbArc
 50
0.0
 51
90.0
  0
LINE
  5
166C
330
18
100
AcDbEntity
  8
1
100
AcDbLine
 10
416.6045460372321
 20
131.8824616974957
 30
0.0
 11
415.6045460372321
 21
131.8824616974957
 31
0.0
  0
ARC
  5
166D
330
18
100
AcDbEntity
  8
1
100
AcDbCircle
 10
416.1045460372319
 20
144.8824616974957
 30
0.0
 40
2.0
100
AcDbArc
 50
270.0
 51
0.0
  0
LINE
  5
166E
330
18
100
AcDbEntity
  8
1
100
AcDbLine
 10
415.6045460372318
 20
142.8824616974957
 30
0.0
 11
416.1045460372319
 21
142.8824616974957
 31
0.0
  0
ARC
  5
166F
330
18
100
AcDbEntity
  8
1
100
AcDbCircle
 10
416.1045460372319
 20
152.8824616974957
 30
0.0
 40
2.0
100
AcDbArc
 50
0.0
 51
90.0
  0
LINE
  5
1670
330
18
100
AcDbEntity
  8
1
100
AcDbLine
 10
415.6045460372318
 20
154.8824616974957
 30
0.0
 11
416.1045460372319
 21
154.8824616974957
 31
0.0
  0
LINE
  5
1671
330
18
100
AcDbEntity
  8
1
100
AcDbLine
 10
417.604546037232
 20
171.3824616974957
 30
0.0
 11
415.604546037232
 21
171.3824616974957
 31
0.0
  0
LINE
  5
1672
330
18
100
AcDbEntity
  8
1
100
AcDbLine
 10
349.604546037232
 20
216.8824616974957
 30
0.0
 11
355.604546037232
 21
217.8824616974957
 31
0.0
  0
LINE
  5
1673
330
18
100
AcDbEntity
  8
1
100
AcDbLine
 10
349.604546037232
 20
210.8824616974957
 30
0.0
 11
355.604546037232
 21
209.8824616974957
 31
0.0
  0
DIMENSION
  5
1674
330
18
100
AcDbEntity
  8
2
100
AcDbDimension
  2
*D5
 10
313.8396808720909
 20
177.3689479110039
 30
0.0
 11
325.7659004405279
 21
191.5679943157956
 31
0.0
 70
    35
  1
<>穴
 71
     5
 42
4.499999999999886
  3
STANDARD$3
100
AcDbDiametricDimension
 15
317.1694112023726
 25
180.3959754839873
 35
0.0
 40
0.0
1001
ACAD
1000
DSTYLE
1002
{
1070
   340
1005
4B4
1070
    40
1040
1.0
1070
   288
1070
     1
1002
}
  0
LINE
  5
1675
330
18
100
AcDbEntity
  8
1
100
AcDbLine
 10
320.5045460372319
 20
184.3824616974957
 30
0.0
 11
320.5045460372319
 21
173.3824616974957
 31
0.0
  0
LINE
  5
1676
330
18
100
AcDbEntity
  8
1
100
AcDbLine
 10
307.004546037232
 20
175.8824616974957
 30
0.0
 11
300.5045460372319
 21
176.8824616974957
 31
0.0
  0
LINE
  5
1677
330
18
100
AcDbEntity
  8
2
100
AcDbLine
 10
315.504546037232
 20
176.3824616974957
 30
0.0
 11
315.504546037232
 21
181.3824616974957
 31
0.0
  0
CIRCLE
  5
1678
330
18
100
AcDbEntity
  8
1
100
AcDbCircle
 10
315.504546037232
 20
178.8824616974957
 30
0.0
 40
2.25
  0
LINE
  5
1679
330
18
100
AcDbEntity
  8
2
100
AcDbLine
 10
313.0045460372319
 20
178.8824616974957
 30
0.0
 11
318.004546037232
 21
178.8824616974957
 31
0.0
  0
LINE
  5
167A
330
18
100
AcDbEntity
  8
1
100
AcDbLine
 10
300.5045460372319
 20
186.3824616974957
 30
0.0
 11
318.5045460372319
 21
186.3824616974957
 31
0.0
  0
ARC
  5
167B
330
18
100
AcDbEntity
  8
1
100
AcDbCircle
 10
318.5045460372319
 20
184.3824616974957
 30
0.0
 40
2.0
100
AcDbArc
 50
0.0
 51
90.0
  0
LINE
  5
167C
330
18
100
AcDbEntity
  8
1
100
AcDbLine
 10
349.604546037232
 20
210.8824616974957
 30
0.0
 11
349.604546037232
 21
216.8824616974957
 31
0.0
  0
LINE
  5
167D
330
18
100
AcDbEntity
  8
1
100
AcDbLine
 10
262.5045460372319
 20
235.8824616974958
 30
0.0
 11
268.5045460372319
 21
235.8824616974958
 31
0.0
  0
LINE
  5
167E
330
18
100
AcDbEntity
  8
1
100
AcDbLine
 10
263.504546037232
 20
237.8824616974958
 30
0.0
 11
267.504546037232
 21
237.8824616974958
 31
0.0
  0
ARC
  5
167F
330
18
100
AcDbEntity
  8
1
100
AcDbCircle
 10
263.504546037232
 20
236.8824616974957
 30
0.0
 40
1.0
100
AcDbArc
 50
90.0
 51
180.0
  0
LINE
  5
1680
330
18
100
AcDbEntity
  8
1
100
AcDbLine
 10
262.5045460372319
 20
236.8824616974957
 30
0.0
 11
262.5045460372319
 21
235.8824616974958
 31
0.0
  0
ARC
  5
1681
330
18
100
AcDbEntity
  8
1
100
AcDbCircle
 10
267.504546037232
 20
236.8824616974957
 30
0.0
 40
1.0
100
AcDbArc
 50
0.0
 51
90.0
  0
LINE
  5
1682
330
18
100
AcDbEntity
  8
1
100
AcDbLine
 10
268.5045460372319
 20
236.8824616974957
 30
0.0
 11
268.5045460372319
 21
235.8824616974958
 31
0.0
  0
LINE
  5
1683
330
18
100
AcDbEntity
  8
1
100
AcDbLine
 10
283.5045460372321
 20
235.8824616974958
 30
0.0
 11
289.5045460372321
 21
235.8824616974958
 31
0.0
  0
LINE
  5
1684
330
18
100
AcDbEntity
  8
1
100
AcDbLine
 10
284.504546037232
 20
237.8824616974958
 30
0.0
 11
288.5045460372321
 21
237.8824616974958
 31
0.0
  0
ARC
  5
1685
330
18
100
AcDbEntity
  8
1
100
AcDbCircle
 10
284.504546037232
 20
236.8824616974957
 30
0.0
 40
1.0
100
AcDbArc
 50
90.0
 51
180.0
  0
LINE
  5
1686
330
18
100
AcDbEntity
  8
1
100
AcDbLine
 10
283.5045460372321
 20
236.8824616974957
 30
0.0
 11
283.5045460372321
 21
235.8824616974958
 31
0.0
  0
ARC
  5
1687
330
18
100
AcDbEntity
  8
1
100
AcDbCircle
 10
288.5045460372321
 20
236.8824616974957
 30
0.0
 40
1.0
100
AcDbArc
 50
0.0
 51
90.0
  0
LINE
  5
1688
330
18
100
AcDbEntity
  8
1
100
AcDbLine
 10
289.5045460372321
 20
236.8824616974957
 30
0.0
 11
289.5045460372321
 21
235.8824616974958
 31
0.0
  0
LINE
  5
1689
330
18
100
AcDbEntity
  8
1
100
AcDbLine
 10
355.604546037232
 20
209.8824616974957
 30
0.0
 11
355.604546037232
 21
217.8824616974957
 31
0.0
  0
LINE
  5
168A
330
18
100
AcDbEntity
  8
1
100
AcDbLine
 10
399.604546037232
 20
227.8824616974957
 30
0.0
 11
399.604546037232
 21
209.8824616974957
 31
0.0
  0
LINE
  5
168B
330
18
100
AcDbEntity
  8
1
100
AcDbLine
 10
396.604546037232
 20
224.8824616974957
 30
0.0
 11
396.604546037232
 21
212.8824616974957
 31
0.0
  0
LINE
  5
168C
330
18
100
AcDbEntity
  8
1
100
AcDbLine
 10
398.104546037232
 20
226.3824616974957
 30
0.0
 11
398.104546037232
 21
211.3824616974957
 31
0.0
  0
LINE
  5
168D
330
18
100
AcDbEntity
  8
1
100
AcDbLine
 10
381.604546037232
 20
209.8824616974957
 30
0.0
 11
381.604546037232
 21
227.8824616974957
 31
0.0
  0
LINE
  5
168E
330
18
100
AcDbEntity
  8
1
100
AcDbLine
 10
384.604546037232
 20
212.8824616974957
 30
0.0
 11
384.604546037232
 21
224.8824616974957
 31
0.0
  0
LINE
  5
168F
330
18
100
AcDbEntity
  8
1
100
AcDbLine
 10
383.104546037232
 20
211.3824616974957
 30
0.0
 11
383.104546037232
 21
226.3824616974957
 31
0.0
  0
LINE
  5
1690
102
{ACAD_REACTORS
330
1693
102
}
330
18
100
AcDbEntity
  8
1
100
AcDbLine
 10
379.1545969678598
 20
216.8824620707609
 30
0.0
 11
379.1545969678598
 21
220.8824620707609
 31
0.0
  0
LINE
  5
1691
102
{ACAD_REACTORS
330
1693
102
}
330
18
100
AcDbEntity
  8
1
100
AcDbLine
 10
380.1545969678597
 20
220.8824620707609
 30
0.0
 11
380.1545969678597
 21
216.8824620707609
 31
0.0
  0
TEXT
  5
1692
330
18
100
AcDbEntity
  8
1
100
AcDbText
 10
378.0327695566922
 20
216.9332234920807
 30
0.0
 40
3.0
  1
強
 50
90.0
  7
ＭＳゴシック
 72
     4
 11
376.6545969678598
 21
218.8824620707609
 31
0.0
100
AcDbText
  0
HATCH
  5
1693
330
18
100
AcDbEntity
  8
1
100
AcDbHatch
 10
0.0
 20
0.0
 30
0.0
210
0.0
220
0.0
230
1.0
  2
SOLID
 70
     1
 71
     1
 91
        1
 92
        7
 72
     1
 73
     1
 93
        6
 10
379.1545969678598
 20
216.8824620707609
 42
-1.0
 10
377.1545969678598
 20
216.8824620707609
 42
1.0
 10
380.1545969678597
 20
216.8824620707609
 42
0.0
 10
380.1545969678597
 20
220.8824620707609
 42
1.0
 10
377.1545969678598
 20
220.8824620707609
 42
-1.0
 10
379.1545969678598
 20
220.8824620707609
 42
0.0
 97
        6
330
1701
330
1690
330
16D0
330
16D1
330
1691
330
1702
 75
     0
 76
     1
 47
0.0485931133156381
 98
        1
 10
379.5545969678597
 20
219.9824620707609
  0
LINE
  5
1694
330
18
100
AcDbEntity
  8
1
100
AcDbLine
 10
374.6545969678598
 20
213.8824620707609
 30
0.0
 11
374.6545969678598
 21
223.8824620707609
 31
0.0
  0
LINE
  5
1695
330
18
100
AcDbEntity
  8
1
100
AcDbLine
 10
380.6545969678598
 20
223.8824620707609
 30
0.0
 11
380.6545969678598
 21
213.8824620707609
 31
0.0
  0
LINE
  5
1696
330
18
100
AcDbEntity
  8
1
100
AcDbLine
 10
409.6045460372319
 20
228.8824616974957
 30
0.0
 11
409.6045460372319
 21
208.8824616974957
 31
0.0
  0
LINE
  5
1697
330
18
100
AcDbEntity
  8
1
100
AcDbLine
 10
401.6045460372319
 20
208.8824616974958
 30
0.0
 11
401.6045460372319
 21
228.8824616974957
 31
0.0
  0
TEXT
  5
1698
330
18
100
AcDbEntity
  8
1
100
AcDbText
 10
406.4624140575365
 20
211.0855073827749
 30
0.0
 40
4.0
  1
発生量
 50
90.0
  7
ＭＳゴシック
 72
     4
 11
404.604546037232
 21
218.8824616974957
 31
0.0
100
AcDbText
  0
LINE
  5
1699
102
{ACAD_REACTORS
330
169B
102
}
330
18
100
AcDbEntity
  8
1
100
AcDbLine
 10
408.604546037232
 20
225.8824616974957
 30
0.0
 11
408.604546037232
 21
211.8824616974957
 31
0.0
  0
LINE
  5
169A
102
{ACAD_REACTORS
330
169B
102
}
330
18
100
AcDbEntity
  8
1
100
AcDbLine
 10
407.604546037232
 20
211.8824616974957
 30
0.0
 11
407.604546037232
 21
225.8824616974957
 31
0.0
  0
HATCH
  5
169B
330
18
100
AcDbEntity
  8
1
100
AcDbHatch
 10
0.0
 20
0.0
 30
0.0
210
0.0
220
0.0
230
1.0
  2
SOLID
 70
     1
 71
     1
 91
        1
 92
        7
 72
     1
 73
     1
 93
        6
 10
407.604546037232
 20
211.8824616974957
 42
-1.0
 10
405.6045460372319
 20
211.8824616974957
 42
1.0
 10
408.604546037232
 20
211.8824616974957
 42
0.0
 10
408.604546037232
 20
225.8824616974957
 42
1.0
 10
405.6045460372319
 20
225.8824616974957
 42
-1.0
 10
407.604546037232
 20
225.8824616974957
 42
0.0
 97
        6
330
170B
330
169A
330
16E9
330
16E8
330
1699
330
170A
 75
     0
 76
     1
 47
0.0582587826823761
 98
        1
 10
407.904546037232
 20
220.2824616974957
  0
CIRCLE
  5
169C
330
18
100
AcDbEntity
  8
1
100
AcDbCircle
 10
367.604546037232
 20
218.8824616974957
 30
0.0
 40
5.0
  0
CIRCLE
  5
169D
330
18
100
AcDbEntity
  8
1
100
AcDbCircle
 10
367.604546037232
 20
218.8824616974957
 30
0.0
 40
4.0
  0
LINE
  5
169E
330
18
100
AcDbEntity
  8
1
100
AcDbLine
 10
401.6045460372319
 20
203.8824616974957
 30
0.0
 11
409.6045460372319
 21
203.8824616974957
 31
0.0
  0
LINE
  5
169F
330
18
100
AcDbEntity
  8
1
100
AcDbLine
 10
409.6045460372319
 20
183.8824616974957
 30
0.0
 11
401.6045460372319
 21
183.8824616974957
 31
0.0
  0
TEXT
  5
16A0
330
18
100
AcDbEntity
  8
1
100
AcDbText
 10
406.4218049204807
 20
187.3849997685617
 30
0.0
 40
4.0
  1
電 源
 50
90.0
  7
ＭＳゴシック
 72
     4
 11
404.604546037232
 21
193.8824616974957
 31
0.0
100
AcDbText
  0
LINE
  5
16A1
330
18
100
AcDbEntity
  8
1
100
AcDbLine
 10
409.6045460372319
 20
208.8824616974957
 30
0.0
 11
401.6045460372319
 21
208.8824616974958
 31
0.0
  0
LINE
  5
16A2
330
18
100
AcDbEntity
  8
1
100
AcDbLine
 10
399.604546037232
 20
202.8824616974957
 30
0.0
 11
399.604546037232
 21
184.8824616974957
 31
0.0
  0
LINE
  5
16A3
330
18
100
AcDbEntity
  8
1
100
AcDbLine
 10
396.604546037232
 20
199.8824616974957
 30
0.0
 11
396.604546037232
 21
187.8824616974957
 31
0.0
  0
LINE
  5
16A4
330
18
100
AcDbEntity
  8
1
100
AcDbLine
 10
398.104546037232
 20
201.3824616974957
 30
0.0
 11
398.104546037232
 21
186.3824616974957
 31
0.0
  0
LINE
  5
16A5
330
18
100
AcDbEntity
  8
1
100
AcDbLine
 10
381.604546037232
 20
184.8824616974957
 30
0.0
 11
381.604546037232
 21
202.8824616974957
 31
0.0
  0
LINE
  5
16A6
330
18
100
AcDbEntity
  8
1
100
AcDbLine
 10
384.604546037232
 20
187.8824616974957
 30
0.0
 11
384.604546037232
 21
199.8824616974957
 31
0.0
  0
LINE
  5
16A7
330
18
100
AcDbEntity
  8
1
100
AcDbLine
 10
383.104546037232
 20
186.3824616974957
 30
0.0
 11
383.104546037232
 21
201.3824616974957
 31
0.0
  0
LINE
  5
16A8
330
18
100
AcDbEntity
  8
1
100
AcDbLine
 10
374.604546037232
 20
188.8824616974957
 30
0.0
 11
374.604546037232
 21
198.8824616974957
 31
0.0
  0
LINE
  5
16A9
330
18
100
AcDbEntity
  8
1
100
AcDbLine
 10
380.604546037232
 20
198.8824616974957
 30
0.0
 11
380.604546037232
 21
188.8824616974957
 31
0.0
  0
LINE
  5
16AA
102
{ACAD_REACTORS
330
16AC
102
}
330
18
100
AcDbEntity
  8
1
100
AcDbLine
 10
380.104546037232
 20
195.8824616974957
 30
0.0
 11
380.104546037232
 21
191.8824616974957
 31
0.0
  0
LINE
  5
16AB
102
{ACAD_REACTORS
330
16AC
102
}
330
18
100
AcDbEntity
  8
1
100
AcDbLine
 10
379.104546037232
 20
191.8824616974957
 30
0.0
 11
379.104546037232
 21
195.8824616974957
 31
0.0
  0
HATCH
  5
16AC
330
18
100
AcDbEntity
  8
1
100
AcDbHatch
 10
0.0
 20
0.0
 30
0.0
210
0.0
220
0.0
230
1.0
  2
SOLID
 70
     1
 71
     1
 91
        1
 92
        7
 72
     1
 73
     1
 93
        6
 10
380.104546037232
 20
195.8824616974957
 42
1.0
 10
377.104546037232
 20
195.8824616974957
 42
-1.0
 10
379.104546037232
 20
195.8824616974957
 42
0.0
 10
379.104546037232
 20
191.8824616974957
 42
-1.0
 10
377.104546037232
 20
191.8824616974957
 42
1.0
 10
380.104546037232
 20
191.8824616974957
 42
0.0
 97
        6
330
16C9
330
16AB
330
16C1
330
16C0
330
16AA
330
16C8
 75
     0
 76
     1
 47
0.0485931133156381
 98
        1
 10
379.704546037232
 20
194.8824616974957
  0
TEXT
  5
16AD
330
18
100
AcDbEntity
  8
1
100
AcDbText
 10
377.9294191336787
 20
191.9332231188155
 30
0.0
 40
3.0
  1
入
 50
90.0
  7
ＭＳゴシック
 72
     4
 11
376.604546037232
 21
193.8824616974957
 31
0.0
100
AcDbText
  0
LINE
  5
16AE
330
18
100
AcDbEntity
  8
1
100
AcDbLine
 10
401.6045460372319
 20
183.8824616974957
 30
0.0
 11
401.6045460372319
 21
203.8824616974957
 31
0.0
  0
CIRCLE
  5
16AF
330
18
100
AcDbEntity
  8
1
100
AcDbCircle
 10
367.604546037232
 20
193.8824616974957
 30
0.0
 40
4.0
  0
CIRCLE
  5
16B0
330
18
100
AcDbEntity
  8
1
100
AcDbCircle
 10
367.604546037232
 20
193.8824616974957
 30
0.0
 40
5.0
  0
LINE
  5
16B1
330
18
100
AcDbEntity
  8
1
100
AcDbLine
 10
380.604546037232
 20
188.8824616974957
 30
0.0
 11
374.604546037232
 21
188.8824616974957
 31
0.0
  0
LINE
  5
16B2
330
18
100
AcDbEntity
  8
1
100
AcDbLine
 10
370.604546037232
 20
183.8824616974957
 30
0.0
 11
376.604546037232
 21
183.8824616974957
 31
0.0
  0
ARC
  5
16B3
102
{ACAD_REACTORS
330
15C9
102
}
330
18
100
AcDbEntity
  8
1
100
AcDbCircle
 10
374.1045460372319
 20
180.8824616974957
 30
0.0
 40
1.0
100
AcDbArc
 50
0.0
 51
180.0
  0
ARC
  5
16B4
102
{ACAD_REACTORS
330
15C9
102
}
330
18
100
AcDbEntity
  8
1
100
AcDbCircle
 10
374.604546037232
 20
180.8824616974957
 30
0.0
 40
1.5
100
AcDbArc
 50
0.0
 51
180.0
  0
ARC
  5
16B5
102
{ACAD_REACTORS
330
15C8
102
}
330
18
100
AcDbEntity
  8
1
100
AcDbCircle
 10
382.604546037232
 20
174.3824616974957
 30
0.0
 40
1.5
100
AcDbArc
 50
0.0
 51
180.0
  0
ARC
  5
16B6
102
{ACAD_REACTORS
330
15C8
102
}
330
18
100
AcDbEntity
  8
1
100
AcDbCircle
 10
382.1045460372319
 20
174.3824616974957
 30
0.0
 40
1.0
100
AcDbArc
 50
0.0
 51
180.0
  0
LINE
  5
16B7
330
18
100
AcDbEntity
  8
1
100
AcDbLine
 10
378.604546037232
 20
177.3824616974957
 30
0.0
 11
384.604546037232
 21
177.3824616974957
 31
0.0
  0
LINE
  5
16B8
330
18
100
AcDbEntity
  8
1
100
AcDbLine
 10
396.354546037232
 20
171.8824616974957
 30
0.0
 11
394.854546037232
 21
171.8824616974957
 31
0.0
  0
LINE
  5
16B9
330
18
100
AcDbEntity
  8
1
100
AcDbLine
 10
398.0794197713848
 20
172.7715489940217
 30
0.0
 11
398.2561964666815
 21
171.5341121269452
 31
0.0
  0
LINE
  5
16BA
330
18
100
AcDbEntity
  8
1
100
AcDbLine
 10
398.2561964666815
 20
171.5341121269452
 30
0.0
 11
399.3168566384613
 21
172.5947722987251
 31
0.0
  0
LINE
  5
16BB
330
18
100
AcDbEntity
  8
1
100
AcDbLine
 10
398.0794197713848
 20
172.7715489940217
 30
0.0
 11
399.3168566384613
 21
172.5947722987251
 31
0.0
  0
LINE
  5
16BC
330
18
100
AcDbEntity
  8
1
100
AcDbLine
 10
399.604546037232
 20
184.8824616974957
 30
0.0
 11
381.604546037232
 21
184.8824616974957
 31
0.0
  0
LINE
  5
16BD
330
18
100
AcDbEntity
  8
1
100
AcDbLine
 10
396.604546037232
 20
187.8824616974957
 30
0.0
 11
384.604546037232
 21
187.8824616974957
 31
0.0
  0
LINE
  5
16BE
330
18
100
AcDbEntity
  8
1
100
AcDbLine
 10
398.104546037232
 20
186.3824616974957
 30
0.0
 11
383.104546037232
 21
186.3824616974957
 31
0.0
  0
LINE
  5
16BF
330
18
100
AcDbEntity
  8
1
100
AcDbLine
 10
381.604546037232
 20
184.8824616974957
 30
0.0
 11
383.104546037232
 21
186.3824616974957
 31
0.0
  0
ARC
  5
16C0
102
{ACAD_REACTORS
330
16AC
102
}
330
18
100
AcDbEntity
  8
1
100
AcDbCircle
 10
378.604546037232
 20
191.8824616974957
 30
0.0
 40
1.5
100
AcDbArc
 50
180.0
 51
0.0
  0
ARC
  5
16C1
102
{ACAD_REACTORS
330
16AC
102
}
330
18
100
AcDbEntity
  8
1
100
AcDbCircle
 10
378.104546037232
 20
191.8824616974957
 30
0.0
 40
1.0
100
AcDbArc
 50
180.0
 51
0.0
  0
LINE
  5
16C2
330
18
100
AcDbEntity
  8
1
100
AcDbLine
 10
399.604546037232
 20
184.8824616974957
 30
0.0
 11
398.104546037232
 21
186.3824616974957
 31
0.0
  0
LINE
  5
16C3
330
18
100
AcDbEntity
  8
1
100
AcDbLine
 10
374.604546037232
 20
198.8824616974957
 30
0.0
 11
380.604546037232
 21
198.8824616974957
 31
0.0
  0
LINE
  5
16C4
330
18
100
AcDbEntity
  8
1
100
AcDbLine
 10
380.6545969678598
 20
213.8824620707609
 30
0.0
 11
374.6545969678598
 21
213.8824620707609
 31
0.0
  0
LINE
  5
16C5
330
18
100
AcDbEntity
  8
1
100
AcDbLine
 10
381.604546037232
 20
202.8824616974957
 30
0.0
 11
399.604546037232
 21
202.8824616974957
 31
0.0
  0
LINE
  5
16C6
330
18
100
AcDbEntity
  8
1
100
AcDbLine
 10
384.604546037232
 20
199.8824616974957
 30
0.0
 11
396.604546037232
 21
199.8824616974957
 31
0.0
  0
LINE
  5
16C7
330
18
100
AcDbEntity
  8
1
100
AcDbLine
 10
383.104546037232
 20
201.3824616974957
 30
0.0
 11
398.104546037232
 21
201.3824616974957
 31
0.0
  0
ARC
  5
16C8
102
{ACAD_REACTORS
330
16AC
102
}
330
18
100
AcDbEntity
  8
1
100
AcDbCircle
 10
378.604546037232
 20
195.8824616974957
 30
0.0
 40
1.5
100
AcDbArc
 50
0.0
 51
180.0
  0
ARC
  5
16C9
102
{ACAD_REACTORS
330
16AC
102
}
330
18
100
AcDbEntity
  8
1
100
AcDbCircle
 10
378.104546037232
 20
195.8824616974957
 30
0.0
 40
1.0
100
AcDbArc
 50
0.0
 51
180.0
  0
LINE
  5
16CA
330
18
100
AcDbEntity
  8
1
100
AcDbLine
 10
383.104546037232
 20
201.3824616974957
 30
0.0
 11
381.604546037232
 21
202.8824616974957
 31
0.0
  0
LINE
  5
16CB
330
18
100
AcDbEntity
  8
1
100
AcDbLine
 10
398.104546037232
 20
201.3824616974957
 30
0.0
 11
399.604546037232
 21
202.8824616974957
 31
0.0
  0
LINE
  5
16CC
330
18
100
AcDbEntity
  8
1
100
AcDbLine
 10
399.604546037232
 20
209.8824616974957
 30
0.0
 11
381.604546037232
 21
209.8824616974957
 31
0.0
  0
LINE
  5
16CD
330
18
100
AcDbEntity
  8
1
100
AcDbLine
 10
396.604546037232
 20
212.8824616974957
 30
0.0
 11
384.604546037232
 21
212.8824616974957
 31
0.0
  0
LINE
  5
16CE
330
18
100
AcDbEntity
  8
1
100
AcDbLine
 10
398.104546037232
 20
211.3824616974957
 30
0.0
 11
383.104546037232
 21
211.3824616974957
 31
0.0
  0
LINE
  5
16CF
330
18
100
AcDbEntity
  8
1
100
AcDbLine
 10
381.604546037232
 20
209.8824616974957
 30
0.0
 11
383.104546037232
 21
211.3824616974957
 31
0.0
  0
ARC
  5
16D0
102
{ACAD_REACTORS
330
1693
102
}
330
18
100
AcDbEntity
  8
1
100
AcDbCircle
 10
378.1545969678597
 20
216.8824620707609
 30
0.0
 40
1.0
100
AcDbArc
 50
180.0
 51
0.0
  0
ARC
  5
16D1
102
{ACAD_REACTORS
330
1693
102
}
330
18
100
AcDbEntity
  8
1
100
AcDbCircle
 10
378.6545969678598
 20
216.8824620707609
 30
0.0
 40
1.5
100
AcDbArc
 50
180.0
 51
0.0
  0
LINE
  5
16D2
330
18
100
AcDbEntity
  8
1
100
AcDbLine
 10
399.604546037232
 20
209.8824616974957
 30
0.0
 11
398.104546037232
 21
211.3824616974957
 31
0.0
  0
LINE
  5
16D3
330
18
100
AcDbEntity
  8
1
100
AcDbLine
 10
409.6045460372319
 20
203.8824616974957
 30
0.0
 11
409.6045460372319
 21
183.8824616974957
 31
0.0
  0
LINE
  5
16D4
102
{ACAD_REACTORS
330
16D6
102
}
330
18
100
AcDbEntity
  8
1
100
AcDbLine
 10
407.604546037232
 20
186.8824616974957
 30
0.0
 11
407.604546037232
 21
200.8824616974957
 31
0.0
  0
LINE
  5
16D5
102
{ACAD_REACTORS
330
16D6
102
}
330
18
100
AcDbEntity
  8
1
100
AcDbLine
 10
408.604546037232
 20
200.8824616974957
 30
0.0
 11
408.604546037232
 21
186.8824616974957
 31
0.0
  0
HATCH
  5
16D6
330
18
100
AcDbEntity
  8
1
100
AcDbHatch
 10
0.0
 20
0.0
 30
0.0
210
0.0
220
0.0
230
1.0
  2
SOLID
 70
     1
 71
     1
 91
        1
 92
        7
 72
     1
 73
     1
 93
        6
 10
408.604546037232
 20
200.8824616974957
 42
1.0
 10
405.6045460372319
 20
200.8824616974957
 42
-1.0
 10
407.604546037232
 20
200.8824616974957
 42
0.0
 10
407.604546037232
 20
186.8824616974957
 42
-1.0
 10
405.6045460372319
 20
186.8824616974957
 42
1.0
 10
408.604546037232
 20
186.8824616974957
 42
0.0
 97
        6
330
16E5
330
16D4
330
16DB
330
16DA
330
16D5
330
16E4
 75
     0
 76
     1
 47
0.0294924066520018
 98
        1
 10
408.104546037232
 20
193.9824616974957
  0
ARC
  5
16D7
330
18
100
AcDbEntity
  8
1
100
AcDbCircle
 10
416.104546037232
 20
182.8824616974957
 30
0.0
 40
2.0
100
AcDbArc
 50
0.0
 51
41.40962210927089
  0
LINE
  5
16D8
330
18
100
AcDbEntity
  8
1
100
AcDbLine
 10
418.1045460372319
 20
174.8824616974957
 30
0.0
 11
418.1045460372319
 21
182.8824616974957
 31
0.0
  0
ARC
  5
16D9
330
18
100
AcDbEntity
  8
1
100
AcDbCircle
 10
416.104546037232
 20
174.8824616974957
 30
0.0
 40
2.0
100
AcDbArc
 50
318.590377890729
 51
0.0
  0
ARC
  5
16DA
102
{ACAD_REACTORS
330
16D6
102
}
330
18
100
AcDbEntity
  8
1
100
AcDbCircle
 10
407.104546037232
 20
186.8824616974957
 30
0.0
 40
1.5
100
AcDbArc
 50
180.0
 51
0.0
  0
ARC
  5
16DB
102
{ACAD_REACTORS
330
16D6
102
}
330
18
100
AcDbEntity
  8
1
100
AcDbCircle
 10
406.604546037232
 20
186.8824616974957
 30
0.0
 40
1.0
100
AcDbArc
 50
180.0
 51
0.0
  0
LINE
  5
16DC
330
18
100
AcDbEntity
  8
1
100
AcDbLine
 10
417.604546037232
 20
186.8824616974957
 30
0.0
 11
417.604546037232
 21
190.8824616974957
 31
0.0
  0
LINE
  5
16DD
330
18
100
AcDbEntity
  8
1
100
AcDbLine
 10
415.604546037232
 20
185.8824616974957
 30
0.0
 11
415.604546037232
 21
191.8824616974957
 31
0.0
  0
ARC
  5
16DE
330
18
100
AcDbEntity
  8
1
100
AcDbCircle
 10
416.604546037232
 20
186.8824616974957
 30
0.0
 40
1.0
100
AcDbArc
 50
329.9999999999995
 51
0.0
  0
LINE
  5
16DF
330
18
100
AcDbEntity
  8
1
100
AcDbLine
 10
417.604546037232
 20
186.3824616974957
 30
0.0
 11
415.604546037232
 21
186.3824616974957
 31
0.0
  0
LINE
  5
16E0
330
18
100
AcDbEntity
  8
1
100
AcDbLine
 10
416.604546037232
 20
191.8824616974957
 30
0.0
 11
415.604546037232
 21
191.8824616974957
 31
0.0
  0
ARC
  5
16E1
330
18
100
AcDbEntity
  8
1
100
AcDbCircle
 10
416.604546037232
 20
190.8824616974957
 30
0.0
 40
1.0
100
AcDbArc
 50
0.0
 51
90.0
  0
LINE
  5
16E2
330
18
100
AcDbEntity
  8
1
100
AcDbLine
 10
415.6045460372318
 20
202.8824616974957
 30
0.0
 11
415.6045460372318
 21
214.8824616974957
 31
0.0
  0
LINE
  5
16E3
330
18
100
AcDbEntity
  8
1
100
AcDbLine
 10
418.1045460372319
 20
204.8824616974957
 30
0.0
 11
418.1045460372319
 21
212.8824616974957
 31
0.0
  0
ARC
  5
16E4
102
{ACAD_REACTORS
330
16D6
102
}
330
18
100
AcDbEntity
  8
1
100
AcDbCircle
 10
407.104546037232
 20
200.8824616974957
 30
0.0
 40
1.5
100
AcDbArc
 50
0.0
 51
180.0
  0
ARC
  5
16E5
102
{ACAD_REACTORS
330
16D6
102
}
330
18
100
AcDbEntity
  8
1
100
AcDbCircle
 10
406.604546037232
 20
200.8824616974957
 30
0.0
 40
1.0
100
AcDbArc
 50
0.0
 51
180.0
  0
ARC
  5
16E6
330
18
100
AcDbEntity
  8
1
100
AcDbCircle
 10
416.1045460372319
 20
204.8824616974957
 30
0.0
 40
2.0
100
AcDbArc
 50
270.0
 51
0.0
  0
LINE
  5
16E7
330
18
100
AcDbEntity
  8
1
100
AcDbLine
 10
415.6045460372318
 20
202.8824616974957
 30
0.0
 11
416.1045460372319
 21
202.8824616974957
 31
0.0
  0
ARC
  5
16E8
102
{ACAD_REACTORS
330
169B
102
}
330
18
100
AcDbEntity
  8
1
100
AcDbCircle
 10
407.104546037232
 20
211.8824616974957
 30
0.0
 40
1.5
100
AcDbArc
 50
180.0
 51
0.0
  0
ARC
  5
16E9
102
{ACAD_REACTORS
330
169B
102
}
330
18
100
AcDbEntity
  8
1
100
AcDbCircle
 10
406.604546037232
 20
211.8824616974957
 30
0.0
 40
1.0
100
AcDbArc
 50
180.0
 51
0.0
  0
LINE
  5
16EA
330
18
100
AcDbEntity
  8
1
100
AcDbLine
 10
415.6045460372318
 20
214.8824616974957
 30
0.0
 11
416.1045460372319
 21
214.8824616974957
 31
0.0
  0
ARC
  5
16EB
330
18
100
AcDbEntity
  8
1
100
AcDbCircle
 10
416.1045460372319
 20
212.8824616974957
 30
0.0
 40
2.0
100
AcDbArc
 50
0.0
 51
90.0
  0
ARC
  5
16EC
330
18
100
AcDbEntity
  8
1
100
AcDbCircle
 10
402.604546037232
 20
236.8824616974956
 30
0.0
 40
1.0
100
AcDbArc
 50
90.0
 51
180.0
  0
LINE
  5
16ED
330
18
100
AcDbEntity
  8
1
100
AcDbLine
 10
401.6045460372319
 20
235.8824616974956
 30
0.0
 11
407.604546037232
 21
235.8824616974956
 31
0.0
  0
LINE
  5
16EE
330
18
100
AcDbEntity
  8
1
100
AcDbLine
 10
401.6045460372319
 20
228.8824616974957
 30
0.0
 11
409.6045460372319
 21
228.8824616974957
 31
0.0
  0
LINE
  5
16EF
330
18
100
AcDbEntity
  8
1
100
AcDbLine
 10
356.604546037232
 20
235.8824616974957
 30
0.0
 11
414.6045460372319
 21
235.8824616974957
 31
0.0
  0
LINE
  5
16F0
330
18
100
AcDbEntity
  8
1
100
AcDbLine
 10
356.604546037232
 20
234.8824616974957
 30
0.0
 11
414.6045460372319
 21
234.8824616974957
 31
0.0
  0
LINE
  5
16F1
330
18
100
AcDbEntity
  8
1
100
AcDbLine
 10
356.4045460372319
 20
235.0824616974957
 30
0.0
 11
414.6045460372319
 21
235.0824616974957
 31
0.0
  0
LINE
  5
16F2
330
18
100
AcDbEntity
  8
1
100
AcDbLine
 10
362.604546037232
 20
231.8824616974957
 30
0.0
 11
408.604546037232
 21
231.8824616974957
 31
0.0
  0
LINE
  5
16F3
330
18
100
AcDbEntity
  8
1
100
AcDbLine
 10
362.604546037232
 20
230.8824616974957
 30
0.0
 11
408.604546037232
 21
230.8824616974957
 31
0.0
  0
LINE
  5
16F4
330
18
100
AcDbEntity
  8
1
100
AcDbLine
 10
374.6545969678598
 20
223.8824620707609
 30
0.0
 11
380.6545969678598
 21
223.8824620707609
 31
0.0
  0
ARC
  5
16F5
330
18
100
AcDbEntity
  8
1
100
AcDbCircle
 10
362.604546037232
 20
227.8824616974957
 30
0.0
 40
3.0
100
AcDbArc
 50
90.0
 51
180.0
  0
ARC
  5
16F6
330
18
100
AcDbEntity
  8
1
100
AcDbCircle
 10
362.604546037232
 20
227.8824616974957
 30
0.0
 40
4.0
100
AcDbArc
 50
90.0
 51
180.0
  0
ARC
  5
16F7
330
18
100
AcDbEntity
  8
1
100
AcDbCircle
 10
356.604546037232
 20
234.8824616974957
 30
0.0
 40
1.0
100
AcDbArc
 50
90.0
 51
180.0
  0
LINE
  5
16F8
330
18
100
AcDbEntity
  8
1
100
AcDbLine
 10
367.604546037232
 20
235.8824616974956
 30
0.0
 11
373.604546037232
 21
235.8824616974956
 31
0.0
  0
LINE
  5
16F9
330
18
100
AcDbEntity
  8
1
100
AcDbLine
 10
368.604546037232
 20
237.8824616974956
 30
0.0
 11
372.604546037232
 21
237.8824616974956
 31
0.0
  0
ARC
  5
16FA
330
18
100
AcDbEntity
  8
1
100
AcDbCircle
 10
368.604546037232
 20
236.8824616974956
 30
0.0
 40
1.0
100
AcDbArc
 50
90.0
 51
180.0
  0
LINE
  5
16FB
330
18
100
AcDbEntity
  8
1
100
AcDbLine
 10
367.604546037232
 20
236.8824616974956
 30
0.0
 11
367.604546037232
 21
235.8824616974956
 31
0.0
  0
ARC
  5
16FC
330
18
100
AcDbEntity
  8
1
100
AcDbCircle
 10
372.604546037232
 20
236.8824616974956
 30
0.0
 40
1.0
100
AcDbArc
 50
0.0
 51
90.0
  0
LINE
  5
16FD
330
18
100
AcDbEntity
  8
1
100
AcDbLine
 10
373.604546037232
 20
236.8824616974956
 30
0.0
 11
373.604546037232
 21
235.8824616974956
 31
0.0
  0
LINE
  5
16FE
330
18
100
AcDbEntity
  8
1
100
AcDbLine
 10
381.604546037232
 20
227.8824616974957
 30
0.0
 11
399.604546037232
 21
227.8824616974957
 31
0.0
  0
LINE
  5
16FF
330
18
100
AcDbEntity
  8
1
100
AcDbLine
 10
384.604546037232
 20
224.8824616974957
 30
0.0
 11
396.604546037232
 21
224.8824616974957
 31
0.0
  0
LINE
  5
1700
330
18
100
AcDbEntity
  8
1
100
AcDbLine
 10
383.104546037232
 20
226.3824616974957
 30
0.0
 11
398.104546037232
 21
226.3824616974957
 31
0.0
  0
ARC
  5
1701
102
{ACAD_REACTORS
330
1693
102
}
330
18
100
AcDbEntity
  8
1
100
AcDbCircle
 10
378.1545969678597
 20
220.8824620707609
 30
0.0
 40
1.0
100
AcDbArc
 50
0.0
 51
180.0
  0
ARC
  5
1702
102
{ACAD_REACTORS
330
1693
102
}
330
18
100
AcDbEntity
  8
1
100
AcDbCircle
 10
378.6545969678598
 20
220.8824620707609
 30
0.0
 40
1.5
100
AcDbArc
 50
0.0
 51
180.0
  0
LINE
  5
1703
330
18
100
AcDbEntity
  8
1
100
AcDbLine
 10
383.104546037232
 20
226.3824616974957
 30
0.0
 11
381.604546037232
 21
227.8824616974957
 31
0.0
  0
LINE
  5
1704
330
18
100
AcDbEntity
  8
1
100
AcDbLine
 10
398.104546037232
 20
226.3824616974957
 30
0.0
 11
399.604546037232
 21
227.8824616974957
 31
0.0
  0
LINE
  5
1705
330
18
100
AcDbEntity
  8
1
100
AcDbLine
 10
401.6045460372319
 20
236.8824616974956
 30
0.0
 11
401.6045460372319
 21
235.8824616974956
 31
0.0
  0
LINE
  5
1706
330
18
100
AcDbEntity
  8
1
100
AcDbLine
 10
415.604546037232
 20
225.8824616974957
 30
0.0
 11
415.6045460372321
 21
231.8824616974957
 31
0.0
  0
LINE
  5
1707
330
18
100
AcDbEntity
  8
1
100
AcDbLine
 10
417.604546037232
 20
226.8824616974957
 30
0.0
 11
417.604546037232
 21
230.8824616974957
 31
0.0
  0
ARC
  5
1708
330
18
100
AcDbEntity
  8
1
100
AcDbCircle
 10
408.604546037232
 20
227.8824616974957
 30
0.0
 40
3.0
100
AcDbArc
 50
0.0
 51
90.0
  0
ARC
  5
1709
330
18
100
AcDbEntity
  8
1
100
AcDbCircle
 10
408.604546037232
 20
227.8824616974957
 30
0.0
 40
4.0
100
AcDbArc
 50
0.0
 51
90.0
  0
ARC
  5
170A
102
{ACAD_REACTORS
330
169B
102
}
330
18
100
AcDbEntity
  8
1
100
AcDbCircle
 10
407.104546037232
 20
225.8824616974957
 30
0.0
 40
1.5
100
AcDbArc
 50
0.0
 51
180.0
  0
ARC
  5
170B
102
{ACAD_REACTORS
330
169B
102
}
330
18
100
AcDbEntity
  8
1
100
AcDbCircle
 10
406.604546037232
 20
225.8824616974957
 30
0.0
 40
1.0
100
AcDbArc
 50
0.0
 51
180.0
  0
ARC
  5
170C
330
18
100
AcDbEntity
  8
1
100
AcDbCircle
 10
416.6045460372321
 20
226.8824616974957
 30
0.0
 40
1.0
100
AcDbArc
 50
270.0
 51
0.0
  0
LINE
  5
170D
330
18
100
AcDbEntity
  8
1
100
AcDbLine
 10
416.604546037232
 20
225.8824616974957
 30
0.0
 11
415.604546037232
 21
225.8824616974957
 31
0.0
  0
ARC
  5
170E
330
18
100
AcDbEntity
  8
1
100
AcDbCircle
 10
414.6045460372319
 20
233.8824616974957
 30
0.0
 40
1.0
100
AcDbArc
 50
0.0
 51
90.0
  0
LINE
  5
170F
330
18
100
AcDbEntity
  8
1
100
AcDbLine
 10
414.6045460372319
 20
235.8824616974957
 30
0.0
 11
414.6045460372319
 21
235.0824616974957
 31
0.0
  0
ARC
  5
1710
330
18
100
AcDbEntity
  8
1
100
AcDbCircle
 10
408.604546037232
 20
236.8824616974956
 30
0.0
 40
1.0
100
AcDbArc
 50
90.0
 51
180.0
  0
LINE
  5
1711
330
18
100
AcDbEntity
  8
1
100
AcDbLine
 10
407.604546037232
 20
235.8824616974956
 30
0.0
 11
413.604546037232
 21
235.8824616974956
 31
0.0
  0
LINE
  5
1712
330
18
100
AcDbEntity
  8
1
100
AcDbLine
 10
407.604546037232
 20
236.8824616974956
 30
0.0
 11
407.604546037232
 21
235.8824616974956
 31
0.0
  0
ARC
  5
1713
330
18
100
AcDbEntity
  8
1
100
AcDbCircle
 10
406.604546037232
 20
236.8824616974956
 30
0.0
 40
1.0
100
AcDbArc
 50
0.0
 51
90.0
  0
LINE
  5
1714
330
18
100
AcDbEntity
  8
1
100
AcDbLine
 10
407.604546037232
 20
236.8824616974956
 30
0.0
 11
407.604546037232
 21
235.8824616974956
 31
0.0
  0
LINE
  5
1715
330
18
100
AcDbEntity
  8
1
100
AcDbLine
 10
402.604546037232
 20
237.8824616974956
 30
0.0
 11
406.604546037232
 21
237.8824616974956
 31
0.0
  0
ARC
  5
1716
330
18
100
AcDbEntity
  8
1
100
AcDbCircle
 10
412.604546037232
 20
236.8824616974956
 30
0.0
 40
1.0
100
AcDbArc
 50
0.0
 51
90.0
  0
LINE
  5
1717
330
18
100
AcDbEntity
  8
1
100
AcDbLine
 10
413.604546037232
 20
236.8824616974956
 30
0.0
 11
413.604546037232
 21
235.8824616974956
 31
0.0
  0
LINE
  5
1718
330
18
100
AcDbEntity
  8
1
100
AcDbLine
 10
408.604546037232
 20
237.8824616974956
 30
0.0
 11
412.604546037232
 21
237.8824616974956
 31
0.0
  0
ARC
  5
1719
330
18
100
AcDbEntity
  8
1
100
AcDbCircle
 10
416.6045460372321
 20
230.8824616974957
 30
0.0
 40
1.0
100
AcDbArc
 50
0.0
 51
90.0
  0
LINE
  5
171A
330
18
100
AcDbEntity
  8
1
100
AcDbLine
 10
416.6045460372321
 20
231.8824616974957
 30
0.0
 11
415.6045460372321
 21
231.8824616974957
 31
0.0
  0
TEXT
  5
1830
330
18
100
AcDbEntity
  8
2
100
AcDbText
 10
355.4794626066315
 20
90.98201143976689
 30
0.0
 40
3.2
  1
2-M3.5用丸端子
  7
ＭＳ明朝
100
AcDbText
  0
LINE
  5
1831
330
18
100
AcDbEntity
  8
2
100
AcDbLine
 10
387.7045460372319
 20
89.1824616974957
 30
0.0
 11
354.6367376398869
 21
89.1824616974957
 31
0.0
  0
TEXT
  5
1832
330
18
100
AcDbEntity
  8
2
100
AcDbText
 10
350.1558554316565
 20
81.80591662155974
 30
0.0
 40
3.2
  1
白･黒,AC100V
  7
ＭＳ明朝
100
AcDbText
  0
LINE
  5
1834
330
18
100
AcDbEntity
  8
2
100
AcDbLine
 10
377.8705384944304
 20
80.82088792186766
 30
0.0
 11
350.012721725773
 21
80.82088792186766
 31
0.0
  0
TEXT
  5
1835
330
18
100
AcDbEntity
  8
2
100
AcDbText
 10
333.0169446144792
 20
39.52683676161484
 30
0.0
 40
3.2
  1
緑/黄のスライス,アース線
  7
ＭＳ明朝
100
AcDbText
  0
LINE
  5
1836
330
18
100
AcDbEntity
  8
2
100
AcDbLine
 10
392.1784767676401
 20
38.43930846395238
 30
0.0
 11
331.9603037172129
 21
38.43930846395239
 31
0.0
  0
TEXT
  5
1841
330
18
100
AcDbEntity
  8
2
100
AcDbText
 10
329.7111034901228
 20
55.18750929884117
 30
0.0
 40
3.2
  1
VCTF,0.75m㎡×3芯
  7
ＭＳ明朝
100
AcDbText
  0
LINE
  5
1842
330
18
100
AcDbEntity
  8
2
100
AcDbLine
 10
329.5481841873628
 20
53.82760455463855
 30
0.0
 11
371.1198851413183
 21
53.82760455463855
 31
0.0
  0
TEXT
  5
1843
330
18
100
AcDbEntity
  8
2
100
AcDbText
 10
329.5265326497475
 20
49.07089692947579
 30
0.0
 40
3.2
  1
長さ約３ｍ
  7
ＭＳ明朝
100
AcDbText
  0
CIRCLE
  5
19D4
330
18
100
AcDbEntity
  8
1
100
AcDbCircle
 10
315.5045460372319
 20
-41.1175383025043
 30
0.0
 40
2.25
  0
LINE
  5
19D5
330
18
100
AcDbEntity
  8
2
  6
4-中心線
100
AcDbLine
 10
66.50454603723199
 20
-79.11753830250427
 30
0.0
 11
66.50454603723199
 21
-98.11753830250427
 31
0.0
  0
LINE
  5
19D8
330
18
100
AcDbEntity
  8
2
  6
4-中心線
100
AcDbLine
 10
83.50454603723198
 20
-86.11753830250426
 30
0.0
 11
55.50454603723199
 21
-86.11753830250425
 31
0.0
  0
ARC
  5
19DA
330
18
100
AcDbEntity
  8
1
100
AcDbCircle
 10
66.50454603723199
 20
-86.11753830250426
 30
0.0
 40
2.25
100
AcDbArc
 50
90.0
 51
270.0
  0
LINE
  5
19E8
330
18
100
AcDbEntity
  8
1
100
AcDbLine
 10
55.50454603723199
 20
15.88246169749572
 30
0.0
 11
55.50454603723199
 21
-98.11753830250424
 31
0.0
  0
LINE
  5
19E9
330
18
100
AcDbEntity
  8
1
100
AcDbLine
 10
320.5045460372319
 20
-33.6175383025043
 30
0.0
 11
320.5045460372319
 21
-48.61753830250427
 31
0.0
  0
LINE
  5
19EA
330
18
100
AcDbEntity
  8
1
100
AcDbLine
 10
320.5045460372319
 20
-33.6175383025043
 30
0.0
 11
300.5045460372319
 21
-33.6175383025043
 31
0.0
  0
LINE
  5
19EB
330
18
100
AcDbEntity
  8
1
100
AcDbLine
 10
320.5045460372319
 20
-48.61753830250427
 30
0.0
 11
300.5045460372319
 21
-48.61753830250427
 31
0.0
  0
LINE
  5
19EC
330
18
100
AcDbEntity
  8
1
100
AcDbLine
 10
300.5045460372319
 20
15.88246169749569
 30
0.0
 11
300.5045460372319
 21
-33.6175383025043
 31
0.0
  0
LINE
  5
19EE
330
18
100
AcDbEntity
  8
1
100
AcDbLine
 10
300.5045460372319
 20
15.88246169749572
 30
0.0
 11
55.50454603723199
 21
15.88246169749572
 31
0.0
  0
LINE
  5
19EF
330
18
100
AcDbEntity
  8
1
100
AcDbLine
 10
300.5045460372319
 20
-98.11753830250427
 30
0.0
 11
55.50454603723199
 21
-98.11753830250424
 31
0.0
  0
LINE
  5
19F0
330
18
100
AcDbEntity
  8
1
100
AcDbLine
 10
300.5045460372319
 20
-48.61753830250427
 30
0.0
 11
300.5045460372319
 21
-98.11753830250427
 31
0.0
  0
DIMENSION
  5
19F1
330
18
100
AcDbEntity
  8
2
100
AcDbDimension
  2
*D6
 10
48.50454603723197
 20
-86.11753830250425
 30
0.0
 11
46.75454603723199
 21
-41.11753830250424
 31
0.0
 70
    32
 71
     5
 42
89.99999999999998
  3
STANDARD
100
AcDbAlignedDimension
 13
55.50454603723199
 23
3.882461697495728
 33
0.0
 14
55.50454603723199
 24
-86.11753830250425
 34
0.0
 50
90.0
100
AcDbRotatedDimension
1001
ACAD
1000
DSTYLE
1002
{
1070
    40
1040
1.0
1002
}
  0
ARC
  5
1A09
330
18
100
AcDbEntity
  8
1
100
AcDbCircle
 10
73.50454603723199
 20
-86.11753830250426
 30
0.0
 40
4.0
100
AcDbArc
 50
214.2288663278125
 51
145.7711336721874
  0
LINE
  5
1A0A
330
18
100
AcDbEntity
  8
1
100
AcDbLine
 10
66.50454603723199
 20
-83.86753830250427
 30
0.0
 11
70.19735689840124
 21
-83.86753830250427
 31
0.0
  0
LINE
  5
1A0B
330
18
100
AcDbEntity
  8
1
100
AcDbLine
 10
66.50454603723199
 20
-88.36753830250428
 30
0.0
 11
70.19735689840124
 21
-88.36753830250428
 31
0.0
  0
ARC
  5
1A1F
330
18
100
AcDbEntity
  8
1
100
AcDbCircle
 10
73.50454603723199
 20
3.882461697495699
 30
0.0
 40
4.0
100
AcDbArc
 50
214.2288663278125
 51
145.7711336721874
  0
LINE
  5
1A20
330
18
100
AcDbEntity
  8
1
100
AcDbLine
 10
66.50454603723199
 20
1.632461697495699
 30
0.0
 11
70.19735689840124
 21
1.632461697495699
 31
0.0
  0
LINE
  5
1A21
330
18
100
AcDbEntity
  8
1
100
AcDbLine
 10
66.50454603723199
 20
6.132461697495699
 30
0.0
 11
70.19735689840124
 21
6.132461697495699
 31
0.0
  0
ARC
  5
1A22
330
18
100
AcDbEntity
  8
1
100
AcDbCircle
 10
66.50454603723199
 20
3.882461697495699
 30
0.0
 40
2.25
100
AcDbArc
 50
90.0
 51
270.0
  0
LINE
  5
1A25
330
18
100
AcDbEntity
  8
2
  6
4-中心線
100
AcDbLine
 10
315.5045460372319
 20
-48.6175383025043
 30
0.0
 11
315.5045460372319
 21
-33.6175383025043
 31
0.0
  0
DIMENSION
  5
1A27
330
18
100
AcDbEntity
  8
2
100
AcDbDimension
  2
*D7
 10
66.50454603723199
 20
-108.1175383025042
 30
0.0
 11
61.00454603723199
 21
-106.3675383025042
 31
0.0
 70
    32
 71
     5
 42
11.0
  3
STANDARD
100
AcDbAlignedDimension
 13
55.50454603723199
 23
-98.11753830250424
 33
0.0
 14
66.50454603723199
 24
-98.11753830250427
 34
0.0
100
AcDbRotatedDimension
1001
ACAD
1000
DSTYLE
1002
{
1070
    40
1040
1.0
1002
}
  0
LINE
  5
1A63
330
18
100
AcDbEntity
  8
2
  6
4-中心線
100
AcDbLine
 10
73.50454603723199
 20
-79.11753830250427
 30
0.0
 11
73.50454603723199
 21
-93.11753830250427
 31
0.0
  0
LINE
  5
1A73
330
18
100
AcDbEntity
  8
2
  6
4-中心線
100
AcDbLine
 10
83.50454603723198
 20
3.882461697495756
 30
0.0
 11
55.50454603723199
 21
3.882461697495728
 31
0.0
  0
LINE
  5
1A74
330
18
100
AcDbEntity
  8
2
  6
4-中心線
100
AcDbLine
 10
66.50454603723199
 20
-3.117538302504271
 30
0.0
 11
66.50454603723201
 21
10.88246169749572
 31
0.0
  0
LINE
  5
1A75
330
18
100
AcDbEntity
  8
2
  6
4-中心線
100
AcDbLine
 10
73.50454603723199
 20
-3.117538302504271
 30
0.0
 11
73.50454603723199
 21
10.88246169749572
 31
0.0
  0
DIMENSION
  5
1A76
330
18
100
AcDbEntity
  8
2
100
AcDbDimension
  2
*D8
 10
73.50454603723199
 20
-10.70544749830924
 30
0.0
 11
70.00454603723198
 21
-8.95544749830924
 31
0.0
 70
    32
 71
     5
 42
7.0
  3
STANDARD
100
AcDbAlignedDimension
 13
66.50454603723199
 23
-3.117538302504271
 33
0.0
 14
73.50454603723199
 24
-3.117538302504271
 34
0.0
100
AcDbRotatedDimension
1001
ACAD
1000
DSTYLE
1002
{
1070
    40
1040
1.0
1002
}
  0
DIMENSION
  5
1A84
330
18
100
AcDbEntity
  8
2
100
AcDbDimension
  2
*D9
 10
66.50454603723199
 20
-108.1175383025042
 30
0.0
 11
191.0045460372319
 21
-106.3675383025042
 31
0.0
 70
    32
 71
     5
 42
248.9999999999999
  3
STANDARD
100
AcDbAlignedDimension
 13
315.5045460372319
 23
-48.6175383025043
 33
0.0
 14
66.50454603723199
 24
-98.11753830250427
 34
0.0
100
AcDbRotatedDimension
1001
ACAD
1000
DSTYLE
1002
{
1070
    40
1040
1.0
1002
}
  0
LINE
  5
1ABE
330
18
100
AcDbEntity
  8
2
  6
4-中心線
100
AcDbLine
 10
-21.99545396276801
 20
-41.11753830250427
 30
0.0
 11
44.50454603723199
 21
-41.1175383025043
 31
0.0
  0
LINE
  5
1AC3
330
18
100
AcDbEntity
  8
2
  6
4-中心線
100
AcDbLine
 10
49.504546037232
 20
-41.1175383025043
 30
0.0
 11
378.004546037232
 21
-41.11753830250427
 31
0.0
  0
TEXT
  5
1AF0
330
18
100
AcDbEntity
  8
2
100
AcDbText
 10
56.53311746577777
 20
23.6669929513699
 30
0.0
 40
3.0
  1
取付寸法図
  7
ＭＳ明朝
 72
     1
 11
67.50454603720635
 21
23.6669929513699
 31
0.0
100
AcDbText
  0
LINE
  5
1AF1
330
18
100
AcDbEntity
  8
2
370
    30
100
AcDbLine
 10
55.50454603723199
 20
22.66703216675745
 30
0.0
 11
79.19391867150716
 21
22.66695373598233
 31
0.0
  0
DIMENSION
  5
1B5A
330
18
100
AcDbEntity
  8
2
100
AcDbDimension
  2
*D10
 10
73.50454603723196
 20
3.882461697495735
 30
0.0
 11
84.18965531005596
 21
-4.477136634497021
 31
0.0
 70
    36
 71
     5
 42
4.000000000000042
  3
STANDARD$4
100
AcDbRadialDimension
 15
76.65494680563219
 25
1.41771526054454
 35
0.0
 40
0.0
1001
ACAD
1000
DSTYLE
1002
{
1070
    40
1040
1.0
1070
   288
1070
     1
1002
}
  0
DIMENSION
  5
1B63
330
18
100
AcDbEntity
  8
2
100
AcDbDimension
  2
*D11
 10
66.50454603723187
 20
3.882461697495706
 30
0.0
 11
46.42757053769461
 21
13.18538002950786
 31
0.0
 70
   164
 71
     5
 42
2.2499999999999
  3
STANDARD$4
100
AcDbRadialDimension
 15
64.46305660201357
 25
4.828411424432381
 35
0.0
 40
0.0
1001
ACAD
1000
DSTYLE
1002
{
1070
    40
1040
1.0
1070
   288
1070
     1
1002
}
  0
DIMENSION
  5
1B96
330
18
100
AcDbEntity
  8
2
100
AcDbDimension
  2
*D13
 10
313.8396808720908
 20
-42.63105208899605
 30
0.0
 11
325.7659004405278
 21
-28.43200568420434
 31
0.0
 70
    35
  1
<>穴
 71
     5
 42
4.499999999999886
  3
STANDARD$3
100
AcDbDiametricDimension
 15
317.1694112023725
 25
-39.60402451601268
 35
0.0
 40
0.0
1001
ACAD
1000
DSTYLE
1002
{
1070
   340
1005
4B4
1070
    40
1040
1.0
1070
   288
1070
     1
1002
}
  0
VIEWPORT
  5
699
330
692
100
AcDbEntity
 67
     1
  8
0
100
AcDbViewport
 10
142.4986347259969
 20
99.00077671910931
 30
0.0
 40
311.3917251087822
 41
199.5895547398193
 68
     1
 69
     1
 12
142.4986347259969
 22
99.00077671910931
 13
0.0
 23
0.0
 14
1.0
 24
1.0
 15
10.0
 25
10.0
 16
0.0
 26
0.0
 36
1.0
 17
0.0
 27
0.0
 37
0.0
 42
50.0
 43
0.0
 44
0.0
 45
199.5895547398193
 50
0.0
 51
0.0
 72
   100
 90
    33056
  1

281
     0
 71
     1
 74
     0
110
0.0
120
0.0
130
0.0
111
1.0
121
0.0
131
0.0
112
0.0
122
1.0
132
0.0
 79
     0
146
0.0
  0
VIEWPORT
  5
69B
330
692
100
AcDbEntity
 67
     1
  8
X ﾋﾞｭｰ
100
AcDbViewport
 10
142.5
 20
99.0
 30
0.0
 40
285.0
 41
198.0
 68
     2
 69
     2
 12
221.8122847849283
 22
65.64199881348713
 13
0.0
 23
0.0
 14
1.0
 24
1.0
 15
10.0
 25
10.0
 16
0.0
 26
0.0
 36
1.0
 17
0.0
 27
0.0
 37
0.0
 42
50.0
 43
0.0
 44
0.0
 45
375.001466898324
 50
0.0
 51
0.0
 72
   100
 90
    33056
  1

281
     0
 71
     1
 74
     0
110
0.0
120
0.0
130
0.0
111
1.0
121
0.0
131
0.0
112
0.0
122
1.0
132
0.0
 79
     0
146
0.0
  0
ENDSEC
  0
SECTION
  2
OBJECTS
  0
DICTIONARY
  5
C
330
0
100
AcDbDictionary
281
     1
  3
ACAD_GROUP
350
D
  3
ACAD_LAYOUT
350
5E1
  3
ACAD_MLINESTYLE
350
1B
  3
ACAD_PLOTSETTINGS
350
5E2
  3
ACAD_PLOTSTYLENAME
350
5DF
  3
AcadDim
350
662
  3
CONTENTDICTIONARY
350
20
  0
DICTIONARY
  5
1AB7
330
2
100
AcDbDictionary
280
     1
281
     1
  3
ACAD_LAYERSTATES
360
1AB8
  0
DICTIONARY
  5
D
102
{ACAD_REACTORS
330
C
102
}
330
C
100
AcDbDictionary
281
     1
  0
DICTIONARY
  5
5E1
102
{ACAD_REACTORS
330
C
102
}
330
C
100
AcDbDictionary
281
     1
  3
Model
350
5E3
  3
ﾚｲｱｳﾄ1
350
693
  0
DICTIONARY
  5
1B
102
{ACAD_REACTORS
330
C
102
}
330
C
100
AcDbDictionary
281
     1
  3
STANDARD
350
1C
  0
DICTIONARY
  5
5E2
102
{ACAD_REACTORS
330
C
102
}
330
C
100
AcDbDictionary
281
     1
  0
ACDBDICTIONARYWDFLT
  5
5DF
102
{ACAD_REACTORS
330
C
102
}
330
C
100
AcDbDictionary
281
     1
  3
Normal
350
5E0
100
AcDbDictionaryWithDefault
340
5E0
  0
XRECORD
  5
662
102
{ACAD_REACTORS
330
C
102
}
330
C
100
AcDbXrecord
280
     1
 90
   990106
  3

 60
     0
 61
     0
 62
     4
 63
     4
 64
     1
 65
     0
 66
     0
 67
     3
 68
     1
 69
     0
 70
     0
 71
     0
 72
     0
 40
0.0
170
     2
340
0
  0
DICTIONARY
  5
20
102
{ACAD_REACTORS
330
C
102
}
330
C
100
AcDbDictionary
281
     1
1001
CONTENTTABDATA
1070
     6
1000
ビス.dwg
1000
C:\Program Files\AutoCAD LT 97\SYMBOLS\ビス.dwg
1070
     0
1070
     0
1070
     1
1000
ｺﾈｸﾀ.dwg
1000
C:\Program Files\AutoCAD LT 97\SYMBOLS\ｺﾈｸﾀ.dwg
1070
     0
1070
     0
1070
     1
1000
表示器.dwg
1000
C:\Program Files\AutoCAD LT 97\SYMBOLS\表示器.dwg
1070
     0
1070
     0
1070
     1
1000
ﾄﾗﾝｽ.dwg
1000
C:\Program Files\AutoCAD LT 97\SYMBOLS\ﾄﾗﾝｽ.dwg
1070
     0
1070
     0
1070
     1
1000
ﾘﾚｰ.dwg
1000
C:\Program Files\AutoCAD LT 97\SYMBOLS\ﾘﾚｰ.dwg
1070
     0
1070
     0
1070
     1
1000
汎用.dwg
1000
C:\Program Files\AutoCAD LT 97\SYMBOLS\汎用.dwg
1070
     0
1070
     0
1070
     1
1001
CONTENTCURRENTTAB
1070
     2
  0
DICTIONARY
  5
1AB8
102
{ACAD_REACTORS
330
1AB7
102
}
330
1AB7
100
AcDbDictionary
281
     1
  0
LAYOUT
  5
5E3
102
{ACAD_REACTORS
330
5E1
102
}
330
5E1
100
AcDbPlotSettings
  1

  2
RICOH imagio MP C3000 RPCS.pc3
  4
A3
  6

 40
5.873749732971191
 41
5.873747825622558
 42
5.873748779296875
 43
5.873748779296875
 44
419.9466552734374
 45
296.9259948730469
 46
0.0
 47
0.0
 48
0.0
 49
0.0
140
0.0
141
0.0
142
1.0
143
1.286122978510651
 70
 11952
 72
     1
 73
     0
 74
     0
  7
monochrome.ctb
 75
     0
147
0.7775306224277355
148
0.0
149
0.0
100
AcDbLayout
  1
Model
 70
     1
 71
     0
 10
0.0
 20
0.0
 11
12.0
 21
9.0
 12
0.0
 22
0.0
 32
0.0
 14
0.0
 24
0.0
 34
0.0
 15
0.0
 25
0.0
 35
0.0
146
0.0
 13
0.0
 23
0.0
 33
0.0
 16
1.0
 26
0.0
 36
0.0
 17
0.0
 27
1.0
 37
0.0
 76
     0
330
18
  0
LAYOUT
  5
693
102
{ACAD_REACTORS
330
5E1
102
}
330
5E1
100
AcDbPlotSettings
  1

  2
RICOH imagio MP C3000 RPCS
  4
A4
  6

 40
5.873749732971191
 41
5.873747825622558
 42
5.873748779296875
 43
5.873748779296875
 44
209.9733276367187
 45
296.9259948730469
 46
0.0
 47
0.0
 48
0.0
 49
0.0
140
0.0
141
0.0
142
1.0
143
1.0
 70
   688
 72
     1
 73
     1
 74
     5
  7
monochrome.ctb
 75
    16
147
1.0
148
0.0
149
0.0
100
AcDbLayout
  1
ﾚｲｱｳﾄ1
 70
     1
 71
     1
 10
-5.873748779296875
 20
-5.873749732971191
 11
291.05224609375
 21
204.0995779037475
 12
0.0
 22
0.0
 32
0.0
 14
-0.015512739179826
 24
-0.0009295723639866
 34
-0.0015258207003583
 15
285.0127821911737
 25
198.0024830105826
 35
0.0000000349246037
146
0.0
 13
0.0
 23
0.0
 33
0.0
 16
1.0
 26
0.0
 36
0.0
 17
0.0
 27
1.0
 37
0.0
 76
     0
330
692
331
699
  0
MLINESTYLE
  5
1C
102
{ACAD_REACTORS
330
1B
102
}
330
1B
100
AcDbMlineStyle
  2
STANDARD
 70
     0
  3

 62
   256
 51
90.0
 52
90.0
 71
     2
 49
0.5
 62
   256
  6
BYLAYER
 49
-0.5
 62
   256
  6
BYLAYER
  0
ACDBPLACEHOLDER
  5
5E0
102
{ACAD_REACTORS
330
5DF
102
}
330
5DF
  0
ENDSEC
  0
EOF
